  0
SECTION
  2
HEADER
  9
$ACADVER
  1
AC1015
  9
$ACADMAINTVER
 70
     6
  9
$DWGCODEPAGE
  3
DOS932
  9
$INSBASE
 10
0.0
 20
0.0
 30
0.0
  9
$EXTMIN
 10
-311.370746455297
 20
30.5655454877698
 30
0.0
  9
$EXTMAX
 10
8.053933121272
 20
202.963461759477
 30
0.0
  9
$LIMMIN
 10
0.0
 20
0.0
  9
$LIMMAX
 10
12.0
 20
9.0
  9
$ORTHOMODE
 70
     0
  9
$REGENMODE
 70
     1
  9
$FILLMODE
 70
     1
  9
$QTEXTMODE
 70
     0
  9
$MIRRTEXT
 70
     1
  9
$LTSCALE
 40
1.0
  9
$ATTMODE
 70
     1
  9
$TEXTSIZE
 40
0.2
  9
$TRACEWID
 40
0.05
  9
$TEXTSTYLE
  7
Standard
  9
$CLAYER
  8
0
  9
$CELTYPE
  6
ByLayer
  9
$CECOLOR
 62
   256
  9
$CELTSCALE
 40
1.0
  9
$DISPSILH
 70
     0
  9
$DIMSCALE
 40
1.0
  9
$DIMASZ
 40
0.18
  9
$DIMEXO
 40
0.0625
  9
$DIMDLI
 40
0.38
  9
$DIMRND
 40
0.0
  9
$DIMDLE
 40
0.0
  9
$DIMEXE
 40
0.18
  9
$DIMTP
 40
0.0
  9
$DIMTM
 40
0.0
  9
$DIMTXT
 40
0.18
  9
$DIMCEN
 40
0.09
  9
$DIMTSZ
 40
0.0
  9
$DIMTOL
 70
     0
  9
$DIMLIM
 70
     0
  9
$DIMTIH
 70
     1
  9
$DIMTOH
 70
     1
  9
$DIMSE1
 70
     0
  9
$DIMSE2
 70
     0
  9
$DIMTAD
 70
     0
  9
$DIMZIN
 70
     0
  9
$DIMBLK
  1

  9
$DIMASO
 70
     1
  9
$DIMSHO
 70
     1
  9
$DIMPOST
  1

  9
$DIMAPOST
  1

  9
$DIMALT
 70
     0
  9
$DIMALTD
 70
     2
  9
$DIMALTF
 40
25.4
  9
$DIMLFAC
 40
1.0
  9
$DIMTOFL
 70
     0
  9
$DIMTVP
 40
0.0
  9
$DIMTIX
 70
     0
  9
$DIMSOXD
 70
     0
  9
$DIMSAH
 70
     0
  9
$DIMBLK1
  1

  9
$DIMBLK2
  1

  9
$DIMSTYLE
  2
Standard
  9
$DIMCLRD
 70
     0
  9
$DIMCLRE
 70
     0
  9
$DIMCLRT
 70
     0
  9
$DIMTFAC
 40
1.0
  9
$DIMGAP
 40
0.09
  9
$DIMJUST
 70
     0
  9
$DIMSD1
 70
     0
  9
$DIMSD2
 70
     0
  9
$DIMTOLJ
 70
     1
  9
$DIMTZIN
 70
     0
  9
$DIMALTZ
 70
     0
  9
$DIMALTTZ
 70
     0
  9
$DIMUPT
 70
     0
  9
$DIMDEC
 70
     4
  9
$DIMTDEC
 70
     4
  9
$DIMALTU
 70
     2
  9
$DIMALTTD
 70
     2
  9
$DIMTXSTY
  7
Standard
  9
$DIMAUNIT
 70
     0
  9
$DIMADEC
 70
     0
  9
$DIMALTRND
 40
0.0
  9
$DIMAZIN
 70
     0
  9
$DIMDSEP
 70
    46
  9
$DIMATFIT
 70
     3
  9
$DIMFRAC
 70
     0
  9
$DIMLDRBLK
  1

  9
$DIMLUNIT
 70
     2
  9
$DIMLWD
 70
    -2
  9
$DIMLWE
 70
    -2
  9
$DIMTMOVE
 70
     0
  9
$LUNITS
 70
     2
  9
$LUPREC
 70
     4
  9
$SKETCHINC
 40
0.1
  9
$FILLETRAD
 40
0.5
  9
$AUNITS
 70
     0
  9
$AUPREC
 70
     0
  9
$MENU
  1
.
  9
$ELEVATION
 40
0.0
  9
$PELEVATION
 40
0.0
  9
$THICKNESS
 40
0.0
  9
$LIMCHECK
 70
     0
  9
$CHAMFERA
 40
0.5
  9
$CHAMFERB
 40
0.5
  9
$CHAMFERC
 40
1.0
  9
$CHAMFERD
 40
0.0
  9
$SKPOLY
 70
     0
  9
$TDCREATE
 40
2454823.567798565
  9
$TDUCREATE
 40
2454823.192798565
  9
$TDUPDATE
 40
2454823.567798576
  9
$TDUUPDATE
 40
2454823.192798576
  9
$TDINDWG
 40
0.0000000116
  9
$TDUSRTIMER
 40
0.0000000116
  9
$USRTIMER
 70
     1
  9
$ANGBASE
 50
0.0
  9
$ANGDIR
 70
     0
  9
$PDMODE
 70
     0
  9
$PDSIZE
 40
0.0
  9
$PLINEWID
 40
0.0
  9
$SPLFRAME
 70
     0
  9
$SPLINETYPE
 70
     6
  9
$SPLINESEGS
 70
     8
  9
$HANDSEED
  5
3CD
  9
$SURFTAB1
 70
     6
  9
$SURFTAB2
 70
     6
  9
$SURFTYPE
 70
     6
  9
$SURFU
 70
     6
  9
$SURFV
 70
     6
  9
$UCSBASE
  2

  9
$UCSNAME
  2

  9
$UCSORG
 10
0.0
 20
0.0
 30
0.0
  9
$UCSXDIR
 10
1.0
 20
0.0
 30
0.0
  9
$UCSYDIR
 10
0.0
 20
1.0
 30
0.0
  9
$UCSORTHOREF
  2

  9
$UCSORTHOVIEW
 70
     0
  9
$UCSORGTOP
 10
0.0
 20
0.0
 30
0.0
  9
$UCSORGBOTTOM
 10
0.0
 20
0.0
 30
0.0
  9
$UCSORGLEFT
 10
0.0
 20
0.0
 30
0.0
  9
$UCSORGRIGHT
 10
0.0
 20
0.0
 30
0.0
  9
$UCSORGFRONT
 10
0.0
 20
0.0
 30
0.0
  9
$UCSORGBACK
 10
0.0
 20
0.0
 30
0.0
  9
$PUCSBASE
  2

  9
$PUCSNAME
  2

  9
$PUCSORG
 10
0.0
 20
0.0
 30
0.0
  9
$PUCSXDIR
 10
1.0
 20
0.0
 30
0.0
  9
$PUCSYDIR
 10
0.0
 20
1.0
 30
0.0
  9
$PUCSORTHOREF
  2

  9
$PUCSORTHOVIEW
 70
     0
  9
$PUCSORGTOP
 10
0.0
 20
0.0
 30
0.0
  9
$PUCSORGBOTTOM
 10
0.0
 20
0.0
 30
0.0
  9
$PUCSORGLEFT
 10
0.0
 20
0.0
 30
0.0
  9
$PUCSORGRIGHT
 10
0.0
 20
0.0
 30
0.0
  9
$PUCSORGFRONT
 10
0.0
 20
0.0
 30
0.0
  9
$PUCSORGBACK
 10
0.0
 20
0.0
 30
0.0
  9
$USERI1
 70
     0
  9
$USERI2
 70
     0
  9
$USERI3
 70
     0
  9
$USERI4
 70
     0
  9
$USERI5
 70
     0
  9
$USERR1
 40
14.5
  9
$USERR2
 40
0.0
  9
$USERR3
 40
0.0
  9
$USERR4
 40
0.0
  9
$USERR5
 40
0.0
  9
$WORLDVIEW
 70
     1
  9
$SHADEDGE
 70
     3
  9
$SHADEDIF
 70
    70
  9
$TILEMODE
 70
     1
  9
$MAXACTVP
 70
    64
  9
$PINSBASE
 10
0.0
 20
0.0
 30
0.0
  9
$PLIMCHECK
 70
     0
  9
$PEXTMIN
 10
1.00000000000000E+20
 20
1.00000000000000E+20
 30
1.00000000000000E+20
  9
$PEXTMAX
 10
-1.00000000000000E+20
 20
-1.00000000000000E+20
 30
-1.00000000000000E+20
  9
$PLIMMIN
 10
0.0
 20
0.0
  9
$PLIMMAX
 10
12.0
 20
9.0
  9
$UNITMODE
 70
     0
  9
$VISRETAIN
 70
     1
  9
$PLINEGEN
 70
     0
  9
$PSLTSCALE
 70
     1
  9
$TREEDEPTH
 70
  3020
  9
$CMLSTYLE
  2
Standard
  9
$CMLJUST
 70
     0
  9
$CMLSCALE
 40
1.0
  9
$PROXYGRAPHICS
 70
     1
  9
$MEASUREMENT
 70
     1
  9
$CELWEIGHT
370
    -1
  9
$ENDCAPS
280
     0
  9
$JOINSTYLE
280
     0
  9
$LWDISPLAY
290
     0
  9
$INSUNITS
 70
     1
  9
$HYPERLINKBASE
  1

  9
$STYLESHEET
  1

  9
$XEDIT
290
     1
  9
$CEPSNTYPE
380
     0
  9
$PSTYLEMODE
290
     1
  9
$FINGERPRINTGUID
  2
{36DD8ABB-9B2D-49CF-917C-88D5AFC9E12F}
  9
$VERSIONGUID
  2
{FAEB1C32-E019-11D5-929B-00C0DF256EC4}
  9
$EXTNAMES
290
     1
  9
$PSVPSCALE
 40
0.0
  9
$OLESTARTUP
290
     0
  0
ENDSEC
  0
SECTION
  2
CLASSES
  0
CLASS
  1
ACDBDICTIONARYWDFLT
  2
AcDbDictionaryWithDefault
  3
ObjectDBX Classes
 90
        0
280
     0
281
     0
  0
CLASS
  1

  2
exOdDbCircle
  3

 90
        0
280
     0
281
     1
  0
CLASS
  1

  2
exOdDbSpline
  3

 90
        0
280
     0
281
     1
  0
CLASS
  1

  2
exOdDbPolyline
  3

 90
        0
280
     0
281
     1
  0
CLASS
  1
ACDBPLACEHOLDER
  2
AcDbPlaceHolder
  3
ObjectDBX Classes
 90
        0
280
     0
281
     0
  0
CLASS
  1
LAYOUT
  2
AcDbLayout
  3
ObjectDBX Classes
 90
        0
280
     0
281
     0
  0
ENDSEC
  0
SECTION
  2
TABLES
  0
TABLE
  2
VPORT
  5
8
330
0
100
AcDbSymbolTable
 70
     1
  0
VPORT
  5
29
330
8
100
AcDbSymbolTableRecord
100
AcDbViewportTableRecord
  2
*Active
 70
     0
 10
0.0
 20
0.0
 11
1.0
 21
1.0
 12
-151.6584066670125
 22
116.7645036236234
 13
0.0
 23
0.0
 14
0.5
 24
0.5
 15
0.5
 25
0.5
 16
0.0
 26
0.0
 36
1.0
 17
0.0
 27
0.0
 37
0.0
 40
219.2374402441968
 41
1.60267857142857
 42
50.0
 43
0.0
 44
0.0
 50
0.0
 51
0.0
 71
     0
 72
   100
 73
     1
 74
     3
 75
     0
 76
     0
 77
     0
 78
     0
281
     0
 65
     1
110
0.0
120
0.0
130
0.0
111
1.0
121
0.0
131
0.0
112
0.0
122
1.0
132
0.0
 79
     0
146
0.0
  0
ENDTAB
  0
TABLE
  2
LTYPE
  5
5
330
0
100
AcDbSymbolTable
 70
     8
  0
LTYPE
  5
14
330
5
100
AcDbSymbolTableRecord
100
AcDbLinetypeTableRecord
  2
ByBlock
 70
     0
  3

 72
    65
 73
     0
 40
0.0
  0
LTYPE
  5
15
330
5
100
AcDbSymbolTableRecord
100
AcDbLinetypeTableRecord
  2
ByLayer
 70
     0
  3

 72
    65
 73
     0
 40
0.0
  0
LTYPE
  5
16
330
5
100
AcDbSymbolTableRecord
100
AcDbLinetypeTableRecord
  2
Continuous
 70
     0
  3
Solid line
 72
    65
 73
     0
 40
0.0
  0
LTYPE
  5
2A
330
5
100
AcDbSymbolTableRecord
100
AcDbLinetypeTableRecord
  2
DASHED
 70
     0
  3
Dashed
 72
    65
 73
     2
 40
15.0
 49
7.0
 74
     0
 49
-8.0
 74
     0
  0
LTYPE
  5
2B
330
5
100
AcDbSymbolTableRecord
100
AcDbLinetypeTableRecord
  2
DOTTED
 70
     0
  3
Dotted
 72
    65
 73
     2
 40
1.0
 49
0.0
 74
     0
 49
-1.0
 74
     0
  0
LTYPE
  5
2C
330
5
100
AcDbSymbolTableRecord
100
AcDbLinetypeTableRecord
  2
DOT_CENTER
 70
     0
  3
Dot_Center
 72
    65
 73
     4
 40
14.0
 49
12.0
 74
     0
 49
-1.0
 74
     0
 49
0.0
 74
     0
 49
-1.0
 74
     0
  0
LTYPE
  5
2D
330
5
100
AcDbSymbolTableRecord
100
AcDbLinetypeTableRecord
  2
LONG_DASHED
 70
     0
  3
Long_Dashed
 72
    65
 73
     2
 40
15.0
 49
10.0
 74
     0
 49
-5.0
 74
     0
  0
LTYPE
  5
2E
330
5
100
AcDbSymbolTableRecord
100
AcDbLinetypeTableRecord
  2
DASH_CENTER
 70
     0
  3
Dash_Center
 72
    65
 73
     4
 40
14.0
 49
11.0
 74
     0
 49
-1.0
 74
     0
 49
1.0
 74
     0
 49
-1.0
 74
     0
  0
LTYPE
  5
2F
330
5
100
AcDbSymbolTableRecord
100
AcDbLinetypeTableRecord
  2
PHANTOM
 70
     0
  3
Phantom
 72
    65
 73
     6
 40
13.0
 49
10.0
 74
     0
 49
-1.0
 74
     0
 49
0.0
 74
     0
 49
-1.0
 74
     0
 49
0.0
 74
     0
 49
-1.0
 74
     0
  0
LTYPE
  5
30
330
5
100
AcDbSymbolTableRecord
100
AcDbLinetypeTableRecord
  2
CENTER_DASH_DASH
 70
     0
  3
Center_Dash_Dash
 72
    65
 73
     6
 40
14.0
 49
9.0
 74
     0
 49
-1.0
 74
     0
 49
1.0
 74
     0
 49
-1.0
 74
     0
 49
1.0
 74
     0
 49
-1.0
 74
     0
  0
ENDTAB
  0
TABLE
  2
LAYER
  5
2
330
0
100
AcDbSymbolTable
 70
     2
  0
LAYER
  5
10
330
2
100
AcDbSymbolTableRecord
100
AcDbLayerTableRecord
  2
0
 70
     0
 62
     7
  6
Continuous
370
    -3
390
F
  0
LAYER
  5
31
330
2
100
AcDbSymbolTableRecord
100
AcDbLayerTableRecord
  2
1
 70
     0
 62
     7
  6
Continuous
370
    -3
390
F
  0
ENDTAB
  0
TABLE
  2
STYLE
  5
3
330
0
100
AcDbSymbolTable
 70
     4
  0
STYLE
  5
11
330
3
100
AcDbSymbolTableRecord
100
AcDbTextStyleTableRecord
  2
Standard
 70
     0
 40
0.0
 41
1.0
 50
0.0
 71
     0
 42
0.2
  3
txt
  4

  0
STYLE
  5
33F
330
3
100
AcDbSymbolTableRecord
100
AcDbTextStyleTableRecord
  2
CONVERTER_11
 70
     0
 40
0.0
 41
0.95
 50
0.0
 71
     0
 42
0.2
  3
txt.shx
  4

  0
STYLE
  5
368
330
3
100
AcDbSymbolTableRecord
100
AcDbTextStyleTableRecord
  2
CONVERTER_12
 70
     0
 40
0.0
 41
0.76
 50
0.0
 71
     0
 42
0.2
  3
txt.shx
  4

  0
STYLE
  5
374
330
3
100
AcDbSymbolTableRecord
100
AcDbTextStyleTableRecord
  2
CONVERTER_13
 70
     0
 40
0.0
 41
0.89
 50
0.0
 71
     0
 42
0.2
  3
msmincho.ttc
  4

1001
ACAD
1000
MS Mincho
1071
    32785
  0
ENDTAB
  0
TABLE
  2
VIEW
  5
6
330
0
100
AcDbSymbolTable
 70
     0
  0
ENDTAB
  0
TABLE
  2
UCS
  5
7
330
0
100
AcDbSymbolTable
 70
     0
  0
ENDTAB
  0
TABLE
  2
APPID
  5
9
330
0
100
AcDbSymbolTable
 70
     1
  0
APPID
  5
12
330
9
100
AcDbSymbolTableRecord
100
AcDbRegAppTableRecord
  2
ACAD
 70
     0
  0
ENDTAB
  0
TABLE
  2
DIMSTYLE
  5
A
330
0
100
AcDbSymbolTable
 70
    13
100
AcDbDimStyleTable
  0
DIMSTYLE
105
27
330
A
100
AcDbSymbolTableRecord
100
AcDbDimStyleTableRecord
  2
Standard
 70
     0
340
11
  0
DIMSTYLE
105
343
102
{ACAD_REACTORS
330
344
102
}
330
A
100
AcDbSymbolTableRecord
100
AcDbDimStyleTableRecord
  2
ME10_DIM_10
 70
     0
  3
MIN.
 41
3.5
 42
1.0
 44
1.5
 73
     0
 74
     0
 77
     1
 78
     8
140
3.5
147
2.0
172
     1
173
     1
176
     2
177
     2
178
     3
340
33F
  0
DIMSTYLE
105
355
102
{ACAD_REACTORS
330
356
102
}
330
A
100
AcDbSymbolTableRecord
100
AcDbDimStyleTableRecord
  2
ME10_DIM_11
 70
     0
 41
3.5
 42
1.0
 44
1.5
 73
     0
 74
     0
 77
     1
 78
     8
140
3.5
147
2.0
172
     1
173
     1
176
     2
177
     2
178
     2
340
33F
343
350
  0
DIMSTYLE
105
360
102
{ACAD_REACTORS
330
361
102
}
330
A
100
AcDbSymbolTableRecord
100
AcDbDimStyleTableRecord
  2
ME10_DIM_12
 70
     0
 41
3.5
 42
1.0
 44
1.5
 47
1.5
 48
1.5
 71
     1
 73
     0
 74
     0
 77
     1
 78
     8
140
3.5
146
0.7
147
2.0
172
     1
173
     1
176
     2
177
     2
178
     3
272
     1
340
33F
  0
DIMSTYLE
105
36C
102
{ACAD_REACTORS
330
36D
102
}
330
A
100
AcDbSymbolTableRecord
100
AcDbDimStyleTableRecord
  2
ME10_DIM_13
 70
     0
 41
3.5
 42
1.0
 44
1.5
 47
0.5
 48
0.5
 71
     1
 73
     0
 74
     0
 77
     1
 78
     8
140
3.5
146
0.7
147
2.0
172
     1
173
     1
176
     2
177
     2
178
     2
272
     1
340
368
  0
DIMSTYLE
105
378
102
{ACAD_REACTORS
330
379
102
}
330
A
100
AcDbSymbolTableRecord
100
AcDbDimStyleTableRecord
  2
ME10_DIM_14
 70
     0
  3
□<>
 41
3.5
 42
1.0
 44
1.5
 47
0.13
 48
0.13
 71
     1
 73
     0
 74
     0
 77
     1
 78
     8
140
3.5
146
0.7
147
2.0
172
     1
173
     1
176
     2
177
     2
178
     2
272
     2
340
374
  0
DIMSTYLE
105
383
102
{ACAD_REACTORS
330
384
102
}
330
A
100
AcDbSymbolTableRecord
100
AcDbDimStyleTableRecord
  2
ME10_DIM_15
 70
     0
  3
□<>
 41
3.5
 42
1.0
 44
1.5
 47
0.5
 48
0.5
 71
     1
 73
     0
 74
     0
 77
     1
 78
     8
140
3.5
146
0.7
147
2.0
172
     1
173
     1
176
     2
177
     2
178
     2
272
     1
340
374
  0
DIMSTYLE
105
38E
102
{ACAD_REACTORS
330
38F
102
}
330
A
100
AcDbSymbolTableRecord
100
AcDbDimStyleTableRecord
  2
ME10_DIM_16
 70
     0
 41
3.5
 42
1.0
 44
1.5
 73
     0
 74
     0
 77
     1
 78
     8
140
3.5
147
2.0
172
     1
173
     1
176
     2
177
     2
178
     2
340
33F
  0
DIMSTYLE
105
39B
102
{ACAD_REACTORS
330
39C
102
}
330
A
100
AcDbSymbolTableRecord
100
AcDbDimStyleTableRecord
  2
ME10_DIM_17
 70
     0
  3
MAX.
 41
3.5
 42
1.0
 44
1.5
 73
     0
 74
     0
 77
     1
 78
     8
140
3.5
147
2.0
172
     1
173
     1
176
     2
177
     2
178
     2
340
33F
  0
DIMSTYLE
105
3A8
102
{ACAD_REACTORS
330
3A9
102
}
330
A
100
AcDbSymbolTableRecord
100
AcDbDimStyleTableRecord
  2
ME10_DIM_18
 70
     0
  3
φ<>
 41
3.5
 42
1.0
 44
1.5
 48
0.013
 71
     1
 73
     0
 74
     0
 77
     1
 78
     8
140
3.5
146
0.7
147
2.0
172
     1
173
     1
176
     2
177
     2
178
     2
272
     0
340
374
  0
DIMSTYLE
105
3B3
102
{ACAD_REACTORS
330
3B4
102
}
330
A
100
AcDbSymbolTableRecord
100
AcDbDimStyleTableRecord
  2
ME10_DIM_19
 70
     0
  3
φ<>
 41
3.5
 42
1.0
 44
1.5
 73
     0
 74
     0
 77
     1
 78
     8
140
3.5
147
2.0
172
     1
173
     1
176
     2
177
     2
178
     2
340
374
  0
DIMSTYLE
105
3C0
102
{ACAD_REACTORS
330
3C1
102
}
330
A
100
AcDbSymbolTableRecord
100
AcDbDimStyleTableRecord
  2
ME10_DIM_20
 70
     0
 41
1.75
 42
1.0
 44
1.5
 73
     0
 74
     0
 77
     1
 78
     8
140
3.5
147
2.0
172
     1
173
     1
176
     2
177
     2
178
     2
340
33F
344
350
  0
DIMSTYLE
105
3CB
102
{ACAD_REACTORS
330
3CC
102
}
330
A
100
AcDbSymbolTableRecord
100
AcDbDimStyleTableRecord
  2
ME10_DIM_21
 70
     0
  3
φ<>
 41
3.5
 42
1.0
 44
1.5
 47
0.05
 48
0.05
 71
     1
 73
     0
 74
     0
 77
     1
 78
     8
140
3.5
146
0.7
147
2.0
172
     1
173
     1
176
     2
177
     2
178
     2
272
     2
340
374
  0
ENDTAB
  0
TABLE
  2
BLOCK_RECORD
  5
1
330
0
100
AcDbSymbolTable
 70
    14
  0
BLOCK_RECORD
  5
1F
330
1
100
AcDbSymbolTableRecord
100
AcDbBlockTableRecord
  2
*Model_Space
340
22
  0
BLOCK_RECORD
  5
1B
330
1
100
AcDbSymbolTableRecord
100
AcDbBlockTableRecord
  2
*Paper_Space
340
1E
  0
BLOCK_RECORD
  5
23
330
1
100
AcDbSymbolTableRecord
100
AcDbBlockTableRecord
  2
*Paper_Space0
340
26
  0
BLOCK_RECORD
  5
339
330
1
100
AcDbSymbolTableRecord
100
AcDbBlockTableRecord
  2
*D1
340
0
  0
BLOCK_RECORD
  5
345
330
1
100
AcDbSymbolTableRecord
100
AcDbBlockTableRecord
  2
*D2
340
0
  0
BLOCK_RECORD
  5
350
330
1
100
AcDbSymbolTableRecord
100
AcDbBlockTableRecord
  2
_Dot
340
0
  0
BLOCK_RECORD
  5
357
330
1
100
AcDbSymbolTableRecord
100
AcDbBlockTableRecord
  2
*D4
340
0
  0
BLOCK_RECORD
  5
362
330
1
100
AcDbSymbolTableRecord
100
AcDbBlockTableRecord
  2
*D5
340
0
  0
BLOCK_RECORD
  5
36E
330
1
100
AcDbSymbolTableRecord
100
AcDbBlockTableRecord
  2
*D6
340
0
  0
BLOCK_RECORD
  5
37A
330
1
100
AcDbSymbolTableRecord
100
AcDbBlockTableRecord
  2
*D7
340
0
  0
BLOCK_RECORD
  5
385
330
1
100
AcDbSymbolTableRecord
100
AcDbBlockTableRecord
  2
*D8
340
0
  0
BLOCK_RECORD
  5
390
330
1
100
AcDbSymbolTableRecord
100
AcDbBlockTableRecord
  2
*D9
340
0
  0
BLOCK_RECORD
  5
39D
330
1
100
AcDbSymbolTableRecord
100
AcDbBlockTableRecord
  2
*D10
340
0
  0
BLOCK_RECORD
  5
3AA
330
1
100
AcDbSymbolTableRecord
100
AcDbBlockTableRecord
  2
*D11
340
0
  0
BLOCK_RECORD
  5
3B5
330
1
100
AcDbSymbolTableRecord
100
AcDbBlockTableRecord
  2
*D12
340
0
  0
BLOCK_RECORD
  5
3C2
330
1
100
AcDbSymbolTableRecord
100
AcDbBlockTableRecord
  2
*D13
340
0
  0
ENDTAB
  0
ENDSEC
  0
SECTION
  2
BLOCKS
  0
BLOCK
  5
20
330
1F
100
AcDbEntity
  8
0
100
AcDbBlockBegin
  2
*Model_Space
 70
     0
 71
     0
 10
0.0
 20
0.0
 30
0.0
  3
*Model_Space
  1

  0
ENDBLK
  5
21
330
1F
100
AcDbEntity
  8
0
100
AcDbBlockEnd
  0
BLOCK
  5
1C
330
1B
100
AcDbEntity
 67
     1
  8
0
100
AcDbBlockBegin
  2
*Paper_Space
 70
     0
 71
     0
 10
0.0
 20
0.0
 30
0.0
  3
*Paper_Space
  1

  0
ENDBLK
  5
1D
330
1B
100
AcDbEntity
 67
     1
  8
0
100
AcDbBlockEnd
  0
BLOCK
  5
24
330
23
100
AcDbEntity
  8
0
100
AcDbBlockBegin
  2
*Paper_Space0
 70
     0
 71
     0
 10
0.0
 20
0.0
 30
0.0
  3
*Paper_Space0
  1

  0
ENDBLK
  5
25
330
23
100
AcDbEntity
  8
0
100
AcDbBlockEnd
  0
BLOCK
  5
341
330
339
100
AcDbEntity
  8
0
100
AcDbBlockBegin
  2
*D1
 70
     1
 71
     0
 10
0.0
 20
0.0
 30
0.0
  3
*D1
  1

  0
LINE
  5
33A
330
339
100
AcDbEntity
  8
1
  6
Continuous
 62
     2
100
AcDbLine
 10
-93.35648053319827
 20
136.363461759477
 30
0.0
 11
-93.35648053319827
 21
195.963461759477
 31
0.0
  0
LINE
  5
33B
330
339
100
AcDbEntity
  8
1
  6
Continuous
 62
     2
100
AcDbLine
 10
-118.223776467207
 20
136.363461759477
 30
0.0
 11
-91.85648053319827
 21
136.363461759477
 31
0.0
  0
LINE
  5
33C
330
339
100
AcDbEntity
  8
1
  6
Continuous
 62
     2
100
AcDbLine
 10
-121.023776467207
 20
195.963461759477
 30
0.0
 11
-91.85648053319827
 21
195.963461759477
 31
0.0
  0
SOLID
  5
33D
330
339
100
AcDbEntity
  8
1
 62
     2
100
AcDbTrace
 10
-93.81726427475415
 20
139.863461759477
 30
0.0
 11
-92.89569679164238
 21
139.863461759477
 31
0.0
 12
-93.35648053319827
 22
136.363461759477
 32
0.0
 13
-93.35648053319827
 23
136.363461759477
 33
0.0
  0
SOLID
  5
33E
330
339
100
AcDbEntity
  8
1
 62
     2
100
AcDbTrace
 10
-92.89569679164238
 20
192.463461759477
 30
0.0
 11
-93.81726427475415
 21
192.463461759477
 31
0.0
 12
-93.35648053319827
 22
195.963461759477
 32
0.0
 13
-93.35648053319827
 23
195.963461759477
 33
0.0
  0
MTEXT
  5
340
330
339
100
AcDbEntity
  8
1
 62
     3
100
AcDbMText
 10
-95.35648053319827
 20
156.6414029359476
 30
0.0
 40
3.5
 41
0.0
 71
     7
 72
     1
  1
\C3;305\C2;MIN.
  7
CONVERTER_11
 11
0.0
 21
1.0
 31
0.0
 73
     1
 44
0.60024009603842
  0
ENDBLK
  5
342
330
339
100
AcDbEntity
  8
0
100
AcDbBlockEnd
  0
BLOCK
  5
34E
330
345
100
AcDbEntity
  8
0
100
AcDbBlockBegin
  2
*D2
 70
     1
 71
     0
 10
0.0
 20
0.0
 30
0.0
  3
*D2
  1

  0
LINE
  5
346
330
345
100
AcDbEntity
  8
1
  6
Continuous
 62
     2
100
AcDbLine
 10
-156.843776467207
 20
64.8787957900704
 30
0.0
 11
-167.6892235596298
 21
64.8787957900704
 31
0.0
  0
LINE
  5
347
330
345
100
AcDbEntity
  8
1
  6
Continuous
 62
     2
100
AcDbLine
 10
-156.843776467207
 20
64.8787957900704
 30
0.0
 11
-155.323776467207
 21
64.8787957900704
 31
0.0
  0
LINE
  5
348
330
345
100
AcDbEntity
  8
1
  6
Continuous
 62
     2
100
AcDbLine
 10
-155.323776467207
 20
78.963461759477
 30
0.0
 11
-155.323776467207
 21
63.3787957900704
 31
0.0
  0
LINE
  5
349
330
345
100
AcDbEntity
  8
1
  6
Continuous
 62
     2
100
AcDbLine
 10
-156.843776467207
 20
88.113461759477
 30
0.0
 11
-156.843776467207
 21
63.3787957900704
 31
0.0
  0
SOLID
  5
34A
330
345
100
AcDbEntity
  8
1
 62
     2
100
AcDbTrace
 10
-160.343776467207
 20
64.41801204851451
 30
0.0
 11
-160.343776467207
 21
65.33957953162628
 31
0.0
 12
-156.843776467207
 22
64.8787957900704
 32
0.0
 13
-156.843776467207
 23
64.8787957900704
 33
0.0
  0
CIRCLE
  5
34B
102
{ACAD_REACTORS
330
34C
102
}
330
345
100
AcDbEntity
  8
1
 62
     2
100
AcDbCircle
 10
-155.323776467207
 20
64.8787957900704
 30
0.0
 40
0.875
  0
HATCH
  5
34C
330
345
100
AcDbEntity
  8
1
 62
     2
100
AcDbHatch
 10
0.0
 20
0.0
 30
0.0
210
0.0
220
0.0
230
1.0
  2
SOLID
 70
     1
 71
     1
 91
        1
 92
        1
 93
        1
 72
     2
 10
-155.323776467207
 20
64.8787957900704
 40
0.875
 50
0.0
 51
360.0
 73
     1
 97
        1
330
34B
 75
     0
 76
     1
 98
        0
  0
MTEXT
  5
34D
330
345
100
AcDbEntity
  8
1
 62
     2
100
AcDbMText
 10
-167.6892235596298
 20
66.8787957900704
 30
0.0
 40
3.5
 41
0.0
 71
     7
 72
     1
  1
1.52
  7
CONVERTER_11
 11
0.9999999999970621
 21
2.424068405545307E-6
 31
0.0
 73
     1
 44
0.60024009603842
  0
ENDBLK
  5
34F
330
345
100
AcDbEntity
  8
0
100
AcDbBlockEnd
  0
BLOCK
  5
351
330
350
100
AcDbEntity
  8
0
100
AcDbBlockBegin
  2
_Dot
 70
     0
 71
     0
 10
0.0
 20
0.0
 30
0.0
  3
_Dot
  1

  0
LWPOLYLINE
  5
353
330
350
100
AcDbEntity
  8
0
  6
ByBlock
 62
     0
100
AcDbPolyline
 90
        2
 70
     1
 43
0.5
 10
-0.25
 20
0.0
 42
1.0
 10
0.25
 20
0.0
 42
1.0
  0
LINE
  5
354
330
350
100
AcDbEntity
  8
0
  6
ByBlock
 62
     0
370
    -2
100
AcDbLine
 10
-0.5
 20
0.0
 30
0.0
 11
-1.0
 21
0.0
 31
0.0
  0
ENDBLK
  5
352
330
350
100
AcDbEntity
  8
0
100
AcDbBlockEnd
  0
BLOCK
  5
35E
330
357
100
AcDbEntity
  8
0
100
AcDbBlockBegin
  2
*D4
 70
     1
 71
     0
 10
0.0
 20
0.0
 30
0.0
  3
*D4
  1

  0
LINE
  5
358
330
357
100
AcDbEntity
  8
1
  6
Continuous
 62
     2
100
AcDbLine
 10
-155.323776467207
 20
49.8696012752994
 30
0.0
 11
-117.223776467207
 21
49.8696012752994
 31
0.0
  0
LINE
  5
359
330
357
100
AcDbEntity
  8
1
  6
Continuous
 62
     2
100
AcDbLine
 10
-155.323776467207
 20
78.963461759477
 30
0.0
 11
-155.323776467207
 21
48.3696012752994
 31
0.0
  0
LINE
  5
35A
330
357
100
AcDbEntity
  8
1
  6
Continuous
 62
     2
100
AcDbLine
 10
-117.223776467207
 20
80.963461759477
 30
0.0
 11
-117.223776467207
 21
48.3696012752994
 31
0.0
  0
SOLID
  5
35B
330
357
100
AcDbEntity
  8
1
 62
     2
100
AcDbTrace
 10
-151.823776467207
 20
50.33038501685529
 30
0.0
 11
-151.823776467207
 21
49.40881753374352
 31
0.0
 12
-155.323776467207
 22
49.8696012752994
 32
0.0
 13
-155.323776467207
 23
49.8696012752994
 33
0.0
  0
SOLID
  5
35C
330
357
100
AcDbEntity
  8
1
 62
     2
100
AcDbTrace
 10
-120.723776467207
 20
49.40881753374352
 30
0.0
 11
-120.723776467207
 21
50.33038501685529
 31
0.0
 12
-117.223776467207
 22
49.8696012752994
 32
0.0
 13
-117.223776467207
 23
49.8696012752994
 33
0.0
  0
MTEXT
  5
35D
330
357
100
AcDbEntity
  8
1
 62
     3
100
AcDbMText
 10
-145.2245117613246
 20
51.8696012752994
 30
0.0
 40
3.5
 41
0.0
 71
     7
 72
     1
  1
\C3;38.1\C3;\H2.45;{\Fgdt;`}1.5
  7
CONVERTER_11
 11
0.9999999999970621
 21
2.424068405545307E-6
 31
0.0
 73
     1
 44
0.60024009603842
  0
ENDBLK
  5
35F
330
357
100
AcDbEntity
  8
0
100
AcDbBlockEnd
  0
BLOCK
  5
36A
330
362
100
AcDbEntity
  8
0
100
AcDbBlockBegin
  2
*D5
 70
     1
 71
     0
 10
0.0
 20
0.0
 30
0.0
  3
*D5
  1

  0
LINE
  5
363
330
362
100
AcDbEntity
  8
1
  6
Continuous
 62
     2
100
AcDbLine
 10
-175.893776467207
 20
49.7411771182159
 30
0.0
 11
-155.323776467207
 21
49.7411771182159
 31
0.0
  0
LINE
  5
364
330
362
100
AcDbEntity
  8
1
  6
Continuous
 62
     2
100
AcDbLine
 10
-155.323776467207
 20
78.963461759477
 30
0.0
 11
-155.323776467207
 21
48.2411771182159
 31
0.0
  0
LINE
  5
365
330
362
100
AcDbEntity
  8
1
  6
Continuous
 62
     2
100
AcDbLine
 10
-175.893776467207
 20
104.688461759477
 30
0.0
 11
-175.893776467207
 21
48.2411771182159
 31
0.0
  0
SOLID
  5
366
330
362
100
AcDbEntity
  8
1
 62
     2
100
AcDbTrace
 10
-172.393776467207
 20
50.20196085977179
 30
0.0
 11
-172.393776467207
 21
49.28039337666002
 31
0.0
 12
-175.893776467207
 22
49.7411771182159
 32
0.0
 13
-175.893776467207
 23
49.7411771182159
 33
0.0
  0
SOLID
  5
367
330
362
100
AcDbEntity
  8
1
 62
     2
100
AcDbTrace
 10
-158.823776467207
 20
49.28039337666002
 30
0.0
 11
-158.823776467207
 21
50.20196085977179
 31
0.0
 12
-155.323776467207
 22
49.7411771182159
 32
0.0
 13
-155.323776467207
 23
49.7411771182159
 33
0.0
  0
MTEXT
  5
369
330
362
100
AcDbEntity
  8
1
 62
     2
100
AcDbMText
 10
-174.3427176436776
 20
51.7411771182159
 30
0.0
 40
3.5
 41
0.0
 71
     7
 72
     1
  1
\C2;20.57\C2;\H2.45;{\Fgdt;`}0.5
  7
CONVERTER_12
 11
0.9999999999970621
 21
2.424068405545307E-6
 31
0.0
 73
     1
 44
0.60024009603842
  0
ENDBLK
  5
36B
330
362
100
AcDbEntity
  8
0
100
AcDbBlockEnd
  0
BLOCK
  5
376
330
36E
100
AcDbEntity
  8
0
100
AcDbBlockBegin
  2
*D6
 70
     1
 71
     0
 10
0.0
 20
0.0
 30
0.0
  3
*D6
  1

  0
LINE
  5
36F
330
36E
100
AcDbEntity
  8
1
  6
Continuous
 62
     2
100
AcDbLine
 10
-303.57
 20
59.8467032100681
 30
0.0
 11
-256.43
 21
59.8467032100681
 31
0.0
  0
LINE
  5
370
330
36E
100
AcDbEntity
  8
1
  6
Continuous
 62
     2
100
AcDbLine
 10
-256.43
 20
79.59346175947702
 30
0.0
 11
-256.43
 21
58.3467032100681
 31
0.0
  0
LINE
  5
371
330
36E
100
AcDbEntity
  8
1
  6
Continuous
 62
     2
100
AcDbLine
 10
-303.57
 20
79.59346175947702
 30
0.0
 11
-303.57
 21
58.3467032100681
 31
0.0
  0
SOLID
  5
372
330
36E
100
AcDbEntity
  8
1
 62
     2
100
AcDbTrace
 10
-300.07
 20
60.30748695162399
 30
0.0
 11
-300.07
 21
59.38591946851221
 31
0.0
 12
-303.57
 22
59.8467032100681
 32
0.0
 13
-303.57
 23
59.8467032100681
 33
0.0
  0
SOLID
  5
373
330
36E
100
AcDbEntity
  8
1
 62
     2
100
AcDbTrace
 10
-259.93
 20
59.38591946851221
 30
0.0
 11
-259.93
 21
60.30748695162399
 31
0.0
 12
-256.43
 22
59.8467032100681
 32
0.0
 13
-256.43
 23
59.8467032100681
 33
0.0
  0
MTEXT
  5
375
330
36E
100
AcDbEntity
  8
1
 62
     2
100
AcDbMText
 10
-294.8127777777609
 20
61.84668929591545
 30
0.0
 40
3.5
 41
0.0
 71
     7
 72
     1
  1
\C2;□\C2;\C2;47.14\C2;\H2.45;{\Fgdt;`}0.13
  7
CONVERTER_13
 11
0.9999999999970621
 21
2.424068405545307E-6
 31
0.0
 73
     1
 44
0.60024009603842
  0
ENDBLK
  5
377
330
36E
100
AcDbEntity
  8
0
100
AcDbBlockEnd
  0
BLOCK
  5
381
330
37A
100
AcDbEntity
  8
0
100
AcDbBlockBegin
  2
*D7
 70
     1
 71
     0
 10
0.0
 20
0.0
 30
0.0
  3
*D7
  1

  0
LINE
  5
37B
330
37A
100
AcDbEntity
  8
1
  6
Continuous
 62
     2
100
AcDbLine
 10
-308.2
 20
49.9750780456778
 30
0.0
 11
-251.8
 21
49.9750780456778
 31
0.0
  0
LINE
  5
37C
330
37A
100
AcDbEntity
  8
1
  6
Continuous
 62
     2
100
AcDbLine
 10
-251.8
 20
81.32119986157029
 30
0.0
 11
-251.8
 21
48.4750780456778
 31
0.0
  0
LINE
  5
37D
330
37A
100
AcDbEntity
  8
1
  6
Continuous
 62
     2
100
AcDbLine
 10
-308.2
 20
81.32119986157029
 30
0.0
 11
-308.2
 21
48.4750780456778
 31
0.0
  0
SOLID
  5
37E
330
37A
100
AcDbEntity
  8
1
 62
     2
100
AcDbTrace
 10
-304.7
 20
50.43586178723368
 30
0.0
 11
-304.7
 21
49.51429430412191
 31
0.0
 12
-308.2
 22
49.9750780456778
 32
0.0
 13
-308.2
 23
49.9750780456778
 33
0.0
  0
SOLID
  5
37F
330
37A
100
AcDbEntity
  8
1
 62
     2
100
AcDbTrace
 10
-255.3
 20
49.51429430412191
 30
0.0
 11
-255.3
 21
50.43586178723368
 31
0.0
 12
-251.8
 22
49.9750780456778
 32
0.0
 13
-251.8
 23
49.9750780456778
 33
0.0
  0
MTEXT
  5
380
330
37A
100
AcDbEntity
  8
1
 62
     2
100
AcDbMText
 10
-293.170866013055
 20
51.97506413152515
 30
0.0
 40
3.5
 41
0.0
 71
     7
 72
     1
  1
\C2;□\C2;\C2;56.4\C2;\H2.45;{\Fgdt;`}0.5
  7
CONVERTER_13
 11
0.9999999999970621
 21
2.424068405545307E-6
 31
0.0
 73
     1
 44
0.60024009603842
  0
ENDBLK
  5
382
330
37A
100
AcDbEntity
  8
0
100
AcDbBlockEnd
  0
BLOCK
  5
38C
330
385
100
AcDbEntity
  8
0
100
AcDbBlockBegin
  2
*D8
 70
     1
 71
     0
 10
0.0
 20
0.0
 30
0.0
  3
*D8
  1

  0
LINE
  5
386
330
385
100
AcDbEntity
  8
1
  6
Continuous
 62
     2
100
AcDbLine
 10
-279.9999999999999
 20
69.9815717121755
 30
0.0
 11
-256.4299999999999
 21
69.9815717121755
 31
0.0
  0
LINE
  5
387
330
385
100
AcDbEntity
  8
1
  6
Continuous
 62
     2
100
AcDbLine
 10
-256.4299999999999
 20
79.59346175947702
 30
0.0
 11
-256.4299999999999
 21
68.4815717121755
 31
0.0
  0
LINE
  5
388
330
385
100
AcDbEntity
  8
1
  6
Continuous
 62
     2
100
AcDbLine
 10
-279.9999999999999
 20
74.2494702200777
 30
0.0
 11
-279.9999999999999
 21
68.4815717121755
 31
0.0
  0
SOLID
  5
389
330
385
100
AcDbEntity
  8
1
 62
     2
100
AcDbTrace
 10
-276.4999999999999
 20
70.44235545373138
 30
0.0
 11
-276.4999999999999
 21
69.52078797061961
 31
0.0
 12
-279.9999999999999
 22
69.9815717121755
 32
0.0
 13
-279.9999999999999
 23
69.9815717121755
 33
0.0
  0
SOLID
  5
38A
330
385
100
AcDbEntity
  8
1
 62
     2
100
AcDbTrace
 10
-259.9299999999999
 20
69.52078797061961
 30
0.0
 11
-259.9299999999999
 21
70.44235545373138
 31
0.0
 12
-256.4299999999999
 22
69.9815717121755
 32
0.0
 13
-256.4299999999999
 23
69.9815717121755
 33
0.0
  0
MTEXT
  5
38B
330
385
100
AcDbEntity
  8
1
 62
     2
100
AcDbMText
 10
-274.8032352941176
 20
71.9815717121755
 30
0.0
 40
3.5
 41
0.0
 71
     7
 72
     1
  1
23.57
  7
CONVERTER_11
 11
0.9999999999970621
 21
2.424068405545307E-6
 31
0.0
 73
     1
 44
0.60024009603842
  0
ENDBLK
  5
38D
330
385
100
AcDbEntity
  8
0
100
AcDbBlockEnd
  0
BLOCK
  5
399
330
390
100
AcDbEntity
  8
0
100
AcDbBlockBegin
  2
*D9
 70
     1
 71
     0
 10
0.0
 20
0.0
 30
0.0
  3
*D9
  1

  0
LINE
  5
391
330
390
100
AcDbEntity
  8
1
  6
Continuous
 62
     2
100
AcDbLine
 10
-104.782901953931
 20
186.363461759477
 30
0.0
 11
-104.782901953931
 21
163.5661792123329
 31
0.0
  0
LINE
  5
392
330
390
100
AcDbEntity
  8
1
  6
Continuous
 62
     2
100
AcDbLine
 10
-104.782901953931
 20
195.963461759477
 30
0.0
 11
-104.782901953931
 21
186.363461759477
 31
0.0
  0
LINE
  5
393
330
390
100
AcDbEntity
  8
1
  6
Continuous
 62
     2
100
AcDbLine
 10
-104.782901953931
 20
202.963461759477
 30
0.0
 11
-104.782901953931
 21
195.963461759477
 31
0.0
  0
LINE
  5
394
330
390
100
AcDbEntity
  8
1
  6
Continuous
 62
     2
100
AcDbLine
 10
-121.023776467207
 20
195.963461759477
 30
0.0
 11
-103.282901953931
 21
195.963461759477
 31
0.0
  0
LINE
  5
395
330
390
100
AcDbEntity
  8
1
  6
Continuous
 62
     2
100
AcDbLine
 10
-121.023776467207
 20
186.363461759477
 30
0.0
 11
-103.282901953931
 21
186.363461759477
 31
0.0
  0
SOLID
  5
396
330
390
100
AcDbEntity
  8
1
 62
     2
100
AcDbTrace
 10
-105.2436856954869
 20
199.463461759477
 30
0.0
 11
-104.3221182123751
 21
199.463461759477
 31
0.0
 12
-104.782901953931
 22
195.963461759477
 32
0.0
 13
-104.782901953931
 23
195.963461759477
 33
0.0
  0
SOLID
  5
397
330
390
100
AcDbEntity
  8
1
 62
     2
100
AcDbTrace
 10
-104.3221182123751
 20
182.863461759477
 30
0.0
 11
-105.2436856954869
 21
182.863461759477
 31
0.0
 12
-104.782901953931
 22
186.363461759477
 32
0.0
 13
-104.782901953931
 23
186.363461759477
 33
0.0
  0
MTEXT
  5
398
330
390
100
AcDbEntity
  8
1
 62
     2
100
AcDbMText
 10
-106.782901953931
 20
163.5661792123329
 30
0.0
 40
3.5
 41
0.0
 71
     7
 72
     1
  1
\C2;9.6\C2;MAX.
  7
CONVERTER_11
 11
0.0
 21
1.0
 31
0.0
 73
     1
 44
0.60024009603842
  0
ENDBLK
  5
39A
330
390
100
AcDbEntity
  8
0
100
AcDbBlockEnd
  0
BLOCK
  5
3A6
330
39D
100
AcDbEntity
  8
0
100
AcDbBlockBegin
  2
*D10
 70
     1
 71
     0
 10
0.0
 20
0.0
 30
0.0
  3
*D10
  1

  0
LINE
  5
39E
330
39D
100
AcDbEntity
  8
1
  6
Continuous
 62
     2
100
AcDbLine
 10
-190.000715704896
 20
111.338461759477
 30
0.0
 11
-190.000715704896
 21
118.338461759477
 31
0.0
  0
LINE
  5
39F
330
39D
100
AcDbEntity
  8
1
  6
Continuous
 62
     2
100
AcDbLine
 10
-190.000715704896
 20
104.988461759477
 30
0.0
 11
-190.000715704896
 21
97.988461759477
 31
0.0
  0
LINE
  5
3A0
330
39D
100
AcDbEntity
  8
1
  6
Continuous
 62
     2
100
AcDbLine
 10
-190.000715704896
 20
104.988461759477
 30
0.0
 11
-190.000715704896
 21
111.338461759477
 31
0.0
  0
LINE
  5
3A1
330
39D
100
AcDbEntity
  8
1
  6
Continuous
 62
     2
100
AcDbLine
 10
-176.193776467207
 20
111.338461759477
 30
0.0
 11
-191.500715704896
 21
111.338461759477
 31
0.0
  0
LINE
  5
3A2
330
39D
100
AcDbEntity
  8
1
  6
Continuous
 62
     2
100
AcDbLine
 10
-176.193776467207
 20
104.988461759477
 30
0.0
 11
-191.500715704896
 21
104.988461759477
 31
0.0
  0
SOLID
  5
3A3
330
39D
100
AcDbEntity
  8
1
 62
     2
100
AcDbTrace
 10
-190.4614994464519
 20
114.838461759477
 30
0.0
 11
-189.5399319633401
 21
114.838461759477
 31
0.0
 12
-190.000715704896
 22
111.338461759477
 32
0.0
 13
-190.000715704896
 23
111.338461759477
 33
0.0
  0
SOLID
  5
3A4
330
39D
100
AcDbEntity
  8
1
 62
     2
100
AcDbTrace
 10
-189.5399319633401
 20
101.488461759477
 30
0.0
 11
-190.4614994464519
 21
101.488461759477
 31
0.0
 12
-190.000715704896
 22
104.988461759477
 32
0.0
 13
-190.000715704896
 23
104.988461759477
 33
0.0
  0
MTEXT
  5
3A5
330
39D
100
AcDbEntity
  8
1
 62
     2
100
AcDbMText
 10
-193.313215704896
 20
93.46357613856198
 30
0.0
 40
3.5
 41
0.0
 71
     7
 72
     1
  1
\C2;φ\C2;\C2;6.35\C2;\H2.45;\S 0^ -0.013;
  7
CONVERTER_13
 11
0.0
 21
1.0
 31
0.0
 73
     1
 44
0.60024009603842
  0
ENDBLK
  5
3A7
330
39D
100
AcDbEntity
  8
0
100
AcDbBlockEnd
  0
BLOCK
  5
3B1
330
3AA
100
AcDbEntity
  8
0
100
AcDbBlockBegin
  2
*D11
 70
     1
 71
     0
 10
0.0
 20
0.0
 30
0.0
  3
*D11
  1

  0
LINE
  5
3AB
330
3AA
100
AcDbEntity
  8
1
  6
Continuous
 62
     2
100
AcDbLine
 10
-93.35648053319827
 20
79.963461759477
 30
0.0
 11
-93.35648053319827
 21
136.363461759477
 31
0.0
  0
LINE
  5
3AC
330
3AA
100
AcDbEntity
  8
1
  6
Continuous
 62
     2
100
AcDbLine
 10
-118.223776467207
 20
136.363461759477
 30
0.0
 11
-91.85648053319827
 21
136.363461759477
 31
0.0
  0
LINE
  5
3AD
330
3AA
100
AcDbEntity
  8
1
  6
Continuous
 62
     2
100
AcDbLine
 10
-118.223776467207
 20
79.963461759477
 30
0.0
 11
-91.85648053319827
 21
79.963461759477
 31
0.0
  0
SOLID
  5
3AE
330
3AA
100
AcDbEntity
  8
1
 62
     2
100
AcDbTrace
 10
-92.89569679164238
 20
132.863461759477
 30
0.0
 11
-93.81726427475415
 21
132.863461759477
 31
0.0
 12
-93.35648053319827
 22
136.363461759477
 32
0.0
 13
-93.35648053319827
 23
136.363461759477
 33
0.0
  0
SOLID
  5
3AF
330
3AA
100
AcDbEntity
  8
1
 62
     2
100
AcDbTrace
 10
-93.81726427475415
 20
83.463461759477
 30
0.0
 11
-92.89569679164238
 21
83.463461759477
 31
0.0
 12
-93.35648053319827
 22
79.963461759477
 32
0.0
 13
-93.35648053319827
 23
79.963461759477
 33
0.0
  0
MTEXT
  5
3B0
330
3AA
100
AcDbEntity
  8
1
 62
     2
100
AcDbMText
 10
-95.47314719986494
 20
98.70328202091491
 30
0.0
 40
3.5
 41
0.0
 71
     7
 72
     1
  1
\C2;φ\C2;56.4
  7
CONVERTER_13
 11
0.0
 21
1.0
 31
0.0
 73
     1
 44
0.60024009603842
  0
ENDBLK
  5
3B2
330
3AA
100
AcDbEntity
  8
0
100
AcDbBlockEnd
  0
BLOCK
  5
3BE
330
3B5
100
AcDbEntity
  8
0
100
AcDbBlockBegin
  2
*D12
 70
     1
 71
     0
 10
0.0
 20
0.0
 30
0.0
  3
*D12
  1

  0
LINE
  5
3B6
330
3B5
100
AcDbEntity
  8
1
  6
Continuous
 62
     2
100
AcDbLine
 10
-150.493776467207
 20
64.8787957900704
 30
0.0
 11
-137.8490141971467
 21
64.8787957900704
 31
0.0
  0
LINE
  5
3B7
330
3B5
100
AcDbEntity
  8
1
  6
Continuous
 62
     2
100
AcDbLine
 10
-155.323776467207
 20
64.8787957900704
 30
0.0
 11
-150.493776467207
 21
64.8787957900704
 31
0.0
  0
LINE
  5
3B8
330
3B5
100
AcDbEntity
  8
1
  6
Continuous
 62
     2
100
AcDbLine
 10
-150.493776467207
 20
78.963461759477
 30
0.0
 11
-150.493776467207
 21
63.3787957900704
 31
0.0
  0
LINE
  5
3B9
330
3B5
100
AcDbEntity
  8
1
  6
Continuous
 62
     2
100
AcDbLine
 10
-155.323776467207
 20
78.963461759477
 30
0.0
 11
-155.323776467207
 21
63.3787957900704
 31
0.0
  0
CIRCLE
  5
3BA
102
{ACAD_REACTORS
330
3BB
102
}
330
3B5
100
AcDbEntity
  8
1
 62
     2
100
AcDbCircle
 10
-155.323776467207
 20
64.8787957900704
 30
0.0
 40
0.875
  0
HATCH
  5
3BB
330
3B5
100
AcDbEntity
  8
1
 62
     2
100
AcDbHatch
 10
0.0
 20
0.0
 30
0.0
210
0.0
220
0.0
230
1.0
  2
SOLID
 70
     1
 71
     1
 91
        1
 92
        1
 93
        1
 72
     2
 10
-155.323776467207
 20
64.8787957900704
 40
0.875
 50
0.0
 51
360.0
 73
     1
 97
        1
330
3BA
 75
     0
 76
     1
 98
        0
  0
SOLID
  5
3BC
330
3B5
100
AcDbEntity
  8
1
 62
     2
100
AcDbTrace
 10
-146.993776467207
 20
65.33957953162628
 30
0.0
 11
-146.993776467207
 21
64.41801204851451
 31
0.0
 12
-150.493776467207
 22
64.8787957900704
 32
0.0
 13
-150.493776467207
 23
64.8787957900704
 33
0.0
  0
MTEXT
  5
3BD
330
3B5
100
AcDbEntity
  8
1
 62
     2
100
AcDbMText
 10
-148.4519553736173
 20
66.8787957900704
 30
0.0
 40
3.5
 41
0.0
 71
     7
 72
     1
  1
4.83
  7
CONVERTER_11
 11
0.9999999999970621
 21
2.424068405545307E-6
 31
0.0
 73
     1
 44
0.60024009603842
  0
ENDBLK
  5
3BF
330
3B5
100
AcDbEntity
  8
0
100
AcDbBlockEnd
  0
BLOCK
  5
3C9
330
3C2
100
AcDbEntity
  8
0
100
AcDbBlockBegin
  2
*D13
 70
     1
 71
     0
 10
0.0
 20
0.0
 30
0.0
  3
*D13
  1

  0
LINE
  5
3C3
330
3C2
100
AcDbEntity
  8
1
  6
Continuous
 62
     2
100
AcDbLine
 10
-199.906025158195
 20
127.213461759477
 30
0.0
 11
-199.906025158195
 21
89.113461759477
 31
0.0
  0
LINE
  5
3C4
330
3C2
100
AcDbEntity
  8
1
  6
Continuous
 62
     2
100
AcDbLine
 10
-157.843776467207
 20
89.113461759477
 30
0.0
 11
-201.406025158195
 21
89.113461759477
 31
0.0
  0
LINE
  5
3C5
330
3C2
100
AcDbEntity
  8
1
  6
Continuous
 62
     2
100
AcDbLine
 10
-157.843776467207
 20
127.213461759477
 30
0.0
 11
-201.406025158195
 21
127.213461759477
 31
0.0
  0
SOLID
  5
3C6
330
3C2
100
AcDbEntity
  8
1
 62
     2
100
AcDbTrace
 10
-199.4452414166391
 20
123.713461759477
 30
0.0
 11
-200.3668088997509
 21
123.713461759477
 31
0.0
 12
-199.906025158195
 22
127.213461759477
 32
0.0
 13
-199.906025158195
 23
127.213461759477
 33
0.0
  0
SOLID
  5
3C7
330
3C2
100
AcDbEntity
  8
1
 62
     2
100
AcDbTrace
 10
-200.3668088997509
 20
92.613461759477
 30
0.0
 11
-199.4452414166391
 21
92.613461759477
 31
0.0
 12
-199.906025158195
 22
89.113461759477
 32
0.0
 13
-199.906025158195
 23
89.113461759477
 33
0.0
  0
MTEXT
  5
3C8
330
3C2
100
AcDbEntity
  8
1
 62
     2
100
AcDbMText
 10
-201.906025158195
 20
94.57225260915021
 30
0.0
 40
3.5
 41
0.0
 71
     7
 72
     1
  1
\C2;φ\C2;\C2;38.1\C2;\H2.45;{\Fgdt;`}0.05
  7
CONVERTER_13
 11
0.0
 21
1.0
 31
0.0
 73
     1
 44
0.60024009603842
  0
ENDBLK
  5
3CA
330
3C2
100
AcDbEntity
  8
0
100
AcDbBlockEnd
  0
ENDSEC
  0
SECTION
  2
ENTITIES
  0
LINE
  5
32
330
1F
100
AcDbEntity
  8
1
  6
Continuous
 62
     7
100
AcDbLine
 10
-296.2570704195008
 20
91.39204556755132
 30
0.0
 11
-296.8627917090112
 21
90.75114756887265
 31
0.0
  0
LINE
  5
33
330
1F
100
AcDbEntity
  8
1
  6
Continuous
 62
     7
100
AcDbLine
 10
-297.0569013344117
 20
90.76714917009578
 30
0.0
 11
-296.2570704195008
 21
91.39204556755132
 31
0.0
  0
LINE
  5
34
330
1F
100
AcDbEntity
  8
1
  6
Continuous
 62
     7
100
AcDbLine
 10
-297.0715254625462
 20
90.75114756887265
 30
0.0
 11
-297.0569013344117
 21
90.76714917009578
 31
0.0
  0
LINE
  5
35
330
1F
100
AcDbEntity
  8
1
  6
Continuous
 62
     7
100
AcDbLine
 10
-296.2570704195008
 20
89.65024957019398
 30
0.0
 11
-296.8627917090112
 21
90.29114756887265
 31
0.0
  0
LINE
  5
36
330
1F
100
AcDbEntity
  8
1
  6
Continuous
 62
     7
100
AcDbLine
 10
-297.0569013344117
 20
90.27514596764952
 30
0.0
 11
-296.2570704195008
 21
89.65024957019398
 31
0.0
  0
LINE
  5
37
330
1F
100
AcDbEntity
  8
1
  6
Continuous
 62
     7
100
AcDbLine
 10
-297.0715254625462
 20
90.29114756887265
 30
0.0
 11
-297.0569013344117
 21
90.27514596764952
 31
0.0
  0
LINE
  5
38
330
1F
100
AcDbEntity
  8
1
  6
Continuous
 62
     7
100
AcDbLine
 10
-296.7714161919257
 20
89.13590379776915
 30
0.0
 11
-297.4123141906043
 21
89.74162508727956
 31
0.0
  0
LINE
  5
39
330
1F
100
AcDbEntity
  8
1
  6
Continuous
 62
     7
100
AcDbLine
 10
-297.3963125893813
 20
89.93573471267997
 30
0.0
 11
-296.7714161919257
 21
89.13590379776915
 31
0.0
  0
LINE
  5
3A
330
1F
100
AcDbEntity
  8
1
  6
Continuous
 62
     7
100
AcDbLine
 10
-297.4123141906043
 20
89.9503588408145
 30
0.0
 11
-297.3963125893813
 21
89.93573471267997
 31
0.0
  0
LINE
  5
3B
330
1F
100
AcDbEntity
  8
1
  6
Continuous
 62
     7
100
AcDbLine
 10
-298.5132121892831
 20
89.13590379776915
 30
0.0
 11
-297.8723141906044
 21
89.74162508727956
 31
0.0
  0
LINE
  5
3C
330
1F
100
AcDbEntity
  8
1
  6
Continuous
 62
     7
100
AcDbLine
 10
-297.8883157918275
 20
89.93573471267997
 30
0.0
 11
-298.5132121892831
 21
89.13590379776915
 31
0.0
  0
LINE
  5
3D
330
1F
100
AcDbEntity
  8
1
  6
Continuous
 62
     7
100
AcDbLine
 10
-297.8723141906044
 20
89.9503588408145
 30
0.0
 11
-297.8883157918275
 21
89.93573471267997
 31
0.0
  0
LINE
  5
3E
330
1F
100
AcDbEntity
  8
1
  6
Continuous
 62
     7
100
AcDbLine
 10
-299.0275579617079
 20
89.65024957019398
 30
0.0
 11
-298.4218366721975
 21
90.29114756887265
 31
0.0
  0
LINE
  5
3F
330
1F
100
AcDbEntity
  8
1
  6
Continuous
 62
     7
100
AcDbLine
 10
-298.227727046797
 20
90.27514596764952
 30
0.0
 11
-299.0275579617079
 21
89.65024957019398
 31
0.0
  0
LINE
  5
40
330
1F
100
AcDbEntity
  8
1
  6
Continuous
 62
     7
100
AcDbLine
 10
-298.2131029186625
 20
90.29114756887265
 30
0.0
 11
-298.227727046797
 21
90.27514596764952
 31
0.0
  0
LINE
  5
41
330
1F
100
AcDbEntity
  8
1
  6
Continuous
 62
     7
100
AcDbLine
 10
-299.0275579617079
 20
91.39204556755132
 30
0.0
 11
-298.4218366721975
 21
90.75114756887265
 31
0.0
  0
LINE
  5
42
330
1F
100
AcDbEntity
  8
1
  6
Continuous
 62
     7
100
AcDbLine
 10
-298.227727046797
 20
90.76714917009578
 30
0.0
 11
-299.0275579617079
 21
91.39204556755132
 31
0.0
  0
LINE
  5
43
330
1F
100
AcDbEntity
  8
1
  6
Continuous
 62
     7
100
AcDbLine
 10
-298.2131029186625
 20
90.75114756887265
 30
0.0
 11
-298.227727046797
 21
90.76714917009578
 31
0.0
  0
LINE
  5
44
330
1F
100
AcDbEntity
  8
1
  6
Continuous
 62
     7
100
AcDbLine
 10
-298.513212189283
 20
91.90639133997615
 30
0.0
 11
-297.8723141906044
 21
91.30067005046574
 31
0.0
  0
LINE
  5
45
330
1F
100
AcDbEntity
  8
1
  6
Continuous
 62
     7
100
AcDbLine
 10
-297.8883157918275
 20
91.10656042506533
 30
0.0
 11
-298.513212189283
 21
91.90639133997615
 31
0.0
  0
LINE
  5
46
330
1F
100
AcDbEntity
  8
1
  6
Continuous
 62
     7
100
AcDbLine
 10
-297.8723141906044
 20
91.0919362969308
 30
0.0
 11
-297.8883157918275
 21
91.10656042506533
 31
0.0
  0
LINE
  5
47
330
1F
100
AcDbEntity
  8
1
  6
Continuous
 62
     7
100
AcDbLine
 10
-296.7714161919257
 20
91.90639133997615
 30
0.0
 11
-297.4123141906043
 21
91.30067005046574
 31
0.0
  0
LINE
  5
48
330
1F
100
AcDbEntity
  8
1
  6
Continuous
 62
     7
100
AcDbLine
 10
-297.3963125893812
 20
91.10656042506533
 30
0.0
 11
-296.7714161919257
 21
91.90639133997615
 31
0.0
  0
LINE
  5
49
330
1F
100
AcDbEntity
  8
1
  6
Continuous
 62
     7
100
AcDbLine
 10
-297.4123141906043
 20
91.0919362969308
 30
0.0
 11
-297.3963125893812
 21
91.10656042506533
 31
0.0
  0
LINE
  5
4A
330
1F
100
AcDbEntity
  8
1
  6
Continuous
 62
     7
100
AcDbLine
 10
-296.8627917090112
 20
90.75114756887265
 30
0.0
 11
-296.9510804370694
 21
90.52114756887265
 31
0.0
  0
LINE
  5
4B
330
1F
100
AcDbEntity
  8
1
  6
Continuous
 62
     7
100
AcDbLine
 10
-297.0715254625462
 20
90.75114756887265
 30
0.0
 11
-296.8627917090112
 21
90.75114756887265
 31
0.0
  0
LINE
  5
4C
330
1F
100
AcDbEntity
  8
1
  6
Continuous
 62
     7
100
AcDbLine
 10
-297.1598141906043
 20
90.52114756887265
 30
0.0
 11
-297.0715254625462
 21
90.75114756887265
 31
0.0
  0
LINE
  5
4D
330
1F
100
AcDbEntity
  8
1
  6
Continuous
 62
     7
100
AcDbLine
 10
-296.9510804370694
 20
90.52114756887265
 30
0.0
 11
-297.1598141906043
 21
90.52114756887265
 31
0.0
  0
LINE
  5
4E
330
1F
100
AcDbEntity
  8
1
  6
Continuous
 62
     7
100
AcDbLine
 10
-296.8627917090112
 20
90.29114756887265
 30
0.0
 11
-296.9510804370694
 21
90.52114756887265
 31
0.0
  0
LINE
  5
4F
330
1F
100
AcDbEntity
  8
1
  6
Continuous
 62
     7
100
AcDbLine
 10
-297.0715254625462
 20
90.29114756887265
 30
0.0
 11
-296.8627917090112
 21
90.29114756887265
 31
0.0
  0
LINE
  5
50
330
1F
100
AcDbEntity
  8
1
  6
Continuous
 62
     7
100
AcDbLine
 10
-297.1598141906043
 20
90.52114756887265
 30
0.0
 11
-297.0715254625462
 21
90.29114756887265
 31
0.0
  0
LINE
  5
51
330
1F
100
AcDbEntity
  8
1
  6
Continuous
 62
     7
100
AcDbLine
 10
-297.4123141906043
 20
89.74162508727956
 30
0.0
 11
-297.6423141906044
 21
89.8299138153377
 31
0.0
  0
LINE
  5
52
330
1F
100
AcDbEntity
  8
1
  6
Continuous
 62
     7
100
AcDbLine
 10
-297.4123141906043
 20
89.9503588408145
 30
0.0
 11
-297.4123141906043
 21
89.74162508727956
 31
0.0
  0
LINE
  5
53
330
1F
100
AcDbEntity
  8
1
  6
Continuous
 62
     7
100
AcDbLine
 10
-297.6423141906044
 20
90.03864756887265
 30
0.0
 11
-297.4123141906043
 21
89.9503588408145
 31
0.0
  0
LINE
  5
54
330
1F
100
AcDbEntity
  8
1
  6
Continuous
 62
     7
100
AcDbLine
 10
-297.6423141906044
 20
89.8299138153377
 30
0.0
 11
-297.6423141906044
 21
90.03864756887265
 31
0.0
  0
LINE
  5
55
330
1F
100
AcDbEntity
  8
1
  6
Continuous
 62
     7
100
AcDbLine
 10
-297.8723141906044
 20
89.74162508727956
 30
0.0
 11
-297.6423141906044
 21
89.8299138153377
 31
0.0
  0
LINE
  5
56
330
1F
100
AcDbEntity
  8
1
  6
Continuous
 62
     7
100
AcDbLine
 10
-297.8723141906044
 20
89.9503588408145
 30
0.0
 11
-297.8723141906044
 21
89.74162508727956
 31
0.0
  0
LINE
  5
57
330
1F
100
AcDbEntity
  8
1
  6
Continuous
 62
     7
100
AcDbLine
 10
-297.6423141906044
 20
90.03864756887265
 30
0.0
 11
-297.8723141906044
 21
89.9503588408145
 31
0.0
  0
LINE
  5
58
330
1F
100
AcDbEntity
  8
1
  6
Continuous
 62
     7
100
AcDbLine
 10
-298.4218366721975
 20
90.29114756887265
 30
0.0
 11
-298.3335479441393
 21
90.52114756887265
 31
0.0
  0
LINE
  5
59
330
1F
100
AcDbEntity
  8
1
  6
Continuous
 62
     7
100
AcDbLine
 10
-298.2131029186625
 20
90.29114756887265
 30
0.0
 11
-298.4218366721975
 21
90.29114756887265
 31
0.0
  0
LINE
  5
5A
330
1F
100
AcDbEntity
  8
1
  6
Continuous
 62
     7
100
AcDbLine
 10
-298.1248141906044
 20
90.52114756887265
 30
0.0
 11
-298.2131029186625
 21
90.29114756887265
 31
0.0
  0
LINE
  5
5B
330
1F
100
AcDbEntity
  8
1
  6
Continuous
 62
     7
100
AcDbLine
 10
-298.3335479441393
 20
90.52114756887265
 30
0.0
 11
-298.1248141906044
 21
90.52114756887265
 31
0.0
  0
LINE
  5
5C
330
1F
100
AcDbEntity
  8
1
  6
Continuous
 62
     7
100
AcDbLine
 10
-298.4218366721975
 20
90.75114756887265
 30
0.0
 11
-298.3335479441393
 21
90.52114756887265
 31
0.0
  0
LINE
  5
5D
330
1F
100
AcDbEntity
  8
1
  6
Continuous
 62
     7
100
AcDbLine
 10
-298.2131029186625
 20
90.75114756887265
 30
0.0
 11
-298.4218366721975
 21
90.75114756887265
 31
0.0
  0
LINE
  5
5E
330
1F
100
AcDbEntity
  8
1
  6
Continuous
 62
     7
100
AcDbLine
 10
-298.1248141906044
 20
90.52114756887265
 30
0.0
 11
-298.2131029186625
 21
90.75114756887265
 31
0.0
  0
LINE
  5
5F
330
1F
100
AcDbEntity
  8
1
  6
Continuous
 62
     7
100
AcDbLine
 10
-297.8723141906044
 20
91.30067005046574
 30
0.0
 11
-297.6423141906044
 21
91.2123813224076
 31
0.0
  0
LINE
  5
60
330
1F
100
AcDbEntity
  8
1
  6
Continuous
 62
     7
100
AcDbLine
 10
-297.8723141906044
 20
91.0919362969308
 30
0.0
 11
-297.8723141906044
 21
91.30067005046574
 31
0.0
  0
LINE
  5
61
330
1F
100
AcDbEntity
  8
1
  6
Continuous
 62
     7
100
AcDbLine
 10
-297.6423141906044
 20
91.00364756887265
 30
0.0
 11
-297.8723141906044
 21
91.0919362969308
 31
0.0
  0
LINE
  5
62
330
1F
100
AcDbEntity
  8
1
  6
Continuous
 62
     7
100
AcDbLine
 10
-297.6423141906044
 20
91.2123813224076
 30
0.0
 11
-297.6423141906044
 21
91.00364756887265
 31
0.0
  0
LINE
  5
63
330
1F
100
AcDbEntity
  8
1
  6
Continuous
 62
     7
100
AcDbLine
 10
-297.4123141906043
 20
91.30067005046574
 30
0.0
 11
-297.6423141906044
 21
91.2123813224076
 31
0.0
  0
LINE
  5
64
330
1F
100
AcDbEntity
  8
1
  6
Continuous
 62
     7
100
AcDbLine
 10
-297.4123141906043
 20
91.0919362969308
 30
0.0
 11
-297.4123141906043
 21
91.30067005046574
 31
0.0
  0
LINE
  5
65
330
1F
100
AcDbEntity
  8
1
  6
Continuous
 62
     7
100
AcDbLine
 10
-297.6423141906044
 20
91.00364756887265
 30
0.0
 11
-297.4123141906043
 21
91.0919362969308
 31
0.0
  0
LINE
  5
66
330
1F
100
AcDbEntity
  8
1
  6
Continuous
 62
     7
100
AcDbLine
 10
-297.1598141906043
 20
125.8057759500814
 30
0.0
 11
-297.0715254625462
 21
125.5757759500813
 31
0.0
  0
LINE
  5
67
330
1F
100
AcDbEntity
  8
1
  6
Continuous
 62
     7
100
AcDbLine
 10
-297.0715254625462
 20
125.5757759500813
 30
0.0
 11
-296.8627917090113
 21
125.5757759500813
 31
0.0
  0
LINE
  5
68
330
1F
100
AcDbEntity
  8
1
  6
Continuous
 62
     7
100
AcDbLine
 10
-296.8627917090113
 20
125.5757759500813
 30
0.0
 11
-296.9510804370694
 21
125.8057759500814
 31
0.0
  0
LINE
  5
69
330
1F
100
AcDbEntity
  8
1
  6
Continuous
 62
     7
100
AcDbLine
 10
-296.9510804370694
 20
125.8057759500814
 30
0.0
 11
-297.1598141906043
 21
125.8057759500814
 31
0.0
  0
LINE
  5
6A
330
1F
100
AcDbEntity
  8
1
  6
Continuous
 62
     7
100
AcDbLine
 10
-297.1598141906043
 20
125.8057759500814
 30
0.0
 11
-297.0715254625462
 21
126.0357759500814
 31
0.0
  0
LINE
  5
6B
330
1F
100
AcDbEntity
  8
1
  6
Continuous
 62
     7
100
AcDbLine
 10
-297.0715254625462
 20
126.0357759500814
 30
0.0
 11
-296.8627917090113
 21
126.0357759500814
 31
0.0
  0
LINE
  5
6C
330
1F
100
AcDbEntity
  8
1
  6
Continuous
 62
     7
100
AcDbLine
 10
-296.8627917090113
 20
126.0357759500814
 30
0.0
 11
-296.9510804370694
 21
125.8057759500814
 31
0.0
  0
LINE
  5
6D
330
1F
100
AcDbEntity
  8
1
  6
Continuous
 62
     7
100
AcDbLine
 10
-297.6423141906044
 20
126.2882759500814
 30
0.0
 11
-297.4123141906043
 21
126.3765646781395
 31
0.0
  0
LINE
  5
6E
330
1F
100
AcDbEntity
  8
1
  6
Continuous
 62
     7
100
AcDbLine
 10
-297.4123141906043
 20
126.3765646781395
 30
0.0
 11
-297.4123141906043
 21
126.5852984316745
 31
0.0
  0
LINE
  5
6F
330
1F
100
AcDbEntity
  8
1
  6
Continuous
 62
     7
100
AcDbLine
 10
-297.4123141906043
 20
126.5852984316745
 30
0.0
 11
-297.6423141906044
 21
126.4970097036163
 31
0.0
  0
LINE
  5
70
330
1F
100
AcDbEntity
  8
1
  6
Continuous
 62
     7
100
AcDbLine
 10
-297.6423141906044
 20
126.4970097036163
 30
0.0
 11
-297.6423141906044
 21
126.2882759500814
 31
0.0
  0
LINE
  5
71
330
1F
100
AcDbEntity
  8
1
  6
Continuous
 62
     7
100
AcDbLine
 10
-297.6423141906044
 20
126.2882759500814
 30
0.0
 11
-297.8723141906044
 21
126.3765646781395
 31
0.0
  0
LINE
  5
72
330
1F
100
AcDbEntity
  8
1
  6
Continuous
 62
     7
100
AcDbLine
 10
-297.8723141906044
 20
126.3765646781395
 30
0.0
 11
-297.8723141906044
 21
126.5852984316745
 31
0.0
  0
LINE
  5
73
330
1F
100
AcDbEntity
  8
1
  6
Continuous
 62
     7
100
AcDbLine
 10
-297.8723141906044
 20
126.5852984316745
 30
0.0
 11
-297.6423141906044
 21
126.4970097036163
 31
0.0
  0
LINE
  5
74
330
1F
100
AcDbEntity
  8
1
  6
Continuous
 62
     7
100
AcDbLine
 10
-298.1248141906044
 20
125.8057759500814
 30
0.0
 11
-298.2131029186625
 21
126.0357759500814
 31
0.0
  0
LINE
  5
75
330
1F
100
AcDbEntity
  8
1
  6
Continuous
 62
     7
100
AcDbLine
 10
-298.2131029186625
 20
126.0357759500814
 30
0.0
 11
-298.4218366721975
 21
126.0357759500814
 31
0.0
  0
LINE
  5
76
330
1F
100
AcDbEntity
  8
1
  6
Continuous
 62
     7
100
AcDbLine
 10
-298.4218366721975
 20
126.0357759500814
 30
0.0
 11
-298.3335479441393
 21
125.8057759500814
 31
0.0
  0
LINE
  5
77
330
1F
100
AcDbEntity
  8
1
  6
Continuous
 62
     7
100
AcDbLine
 10
-298.3335479441393
 20
125.8057759500814
 30
0.0
 11
-298.1248141906044
 21
125.8057759500814
 31
0.0
  0
LINE
  5
78
330
1F
100
AcDbEntity
  8
1
  6
Continuous
 62
     7
100
AcDbLine
 10
-298.1248141906044
 20
125.8057759500814
 30
0.0
 11
-298.2131029186625
 21
125.5757759500813
 31
0.0
  0
LINE
  5
79
330
1F
100
AcDbEntity
  8
1
  6
Continuous
 62
     7
100
AcDbLine
 10
-298.2131029186625
 20
125.5757759500813
 30
0.0
 11
-298.4218366721975
 21
125.5757759500813
 31
0.0
  0
LINE
  5
7A
330
1F
100
AcDbEntity
  8
1
  6
Continuous
 62
     7
100
AcDbLine
 10
-298.4218366721975
 20
125.5757759500813
 30
0.0
 11
-298.3335479441393
 21
125.8057759500814
 31
0.0
  0
LINE
  5
7B
330
1F
100
AcDbEntity
  8
1
  6
Continuous
 62
     7
100
AcDbLine
 10
-297.6423141906044
 20
125.3232759500813
 30
0.0
 11
-297.8723141906044
 21
125.2349872220232
 31
0.0
  0
LINE
  5
7C
330
1F
100
AcDbEntity
  8
1
  6
Continuous
 62
     7
100
AcDbLine
 10
-297.8723141906044
 20
125.2349872220232
 30
0.0
 11
-297.8723141906044
 21
125.0262534684882
 31
0.0
  0
LINE
  5
7D
330
1F
100
AcDbEntity
  8
1
  6
Continuous
 62
     7
100
AcDbLine
 10
-297.8723141906044
 20
125.0262534684882
 30
0.0
 11
-297.6423141906044
 21
125.1145421965464
 31
0.0
  0
LINE
  5
7E
330
1F
100
AcDbEntity
  8
1
  6
Continuous
 62
     7
100
AcDbLine
 10
-297.6423141906044
 20
125.1145421965464
 30
0.0
 11
-297.6423141906044
 21
125.3232759500813
 31
0.0
  0
LINE
  5
7F
330
1F
100
AcDbEntity
  8
1
  6
Continuous
 62
     7
100
AcDbLine
 10
-297.6423141906044
 20
125.3232759500813
 30
0.0
 11
-297.4123141906043
 21
125.2349872220232
 31
0.0
  0
LINE
  5
80
330
1F
100
AcDbEntity
  8
1
  6
Continuous
 62
     7
100
AcDbLine
 10
-297.4123141906043
 20
125.2349872220232
 30
0.0
 11
-297.4123141906043
 21
125.0262534684882
 31
0.0
  0
LINE
  5
81
330
1F
100
AcDbEntity
  8
1
  6
Continuous
 62
     7
100
AcDbLine
 10
-297.4123141906043
 20
125.0262534684882
 30
0.0
 11
-297.6423141906044
 21
125.1145421965464
 31
0.0
  0
LINE
  5
82
330
1F
100
AcDbEntity
  8
1
  6
Continuous
 62
     7
100
AcDbLine
 10
-297.0715254625462
 20
125.5757759500813
 30
0.0
 11
-297.0569013344117
 21
125.5597743488582
 31
0.0
  0
LINE
  5
83
330
1F
100
AcDbEntity
  8
1
  6
Continuous
 62
     7
100
AcDbLine
 10
-297.0569013344117
 20
125.5597743488582
 30
0.0
 11
-296.2570704195008
 21
124.9348779514027
 31
0.0
  0
LINE
  5
84
330
1F
100
AcDbEntity
  8
1
  6
Continuous
 62
     7
100
AcDbLine
 10
-296.2570704195008
 20
124.9348779514027
 30
0.0
 11
-296.8627917090113
 21
125.5757759500813
 31
0.0
  0
LINE
  5
85
330
1F
100
AcDbEntity
  8
1
  6
Continuous
 62
     7
100
AcDbLine
 10
-297.0715254625462
 20
126.0357759500814
 30
0.0
 11
-297.0569013344117
 21
126.0517775513045
 31
0.0
  0
LINE
  5
86
330
1F
100
AcDbEntity
  8
1
  6
Continuous
 62
     7
100
AcDbLine
 10
-297.0569013344117
 20
126.0517775513045
 30
0.0
 11
-296.2570704195008
 21
126.67667394876
 31
0.0
  0
LINE
  5
87
330
1F
100
AcDbEntity
  8
1
  6
Continuous
 62
     7
100
AcDbLine
 10
-296.2570704195008
 20
126.67667394876
 30
0.0
 11
-296.8627917090113
 21
126.0357759500814
 31
0.0
  0
LINE
  5
88
330
1F
100
AcDbEntity
  8
1
  6
Continuous
 62
     7
100
AcDbLine
 10
-297.4123141906043
 20
126.3765646781395
 30
0.0
 11
-297.3963125893813
 21
126.391188806274
 31
0.0
  0
LINE
  5
89
330
1F
100
AcDbEntity
  8
1
  6
Continuous
 62
     7
100
AcDbLine
 10
-297.3963125893813
 20
126.391188806274
 30
0.0
 11
-296.7714161919257
 21
127.1910197211848
 31
0.0
  0
LINE
  5
8A
330
1F
100
AcDbEntity
  8
1
  6
Continuous
 62
     7
100
AcDbLine
 10
-296.7714161919257
 20
127.1910197211848
 30
0.0
 11
-297.4123141906043
 21
126.5852984316745
 31
0.0
  0
LINE
  5
8B
330
1F
100
AcDbEntity
  8
1
  6
Continuous
 62
     7
100
AcDbLine
 10
-297.8723141906044
 20
126.3765646781395
 30
0.0
 11
-297.8883157918275
 21
126.391188806274
 31
0.0
  0
LINE
  5
8C
330
1F
100
AcDbEntity
  8
1
  6
Continuous
 62
     7
100
AcDbLine
 10
-297.8883157918275
 20
126.391188806274
 30
0.0
 11
-298.5132121892831
 21
127.1910197211848
 31
0.0
  0
LINE
  5
8D
330
1F
100
AcDbEntity
  8
1
  6
Continuous
 62
     7
100
AcDbLine
 10
-298.5132121892831
 20
127.1910197211848
 30
0.0
 11
-297.8723141906044
 21
126.5852984316745
 31
0.0
  0
LINE
  5
8E
330
1F
100
AcDbEntity
  8
1
  6
Continuous
 62
     7
100
AcDbLine
 10
-298.2131029186625
 20
126.0357759500814
 30
0.0
 11
-298.2277270467971
 21
126.0517775513045
 31
0.0
  0
LINE
  5
8F
330
1F
100
AcDbEntity
  8
1
  6
Continuous
 62
     7
100
AcDbLine
 10
-298.2277270467971
 20
126.0517775513045
 30
0.0
 11
-299.0275579617079
 21
126.67667394876
 31
0.0
  0
LINE
  5
90
330
1F
100
AcDbEntity
  8
1
  6
Continuous
 62
     7
100
AcDbLine
 10
-299.0275579617079
 20
126.67667394876
 30
0.0
 11
-298.4218366721975
 21
126.0357759500814
 31
0.0
  0
LINE
  5
91
330
1F
100
AcDbEntity
  8
1
  6
Continuous
 62
     7
100
AcDbLine
 10
-298.2131029186625
 20
125.5757759500813
 30
0.0
 11
-298.2277270467971
 21
125.5597743488583
 31
0.0
  0
LINE
  5
92
330
1F
100
AcDbEntity
  8
1
  6
Continuous
 62
     7
100
AcDbLine
 10
-298.2277270467971
 20
125.5597743488583
 30
0.0
 11
-299.0275579617079
 21
124.9348779514027
 31
0.0
  0
LINE
  5
93
330
1F
100
AcDbEntity
  8
1
  6
Continuous
 62
     7
100
AcDbLine
 10
-299.0275579617079
 20
124.9348779514027
 30
0.0
 11
-298.4218366721975
 21
125.5757759500813
 31
0.0
  0
LINE
  5
94
330
1F
100
AcDbEntity
  8
1
  6
Continuous
 62
     7
100
AcDbLine
 10
-297.8723141906044
 20
125.2349872220232
 30
0.0
 11
-297.8883157918275
 21
125.2203630938887
 31
0.0
  0
LINE
  5
95
330
1F
100
AcDbEntity
  8
1
  6
Continuous
 62
     7
100
AcDbLine
 10
-297.8883157918275
 20
125.2203630938887
 30
0.0
 11
-298.5132121892831
 21
124.4205321789779
 31
0.0
  0
LINE
  5
96
330
1F
100
AcDbEntity
  8
1
  6
Continuous
 62
     7
100
AcDbLine
 10
-298.5132121892831
 20
124.4205321789779
 30
0.0
 11
-297.8723141906044
 21
125.0262534684882
 31
0.0
  0
LINE
  5
97
330
1F
100
AcDbEntity
  8
1
  6
Continuous
 62
     7
100
AcDbLine
 10
-297.4123141906043
 20
125.2349872220232
 30
0.0
 11
-297.3963125893813
 21
125.2203630938887
 31
0.0
  0
LINE
  5
98
330
1F
100
AcDbEntity
  8
1
  6
Continuous
 62
     7
100
AcDbLine
 10
-297.3963125893813
 20
125.2203630938887
 30
0.0
 11
-296.7714161919257
 21
124.4205321789779
 31
0.0
  0
LINE
  5
99
330
1F
100
AcDbEntity
  8
1
  6
Continuous
 62
     7
100
AcDbLine
 10
-296.7714161919257
 20
124.4205321789779
 30
0.0
 11
-297.4123141906043
 21
125.0262534684882
 31
0.0
  0
LINE
  5
9A
330
1F
100
AcDbEntity
  8
1
  6
Continuous
 62
     7
100
AcDbLine
 10
-263.7429295804992
 20
124.9348779514027
 30
0.0
 11
-263.1372082909888
 21
125.5757759500814
 31
0.0
  0
LINE
  5
9B
330
1F
100
AcDbEntity
  8
1
  6
Continuous
 62
     7
100
AcDbLine
 10
-262.9430986655883
 20
125.5597743488582
 30
0.0
 11
-263.7429295804992
 21
124.9348779514027
 31
0.0
  0
LINE
  5
9C
330
1F
100
AcDbEntity
  8
1
  6
Continuous
 62
     7
100
AcDbLine
 10
-262.9284745374539
 20
125.5757759500814
 30
0.0
 11
-262.9430986655883
 21
125.5597743488582
 31
0.0
  0
LINE
  5
9D
330
1F
100
AcDbEntity
  8
1
  6
Continuous
 62
     7
100
AcDbLine
 10
-263.7429295804992
 20
126.67667394876
 30
0.0
 11
-263.1372082909888
 21
126.0357759500814
 31
0.0
  0
LINE
  5
9E
330
1F
100
AcDbEntity
  8
1
  6
Continuous
 62
     7
100
AcDbLine
 10
-262.9430986655883
 20
126.0517775513045
 30
0.0
 11
-263.7429295804992
 21
126.67667394876
 31
0.0
  0
LINE
  5
9F
330
1F
100
AcDbEntity
  8
1
  6
Continuous
 62
     7
100
AcDbLine
 10
-262.9284745374539
 20
126.0357759500814
 30
0.0
 11
-262.9430986655883
 21
126.0517775513045
 31
0.0
  0
LINE
  5
A0
330
1F
100
AcDbEntity
  8
1
  6
Continuous
 62
     7
100
AcDbLine
 10
-263.2285838080743
 20
127.1910197211849
 30
0.0
 11
-262.5876858093957
 21
126.5852984316745
 31
0.0
  0
LINE
  5
A1
330
1F
100
AcDbEntity
  8
1
  6
Continuous
 62
     7
100
AcDbLine
 10
-262.6036874106188
 20
126.391188806274
 30
0.0
 11
-263.2285838080743
 21
127.1910197211849
 31
0.0
  0
LINE
  5
A2
330
1F
100
AcDbEntity
  8
1
  6
Continuous
 62
     7
100
AcDbLine
 10
-262.5876858093957
 20
126.3765646781395
 30
0.0
 11
-262.6036874106188
 21
126.391188806274
 31
0.0
  0
LINE
  5
A3
330
1F
100
AcDbEntity
  8
1
  6
Continuous
 62
     7
100
AcDbLine
 10
-261.486787810717
 20
127.1910197211849
 30
0.0
 11
-262.1276858093956
 21
126.5852984316745
 31
0.0
  0
LINE
  5
A4
330
1F
100
AcDbEntity
  8
1
  6
Continuous
 62
     7
100
AcDbLine
 10
-262.1116842081725
 20
126.391188806274
 30
0.0
 11
-261.486787810717
 21
127.1910197211849
 31
0.0
  0
LINE
  5
A5
330
1F
100
AcDbEntity
  8
1
  6
Continuous
 62
     7
100
AcDbLine
 10
-262.1276858093956
 20
126.3765646781395
 30
0.0
 11
-262.1116842081725
 21
126.391188806274
 31
0.0
  0
LINE
  5
A6
330
1F
100
AcDbEntity
  8
1
  6
Continuous
 62
     7
100
AcDbLine
 10
-260.9724420382922
 20
126.67667394876
 30
0.0
 11
-261.5781633278026
 21
126.0357759500814
 31
0.0
  0
LINE
  5
A7
330
1F
100
AcDbEntity
  8
1
  6
Continuous
 62
     7
100
AcDbLine
 10
-261.772272953203
 20
126.0517775513045
 30
0.0
 11
-260.9724420382922
 21
126.67667394876
 31
0.0
  0
LINE
  5
A8
330
1F
100
AcDbEntity
  8
1
  6
Continuous
 62
     7
100
AcDbLine
 10
-261.7868970813375
 20
126.0357759500814
 30
0.0
 11
-261.772272953203
 21
126.0517775513045
 31
0.0
  0
LINE
  5
A9
330
1F
100
AcDbEntity
  8
1
  6
Continuous
 62
     7
100
AcDbLine
 10
-260.9724420382922
 20
124.9348779514027
 30
0.0
 11
-261.5781633278026
 21
125.5757759500814
 31
0.0
  0
LINE
  5
AA
330
1F
100
AcDbEntity
  8
1
  6
Continuous
 62
     7
100
AcDbLine
 10
-261.772272953203
 20
125.5597743488582
 30
0.0
 11
-260.9724420382922
 21
124.9348779514027
 31
0.0
  0
LINE
  5
AB
330
1F
100
AcDbEntity
  8
1
  6
Continuous
 62
     7
100
AcDbLine
 10
-261.7868970813375
 20
125.5757759500814
 30
0.0
 11
-261.772272953203
 21
125.5597743488582
 31
0.0
  0
LINE
  5
AC
330
1F
100
AcDbEntity
  8
1
  6
Continuous
 62
     7
100
AcDbLine
 10
-261.486787810717
 20
124.4205321789779
 30
0.0
 11
-262.1276858093956
 21
125.0262534684883
 31
0.0
  0
LINE
  5
AD
330
1F
100
AcDbEntity
  8
1
  6
Continuous
 62
     7
100
AcDbLine
 10
-262.1116842081726
 20
125.2203630938887
 30
0.0
 11
-261.486787810717
 21
124.4205321789779
 31
0.0
  0
LINE
  5
AE
330
1F
100
AcDbEntity
  8
1
  6
Continuous
 62
     7
100
AcDbLine
 10
-262.1276858093956
 20
125.2349872220232
 30
0.0
 11
-262.1116842081726
 21
125.2203630938887
 31
0.0
  0
LINE
  5
AF
330
1F
100
AcDbEntity
  8
1
  6
Continuous
 62
     7
100
AcDbLine
 10
-263.2285838080744
 20
124.4205321789779
 30
0.0
 11
-262.5876858093957
 21
125.0262534684883
 31
0.0
  0
LINE
  5
B0
330
1F
100
AcDbEntity
  8
1
  6
Continuous
 62
     7
100
AcDbLine
 10
-262.6036874106188
 20
125.2203630938887
 30
0.0
 11
-263.2285838080744
 21
124.4205321789779
 31
0.0
  0
LINE
  5
B1
330
1F
100
AcDbEntity
  8
1
  6
Continuous
 62
     7
100
AcDbLine
 10
-262.5876858093957
 20
125.2349872220232
 30
0.0
 11
-262.6036874106188
 21
125.2203630938887
 31
0.0
  0
LINE
  5
B2
330
1F
100
AcDbEntity
  8
1
  6
Continuous
 62
     7
100
AcDbLine
 10
-263.1372082909888
 20
125.5757759500814
 30
0.0
 11
-263.0489195629306
 21
125.8057759500814
 31
0.0
  0
LINE
  5
B3
330
1F
100
AcDbEntity
  8
1
  6
Continuous
 62
     7
100
AcDbLine
 10
-262.9284745374539
 20
125.5757759500814
 30
0.0
 11
-263.1372082909888
 21
125.5757759500814
 31
0.0
  0
LINE
  5
B4
330
1F
100
AcDbEntity
  8
1
  6
Continuous
 62
     7
100
AcDbLine
 10
-262.8401858093957
 20
125.8057759500814
 30
0.0
 11
-262.9284745374539
 21
125.5757759500814
 31
0.0
  0
LINE
  5
B5
330
1F
100
AcDbEntity
  8
1
  6
Continuous
 62
     7
100
AcDbLine
 10
-263.0489195629306
 20
125.8057759500814
 30
0.0
 11
-262.8401858093957
 21
125.8057759500814
 31
0.0
  0
LINE
  5
B6
330
1F
100
AcDbEntity
  8
1
  6
Continuous
 62
     7
100
AcDbLine
 10
-263.1372082909888
 20
126.0357759500814
 30
0.0
 11
-263.0489195629306
 21
125.8057759500814
 31
0.0
  0
LINE
  5
B7
330
1F
100
AcDbEntity
  8
1
  6
Continuous
 62
     7
100
AcDbLine
 10
-262.9284745374539
 20
126.0357759500814
 30
0.0
 11
-263.1372082909888
 21
126.0357759500814
 31
0.0
  0
LINE
  5
B8
330
1F
100
AcDbEntity
  8
1
  6
Continuous
 62
     7
100
AcDbLine
 10
-262.8401858093957
 20
125.8057759500814
 30
0.0
 11
-262.9284745374539
 21
126.0357759500814
 31
0.0
  0
LINE
  5
B9
330
1F
100
AcDbEntity
  8
1
  6
Continuous
 62
     7
100
AcDbLine
 10
-262.5876858093957
 20
126.5852984316745
 30
0.0
 11
-262.3576858093957
 21
126.4970097036163
 31
0.0
  0
LINE
  5
BA
330
1F
100
AcDbEntity
  8
1
  6
Continuous
 62
     7
100
AcDbLine
 10
-262.5876858093957
 20
126.3765646781395
 30
0.0
 11
-262.5876858093957
 21
126.5852984316745
 31
0.0
  0
LINE
  5
BB
330
1F
100
AcDbEntity
  8
1
  6
Continuous
 62
     7
100
AcDbLine
 10
-262.3576858093957
 20
126.2882759500814
 30
0.0
 11
-262.5876858093957
 21
126.3765646781395
 31
0.0
  0
LINE
  5
BC
330
1F
100
AcDbEntity
  8
1
  6
Continuous
 62
     7
100
AcDbLine
 10
-262.3576858093957
 20
126.4970097036163
 30
0.0
 11
-262.3576858093957
 21
126.2882759500814
 31
0.0
  0
LINE
  5
BD
330
1F
100
AcDbEntity
  8
1
  6
Continuous
 62
     7
100
AcDbLine
 10
-262.1276858093956
 20
126.5852984316745
 30
0.0
 11
-262.3576858093957
 21
126.4970097036163
 31
0.0
  0
LINE
  5
BE
330
1F
100
AcDbEntity
  8
1
  6
Continuous
 62
     7
100
AcDbLine
 10
-262.1276858093956
 20
126.3765646781395
 30
0.0
 11
-262.1276858093956
 21
126.5852984316745
 31
0.0
  0
LINE
  5
BF
330
1F
100
AcDbEntity
  8
1
  6
Continuous
 62
     7
100
AcDbLine
 10
-262.3576858093957
 20
126.2882759500814
 30
0.0
 11
-262.1276858093956
 21
126.3765646781395
 31
0.0
  0
LINE
  5
C0
330
1F
100
AcDbEntity
  8
1
  6
Continuous
 62
     7
100
AcDbLine
 10
-261.5781633278026
 20
126.0357759500814
 30
0.0
 11
-261.6664520558606
 21
125.8057759500814
 31
0.0
  0
LINE
  5
C1
330
1F
100
AcDbEntity
  8
1
  6
Continuous
 62
     7
100
AcDbLine
 10
-261.7868970813375
 20
126.0357759500814
 30
0.0
 11
-261.5781633278026
 21
126.0357759500814
 31
0.0
  0
LINE
  5
C2
330
1F
100
AcDbEntity
  8
1
  6
Continuous
 62
     7
100
AcDbLine
 10
-261.8751858093957
 20
125.8057759500814
 30
0.0
 11
-261.7868970813375
 21
126.0357759500814
 31
0.0
  0
LINE
  5
C3
330
1F
100
AcDbEntity
  8
1
  6
Continuous
 62
     7
100
AcDbLine
 10
-261.6664520558606
 20
125.8057759500814
 30
0.0
 11
-261.8751858093957
 21
125.8057759500814
 31
0.0
  0
LINE
  5
C4
330
1F
100
AcDbEntity
  8
1
  6
Continuous
 62
     7
100
AcDbLine
 10
-261.5781633278026
 20
125.5757759500814
 30
0.0
 11
-261.6664520558606
 21
125.8057759500814
 31
0.0
  0
LINE
  5
C5
330
1F
100
AcDbEntity
  8
1
  6
Continuous
 62
     7
100
AcDbLine
 10
-261.7868970813375
 20
125.5757759500814
 30
0.0
 11
-261.5781633278026
 21
125.5757759500814
 31
0.0
  0
LINE
  5
C6
330
1F
100
AcDbEntity
  8
1
  6
Continuous
 62
     7
100
AcDbLine
 10
-261.8751858093957
 20
125.8057759500814
 30
0.0
 11
-261.7868970813375
 21
125.5757759500814
 31
0.0
  0
LINE
  5
C7
330
1F
100
AcDbEntity
  8
1
  6
Continuous
 62
     7
100
AcDbLine
 10
-262.1276858093956
 20
125.0262534684883
 30
0.0
 11
-262.3576858093957
 21
125.1145421965464
 31
0.0
  0
LINE
  5
C8
330
1F
100
AcDbEntity
  8
1
  6
Continuous
 62
     7
100
AcDbLine
 10
-262.1276858093956
 20
125.2349872220232
 30
0.0
 11
-262.1276858093956
 21
125.0262534684883
 31
0.0
  0
LINE
  5
C9
330
1F
100
AcDbEntity
  8
1
  6
Continuous
 62
     7
100
AcDbLine
 10
-262.3576858093957
 20
125.3232759500814
 30
0.0
 11
-262.1276858093956
 21
125.2349872220232
 31
0.0
  0
LINE
  5
CA
330
1F
100
AcDbEntity
  8
1
  6
Continuous
 62
     7
100
AcDbLine
 10
-262.3576858093957
 20
125.1145421965464
 30
0.0
 11
-262.3576858093957
 21
125.3232759500814
 31
0.0
  0
LINE
  5
CB
330
1F
100
AcDbEntity
  8
1
  6
Continuous
 62
     7
100
AcDbLine
 10
-262.5876858093957
 20
125.0262534684883
 30
0.0
 11
-262.3576858093957
 21
125.1145421965464
 31
0.0
  0
LINE
  5
CC
330
1F
100
AcDbEntity
  8
1
  6
Continuous
 62
     7
100
AcDbLine
 10
-262.5876858093957
 20
125.2349872220232
 30
0.0
 11
-262.5876858093957
 21
125.0262534684883
 31
0.0
  0
LINE
  5
CD
330
1F
100
AcDbEntity
  8
1
  6
Continuous
 62
     7
100
AcDbLine
 10
-262.3576858093957
 20
125.3232759500814
 30
0.0
 11
-262.5876858093957
 21
125.2349872220232
 31
0.0
  0
LINE
  5
CE
330
1F
100
AcDbEntity
  8
1
  6
Continuous
 62
     7
100
AcDbLine
 10
-262.8401858093957
 20
90.52114756887266
 30
0.0
 11
-262.9284745374538
 21
90.75114756887268
 31
0.0
  0
LINE
  5
CF
330
1F
100
AcDbEntity
  8
1
  6
Continuous
 62
     7
100
AcDbLine
 10
-262.9284745374538
 20
90.75114756887268
 30
0.0
 11
-263.1372082909888
 21
90.75114756887268
 31
0.0
  0
LINE
  5
D0
330
1F
100
AcDbEntity
  8
1
  6
Continuous
 62
     7
100
AcDbLine
 10
-263.1372082909888
 20
90.75114756887268
 30
0.0
 11
-263.0489195629306
 21
90.52114756887266
 31
0.0
  0
LINE
  5
D1
330
1F
100
AcDbEntity
  8
1
  6
Continuous
 62
     7
100
AcDbLine
 10
-263.0489195629306
 20
90.52114756887266
 30
0.0
 11
-262.8401858093957
 21
90.52114756887266
 31
0.0
  0
LINE
  5
D2
330
1F
100
AcDbEntity
  8
1
  6
Continuous
 62
     7
100
AcDbLine
 10
-262.8401858093957
 20
90.52114756887266
 30
0.0
 11
-262.9284745374538
 21
90.29114756887265
 31
0.0
  0
LINE
  5
D3
330
1F
100
AcDbEntity
  8
1
  6
Continuous
 62
     7
100
AcDbLine
 10
-262.9284745374538
 20
90.29114756887265
 30
0.0
 11
-263.1372082909888
 21
90.29114756887265
 31
0.0
  0
LINE
  5
D4
330
1F
100
AcDbEntity
  8
1
  6
Continuous
 62
     7
100
AcDbLine
 10
-263.1372082909888
 20
90.29114756887265
 30
0.0
 11
-263.0489195629306
 21
90.52114756887266
 31
0.0
  0
LINE
  5
D5
330
1F
100
AcDbEntity
  8
1
  6
Continuous
 62
     7
100
AcDbLine
 10
-262.3576858093957
 20
90.03864756887265
 30
0.0
 11
-262.5876858093957
 21
89.95035884081449
 31
0.0
  0
LINE
  5
D6
330
1F
100
AcDbEntity
  8
1
  6
Continuous
 62
     7
100
AcDbLine
 10
-262.5876858093957
 20
89.95035884081449
 30
0.0
 11
-262.5876858093957
 21
89.74162508727954
 31
0.0
  0
LINE
  5
D7
330
1F
100
AcDbEntity
  8
1
  6
Continuous
 62
     7
100
AcDbLine
 10
-262.5876858093957
 20
89.74162508727954
 30
0.0
 11
-262.3576858093957
 21
89.8299138153377
 31
0.0
  0
LINE
  5
D8
330
1F
100
AcDbEntity
  8
1
  6
Continuous
 62
     7
100
AcDbLine
 10
-262.3576858093957
 20
89.8299138153377
 30
0.0
 11
-262.3576858093957
 21
90.03864756887265
 31
0.0
  0
LINE
  5
D9
330
1F
100
AcDbEntity
  8
1
  6
Continuous
 62
     7
100
AcDbLine
 10
-262.3576858093957
 20
90.03864756887265
 30
0.0
 11
-262.1276858093956
 21
89.95035884081449
 31
0.0
  0
LINE
  5
DA
330
1F
100
AcDbEntity
  8
1
  6
Continuous
 62
     7
100
AcDbLine
 10
-262.1276858093956
 20
89.95035884081449
 30
0.0
 11
-262.1276858093956
 21
89.74162508727954
 31
0.0
  0
LINE
  5
DB
330
1F
100
AcDbEntity
  8
1
  6
Continuous
 62
     7
100
AcDbLine
 10
-262.1276858093956
 20
89.74162508727954
 30
0.0
 11
-262.3576858093957
 21
89.8299138153377
 31
0.0
  0
LINE
  5
DC
330
1F
100
AcDbEntity
  8
1
  6
Continuous
 62
     7
100
AcDbLine
 10
-261.8751858093957
 20
90.52114756887266
 30
0.0
 11
-261.7868970813375
 21
90.29114756887265
 31
0.0
  0
LINE
  5
DD
330
1F
100
AcDbEntity
  8
1
  6
Continuous
 62
     7
100
AcDbLine
 10
-261.7868970813375
 20
90.29114756887265
 30
0.0
 11
-261.5781633278026
 21
90.29114756887265
 31
0.0
  0
LINE
  5
DE
330
1F
100
AcDbEntity
  8
1
  6
Continuous
 62
     7
100
AcDbLine
 10
-261.5781633278026
 20
90.29114756887265
 30
0.0
 11
-261.6664520558606
 21
90.52114756887266
 31
0.0
  0
LINE
  5
DF
330
1F
100
AcDbEntity
  8
1
  6
Continuous
 62
     7
100
AcDbLine
 10
-261.6664520558606
 20
90.52114756887266
 30
0.0
 11
-261.8751858093957
 21
90.52114756887266
 31
0.0
  0
LINE
  5
E0
330
1F
100
AcDbEntity
  8
1
  6
Continuous
 62
     7
100
AcDbLine
 10
-261.8751858093957
 20
90.52114756887266
 30
0.0
 11
-261.7868970813375
 21
90.75114756887268
 31
0.0
  0
LINE
  5
E1
330
1F
100
AcDbEntity
  8
1
  6
Continuous
 62
     7
100
AcDbLine
 10
-261.7868970813375
 20
90.75114756887268
 30
0.0
 11
-261.5781633278026
 21
90.75114756887268
 31
0.0
  0
LINE
  5
E2
330
1F
100
AcDbEntity
  8
1
  6
Continuous
 62
     7
100
AcDbLine
 10
-261.5781633278026
 20
90.75114756887268
 30
0.0
 11
-261.6664520558606
 21
90.52114756887266
 31
0.0
  0
LINE
  5
E3
330
1F
100
AcDbEntity
  8
1
  6
Continuous
 62
     7
100
AcDbLine
 10
-262.3576858093957
 20
91.00364756887268
 30
0.0
 11
-262.1276858093956
 21
91.09193629693084
 31
0.0
  0
LINE
  5
E4
330
1F
100
AcDbEntity
  8
1
  6
Continuous
 62
     7
100
AcDbLine
 10
-262.1276858093956
 20
91.09193629693084
 30
0.0
 11
-262.1276858093956
 21
91.30067005046578
 31
0.0
  0
LINE
  5
E5
330
1F
100
AcDbEntity
  8
1
  6
Continuous
 62
     7
100
AcDbLine
 10
-262.1276858093956
 20
91.30067005046578
 30
0.0
 11
-262.3576858093957
 21
91.21238132240762
 31
0.0
  0
LINE
  5
E6
330
1F
100
AcDbEntity
  8
1
  6
Continuous
 62
     7
100
AcDbLine
 10
-262.3576858093957
 20
91.21238132240762
 30
0.0
 11
-262.3576858093957
 21
91.00364756887268
 31
0.0
  0
LINE
  5
E7
330
1F
100
AcDbEntity
  8
1
  6
Continuous
 62
     7
100
AcDbLine
 10
-262.3576858093957
 20
91.00364756887268
 30
0.0
 11
-262.5876858093957
 21
91.09193629693084
 31
0.0
  0
LINE
  5
E8
330
1F
100
AcDbEntity
  8
1
  6
Continuous
 62
     7
100
AcDbLine
 10
-262.5876858093957
 20
91.09193629693084
 30
0.0
 11
-262.5876858093957
 21
91.30067005046578
 31
0.0
  0
LINE
  5
E9
330
1F
100
AcDbEntity
  8
1
  6
Continuous
 62
     7
100
AcDbLine
 10
-262.5876858093957
 20
91.30067005046578
 30
0.0
 11
-262.3576858093957
 21
91.21238132240762
 31
0.0
  0
LINE
  5
EA
330
1F
100
AcDbEntity
  8
1
  6
Continuous
 62
     7
100
AcDbLine
 10
-262.9284745374538
 20
90.75114756887268
 30
0.0
 11
-262.9430986655883
 21
90.76714917009582
 31
0.0
  0
LINE
  5
EB
330
1F
100
AcDbEntity
  8
1
  6
Continuous
 62
     7
100
AcDbLine
 10
-262.9430986655883
 20
90.76714917009582
 30
0.0
 11
-263.7429295804992
 21
91.39204556755135
 31
0.0
  0
LINE
  5
EC
330
1F
100
AcDbEntity
  8
1
  6
Continuous
 62
     7
100
AcDbLine
 10
-263.7429295804992
 20
91.39204556755135
 30
0.0
 11
-263.1372082909888
 21
90.75114756887268
 31
0.0
  0
LINE
  5
ED
330
1F
100
AcDbEntity
  8
1
  6
Continuous
 62
     7
100
AcDbLine
 10
-262.9284745374538
 20
90.29114756887265
 30
0.0
 11
-262.9430986655883
 21
90.27514596764956
 31
0.0
  0
LINE
  5
EE
330
1F
100
AcDbEntity
  8
1
  6
Continuous
 62
     7
100
AcDbLine
 10
-262.9430986655883
 20
90.27514596764956
 30
0.0
 11
-263.7429295804992
 21
89.65024957019403
 31
0.0
  0
LINE
  5
EF
330
1F
100
AcDbEntity
  8
1
  6
Continuous
 62
     7
100
AcDbLine
 10
-263.7429295804992
 20
89.65024957019403
 30
0.0
 11
-263.1372082909888
 21
90.29114756887265
 31
0.0
  0
LINE
  5
F0
330
1F
100
AcDbEntity
  8
1
  6
Continuous
 62
     7
100
AcDbLine
 10
-262.5876858093957
 20
89.95035884081449
 30
0.0
 11
-262.6036874106188
 21
89.93573471268002
 31
0.0
  0
LINE
  5
F1
330
1F
100
AcDbEntity
  8
1
  6
Continuous
 62
     7
100
AcDbLine
 10
-262.6036874106188
 20
89.93573471268002
 30
0.0
 11
-263.2285838080743
 21
89.13590379776917
 31
0.0
  0
LINE
  5
F2
330
1F
100
AcDbEntity
  8
1
  6
Continuous
 62
     7
100
AcDbLine
 10
-263.2285838080743
 20
89.13590379776917
 30
0.0
 11
-262.5876858093957
 21
89.74162508727954
 31
0.0
  0
LINE
  5
F3
330
1F
100
AcDbEntity
  8
1
  6
Continuous
 62
     7
100
AcDbLine
 10
-262.1276858093956
 20
89.95035884081449
 30
0.0
 11
-262.1116842081725
 21
89.93573471268002
 31
0.0
  0
LINE
  5
F4
330
1F
100
AcDbEntity
  8
1
  6
Continuous
 62
     7
100
AcDbLine
 10
-262.1116842081725
 20
89.93573471268002
 30
0.0
 11
-261.486787810717
 21
89.13590379776917
 31
0.0
  0
LINE
  5
F5
330
1F
100
AcDbEntity
  8
1
  6
Continuous
 62
     7
100
AcDbLine
 10
-261.486787810717
 20
89.13590379776917
 30
0.0
 11
-262.1276858093956
 21
89.74162508727954
 31
0.0
  0
LINE
  5
F6
330
1F
100
AcDbEntity
  8
1
  6
Continuous
 62
     7
100
AcDbLine
 10
-261.7868970813375
 20
90.29114756887265
 30
0.0
 11
-261.772272953203
 21
90.27514596764951
 31
0.0
  0
LINE
  5
F7
330
1F
100
AcDbEntity
  8
1
  6
Continuous
 62
     7
100
AcDbLine
 10
-261.772272953203
 20
90.27514596764951
 30
0.0
 11
-260.9724420382922
 21
89.65024957019398
 31
0.0
  0
LINE
  5
F8
330
1F
100
AcDbEntity
  8
1
  6
Continuous
 62
     7
100
AcDbLine
 10
-260.9724420382922
 20
89.65024957019398
 30
0.0
 11
-261.5781633278026
 21
90.29114756887265
 31
0.0
  0
LINE
  5
F9
330
1F
100
AcDbEntity
  8
1
  6
Continuous
 62
     7
100
AcDbLine
 10
-261.7868970813375
 20
90.75114756887268
 30
0.0
 11
-261.772272953203
 21
90.76714917009576
 31
0.0
  0
LINE
  5
FA
330
1F
100
AcDbEntity
  8
1
  6
Continuous
 62
     7
100
AcDbLine
 10
-261.772272953203
 20
90.76714917009576
 30
0.0
 11
-260.9724420382922
 21
91.39204556755129
 31
0.0
  0
LINE
  5
FB
330
1F
100
AcDbEntity
  8
1
  6
Continuous
 62
     7
100
AcDbLine
 10
-260.9724420382922
 20
91.39204556755129
 30
0.0
 11
-261.5781633278026
 21
90.75114756887268
 31
0.0
  0
LINE
  5
FC
330
1F
100
AcDbEntity
  8
1
  6
Continuous
 62
     7
100
AcDbLine
 10
-262.1276858093956
 20
91.09193629693084
 30
0.0
 11
-262.1116842081725
 21
91.10656042506531
 31
0.0
  0
LINE
  5
FD
330
1F
100
AcDbEntity
  8
1
  6
Continuous
 62
     7
100
AcDbLine
 10
-262.1116842081725
 20
91.10656042506531
 30
0.0
 11
-261.486787810717
 21
91.90639133997615
 31
0.0
  0
LINE
  5
FE
330
1F
100
AcDbEntity
  8
1
  6
Continuous
 62
     7
100
AcDbLine
 10
-261.486787810717
 20
91.90639133997615
 30
0.0
 11
-262.1276858093956
 21
91.30067005046578
 31
0.0
  0
LINE
  5
FF
330
1F
100
AcDbEntity
  8
1
  6
Continuous
 62
     7
100
AcDbLine
 10
-262.5876858093957
 20
91.09193629693084
 30
0.0
 11
-262.6036874106188
 21
91.10656042506531
 31
0.0
  0
LINE
  5
100
330
1F
100
AcDbEntity
  8
1
  6
Continuous
 62
     7
100
AcDbLine
 10
-262.6036874106188
 20
91.10656042506531
 30
0.0
 11
-263.2285838080743
 21
91.90639133997615
 31
0.0
  0
LINE
  5
101
330
1F
100
AcDbEntity
  8
1
  6
Continuous
 62
     7
100
AcDbLine
 10
-263.2285838080743
 20
91.90639133997615
 30
0.0
 11
-262.5876858093957
 21
91.30067005046578
 31
0.0
  0
LINE
  5
102
330
1F
100
AcDbEntity
  8
1
  6
Continuous
 62
     7
100
AcDbLine
 10
-150.493776467207
 20
79.963461759477
 30
0.0
 11
-119.223776467207
 21
79.963461759477
 31
0.0
  0
LINE
  5
103
330
1F
100
AcDbEntity
  8
1
  6
Continuous
 62
     2
100
AcDbLine
 10
-155.319794282958
 20
48.3908548605711
 30
0.0
 11
-155.319794282958
 21
32.100003425632
 31
0.0
  0
LINE
  5
104
330
1F
100
AcDbEntity
  8
1
  6
Continuous
 62
     7
100
AcDbLine
 10
-18.06681333402497
 20
136.863461759477
 30
0.0
 11
-18.06681333402497
 21
136.363461759477
 31
0.0
  0
LINE
  5
105
330
1F
100
AcDbEntity
  8
1
  6
Continuous
 62
     7
100
AcDbLine
 10
-28.56681333402497
 20
136.863461759477
 30
0.0
 11
-28.56681333402497
 21
136.363461759477
 31
0.0
  0
LINE
  5
106
330
1F
100
AcDbEntity
  8
1
  6
Continuous
 62
     7
100
AcDbLine
 10
-27.56681333402497
 20
137.863461759477
 30
0.0
 11
-19.06681333402497
 21
137.863461759477
 31
0.0
  0
LINE
  5
107
330
1F
100
AcDbEntity
  8
1
  6
Continuous
 62
     7
100
AcDbLine
 10
2.52544856388175
 20
136.363461759477
 30
0.0
 11
-49.15907523193169
 21
136.363461759477
 31
0.0
  0
LINE
  5
108
330
1F
100
AcDbEntity
  8
1
  6
DASH_CENTER
 62
     3
100
AcDbLine
 10
4.25318666597503
 20
131.733461759477
 30
0.0
 11
-3.74681333402497
 21
131.733461759477
 31
0.0
  0
LINE
  5
109
330
1F
100
AcDbEntity
  8
1
  6
DASH_CENTER
 62
     3
100
AcDbLine
 10
0.25318666597502
 20
80.59346175947701
 30
0.0
 11
0.25318666597502
 21
88.59346175947701
 31
0.0
  0
LINE
  5
10A
330
1F
100
AcDbEntity
  8
1
  6
DASH_CENTER
 62
     3
100
AcDbLine
 10
-50.88681333402496
 20
84.59346175947701
 30
0.0
 11
-42.88681333402496
 21
84.59346175947701
 31
0.0
  0
LINE
  5
10B
330
1F
100
AcDbEntity
  8
1
  6
DASH_CENTER
 62
     3
100
AcDbLine
 10
0.25318666597503
 20
135.733461759477
 30
0.0
 11
0.25318666597503
 21
127.733461759477
 31
0.0
  0
LINE
  5
10C
330
1F
100
AcDbEntity
  8
1
  6
DASH_CENTER
 62
     3
100
AcDbLine
 10
4.25318666597502
 20
84.59346175947701
 30
0.0
 11
-3.74681333402498
 21
84.59346175947701
 31
0.0
  0
LINE
  5
10D
330
1F
100
AcDbEntity
  8
1
  6
DASH_CENTER
 62
     3
100
AcDbLine
 10
-46.88681333402496
 20
80.59346175947701
 30
0.0
 11
-46.88681333402496
 21
88.59346175947701
 31
0.0
  0
LINE
  5
10E
330
1F
100
AcDbEntity
  8
1
  6
DASH_CENTER
 62
     3
100
AcDbLine
 10
-46.88681333402497
 20
135.733461759477
 30
0.0
 11
-46.88681333402497
 21
127.733461759477
 31
0.0
  0
LINE
  5
10F
330
1F
100
AcDbEntity
  8
1
  6
DASH_CENTER
 62
     3
100
AcDbLine
 10
-50.88681333402497
 20
131.733461759477
 30
0.0
 11
-42.88681333402497
 21
131.733461759477
 31
0.0
  0
LINE
  5
110
330
1F
100
AcDbEntity
  8
1
  6
Continuous
 62
     7
100
AcDbLine
 10
-274.75
 20
136.863461759477
 30
0.0
 11
-274.75
 21
136.363461759477
 31
0.0
  0
LINE
  5
111
330
1F
100
AcDbEntity
  8
1
  6
Continuous
 62
     7
100
AcDbLine
 10
-285.25
 20
136.863461759477
 30
0.0
 11
-285.25
 21
136.363461759477
 31
0.0
  0
LINE
  5
112
330
1F
100
AcDbEntity
  8
1
  6
DASH_CENTER
 62
     3
100
AcDbLine
 10
-252.43
 20
131.733461759477
 30
0.0
 11
-260.43
 21
131.733461759477
 31
0.0
  0
LINE
  5
113
330
1F
100
AcDbEntity
  8
1
  6
DASH_CENTER
 62
     3
100
AcDbLine
 10
-256.43
 20
80.59346175947702
 30
0.0
 11
-256.43
 21
88.59346175947702
 31
0.0
  0
LINE
  5
114
330
1F
100
AcDbEntity
  8
1
  6
DASH_CENTER
 62
     3
100
AcDbLine
 10
-307.57
 20
84.59346175947702
 30
0.0
 11
-299.57
 21
84.59346175947702
 31
0.0
  0
LINE
  5
115
330
1F
100
AcDbEntity
  8
1
  6
DASH_CENTER
 62
     3
100
AcDbLine
 10
-256.43
 20
135.733461759477
 30
0.0
 11
-256.43
 21
127.733461759477
 31
0.0
  0
LINE
  5
116
330
1F
100
AcDbEntity
  8
1
  6
DASH_CENTER
 62
     3
100
AcDbLine
 10
-252.43
 20
84.59346175947702
 30
0.0
 11
-260.43
 21
84.59346175947702
 31
0.0
  0
LINE
  5
117
330
1F
100
AcDbEntity
  8
1
  6
DASH_CENTER
 62
     3
100
AcDbLine
 10
-303.57
 20
80.59346175947702
 30
0.0
 11
-303.57
 21
88.59346175947702
 31
0.0
  0
LINE
  5
118
330
1F
100
AcDbEntity
  8
1
  6
DASH_CENTER
 62
     3
100
AcDbLine
 10
-303.57
 20
135.733461759477
 30
0.0
 11
-303.57
 21
127.733461759477
 31
0.0
  0
LINE
  5
119
330
1F
100
AcDbEntity
  8
1
  6
DASH_CENTER
 62
     3
100
AcDbLine
 10
-307.57
 20
131.733461759477
 30
0.0
 11
-299.57
 21
131.733461759477
 31
0.0
  0
LINE
  5
11A
330
1F
100
AcDbEntity
  8
1
  6
Continuous
 62
     7
100
AcDbLine
 10
-119.423776467207
 20
136.363461759477
 30
0.0
 11
-119.423776467207
 21
137.363461759477
 31
0.0
  0
LINE
  5
11B
330
1F
100
AcDbEntity
  8
1
  6
Continuous
 62
     7
100
AcDbLine
 10
-126.223776467207
 20
136.363461759477
 30
0.0
 11
-126.223776467207
 21
79.963461759477
 31
0.0
  0
LINE
  5
11C
330
1F
100
AcDbEntity
  8
1
  6
DASH_CENTER
 62
     3
100
AcDbLine
 10
-112.526539613331
 20
108.163461759477
 30
0.0
 11
-177.964143683725
 21
108.163461759477
 31
0.0
  0
LINE
  5
11D
330
1F
100
AcDbEntity
  8
1
  6
DASH_CENTER
 62
     3
100
AcDbLine
 10
-155.900960658861
 20
84.59346175947701
 30
0.0
 11
-149.923009327632
 21
84.59346175947701
 31
0.0
  0
LINE
  5
11E
330
1F
100
AcDbEntity
  8
1
  6
DASHED
 62
     4
100
AcDbLine
 10
-155.323776467207
 20
82.053461759477
 30
0.0
 11
-150.493776467207
 21
82.053461759477
 31
0.0
  0
LINE
  5
11F
330
1F
100
AcDbEntity
  8
1
  6
Continuous
 62
     7
100
AcDbLine
 10
-150.493776467207
 20
107.269815490763
 30
0.0
 11
-150.493776467207
 21
79.963461759477
 31
0.0
  0
LINE
  5
120
330
1F
100
AcDbEntity
  8
1
  6
DASHED
 62
     4
100
AcDbLine
 10
-155.323776467207
 20
87.13346175947702
 30
0.0
 11
-150.493776467207
 21
87.13346175947702
 31
0.0
  0
LINE
  5
121
330
1F
100
AcDbEntity
  8
1
  6
DASH_CENTER
 62
     3
100
AcDbLine
 10
-155.992148420308
 20
131.733461759477
 30
0.0
 11
-149.674232416218
 21
131.733461759477
 31
0.0
  0
LINE
  5
122
330
1F
100
AcDbEntity
  8
1
  6
DASHED
 62
     4
100
AcDbLine
 10
-155.323776467207
 20
129.193461759477
 30
0.0
 11
-150.493776467207
 21
129.193461759477
 31
0.0
  0
LINE
  5
123
330
1F
100
AcDbEntity
  8
1
  6
DASHED
 62
     4
100
AcDbLine
 10
-155.323776467207
 20
134.273461759477
 30
0.0
 11
-150.493776467207
 21
134.273461759477
 31
0.0
  0
LINE
  5
124
330
1F
100
AcDbEntity
  8
1
  6
Continuous
 62
     7
100
AcDbLine
 10
-154.323776467207
 20
82.3195129250502
 30
0.0
 11
-151.493776467207
 21
82.3195129250502
 31
0.0
  0
LINE
  5
125
330
1F
100
AcDbEntity
  8
1
  6
Continuous
 62
     7
100
AcDbLine
 10
-154.323776467207
 20
134.007639731767
 30
0.0
 11
-151.493776467207
 21
134.007639731767
 31
0.0
  0
LINE
  5
126
330
1F
100
AcDbEntity
  8
1
  6
Continuous
 62
     3
100
AcDbLine
 10
-277.6
 20
150.0
 30
0.0
 11
-277.6
 21
137.863461759477
 31
0.0
  0
LINE
  5
127
330
1F
100
AcDbEntity
  8
1
  6
Continuous
 62
     3
100
AcDbLine
 10
-282.4
 20
150.0
 30
0.0
 11
-282.4
 21
137.863461759477
 31
0.0
  0
LINE
  5
128
330
1F
100
AcDbEntity
  8
1
  6
Continuous
 62
     3
100
AcDbLine
 10
-280.0
 20
150.0
 30
0.0
 11
-280.0
 21
137.863461759477
 31
0.0
  0
LINE
  5
129
330
1F
100
AcDbEntity
  8
1
  6
Continuous
 62
     3
100
AcDbLine
 10
-20.91681333402497
 20
150.012859639913
 30
0.0
 11
-20.91681333402497
 21
137.863461759477
 31
0.0
  0
LINE
  5
12A
330
1F
100
AcDbEntity
  8
1
  6
Continuous
 62
     3
100
AcDbLine
 10
-25.71681333402497
 20
150.012859639913
 30
0.0
 11
-25.71681333402497
 21
137.863461759477
 31
0.0
  0
LINE
  5
12B
330
1F
100
AcDbEntity
  8
1
  6
Continuous
 62
     3
100
AcDbLine
 10
-23.31681333402497
 20
150.012859639913
 30
0.0
 11
-23.31681333402497
 21
137.863461759477
 31
0.0
  0
LINE
  5
12C
330
1F
100
AcDbEntity
  8
1
  6
Continuous
 62
     3
100
AcDbLine
 10
-122.023776467207
 20
186.363461759477
 30
0.0
 11
-121.423776467207
 21
186.363461759477
 31
0.0
  0
LINE
  5
12D
330
1F
100
AcDbEntity
  8
1
  6
Continuous
 62
     7
100
AcDbLine
 10
-122.023776467207
 20
195.963461759477
 30
0.0
 11
-122.023776467207
 21
186.363461759477
 31
0.0
  0
LINE
  5
12E
330
1F
100
AcDbEntity
  8
1
  6
Continuous
 62
     7
100
AcDbLine
 10
-125.623776467207
 20
195.963461759477
 30
0.0
 11
-125.623776467207
 21
186.363461759477
 31
0.0
  0
LINE
  5
12F
330
1F
100
AcDbEntity
  8
1
  6
Continuous
 62
     7
100
AcDbLine
 10
-124.423776467207
 20
195.963461759477
 30
0.0
 11
-124.423776467207
 21
186.363461759477
 31
0.0
  0
LINE
  5
130
330
1F
100
AcDbEntity
  8
1
  6
Continuous
 62
     7
100
AcDbLine
 10
-123.223776467207
 20
195.963461759477
 30
0.0
 11
-123.223776467207
 21
186.363461759477
 31
0.0
  0
LINE
  5
131
330
1F
100
AcDbEntity
  8
1
  6
Continuous
 62
     7
100
AcDbLine
 10
-117.223776467207
 20
134.363461759477
 30
0.0
 11
-117.223776467207
 21
81.963461759477
 31
0.0
  0
LINE
  5
132
330
1F
100
AcDbEntity
  8
1
  6
Continuous
 62
     7
100
AcDbLine
 10
-254.1577381020933
 20
136.363461759477
 30
0.0
 11
-305.8422618979068
 21
136.363461759477
 31
0.0
  0
LINE
  5
133
330
1F
100
AcDbEntity
  8
1
  6
Continuous
 62
     7
100
AcDbLine
 10
-128.223776467207
 20
137.363461759477
 30
0.0
 11
-128.223776467207
 21
136.363461759477
 31
0.0
  0
LINE
  5
134
330
1F
100
AcDbEntity
  8
1
  6
Continuous
 62
     7
100
AcDbLine
 10
-175.193776467207
 20
111.338461759477
 30
0.0
 11
-175.193776467207
 21
104.988461759477
 31
0.0
  0
LINE
  5
135
330
1F
100
AcDbEntity
  8
1
  6
DASH_CENTER
 62
     3
100
AcDbLine
 10
-55.82906536376501
 20
108.163461759477
 30
0.0
 11
8.053933121272
 21
108.163461759477
 31
0.0
  0
LINE
  5
136
330
1F
100
AcDbEntity
  8
1
  6
Continuous
 62
     7
100
AcDbLine
 10
4.88318666597502
 20
134.0057236573837
 30
0.0
 11
4.88318666597502
 21
82.32119986157029
 31
0.0
  0
LINE
  5
137
330
1F
100
AcDbEntity
  8
1
  6
Continuous
 62
     7
100
AcDbLine
 10
-51.51681333402496
 20
134.0057236573837
 30
0.0
 11
-51.51681333402496
 21
82.32119986157029
 31
0.0
  0
LINE
  5
138
330
1F
100
AcDbEntity
  8
1
  6
Continuous
 62
     7
100
AcDbLine
 10
-49.15907523193167
 20
79.963461759477
 30
0.0
 11
2.5254485638817
 21
79.963461759477
 31
0.0
  0
LINE
  5
139
330
1F
100
AcDbEntity
  8
1
  6
DASH_CENTER
 62
     3
100
AcDbLine
 10
-311.370746455297
 20
108.163461759477
 30
0.0
 11
-247.48774797026
 21
108.163461759477
 31
0.0
  0
LINE
  5
13A
330
1F
100
AcDbEntity
  8
1
  6
Continuous
 62
     7
100
AcDbLine
 10
-308.2
 20
134.0057236573837
 30
0.0
 11
-308.2
 21
82.32119986157029
 31
0.0
  0
LINE
  5
13B
330
1F
100
AcDbEntity
  8
1
  6
Continuous
 62
     7
100
AcDbLine
 10
-251.8
 20
82.32119986157029
 30
0.0
 11
-251.8
 21
134.0057236573837
 31
0.0
  0
LINE
  5
13C
330
1F
100
AcDbEntity
  8
1
  6
Continuous
 62
     7
100
AcDbLine
 10
-305.8422618979067
 20
79.963461759477
 30
0.0
 11
-254.1577381020933
 21
79.963461759477
 31
0.0
  0
LINE
  5
13D
330
1F
100
AcDbEntity
  8
1
  6
Continuous
 62
     7
100
AcDbLine
 10
-155.323776467207
 20
136.363461759477
 30
0.0
 11
-119.223776467207
 21
136.363461759477
 31
0.0
  0
LINE
  5
13E
330
1F
100
AcDbEntity
  8
1
  6
Continuous
 62
     7
100
AcDbLine
 10
-150.493776467207
 20
136.363461759477
 30
0.0
 11
-150.493776467207
 21
108.938961564422
 31
0.0
  0
LINE
  5
13F
330
1F
100
AcDbEntity
  8
1
  6
Continuous
 62
     7
100
AcDbLine
 10
-155.323776467207
 20
79.963461759477
 30
0.0
 11
-150.493776467207
 21
79.963461759477
 31
0.0
  0
LINE
  5
140
330
1F
100
AcDbEntity
  8
1
  6
Continuous
 62
     7
100
AcDbLine
 10
-175.893776467207
 20
105.688461759477
 30
0.0
 11
-175.193776467207
 21
104.988461759477
 31
0.0
  0
LINE
  5
141
330
1F
100
AcDbEntity
  8
1
  6
Continuous
 62
     7
100
AcDbLine
 10
-175.893776467207
 20
110.638461759477
 30
0.0
 11
-175.193776467207
 21
111.338461759477
 31
0.0
  0
LINE
  5
142
330
1F
100
AcDbEntity
  8
1
  6
Continuous
 62
     7
100
AcDbLine
 10
-175.893776467207
 20
110.638461759477
 30
0.0
 11
-175.893776467207
 21
105.688461759477
 31
0.0
  0
LINE
  5
143
330
1F
100
AcDbEntity
  8
1
  6
Continuous
 62
     7
100
AcDbLine
 10
-175.193776467207
 20
104.988461759477
 30
0.0
 11
-156.843776467207
 21
104.988461759477
 31
0.0
  0
LINE
  5
144
330
1F
100
AcDbEntity
  8
1
  6
Continuous
 62
     7
100
AcDbLine
 10
-175.193776467207
 20
111.338461759477
 30
0.0
 11
-156.843776467207
 21
111.338461759477
 31
0.0
  0
LINE
  5
145
330
1F
100
AcDbEntity
  8
1
  6
Continuous
 62
     7
100
AcDbLine
 10
-156.843776467207
 20
127.213461759477
 30
0.0
 11
-156.843776467207
 21
89.113461759477
 31
0.0
  0
LINE
  5
146
330
1F
100
AcDbEntity
  8
1
  6
Continuous
 62
     7
100
AcDbLine
 10
-155.323776467207
 20
136.363461759477
 30
0.0
 11
-155.323776467207
 21
79.963461759477
 31
0.0
  0
LINE
  5
147
330
1F
100
AcDbEntity
  8
1
  6
Continuous
 62
     7
100
AcDbLine
 10
-156.843776467207
 20
89.113461759477
 30
0.0
 11
-155.323776467207
 21
89.113461759477
 31
0.0
  0
LINE
  5
148
330
1F
100
AcDbEntity
  8
1
  6
Continuous
 62
     7
100
AcDbLine
 10
-156.843776467207
 20
127.213461759477
 30
0.0
 11
-155.323776467207
 21
127.213461759477
 31
0.0
  0
LINE
  5
149
330
1F
100
AcDbEntity
  8
1
  6
Continuous
 62
     3
100
AcDbLine
 10
-281.2
 20
150.298685967598
 30
0.0
 11
-281.2
 21
137.863461759477
 31
0.0
  0
LINE
  5
14A
330
1F
100
AcDbEntity
  8
1
  6
Continuous
 62
     3
100
AcDbLine
 10
-278.8
 20
149.755300571353
 30
0.0
 11
-278.8
 21
137.863461759477
 31
0.0
  0
LINE
  5
14B
330
1F
100
AcDbEntity
  8
1
  6
Continuous
 62
     7
100
AcDbLine
 10
-284.25
 20
137.863461759477
 30
0.0
 11
-275.75
 21
137.863461759477
 31
0.0
  0
LINE
  5
14C
330
1F
100
AcDbEntity
  8
1
  6
Continuous
 62
     3
100
AcDbLine
 10
-24.51681333402497
 20
150.408339908538
 30
0.0
 11
-24.51681333402497
 21
137.863461759477
 31
0.0
  0
LINE
  5
14D
330
1F
100
AcDbEntity
  8
1
  6
Continuous
 62
     3
100
AcDbLine
 10
-22.11681333402497
 20
149.623185444799
 30
0.0
 11
-22.11681333402497
 21
137.863461759477
 31
0.0
  0
LINE
  5
14E
330
1F
100
AcDbEntity
  8
1
  6
Continuous
 62
     3
100
AcDbLine
 10
-126.223776467207
 20
186.363461759477
 30
0.0
 11
-126.223776467207
 21
163.863461759477
 31
0.0
  0
LINE
  5
14F
330
1F
100
AcDbEntity
  8
1
  6
Continuous
 62
     3
100
AcDbLine
 10
-125.023776467207
 20
186.363461759477
 30
0.0
 11
-125.023776467207
 21
164.363461759477
 31
0.0
  0
LINE
  5
150
330
1F
100
AcDbEntity
  8
1
  6
Continuous
 62
     3
100
AcDbLine
 10
-123.823776467207
 20
186.363461759477
 30
0.0
 11
-123.823776467207
 21
163.863461759477
 31
0.0
  0
LINE
  5
151
330
1F
100
AcDbEntity
  8
1
  6
Continuous
 62
     3
100
AcDbLine
 10
-122.623776467207
 20
186.363461759477
 30
0.0
 11
-122.623776467207
 21
163.363461759477
 31
0.0
  0
LINE
  5
152
330
1F
100
AcDbEntity
  8
1
  6
Continuous
 62
     3
100
AcDbLine
 10
-126.223776467207
 20
186.363461759477
 30
0.0
 11
-122.023776467207
 21
186.363461759477
 31
0.0
  0
LINE
  5
153
330
1F
100
AcDbEntity
  8
1
  6
Continuous
 62
     3
100
AcDbLine
 10
-121.423776467207
 20
186.363461759477
 30
0.0
 11
-121.423776467207
 21
163.863461759477
 31
0.0
  0
LINE
  5
154
330
1F
100
AcDbEntity
  8
1
  6
Continuous
 62
     3
100
AcDbLine
 10
-126.223776467207
 20
137.863461759477
 30
0.0
 11
-126.223776467207
 21
161.863461759477
 31
0.0
  0
LINE
  5
155
330
1F
100
AcDbEntity
  8
1
  6
Continuous
 62
     3
100
AcDbLine
 10
-125.023776467207
 20
137.863461759477
 30
0.0
 11
-125.023776467207
 21
162.363461759477
 31
0.0
  0
LINE
  5
156
330
1F
100
AcDbEntity
  8
1
  6
Continuous
 62
     3
100
AcDbLine
 10
-123.823776467207
 20
137.863461759477
 30
0.0
 11
-123.823776467207
 21
161.863461759477
 31
0.0
  0
LINE
  5
157
330
1F
100
AcDbEntity
  8
1
  6
Continuous
 62
     3
100
AcDbLine
 10
-122.623776467207
 20
137.863461759477
 30
0.0
 11
-122.623776467207
 21
161.363461759477
 31
0.0
  0
LINE
  5
158
330
1F
100
AcDbEntity
  8
1
  6
Continuous
 62
     3
100
AcDbLine
 10
-121.423776467207
 20
137.863461759477
 30
0.0
 11
-121.423776467207
 21
161.863461759477
 31
0.0
  0
LINE
  5
159
330
1F
100
AcDbEntity
  8
1
  6
Continuous
 62
     7
100
AcDbLine
 10
-127.723776467207
 20
137.863461759477
 30
0.0
 11
-119.923776467207
 21
137.863461759477
 31
0.0
  0
LINE
  5
15A
330
1F
100
AcDbEntity
  8
1
  6
DASH_CENTER
 62
     3
100
AcDbLine
 10
-23.31681333402497
 20
153.473045571717
 30
0.0
 11
-23.31681333402497
 21
75.0595837352692
 31
0.0
  0
LINE
  5
15B
330
1F
100
AcDbEntity
  8
1
  6
DASH_CENTER
 62
     3
100
AcDbLine
 10
-280.0
 20
151.685384254617
 30
0.0
 11
-280.0
 21
75.2494702200777
 31
0.0
  0
LINE
  5
15C
330
1F
100
AcDbEntity
  8
1
  6
Continuous
 62
     7
100
AcDbLine
 10
-130.393776467207
 20
83.16346175947697
 30
0.0
 11
-146.393776467207
 21
83.16346175947697
 31
0.0
  0
LINE
  5
15D
330
1F
100
AcDbEntity
  8
1
  6
Continuous
 62
     7
100
AcDbLine
 10
-128.393776467207
 20
131.163461759477
 30
0.0
 11
-128.393776467207
 21
85.16346175947697
 31
0.0
  0
LINE
  5
15E
330
1F
100
AcDbEntity
  8
1
  6
Continuous
 62
     7
100
AcDbLine
 10
-146.393776467207
 20
133.163461759477
 30
0.0
 11
-130.393776467207
 21
133.163461759477
 31
0.0
  0
LINE
  5
15F
330
1F
100
AcDbEntity
  8
1
  6
Continuous
 62
     7
100
AcDbLine
 10
-148.393776467207
 20
85.16346175947697
 30
0.0
 11
-148.393776467207
 21
131.163461759477
 31
0.0
  0
LINE
  5
160
330
1F
100
AcDbEntity
  8
1
  6
Continuous
 62
     7
100
AcDbLine
 10
-142.9211300356299
 20
109.4083845145558
 30
0.0
 11
-142.9211300356299
 21
91.31167721433272
 31
0.0
  0
LINE
  5
161
330
1F
100
AcDbEntity
  8
1
  6
Continuous
 62
     7
100
AcDbLine
 10
-142.4064464560382
 20
109.2872824958283
 30
0.0
 11
-142.4064464560382
 21
91.18297581478427
 31
0.0
  0
LINE
  5
162
330
1F
100
AcDbEntity
  8
1
  6
Continuous
 62
     7
100
AcDbLine
 10
-141.8917628764465
 20
109.5294865332832
 30
0.0
 11
-141.8917628764465
 21
91.03115317266438
 31
0.0
  0
LINE
  5
163
330
1F
100
AcDbEntity
  8
1
  6
Continuous
 62
     7
100
AcDbLine
 10
-146.8872211489541
 20
86.58065398443037
 30
0.0
 11
-146.8872211489541
 21
93.54402006125909
 31
0.0
  0
LINE
  5
164
330
1F
100
AcDbEntity
  8
1
  6
Continuous
 62
     7
100
AcDbLine
 10
-146.4633640834079
 20
86.58065398443037
 30
0.0
 11
-146.4633640834079
 21
93.42871861194854
 31
0.0
  0
LINE
  5
165
330
1F
100
AcDbEntity
  8
1
  6
Continuous
 62
     7
100
AcDbLine
 10
-145.9486805038163
 20
86.5503784797485
 30
0.0
 11
-145.9486805038163
 21
93.29853416331824
 31
0.0
  0
LINE
  5
166
330
1F
100
AcDbEntity
  8
1
  6
Continuous
 62
     7
100
AcDbLine
 10
-146.9174966536359
 20
93.54402006125909
 30
0.0
 11
-141.8917628764465
 21
92.27244886462077
 31
0.0
  0
LINE
  5
167
330
1F
100
AcDbEntity
  8
1
  6
Continuous
 62
     7
100
AcDbLine
 10
-146.8872211489541
 20
93.0293364816674
 30
0.0
 11
-141.8917628764465
 21
91.72748978034727
 31
0.0
  0
LINE
  5
168
330
1F
100
AcDbEntity
  8
1
  6
Continuous
 62
     7
100
AcDbLine
 10
-146.8872211489541
 20
92.36327537866637
 30
0.0
 11
-141.8312118670828
 21
91.03115317266438
 31
0.0
  0
LINE
  5
169
330
1F
100
AcDbEntity
  8
1
  6
Continuous
 62
     7
100
AcDbLine
 10
-145.5753547281823
 20
108.1214084419497
 30
0.0
 11
-144.4784797281823
 21
108.6131606414295
 31
0.0
  0
LINE
  5
16A
330
1F
100
AcDbEntity
  8
1
  6
Continuous
 62
     7
100
AcDbLine
 10
-144.4784797281823
 20
107.8275016715018
 30
0.0
 11
-143.3816047281823
 21
107.5335949010539
 31
0.0
  0
LINE
  5
16B
330
1F
100
AcDbEntity
  8
1
  6
Continuous
 62
     7
100
AcDbLine
 10
-144.4784797281823
 20
107.8275016715018
 30
0.0
 11
-143.3816047281823
 21
108.3192538709816
 31
0.0
  0
LINE
  5
16C
330
1F
100
AcDbEntity
  8
1
  6
Continuous
 62
     7
100
AcDbLine
 10
-143.3816047281823
 20
108.3192538709816
 30
0.0
 11
-143.3816047281823
 21
109.3674710036468
 31
0.0
  0
LINE
  5
16D
330
1F
100
AcDbEntity
  8
1
  6
Continuous
 62
     7
100
AcDbLine
 10
-145.5753547281823
 20
108.9070674118773
 30
0.0
 11
-144.4784797281823
 21
108.6131606414295
 31
0.0
  0
LINE
  5
16E
330
1F
100
AcDbEntity
  8
1
  6
Continuous
 62
     7
100
AcDbLine
 10
-143.3816047281823
 20
109.3674710036468
 30
0.0
 11
-145.5753547281823
 21
109.9552845445425
 31
0.0
  0
LINE
  5
16F
330
1F
100
AcDbEntity
  8
1
  6
Continuous
 62
     7
100
AcDbLine
 10
-145.5753547281823
 20
109.9552845445425
 30
0.0
 11
-145.5753547281823
 21
108.9070674118773
 31
0.0
  0
LINE
  5
170
330
1F
100
AcDbEntity
  8
1
  6
Continuous
 62
     7
100
AcDbLine
 10
-143.3816047281823
 20
106.4853777683887
 30
0.0
 11
-143.3816047281823
 21
107.5335949010539
 31
0.0
  0
LINE
  5
171
330
1F
100
AcDbEntity
  8
1
  6
Continuous
 62
     7
100
AcDbLine
 10
-145.5753547281823
 20
107.0731913092845
 30
0.0
 11
-143.3816047281823
 21
106.4853777683887
 31
0.0
  0
LINE
  5
172
330
1F
100
AcDbEntity
  8
1
  6
Continuous
 62
     7
100
AcDbLine
 10
-145.5753547281823
 20
108.1214084419497
 30
0.0
 11
-145.5753547281823
 21
107.0731913092845
 31
0.0
  0
LINE
  5
173
330
1F
100
AcDbEntity
  8
1
  6
Continuous
 62
     7
100
AcDbLine
 10
-145.5753547281823
 20
87.16035175782227
 30
0.0
 11
-145.5753547281823
 21
89.01660175782231
 31
0.0
  0
LINE
  5
174
330
1F
100
AcDbEntity
  8
1
  6
Continuous
 62
     7
100
AcDbLine
 10
-145.5753547281823
 20
89.01660175782231
 30
0.0
 11
-145.1703547281823
 21
88.90808233488767
 31
0.0
  0
LINE
  5
175
330
1F
100
AcDbEntity
  8
1
  6
Continuous
 62
     7
100
AcDbLine
 10
-145.1703547281823
 20
88.90808233488767
 30
0.0
 11
-145.1703547281823
 21
87.92534661210871
 31
0.0
  0
LINE
  5
176
330
1F
100
AcDbEntity
  8
1
  6
Continuous
 62
     7
100
AcDbLine
 10
-145.1703547281823
 20
87.92534661210871
 30
0.0
 11
-144.6809797281823
 21
87.7942189760627
 31
0.0
  0
LINE
  5
177
330
1F
100
AcDbEntity
  8
1
  6
Continuous
 62
     7
100
AcDbLine
 10
-144.6809797281823
 20
87.7942189760627
 30
0.0
 11
-144.6809797281823
 21
88.7769546988417
 31
0.0
  0
LINE
  5
178
330
1F
100
AcDbEntity
  8
1
  6
Continuous
 62
     7
100
AcDbLine
 10
-144.6809797281823
 20
88.7769546988417
 30
0.0
 11
-144.2759797281823
 21
88.66843527590711
 31
0.0
  0
LINE
  5
179
330
1F
100
AcDbEntity
  8
1
  6
Continuous
 62
     7
100
AcDbLine
 10
-144.2759797281823
 20
88.66843527590711
 30
0.0
 11
-144.2759797281823
 21
87.6856995531281
 31
0.0
  0
LINE
  5
17A
330
1F
100
AcDbEntity
  8
1
  6
Continuous
 62
     7
100
AcDbLine
 10
-144.2759797281823
 20
87.6856995531281
 30
0.0
 11
-143.7866047281823
 21
87.55457191708214
 31
0.0
  0
LINE
  5
17B
330
1F
100
AcDbEntity
  8
1
  6
Continuous
 62
     7
100
AcDbLine
 10
-143.7866047281823
 20
87.55457191708214
 30
0.0
 11
-143.7866047281823
 21
88.53730763986115
 31
0.0
  0
LINE
  5
17C
330
1F
100
AcDbEntity
  8
1
  6
Continuous
 62
     7
100
AcDbLine
 10
-143.7866047281823
 20
88.53730763986115
 30
0.0
 11
-143.3816047281823
 21
88.4287882169265
 31
0.0
  0
LINE
  5
17D
330
1F
100
AcDbEntity
  8
1
  6
Continuous
 62
     7
100
AcDbLine
 10
-143.3816047281823
 20
88.4287882169265
 30
0.0
 11
-143.3816047281823
 21
86.57253821692652
 31
0.0
  0
LINE
  5
17E
330
1F
100
AcDbEntity
  8
1
  6
Continuous
 62
     7
100
AcDbLine
 10
-143.3816047281823
 20
86.57253821692652
 30
0.0
 11
-145.5753547281823
 21
87.16035175782227
 31
0.0
  0
LINE
  5
17F
330
1F
100
AcDbEntity
  8
1
  6
Continuous
 62
     7
100
AcDbLine
 10
-145.1703547281823
 20
91.52862516655071
 30
0.0
 11
-144.8148129425125
 21
91.43335803220495
 31
0.0
  0
LINE
  5
180
330
1F
100
AcDbEntity
  8
1
  6
Continuous
 62
     7
100
AcDbLine
 10
-144.1325422281823
 20
91.23791196871613
 30
0.0
 11
-143.6428846735599
 21
91.11934079895192
 31
0.0
  0
LINE
  5
181
330
1F
100
AcDbEntity
  8
1
  6
Continuous
 62
     7
100
AcDbLine
 10
-143.3816047281823
 20
94.66451531391996
 30
0.0
 11
-143.3816047281823
 21
95.33951531391997
 31
0.0
  0
LINE
  5
182
330
1F
100
AcDbEntity
  8
1
  6
Continuous
 62
     7
100
AcDbLine
 10
-143.3816047281823
 20
93.14576531391995
 30
0.0
 11
-143.3816047281823
 21
93.98951531391995
 31
0.0
  0
LINE
  5
183
330
1F
100
AcDbEntity
  8
1
  6
Continuous
 62
     7
100
AcDbLine
 10
-145.5753547281823
 20
93.85855789753091
 30
0.0
 11
-143.3816047281823
 21
93.14576531391995
 31
0.0
  0
LINE
  5
184
330
1F
100
AcDbEntity
  8
1
  6
Continuous
 62
     7
100
AcDbLine
 10
-145.5753547281823
 20
94.8710578975309
 30
0.0
 11
-145.5753547281823
 21
93.85855789753091
 31
0.0
  0
LINE
  5
185
330
1F
100
AcDbEntity
  8
1
  6
Continuous
 62
     7
100
AcDbLine
 10
-143.3816047281823
 20
95.7148078975309
 30
0.0
 11
-143.3816047281823
 21
96.5585578975309
 31
0.0
  0
LINE
  5
186
330
1F
100
AcDbEntity
  8
1
  6
Continuous
 62
     7
100
AcDbLine
 10
-145.5753547281823
 20
95.37730789753093
 30
0.0
 11
-145.5753547281823
 21
96.38980789753091
 31
0.0
  0
LINE
  5
187
330
1F
100
AcDbEntity
  8
1
  6
Continuous
 62
     7
100
AcDbLine
 10
-144.9003547281823
 20
94.48298710257367
 30
0.0
 11
-143.3816047281823
 21
94.66451531391996
 31
0.0
  0
LINE
  5
188
330
1F
100
AcDbEntity
  8
1
  6
Continuous
 62
     7
100
AcDbLine
 10
-144.9003547281823
 20
94.48298710257367
 30
0.0
 11
-143.3816047281823
 21
93.98951531391995
 31
0.0
  0
LINE
  5
189
330
1F
100
AcDbEntity
  8
1
  6
Continuous
 62
     7
100
AcDbLine
 10
-144.2253547281823
 20
95.0324163076165
 30
0.0
 11
-145.5753547281823
 21
94.8710578975309
 31
0.0
  0
LINE
  5
18A
330
1F
100
AcDbEntity
  8
1
  6
Continuous
 62
     7
100
AcDbLine
 10
-144.9003547281823
 20
95.7148078975309
 30
0.0
 11
-143.3816047281823
 21
95.33951531391997
 31
0.0
  0
LINE
  5
18B
330
1F
100
AcDbEntity
  8
1
  6
Continuous
 62
     7
100
AcDbLine
 10
-145.5753547281823
 20
95.37730789753093
 30
0.0
 11
-144.2253547281823
 21
95.0324163076165
 31
0.0
  0
LINE
  5
18C
330
1F
100
AcDbEntity
  8
1
  6
Continuous
 62
     7
100
AcDbLine
 10
-145.5753547281823
 20
96.38980789753091
 30
0.0
 11
-143.3816047281823
 21
96.5585578975309
 31
0.0
  0
LINE
  5
18D
330
1F
100
AcDbEntity
  8
1
  6
Continuous
 62
     7
100
AcDbLine
 10
-144.9003547281823
 20
95.7148078975309
 30
0.0
 11
-143.3816047281823
 21
95.7148078975309
 31
0.0
  0
LINE
  5
18E
330
1F
100
AcDbEntity
  8
1
  6
Continuous
 62
     7
100
AcDbLine
 10
-145.5753547281823
 20
100.1144236024219
 30
0.0
 11
-144.9003547281823
 21
99.9335578975309
 31
0.0
  0
LINE
  5
18F
330
1F
100
AcDbEntity
  8
1
  6
Continuous
 62
     7
100
AcDbLine
 10
-144.9003547281823
 20
99.9335578975309
 30
0.0
 11
-144.9003547281823
 21
100.5063243311983
 31
0.0
  0
LINE
  5
190
330
1F
100
AcDbEntity
  8
1
  6
Continuous
 62
     7
100
AcDbLine
 10
-144.9003547281823
 20
100.5063243311983
 30
0.0
 11
-143.3816047281823
 21
100.0993764951935
 31
0.0
  0
LINE
  5
191
330
1F
100
AcDbEntity
  8
1
  6
Continuous
 62
     7
100
AcDbLine
 10
-143.3816047281823
 20
100.0993764951935
 30
0.0
 11
-143.3816047281823
 21
101.1475936278588
 31
0.0
  0
LINE
  5
192
330
1F
100
AcDbEntity
  8
1
  6
Continuous
 62
     7
100
AcDbLine
 10
-143.3816047281823
 20
101.1475936278588
 30
0.0
 11
-144.9003547281823
 21
101.5545414638635
 31
0.0
  0
LINE
  5
193
330
1F
100
AcDbEntity
  8
1
  6
Continuous
 62
     7
100
AcDbLine
 10
-144.9003547281823
 20
101.5545414638635
 30
0.0
 11
-144.9003547281823
 21
101.9464421926399
 31
0.0
  0
LINE
  5
194
330
1F
100
AcDbEntity
  8
1
  6
Continuous
 62
     7
100
AcDbLine
 10
-144.9003547281823
 20
101.9464421926399
 30
0.0
 11
-145.5753547281823
 21
102.1273078975309
 31
0.0
  0
LINE
  5
195
330
1F
100
AcDbEntity
  8
1
  6
Continuous
 62
     7
100
AcDbLine
 10
-145.5753547281823
 20
102.1273078975309
 30
0.0
 11
-145.5753547281823
 21
100.1144236024219
 31
0.0
  0
LINE
  5
196
330
1F
100
AcDbEntity
  8
1
  6
Continuous
 62
     7
100
AcDbLine
 10
-145.5753547281823
 20
103.3502278856403
 30
0.0
 11
-145.5753547281823
 21
102.3020107529751
 31
0.0
  0
LINE
  5
197
330
1F
100
AcDbEntity
  8
1
  6
Continuous
 62
     7
100
AcDbLine
 10
-145.5753547281823
 20
102.3020107529751
 30
0.0
 11
-143.3816047281823
 21
101.7141972120793
 31
0.0
  0
LINE
  5
198
330
1F
100
AcDbEntity
  8
1
  6
Continuous
 62
     7
100
AcDbLine
 10
-143.3816047281823
 20
101.7141972120793
 30
0.0
 11
-143.3816047281823
 21
102.7624143447445
 31
0.0
  0
LINE
  5
199
330
1F
100
AcDbEntity
  8
1
  6
Continuous
 62
     7
100
AcDbLine
 10
-143.3816047281823
 20
102.7624143447445
 30
0.0
 11
-145.5753547281823
 21
103.3502278856403
 31
0.0
  0
LINE
  5
19A
330
1F
100
AcDbEntity
  8
1
  6
Continuous
 62
     4
100
AcDbLine
 10
-177.5057702568235
 20
32.3155454877698
 30
0.0
 11
-176.373417315647
 21
35.8155454877698
 31
0.0
  0
LINE
  5
19B
330
1F
100
AcDbEntity
  8
1
  6
Continuous
 62
     4
100
AcDbLine
 10
-176.373417315647
 20
35.8155454877698
 30
0.0
 11
-175.2410643744705
 21
32.3155454877698
 31
0.0
  0
LINE
  5
19C
330
1F
100
AcDbEntity
  8
1
  6
Continuous
 62
     4
100
AcDbLine
 10
-177.1969467274117
 20
33.24887882110313
 30
0.0
 11
-175.5498879038823
 21
33.24887882110313
 31
0.0
  0
LINE
  5
19D
330
1F
100
AcDbEntity
  8
1
  6
Continuous
 62
     4
100
AcDbLine
 10
-190.7851820215294
 20
35.8155454877698
 30
0.0
 11
-191.4028290803529
 21
35.58221215443647
 31
0.0
  0
LINE
  5
19E
330
1F
100
AcDbEntity
  8
1
  6
Continuous
 62
     4
100
AcDbLine
 10
-191.4028290803529
 20
35.58221215443647
 30
0.0
 11
-191.7116526097646
 21
34.99887882110313
 31
0.0
  0
LINE
  5
19F
330
1F
100
AcDbEntity
  8
1
  6
Continuous
 62
     4
100
AcDbLine
 10
-191.7116526097646
 20
34.99887882110313
 30
0.0
 11
-191.9175349627058
 21
34.0655454877698
 31
0.0
  0
LINE
  5
1A0
330
1F
100
AcDbEntity
  8
1
  6
Continuous
 62
     4
100
AcDbLine
 10
-191.9175349627058
 20
34.0655454877698
 30
0.0
 11
-191.7116526097646
 21
33.13221215443647
 31
0.0
  0
LINE
  5
1A1
330
1F
100
AcDbEntity
  8
1
  6
Continuous
 62
     4
100
AcDbLine
 10
-191.7116526097646
 20
33.13221215443647
 30
0.0
 11
-191.4028290803529
 21
32.54887882110314
 31
0.0
  0
LINE
  5
1A2
330
1F
100
AcDbEntity
  8
1
  6
Continuous
 62
     4
100
AcDbLine
 10
-191.4028290803529
 20
32.54887882110314
 30
0.0
 11
-190.7851820215294
 21
32.3155454877698
 31
0.0
  0
LINE
  5
1A3
330
1F
100
AcDbEntity
  8
1
  6
Continuous
 62
     4
100
AcDbLine
 10
-190.7851820215294
 20
32.3155454877698
 30
0.0
 11
-190.1675349627058
 21
32.54887882110314
 31
0.0
  0
LINE
  5
1A4
330
1F
100
AcDbEntity
  8
1
  6
Continuous
 62
     4
100
AcDbLine
 10
-190.1675349627058
 20
32.54887882110314
 30
0.0
 11
-189.7557702568235
 21
33.13221215443647
 31
0.0
  0
LINE
  5
1A5
330
1F
100
AcDbEntity
  8
1
  6
Continuous
 62
     4
100
AcDbLine
 10
-189.7557702568235
 20
33.13221215443647
 30
0.0
 11
-189.6528290803529
 21
34.0655454877698
 31
0.0
  0
LINE
  5
1A6
330
1F
100
AcDbEntity
  8
1
  6
Continuous
 62
     4
100
AcDbLine
 10
-189.6528290803529
 20
34.0655454877698
 30
0.0
 11
-189.7557702568235
 21
34.99887882110313
 31
0.0
  0
LINE
  5
1A7
330
1F
100
AcDbEntity
  8
1
  6
Continuous
 62
     4
100
AcDbLine
 10
-189.7557702568235
 20
34.99887882110313
 30
0.0
 11
-190.1675349627058
 21
35.58221215443647
 31
0.0
  0
LINE
  5
1A8
330
1F
100
AcDbEntity
  8
1
  6
Continuous
 62
     4
100
AcDbLine
 10
-190.1675349627058
 20
35.58221215443647
 30
0.0
 11
-190.7851820215294
 21
35.8155454877698
 31
0.0
  0
LINE
  5
1A9
330
1F
100
AcDbEntity
  8
1
  6
Continuous
 62
     4
100
AcDbLine
 10
-188.4175349627058
 20
32.89887882110314
 30
0.0
 11
-188.2116526097647
 21
32.66554548776981
 31
0.0
  0
LINE
  5
1AA
330
1F
100
AcDbEntity
  8
1
  6
Continuous
 62
     4
100
AcDbLine
 10
-188.2116526097647
 20
32.66554548776981
 30
0.0
 11
-188.4175349627058
 21
32.43221215443647
 31
0.0
  0
LINE
  5
1AB
330
1F
100
AcDbEntity
  8
1
  6
Continuous
 62
     4
100
AcDbLine
 10
-188.4175349627058
 20
32.43221215443647
 30
0.0
 11
-188.623417315647
 21
32.66554548776981
 31
0.0
  0
LINE
  5
1AC
330
1F
100
AcDbEntity
  8
1
  6
Continuous
 62
     4
100
AcDbLine
 10
-188.623417315647
 20
32.66554548776981
 30
0.0
 11
-188.4175349627058
 21
32.89887882110314
 31
0.0
  0
LINE
  5
1AD
330
1F
100
AcDbEntity
  8
1
  6
Continuous
 62
     4
100
AcDbLine
 10
-188.3145937862352
 20
32.78221215443647
 30
0.0
 11
-188.3145937862352
 21
32.54887882110314
 31
0.0
  0
LINE
  5
1AE
330
1F
100
AcDbEntity
  8
1
  6
Continuous
 62
     4
100
AcDbLine
 10
-188.3145937862352
 20
32.54887882110314
 30
0.0
 11
-188.5204761391764
 21
32.54887882110314
 31
0.0
  0
LINE
  5
1AF
330
1F
100
AcDbEntity
  8
1
  6
Continuous
 62
     4
100
AcDbLine
 10
-188.5204761391764
 20
32.54887882110314
 30
0.0
 11
-188.5204761391764
 21
32.78221215443647
 31
0.0
  0
LINE
  5
1B0
330
1F
100
AcDbEntity
  8
1
  6
Continuous
 62
     4
100
AcDbLine
 10
-188.5204761391764
 20
32.78221215443647
 30
0.0
 11
-188.3145937862352
 21
32.78221215443647
 31
0.0
  0
LINE
  5
1B1
330
1F
100
AcDbEntity
  8
1
  6
Continuous
 62
     4
100
AcDbLine
 10
-188.4175349627058
 20
32.78221215443647
 30
0.0
 11
-188.3145937862352
 21
32.66554548776981
 31
0.0
  0
LINE
  5
1B2
330
1F
100
AcDbEntity
  8
1
  6
Continuous
 62
     4
100
AcDbLine
 10
-188.3145937862352
 20
32.66554548776981
 30
0.0
 11
-188.4175349627058
 21
32.54887882110314
 31
0.0
  0
LINE
  5
1B3
330
1F
100
AcDbEntity
  8
1
  6
Continuous
 62
     4
100
AcDbLine
 10
-188.4175349627058
 20
32.54887882110314
 30
0.0
 11
-188.5204761391764
 21
32.66554548776981
 31
0.0
  0
LINE
  5
1B4
330
1F
100
AcDbEntity
  8
1
  6
Continuous
 62
     4
100
AcDbLine
 10
-188.5204761391764
 20
32.66554548776981
 30
0.0
 11
-188.4175349627058
 21
32.78221215443647
 31
0.0
  0
LINE
  5
1B5
330
1F
100
AcDbEntity
  8
1
  6
Continuous
 62
     4
100
AcDbLine
 10
-186.0498879038823
 20
35.8155454877698
 30
0.0
 11
-186.6675349627058
 21
35.58221215443647
 31
0.0
  0
LINE
  5
1B6
330
1F
100
AcDbEntity
  8
1
  6
Continuous
 62
     4
100
AcDbLine
 10
-186.6675349627058
 20
35.58221215443647
 30
0.0
 11
-186.9763584921176
 21
34.99887882110313
 31
0.0
  0
LINE
  5
1B7
330
1F
100
AcDbEntity
  8
1
  6
Continuous
 62
     4
100
AcDbLine
 10
-186.9763584921176
 20
34.99887882110313
 30
0.0
 11
-187.1822408450588
 21
34.0655454877698
 31
0.0
  0
LINE
  5
1B8
330
1F
100
AcDbEntity
  8
1
  6
Continuous
 62
     4
100
AcDbLine
 10
-187.1822408450588
 20
34.0655454877698
 30
0.0
 11
-186.9763584921176
 21
33.13221215443647
 31
0.0
  0
LINE
  5
1B9
330
1F
100
AcDbEntity
  8
1
  6
Continuous
 62
     4
100
AcDbLine
 10
-186.9763584921176
 20
33.13221215443647
 30
0.0
 11
-186.6675349627058
 21
32.54887882110314
 31
0.0
  0
LINE
  5
1BA
330
1F
100
AcDbEntity
  8
1
  6
Continuous
 62
     4
100
AcDbLine
 10
-186.6675349627058
 20
32.54887882110314
 30
0.0
 11
-186.0498879038823
 21
32.3155454877698
 31
0.0
  0
LINE
  5
1BB
330
1F
100
AcDbEntity
  8
1
  6
Continuous
 62
     4
100
AcDbLine
 10
-186.0498879038823
 20
32.3155454877698
 30
0.0
 11
-185.4322408450588
 21
32.54887882110314
 31
0.0
  0
LINE
  5
1BC
330
1F
100
AcDbEntity
  8
1
  6
Continuous
 62
     4
100
AcDbLine
 10
-185.4322408450588
 20
32.54887882110314
 30
0.0
 11
-185.0204761391764
 21
33.13221215443647
 31
0.0
  0
LINE
  5
1BD
330
1F
100
AcDbEntity
  8
1
  6
Continuous
 62
     4
100
AcDbLine
 10
-185.0204761391764
 20
33.13221215443647
 30
0.0
 11
-184.9175349627058
 21
34.0655454877698
 31
0.0
  0
LINE
  5
1BE
330
1F
100
AcDbEntity
  8
1
  6
Continuous
 62
     4
100
AcDbLine
 10
-184.9175349627058
 20
34.0655454877698
 30
0.0
 11
-185.0204761391764
 21
34.99887882110313
 31
0.0
  0
LINE
  5
1BF
330
1F
100
AcDbEntity
  8
1
  6
Continuous
 62
     4
100
AcDbLine
 10
-185.0204761391764
 20
34.99887882110313
 30
0.0
 11
-185.4322408450588
 21
35.58221215443647
 31
0.0
  0
LINE
  5
1C0
330
1F
100
AcDbEntity
  8
1
  6
Continuous
 62
     4
100
AcDbLine
 10
-185.4322408450588
 20
35.58221215443647
 30
0.0
 11
-186.0498879038823
 21
35.8155454877698
 31
0.0
  0
LINE
  5
1C1
330
1F
100
AcDbEntity
  8
1
  6
Continuous
 62
     4
100
AcDbLine
 10
-183.8881231979999
 20
35.8155454877698
 30
0.0
 11
-181.8292996685882
 21
35.8155454877698
 31
0.0
  0
LINE
  5
1C2
330
1F
100
AcDbEntity
  8
1
  6
Continuous
 62
     4
100
AcDbLine
 10
-181.8292996685882
 20
35.8155454877698
 30
0.0
 11
-182.6528290803529
 21
34.18221215443647
 31
0.0
  0
LINE
  5
1C3
330
1F
100
AcDbEntity
  8
1
  6
Continuous
 62
     4
100
AcDbLine
 10
-182.6528290803529
 20
34.18221215443647
 30
0.0
 11
-182.8587114332941
 21
33.13221215443647
 31
0.0
  0
LINE
  5
1C4
330
1F
100
AcDbEntity
  8
1
  6
Continuous
 62
     4
100
AcDbLine
 10
-182.8587114332941
 20
33.13221215443647
 30
0.0
 11
-182.8587114332941
 21
32.3155454877698
 31
0.0
  0
LINE
  5
1C5
330
1F
100
AcDbEntity
  8
1
  6
Continuous
 62
     4
100
AcDbLine
 10
-199.998417315647
 20
31.4405454877698
 30
0.0
 11
-194.748417315647
 21
31.4405454877698
 31
0.0
  0
LINE
  5
1C6
330
1F
100
AcDbEntity
  8
1
  6
Continuous
 62
     4
100
AcDbLine
 10
-197.373417315647
 20
31.4405454877698
 30
0.0
 11
-197.373417315647
 21
36.6905454877698
 31
0.0
  0
LINE
  5
1C7
330
1F
100
AcDbEntity
  8
1
  6
Continuous
 62
     4
100
AcDbLine
 10
-200.873417315647
 20
30.5655454877698
 30
0.0
 11
-172.873417315647
 21
30.5655454877698
 31
0.0
  0
LINE
  5
1C8
330
1F
100
AcDbEntity
  8
1
  6
Continuous
 62
     4
100
AcDbLine
 10
-193.873417315647
 20
30.5655454877698
 30
0.0
 11
-193.873417315647
 21
37.5655454877698
 31
0.0
  0
LINE
  5
1C9
330
1F
100
AcDbEntity
  8
1
  6
Continuous
 62
     4
100
AcDbLine
 10
-172.873417315647
 20
37.5655454877698
 30
0.0
 11
-200.873417315647
 21
37.5655454877698
 31
0.0
  0
LINE
  5
1CA
330
1F
100
AcDbEntity
  8
1
  6
Continuous
 62
     4
100
AcDbLine
 10
-200.873417315647
 20
37.5655454877698
 30
0.0
 11
-200.873417315647
 21
30.5655454877698
 31
0.0
  0
LINE
  5
1CB
330
1F
100
AcDbEntity
  8
1
  6
Continuous
 62
     4
100
AcDbLine
 10
-172.873417315647
 20
30.5655454877698
 30
0.0
 11
-172.873417315647
 21
37.5655454877698
 31
0.0
  0
LINE
  5
1CC
330
1F
100
AcDbEntity
  8
1
  6
Continuous
 62
     4
100
AcDbLine
 10
-179.873417315647
 20
37.5655454877698
 30
0.0
 11
-179.873417315647
 21
30.5655454877698
 31
0.0
  0
LINE
  5
1CD
330
1F
100
AcDbEntity
  8
1
  6
Continuous
 62
     4
100
AcDbLine
 10
-198.146155176553
 20
175.1808892913466
 30
0.0
 11
-201.646155176553
 21
176.313242232523
 31
0.0
  0
LINE
  5
1CE
330
1F
100
AcDbEntity
  8
1
  6
Continuous
 62
     4
100
AcDbLine
 10
-201.646155176553
 20
176.313242232523
 30
0.0
 11
-198.146155176553
 21
177.4455951736995
 31
0.0
  0
LINE
  5
1CF
330
1F
100
AcDbEntity
  8
1
  6
Continuous
 62
     4
100
AcDbLine
 10
-199.0794885098864
 20
175.4897128207583
 30
0.0
 11
-199.0794885098864
 21
177.1367716442877
 31
0.0
  0
LINE
  5
1D0
330
1F
100
AcDbEntity
  8
1
  6
Continuous
 62
     4
100
AcDbLine
 10
-198.146155176553
 20
161.4468206638956
 30
0.0
 11
-201.536780176553
 21
162.1759873305622
 31
0.0
  0
LINE
  5
1D1
330
1F
100
AcDbEntity
  8
1
  6
Continuous
 62
     4
100
AcDbLine
 10
-200.661780176553
 20
162.0301539972289
 30
0.0
 11
-200.661780176553
 21
161.7384873305622
 31
0.0
  0
LINE
  5
1D2
330
1F
100
AcDbEntity
  8
1
  6
Continuous
 62
     4
100
AcDbLine
 10
-200.661780176553
 20
161.7384873305622
 30
0.0
 11
-200.443030176553
 21
161.4468206638956
 31
0.0
  0
LINE
  5
1D3
330
1F
100
AcDbEntity
  8
1
  6
Continuous
 62
     4
100
AcDbLine
 10
-200.443030176553
 20
161.4468206638956
 30
0.0
 11
-199.896155176553
 21
161.2280706638956
 31
0.0
  0
LINE
  5
1D4
330
1F
100
AcDbEntity
  8
1
  6
Continuous
 62
     4
100
AcDbLine
 10
-199.896155176553
 20
161.2280706638956
 30
0.0
 11
-199.458655176553
 21
161.2280706638956
 31
0.0
  0
LINE
  5
1D5
330
1F
100
AcDbEntity
  8
1
  6
Continuous
 62
     4
100
AcDbLine
 10
-199.458655176553
 20
161.2280706638956
 30
0.0
 11
-199.021155176553
 21
161.3739039972289
 31
0.0
  0
LINE
  5
1D6
330
1F
100
AcDbEntity
  8
1
  6
Continuous
 62
     4
100
AcDbLine
 10
-199.021155176553
 20
161.3739039972289
 30
0.0
 11
-198.911780176553
 21
161.5926539972289
 31
0.0
  0
LINE
  5
1D7
330
1F
100
AcDbEntity
  8
1
  6
Continuous
 62
     4
100
AcDbLine
 10
-198.911780176553
 20
161.5926539972289
 30
0.0
 11
-198.911780176553
 21
161.8843206638956
 31
0.0
  0
LINE
  5
1D8
330
1F
100
AcDbEntity
  8
1
  6
Continuous
 62
     4
100
AcDbLine
 10
-198.911780176553
 20
161.8843206638956
 30
0.0
 11
-199.130530176553
 21
162.1759873305622
 31
0.0
  0
LINE
  5
1D9
330
1F
100
AcDbEntity
  8
1
  6
Continuous
 62
     4
100
AcDbLine
 10
-199.130530176553
 20
162.1759873305622
 30
0.0
 11
-199.677405176553
 21
162.3947373305622
 31
0.0
  0
LINE
  5
1DA
330
1F
100
AcDbEntity
  8
1
  6
Continuous
 62
     4
100
AcDbLine
 10
-199.677405176553
 20
162.3947373305622
 30
0.0
 11
-200.114905176553
 21
162.3947373305622
 31
0.0
  0
LINE
  5
1DB
330
1F
100
AcDbEntity
  8
1
  6
Continuous
 62
     4
100
AcDbLine
 10
-200.114905176553
 20
162.3947373305622
 30
0.0
 11
-200.552405176553
 21
162.2489039972289
 31
0.0
  0
LINE
  5
1DC
330
1F
100
AcDbEntity
  8
1
  6
Continuous
 62
     4
100
AcDbLine
 10
-200.552405176553
 20
162.2489039972289
 30
0.0
 11
-200.661780176553
 21
162.0301539972289
 31
0.0
  0
LINE
  5
1DD
330
1F
100
AcDbEntity
  8
1
  6
Continuous
 62
     4
100
AcDbLine
 10
-201.646155176553
 20
164.1919187031112
 30
0.0
 11
-201.4128218432197
 21
163.7286834089936
 31
0.0
  0
LINE
  5
1DE
330
1F
100
AcDbEntity
  8
1
  6
Continuous
 62
     4
100
AcDbLine
 10
-201.4128218432197
 20
163.7286834089936
 30
0.0
 11
-200.8294885098864
 21
163.4970657619348
 31
0.0
  0
LINE
  5
1DF
330
1F
100
AcDbEntity
  8
1
  6
Continuous
 62
     4
100
AcDbLine
 10
-200.8294885098864
 20
163.4970657619348
 30
0.0
 11
-199.896155176553
 21
163.3426539972289
 31
0.0
  0
LINE
  5
1E0
330
1F
100
AcDbEntity
  8
1
  6
Continuous
 62
     4
100
AcDbLine
 10
-199.896155176553
 20
163.3426539972289
 30
0.0
 11
-198.9628218432197
 21
163.4970657619348
 31
0.0
  0
LINE
  5
1E1
330
1F
100
AcDbEntity
  8
1
  6
Continuous
 62
     4
100
AcDbLine
 10
-198.9628218432197
 20
163.4970657619348
 30
0.0
 11
-198.3794885098863
 21
163.7286834089936
 31
0.0
  0
LINE
  5
1E2
330
1F
100
AcDbEntity
  8
1
  6
Continuous
 62
     4
100
AcDbLine
 10
-198.3794885098863
 20
163.7286834089936
 30
0.0
 11
-198.146155176553
 21
164.1919187031112
 31
0.0
  0
LINE
  5
1E3
330
1F
100
AcDbEntity
  8
1
  6
Continuous
 62
     4
100
AcDbLine
 10
-198.146155176553
 20
164.1919187031112
 30
0.0
 11
-198.3794885098863
 21
164.6551539972289
 31
0.0
  0
LINE
  5
1E4
330
1F
100
AcDbEntity
  8
1
  6
Continuous
 62
     4
100
AcDbLine
 10
-198.3794885098863
 20
164.6551539972289
 30
0.0
 11
-198.9628218432197
 21
164.9639775266407
 31
0.0
  0
LINE
  5
1E5
330
1F
100
AcDbEntity
  8
1
  6
Continuous
 62
     4
100
AcDbLine
 10
-198.9628218432197
 20
164.9639775266407
 30
0.0
 11
-199.896155176553
 21
165.0411834089936
 31
0.0
  0
LINE
  5
1E6
330
1F
100
AcDbEntity
  8
1
  6
Continuous
 62
     4
100
AcDbLine
 10
-199.896155176553
 20
165.0411834089936
 30
0.0
 11
-200.8294885098864
 21
164.9639775266407
 31
0.0
  0
LINE
  5
1E7
330
1F
100
AcDbEntity
  8
1
  6
Continuous
 62
     4
100
AcDbLine
 10
-200.8294885098864
 20
164.9639775266407
 30
0.0
 11
-201.4128218432197
 21
164.6551539972289
 31
0.0
  0
LINE
  5
1E8
330
1F
100
AcDbEntity
  8
1
  6
Continuous
 62
     4
100
AcDbLine
 10
-201.4128218432197
 20
164.6551539972289
 30
0.0
 11
-201.646155176553
 21
164.1919187031112
 31
0.0
  0
LINE
  5
1E9
330
1F
100
AcDbEntity
  8
1
  6
Continuous
 62
     4
100
AcDbLine
 10
-198.7294885098864
 20
165.9676539972289
 30
0.0
 11
-198.496155176553
 21
166.1220657619348
 31
0.0
  0
LINE
  5
1EA
330
1F
100
AcDbEntity
  8
1
  6
Continuous
 62
     4
100
AcDbLine
 10
-198.496155176553
 20
166.1220657619348
 30
0.0
 11
-198.2628218432197
 21
165.9676539972289
 31
0.0
  0
LINE
  5
1EB
330
1F
100
AcDbEntity
  8
1
  6
Continuous
 62
     4
100
AcDbLine
 10
-198.2628218432197
 20
165.9676539972289
 30
0.0
 11
-198.496155176553
 21
165.813242232523
 31
0.0
  0
LINE
  5
1EC
330
1F
100
AcDbEntity
  8
1
  6
Continuous
 62
     4
100
AcDbLine
 10
-198.496155176553
 20
165.813242232523
 30
0.0
 11
-198.7294885098864
 21
165.9676539972289
 31
0.0
  0
LINE
  5
1ED
330
1F
100
AcDbEntity
  8
1
  6
Continuous
 62
     4
100
AcDbLine
 10
-198.6128218432197
 20
166.0448598795818
 30
0.0
 11
-198.3794885098863
 21
166.0448598795818
 31
0.0
  0
LINE
  5
1EE
330
1F
100
AcDbEntity
  8
1
  6
Continuous
 62
     4
100
AcDbLine
 10
-198.3794885098863
 20
166.0448598795818
 30
0.0
 11
-198.3794885098863
 21
165.8904481148759
 31
0.0
  0
LINE
  5
1EF
330
1F
100
AcDbEntity
  8
1
  6
Continuous
 62
     4
100
AcDbLine
 10
-198.3794885098863
 20
165.8904481148759
 30
0.0
 11
-198.6128218432197
 21
165.8904481148759
 31
0.0
  0
LINE
  5
1F0
330
1F
100
AcDbEntity
  8
1
  6
Continuous
 62
     4
100
AcDbLine
 10
-198.6128218432197
 20
165.8904481148759
 30
0.0
 11
-198.6128218432197
 21
166.0448598795818
 31
0.0
  0
LINE
  5
1F1
330
1F
100
AcDbEntity
  8
1
  6
Continuous
 62
     4
100
AcDbLine
 10
-198.6128218432197
 20
165.9676539972289
 30
0.0
 11
-198.496155176553
 21
166.0448598795818
 31
0.0
  0
LINE
  5
1F2
330
1F
100
AcDbEntity
  8
1
  6
Continuous
 62
     4
100
AcDbLine
 10
-198.496155176553
 20
166.0448598795818
 30
0.0
 11
-198.3794885098863
 21
165.9676539972289
 31
0.0
  0
LINE
  5
1F3
330
1F
100
AcDbEntity
  8
1
  6
Continuous
 62
     4
100
AcDbLine
 10
-198.3794885098863
 20
165.9676539972289
 30
0.0
 11
-198.496155176553
 21
165.8904481148759
 31
0.0
  0
LINE
  5
1F4
330
1F
100
AcDbEntity
  8
1
  6
Continuous
 62
     4
100
AcDbLine
 10
-198.496155176553
 20
165.8904481148759
 30
0.0
 11
-198.6128218432197
 21
165.9676539972289
 31
0.0
  0
LINE
  5
1F5
330
1F
100
AcDbEntity
  8
1
  6
Continuous
 62
     4
100
AcDbLine
 10
-201.646155176553
 20
167.7433892913466
 30
0.0
 11
-201.4128218432197
 21
167.2801539972289
 31
0.0
  0
LINE
  5
1F6
330
1F
100
AcDbEntity
  8
1
  6
Continuous
 62
     4
100
AcDbLine
 10
-201.4128218432197
 20
167.2801539972289
 30
0.0
 11
-200.8294885098864
 21
167.0485363501701
 31
0.0
  0
LINE
  5
1F7
330
1F
100
AcDbEntity
  8
1
  6
Continuous
 62
     4
100
AcDbLine
 10
-200.8294885098864
 20
167.0485363501701
 30
0.0
 11
-199.896155176553
 21
166.8941245854642
 31
0.0
  0
LINE
  5
1F8
330
1F
100
AcDbEntity
  8
1
  6
Continuous
 62
     4
100
AcDbLine
 10
-199.896155176553
 20
166.8941245854642
 30
0.0
 11
-198.9628218432197
 21
167.0485363501701
 31
0.0
  0
LINE
  5
1F9
330
1F
100
AcDbEntity
  8
1
  6
Continuous
 62
     4
100
AcDbLine
 10
-198.9628218432197
 20
167.0485363501701
 30
0.0
 11
-198.3794885098863
 21
167.2801539972289
 31
0.0
  0
LINE
  5
1FA
330
1F
100
AcDbEntity
  8
1
  6
Continuous
 62
     4
100
AcDbLine
 10
-198.3794885098863
 20
167.2801539972289
 30
0.0
 11
-198.146155176553
 21
167.7433892913466
 31
0.0
  0
LINE
  5
1FB
330
1F
100
AcDbEntity
  8
1
  6
Continuous
 62
     4
100
AcDbLine
 10
-198.146155176553
 20
167.7433892913466
 30
0.0
 11
-198.3794885098863
 21
168.2066245854642
 31
0.0
  0
LINE
  5
1FC
330
1F
100
AcDbEntity
  8
1
  6
Continuous
 62
     4
100
AcDbLine
 10
-198.3794885098863
 20
168.2066245854642
 30
0.0
 11
-198.9628218432197
 21
168.515448114876
 31
0.0
  0
LINE
  5
1FD
330
1F
100
AcDbEntity
  8
1
  6
Continuous
 62
     4
100
AcDbLine
 10
-198.9628218432197
 20
168.515448114876
 30
0.0
 11
-199.896155176553
 21
168.5926539972289
 31
0.0
  0
LINE
  5
1FE
330
1F
100
AcDbEntity
  8
1
  6
Continuous
 62
     4
100
AcDbLine
 10
-199.896155176553
 20
168.5926539972289
 30
0.0
 11
-200.8294885098864
 21
168.515448114876
 31
0.0
  0
LINE
  5
1FF
330
1F
100
AcDbEntity
  8
1
  6
Continuous
 62
     4
100
AcDbLine
 10
-200.8294885098864
 20
168.515448114876
 30
0.0
 11
-201.4128218432197
 21
168.2066245854642
 31
0.0
  0
LINE
  5
200
330
1F
100
AcDbEntity
  8
1
  6
Continuous
 62
     4
100
AcDbLine
 10
-201.4128218432197
 20
168.2066245854642
 30
0.0
 11
-201.646155176553
 21
167.7433892913466
 31
0.0
  0
LINE
  5
201
330
1F
100
AcDbEntity
  8
1
  6
Continuous
 62
     4
100
AcDbLine
 10
-201.646155176553
 20
169.3647128207583
 30
0.0
 11
-201.646155176553
 21
170.9088304678171
 31
0.0
  0
LINE
  5
202
330
1F
100
AcDbEntity
  8
1
  6
Continuous
 62
     4
100
AcDbLine
 10
-201.646155176553
 20
170.9088304678171
 30
0.0
 11
-200.0128218432197
 21
170.2911834089936
 31
0.0
  0
LINE
  5
203
330
1F
100
AcDbEntity
  8
1
  6
Continuous
 62
     4
100
AcDbLine
 10
-200.0128218432197
 20
170.2911834089936
 30
0.0
 11
-198.9628218432197
 21
170.1367716442877
 31
0.0
  0
LINE
  5
204
330
1F
100
AcDbEntity
  8
1
  6
Continuous
 62
     4
100
AcDbLine
 10
-198.9628218432197
 20
170.1367716442877
 30
0.0
 11
-198.146155176553
 21
170.1367716442877
 31
0.0
  0
LINE
  5
205
330
1F
100
AcDbEntity
  8
1
  6
Continuous
 62
     4
100
AcDbLine
 10
-200.246155176553
 20
153.563242232523
 30
0.0
 11
-199.546155176553
 21
153.563242232523
 31
0.0
  0
LINE
  5
206
330
1F
100
AcDbEntity
  8
1
  6
Continuous
 62
     4
100
AcDbLine
 10
-199.546155176553
 20
153.563242232523
 30
0.0
 11
-198.846155176553
 21
153.913242232523
 31
0.0
  0
LINE
  5
207
330
1F
100
AcDbEntity
  8
1
  6
Continuous
 62
     4
100
AcDbLine
 10
-198.846155176553
 20
153.913242232523
 30
0.0
 11
-198.496155176553
 21
154.263242232523
 31
0.0
  0
LINE
  5
208
330
1F
100
AcDbEntity
  8
1
  6
Continuous
 62
     4
100
AcDbLine
 10
-198.496155176553
 20
154.263242232523
 30
0.0
 11
-198.146155176553
 21
154.963242232523
 31
0.0
  0
LINE
  5
209
330
1F
100
AcDbEntity
  8
1
  6
Continuous
 62
     4
100
AcDbLine
 10
-198.146155176553
 20
154.963242232523
 30
0.0
 11
-198.146155176553
 21
155.663242232523
 31
0.0
  0
LINE
  5
20A
330
1F
100
AcDbEntity
  8
1
  6
Continuous
 62
     4
100
AcDbLine
 10
-198.146155176553
 20
155.663242232523
 30
0.0
 11
-198.496155176553
 21
156.363242232523
 31
0.0
  0
LINE
  5
20B
330
1F
100
AcDbEntity
  8
1
  6
Continuous
 62
     4
100
AcDbLine
 10
-198.496155176553
 20
156.363242232523
 30
0.0
 11
-198.846155176553
 21
156.713242232523
 31
0.0
  0
LINE
  5
20C
330
1F
100
AcDbEntity
  8
1
  6
Continuous
 62
     4
100
AcDbLine
 10
-198.846155176553
 20
156.713242232523
 30
0.0
 11
-199.546155176553
 21
157.063242232523
 31
0.0
  0
LINE
  5
20D
330
1F
100
AcDbEntity
  8
1
  6
Continuous
 62
     4
100
AcDbLine
 10
-199.546155176553
 20
157.063242232523
 30
0.0
 11
-200.246155176553
 21
157.063242232523
 31
0.0
  0
LINE
  5
20E
330
1F
100
AcDbEntity
  8
1
  6
Continuous
 62
     4
100
AcDbLine
 10
-200.246155176553
 20
157.063242232523
 30
0.0
 11
-200.946155176553
 21
156.713242232523
 31
0.0
  0
LINE
  5
20F
330
1F
100
AcDbEntity
  8
1
  6
Continuous
 62
     4
100
AcDbLine
 10
-200.946155176553
 20
156.713242232523
 30
0.0
 11
-201.296155176553
 21
156.363242232523
 31
0.0
  0
LINE
  5
210
330
1F
100
AcDbEntity
  8
1
  6
Continuous
 62
     4
100
AcDbLine
 10
-201.296155176553
 20
156.363242232523
 30
0.0
 11
-201.646155176553
 21
155.663242232523
 31
0.0
  0
LINE
  5
211
330
1F
100
AcDbEntity
  8
1
  6
Continuous
 62
     4
100
AcDbLine
 10
-201.646155176553
 20
155.663242232523
 30
0.0
 11
-201.646155176553
 21
154.963242232523
 31
0.0
  0
LINE
  5
212
330
1F
100
AcDbEntity
  8
1
  6
Continuous
 62
     4
100
AcDbLine
 10
-201.646155176553
 20
154.963242232523
 30
0.0
 11
-201.296155176553
 21
154.263242232523
 31
0.0
  0
LINE
  5
213
330
1F
100
AcDbEntity
  8
1
  6
Continuous
 62
     4
100
AcDbLine
 10
-201.296155176553
 20
154.263242232523
 30
0.0
 11
-200.946155176553
 21
153.913242232523
 31
0.0
  0
LINE
  5
214
330
1F
100
AcDbEntity
  8
1
  6
Continuous
 62
     4
100
AcDbLine
 10
-200.946155176553
 20
153.913242232523
 30
0.0
 11
-200.246155176553
 21
153.563242232523
 31
0.0
  0
LINE
  5
215
330
1F
100
AcDbEntity
  8
1
  6
Continuous
 62
     4
100
AcDbLine
 10
-200.246155176553
 20
152.688242232523
 30
0.0
 11
-199.546155176553
 21
152.688242232523
 31
0.0
  0
LINE
  5
216
330
1F
100
AcDbEntity
  8
1
  6
Continuous
 62
     4
100
AcDbLine
 10
-199.546155176553
 20
152.688242232523
 30
0.0
 11
-198.846155176553
 21
152.863242232523
 31
0.0
  0
LINE
  5
217
330
1F
100
AcDbEntity
  8
1
  6
Continuous
 62
     4
100
AcDbLine
 10
-198.846155176553
 20
152.863242232523
 30
0.0
 11
-198.321155176553
 21
153.213242232523
 31
0.0
  0
LINE
  5
218
330
1F
100
AcDbEntity
  8
1
  6
Continuous
 62
     4
100
AcDbLine
 10
-198.321155176553
 20
153.213242232523
 30
0.0
 11
-197.796155176553
 21
153.738242232523
 31
0.0
  0
LINE
  5
219
330
1F
100
AcDbEntity
  8
1
  6
Continuous
 62
     4
100
AcDbLine
 10
-197.796155176553
 20
153.738242232523
 30
0.0
 11
-197.446155176553
 21
154.263242232523
 31
0.0
  0
LINE
  5
21A
330
1F
100
AcDbEntity
  8
1
  6
Continuous
 62
     4
100
AcDbLine
 10
-197.446155176553
 20
154.263242232523
 30
0.0
 11
-197.271155176553
 21
154.963242232523
 31
0.0
  0
LINE
  5
21B
330
1F
100
AcDbEntity
  8
1
  6
Continuous
 62
     4
100
AcDbLine
 10
-197.271155176553
 20
154.963242232523
 30
0.0
 11
-197.271155176553
 21
155.663242232523
 31
0.0
  0
LINE
  5
21C
330
1F
100
AcDbEntity
  8
1
  6
Continuous
 62
     4
100
AcDbLine
 10
-197.271155176553
 20
155.663242232523
 30
0.0
 11
-197.446155176553
 21
156.363242232523
 31
0.0
  0
LINE
  5
21D
330
1F
100
AcDbEntity
  8
1
  6
Continuous
 62
     4
100
AcDbLine
 10
-197.446155176553
 20
156.363242232523
 30
0.0
 11
-197.796155176553
 21
156.888242232523
 31
0.0
  0
LINE
  5
21E
330
1F
100
AcDbEntity
  8
1
  6
Continuous
 62
     4
100
AcDbLine
 10
-197.796155176553
 20
156.888242232523
 30
0.0
 11
-198.321155176553
 21
157.413242232523
 31
0.0
  0
LINE
  5
21F
330
1F
100
AcDbEntity
  8
1
  6
Continuous
 62
     4
100
AcDbLine
 10
-198.321155176553
 20
157.413242232523
 30
0.0
 11
-198.846155176553
 21
157.763242232523
 31
0.0
  0
LINE
  5
220
330
1F
100
AcDbEntity
  8
1
  6
Continuous
 62
     4
100
AcDbLine
 10
-198.846155176553
 20
157.763242232523
 30
0.0
 11
-199.546155176553
 21
157.938242232523
 31
0.0
  0
LINE
  5
221
330
1F
100
AcDbEntity
  8
1
  6
Continuous
 62
     4
100
AcDbLine
 10
-199.546155176553
 20
157.938242232523
 30
0.0
 11
-200.246155176553
 21
157.938242232523
 31
0.0
  0
LINE
  5
222
330
1F
100
AcDbEntity
  8
1
  6
Continuous
 62
     4
100
AcDbLine
 10
-200.246155176553
 20
157.938242232523
 30
0.0
 11
-200.946155176553
 21
157.763242232523
 31
0.0
  0
LINE
  5
223
330
1F
100
AcDbEntity
  8
1
  6
Continuous
 62
     4
100
AcDbLine
 10
-200.946155176553
 20
157.763242232523
 30
0.0
 11
-201.471155176553
 21
157.413242232523
 31
0.0
  0
LINE
  5
224
330
1F
100
AcDbEntity
  8
1
  6
Continuous
 62
     4
100
AcDbLine
 10
-201.471155176553
 20
157.413242232523
 30
0.0
 11
-201.996155176553
 21
156.888242232523
 31
0.0
  0
LINE
  5
225
330
1F
100
AcDbEntity
  8
1
  6
Continuous
 62
     4
100
AcDbLine
 10
-201.996155176553
 20
156.888242232523
 30
0.0
 11
-202.346155176553
 21
156.363242232523
 31
0.0
  0
LINE
  5
226
330
1F
100
AcDbEntity
  8
1
  6
Continuous
 62
     4
100
AcDbLine
 10
-202.346155176553
 20
156.363242232523
 30
0.0
 11
-202.521155176553
 21
155.663242232523
 31
0.0
  0
LINE
  5
227
330
1F
100
AcDbEntity
  8
1
  6
Continuous
 62
     4
100
AcDbLine
 10
-202.521155176553
 20
155.663242232523
 30
0.0
 11
-202.521155176553
 21
154.963242232523
 31
0.0
  0
LINE
  5
228
330
1F
100
AcDbEntity
  8
1
  6
Continuous
 62
     4
100
AcDbLine
 10
-202.521155176553
 20
154.963242232523
 30
0.0
 11
-202.346155176553
 21
154.263242232523
 31
0.0
  0
LINE
  5
229
330
1F
100
AcDbEntity
  8
1
  6
Continuous
 62
     4
100
AcDbLine
 10
-202.346155176553
 20
154.263242232523
 30
0.0
 11
-201.996155176553
 21
153.738242232523
 31
0.0
  0
LINE
  5
22A
330
1F
100
AcDbEntity
  8
1
  6
Continuous
 62
     4
100
AcDbLine
 10
-201.996155176553
 20
153.738242232523
 30
0.0
 11
-201.471155176553
 21
153.213242232523
 31
0.0
  0
LINE
  5
22B
330
1F
100
AcDbEntity
  8
1
  6
Continuous
 62
     4
100
AcDbLine
 10
-201.471155176553
 20
153.213242232523
 30
0.0
 11
-200.946155176553
 21
152.863242232523
 31
0.0
  0
LINE
  5
22C
330
1F
100
AcDbEntity
  8
1
  6
Continuous
 62
     4
100
AcDbLine
 10
-200.946155176553
 20
152.863242232523
 30
0.0
 11
-200.246155176553
 21
152.688242232523
 31
0.0
  0
LINE
  5
22D
330
1F
100
AcDbEntity
  8
1
  6
Continuous
 62
     4
100
AcDbLine
 10
-196.396155176553
 20
151.813242232523
 30
0.0
 11
-196.396155176553
 21
179.813242232523
 31
0.0
  0
LINE
  5
22E
330
1F
100
AcDbEntity
  8
1
  6
Continuous
 62
     4
100
AcDbLine
 10
-196.396155176553
 20
158.813242232523
 30
0.0
 11
-203.396155176553
 21
158.813242232523
 31
0.0
  0
LINE
  5
22F
330
1F
100
AcDbEntity
  8
1
  6
Continuous
 62
     4
100
AcDbLine
 10
-203.396155176553
 20
179.813242232523
 30
0.0
 11
-203.396155176553
 21
151.813242232523
 31
0.0
  0
LINE
  5
230
330
1F
100
AcDbEntity
  8
1
  6
Continuous
 62
     4
100
AcDbLine
 10
-203.396155176553
 20
151.813242232523
 30
0.0
 11
-196.396155176553
 21
151.813242232523
 31
0.0
  0
LINE
  5
231
330
1F
100
AcDbEntity
  8
1
  6
Continuous
 62
     4
100
AcDbLine
 10
-196.396155176553
 20
179.813242232523
 30
0.0
 11
-203.396155176553
 21
179.813242232523
 31
0.0
  0
LINE
  5
232
330
1F
100
AcDbEntity
  8
1
  6
Continuous
 62
     4
100
AcDbLine
 10
-203.396155176553
 20
172.813242232523
 30
0.0
 11
-196.396155176553
 21
172.813242232523
 31
0.0
  0
LINE
  5
233
330
1F
100
AcDbEntity
  8
1
  6
Continuous
 62
     4
100
AcDbLine
 10
-185.0265043534675
 20
133.446702619857
 30
0.0
 11
-183.894151412291
 21
136.946702619857
 31
0.0
  0
LINE
  5
234
330
1F
100
AcDbEntity
  8
1
  6
Continuous
 62
     4
100
AcDbLine
 10
-183.894151412291
 20
136.946702619857
 30
0.0
 11
-182.7617984711145
 21
133.446702619857
 31
0.0
  0
LINE
  5
235
330
1F
100
AcDbEntity
  8
1
  6
Continuous
 62
     4
100
AcDbLine
 10
-184.7176808240557
 20
134.3800359531903
 30
0.0
 11
-183.0706220005263
 21
134.3800359531903
 31
0.0
  0
LINE
  5
236
330
1F
100
AcDbEntity
  8
1
  6
Continuous
 62
     4
100
AcDbLine
 10
-187.394151412291
 20
131.696702619857
 30
0.0
 11
-180.394151412291
 21
131.696702619857
 31
0.0
  0
LINE
  5
237
330
1F
100
AcDbEntity
  8
1
  6
Continuous
 62
     4
100
AcDbLine
 10
-180.394151412291
 20
131.696702619857
 30
0.0
 11
-180.394151412291
 21
138.696702619857
 31
0.0
  0
LINE
  5
238
330
1F
100
AcDbEntity
  8
1
  6
Continuous
 62
     4
100
AcDbLine
 10
-180.394151412291
 20
138.696702619857
 30
0.0
 11
-187.394151412291
 21
138.696702619857
 31
0.0
  0
LINE
  5
239
330
1F
100
AcDbEntity
  8
1
  6
Continuous
 62
     4
100
AcDbLine
 10
-187.394151412291
 20
138.696702619857
 30
0.0
 11
-187.394151412291
 21
131.696702619857
 31
0.0
  0
LINE
  5
23A
330
1F
100
AcDbEntity
  8
1
  6
Continuous
 62
     2
100
AcDbLine
 10
-217.6347765571442
 20
74.18204583123858
 30
0.0
 11
-218.0759530277325
 21
74.01537916457191
 31
0.0
  0
LINE
  5
23B
330
1F
100
AcDbEntity
  8
1
  6
Continuous
 62
     2
100
AcDbLine
 10
-218.0759530277325
 20
74.01537916457191
 30
0.0
 11
-218.2965412630266
 21
73.59871249790525
 31
0.0
  0
LINE
  5
23C
330
1F
100
AcDbEntity
  8
1
  6
Continuous
 62
     2
100
AcDbLine
 10
-218.2965412630266
 20
73.59871249790525
 30
0.0
 11
-218.443600086556
 21
72.93204583123858
 31
0.0
  0
LINE
  5
23D
330
1F
100
AcDbEntity
  8
1
  6
Continuous
 62
     2
100
AcDbLine
 10
-218.443600086556
 20
72.93204583123858
 30
0.0
 11
-218.2965412630266
 21
72.26537916457191
 31
0.0
  0
LINE
  5
23E
330
1F
100
AcDbEntity
  8
1
  6
Continuous
 62
     2
100
AcDbLine
 10
-218.2965412630266
 20
72.26537916457191
 30
0.0
 11
-218.0759530277325
 21
71.84871249790525
 31
0.0
  0
LINE
  5
23F
330
1F
100
AcDbEntity
  8
1
  6
Continuous
 62
     2
100
AcDbLine
 10
-218.0759530277325
 20
71.84871249790525
 30
0.0
 11
-217.6347765571442
 21
71.68204583123858
 31
0.0
  0
LINE
  5
240
330
1F
100
AcDbEntity
  8
1
  6
Continuous
 62
     2
100
AcDbLine
 10
-217.6347765571442
 20
71.68204583123858
 30
0.0
 11
-217.193600086556
 21
71.84871249790525
 31
0.0
  0
LINE
  5
241
330
1F
100
AcDbEntity
  8
1
  6
Continuous
 62
     2
100
AcDbLine
 10
-217.193600086556
 20
71.84871249790525
 30
0.0
 11
-216.8994824394972
 21
72.26537916457191
 31
0.0
  0
LINE
  5
242
330
1F
100
AcDbEntity
  8
1
  6
Continuous
 62
     2
100
AcDbLine
 10
-216.8994824394972
 20
72.26537916457191
 30
0.0
 11
-216.8259530277325
 21
72.93204583123858
 31
0.0
  0
LINE
  5
243
330
1F
100
AcDbEntity
  8
1
  6
Continuous
 62
     2
100
AcDbLine
 10
-216.8259530277325
 20
72.93204583123858
 30
0.0
 11
-216.8994824394972
 21
73.59871249790525
 31
0.0
  0
LINE
  5
244
330
1F
100
AcDbEntity
  8
1
  6
Continuous
 62
     2
100
AcDbLine
 10
-216.8994824394972
 20
73.59871249790525
 30
0.0
 11
-217.193600086556
 21
74.01537916457191
 31
0.0
  0
LINE
  5
245
330
1F
100
AcDbEntity
  8
1
  6
Continuous
 62
     2
100
AcDbLine
 10
-217.193600086556
 20
74.01537916457191
 30
0.0
 11
-217.6347765571442
 21
74.18204583123858
 31
0.0
  0
LINE
  5
246
330
1F
100
AcDbEntity
  8
1
  6
Continuous
 62
     2
100
AcDbLine
 10
-215.943600086556
 20
72.09871249790525
 30
0.0
 11
-215.7965412630266
 21
71.93204583123858
 31
0.0
  0
LINE
  5
247
330
1F
100
AcDbEntity
  8
1
  6
Continuous
 62
     2
100
AcDbLine
 10
-215.7965412630266
 20
71.93204583123858
 30
0.0
 11
-215.943600086556
 21
71.76537916457191
 31
0.0
  0
LINE
  5
248
330
1F
100
AcDbEntity
  8
1
  6
Continuous
 62
     2
100
AcDbLine
 10
-215.943600086556
 20
71.76537916457191
 30
0.0
 11
-216.0906589100854
 21
71.93204583123858
 31
0.0
  0
LINE
  5
249
330
1F
100
AcDbEntity
  8
1
  6
Continuous
 62
     2
100
AcDbLine
 10
-216.0906589100854
 20
71.93204583123858
 30
0.0
 11
-215.943600086556
 21
72.09871249790525
 31
0.0
  0
LINE
  5
24A
330
1F
100
AcDbEntity
  8
1
  6
Continuous
 62
     2
100
AcDbLine
 10
-215.8700706747913
 20
72.01537916457191
 30
0.0
 11
-215.8700706747913
 21
71.84871249790525
 31
0.0
  0
LINE
  5
24B
330
1F
100
AcDbEntity
  8
1
  6
Continuous
 62
     2
100
AcDbLine
 10
-215.8700706747913
 20
71.84871249790525
 30
0.0
 11
-216.0171294983207
 21
71.84871249790525
 31
0.0
  0
LINE
  5
24C
330
1F
100
AcDbEntity
  8
1
  6
Continuous
 62
     2
100
AcDbLine
 10
-216.0171294983207
 20
71.84871249790525
 30
0.0
 11
-216.0171294983207
 21
72.01537916457191
 31
0.0
  0
LINE
  5
24D
330
1F
100
AcDbEntity
  8
1
  6
Continuous
 62
     2
100
AcDbLine
 10
-216.0171294983207
 20
72.01537916457191
 30
0.0
 11
-215.8700706747913
 21
72.01537916457191
 31
0.0
  0
LINE
  5
24E
330
1F
100
AcDbEntity
  8
1
  6
Continuous
 62
     2
100
AcDbLine
 10
-215.943600086556
 20
72.01537916457191
 30
0.0
 11
-215.8700706747913
 21
71.93204583123858
 31
0.0
  0
LINE
  5
24F
330
1F
100
AcDbEntity
  8
1
  6
Continuous
 62
     2
100
AcDbLine
 10
-215.8700706747913
 20
71.93204583123858
 30
0.0
 11
-215.943600086556
 21
71.84871249790525
 31
0.0
  0
LINE
  5
250
330
1F
100
AcDbEntity
  8
1
  6
Continuous
 62
     2
100
AcDbLine
 10
-215.943600086556
 20
71.84871249790525
 30
0.0
 11
-216.0171294983207
 21
71.93204583123858
 31
0.0
  0
LINE
  5
251
330
1F
100
AcDbEntity
  8
1
  6
Continuous
 62
     2
100
AcDbLine
 10
-216.0171294983207
 20
71.93204583123858
 30
0.0
 11
-215.943600086556
 21
72.01537916457191
 31
0.0
  0
LINE
  5
252
330
1F
100
AcDbEntity
  8
1
  6
Continuous
 62
     2
100
AcDbLine
 10
-213.6641883218501
 20
74.18204583123858
 30
0.0
 11
-214.9141883218501
 21
74.18204583123858
 31
0.0
  0
LINE
  5
253
330
1F
100
AcDbEntity
  8
1
  6
Continuous
 62
     2
100
AcDbLine
 10
-214.9141883218501
 20
74.18204583123858
 30
0.0
 11
-214.9877177336148
 21
72.93204583123858
 31
0.0
  0
LINE
  5
254
330
1F
100
AcDbEntity
  8
1
  6
Continuous
 62
     2
100
AcDbLine
 10
-214.9877177336148
 20
72.93204583123858
 30
0.0
 11
-214.6200706747913
 21
73.18204583123858
 31
0.0
  0
LINE
  5
255
330
1F
100
AcDbEntity
  8
1
  6
Continuous
 62
     2
100
AcDbLine
 10
-214.6200706747913
 20
73.18204583123858
 30
0.0
 11
-214.3259530277325
 21
73.26537916457191
 31
0.0
  0
LINE
  5
256
330
1F
100
AcDbEntity
  8
1
  6
Continuous
 62
     2
100
AcDbLine
 10
-214.3259530277325
 20
73.26537916457191
 30
0.0
 11
-214.0318353806736
 21
73.18204583123858
 31
0.0
  0
LINE
  5
257
330
1F
100
AcDbEntity
  8
1
  6
Continuous
 62
     2
100
AcDbLine
 10
-214.0318353806736
 20
73.18204583123858
 30
0.0
 11
-213.8112471453795
 21
73.01537916457191
 31
0.0
  0
LINE
  5
258
330
1F
100
AcDbEntity
  8
1
  6
Continuous
 62
     2
100
AcDbLine
 10
-213.8112471453795
 20
73.01537916457191
 30
0.0
 11
-213.6641883218501
 21
72.84871249790525
 31
0.0
  0
LINE
  5
259
330
1F
100
AcDbEntity
  8
1
  6
Continuous
 62
     2
100
AcDbLine
 10
-213.6641883218501
 20
72.84871249790525
 30
0.0
 11
-213.5906589100854
 21
72.43204583123858
 31
0.0
  0
LINE
  5
25A
330
1F
100
AcDbEntity
  8
1
  6
Continuous
 62
     2
100
AcDbLine
 10
-213.5906589100854
 20
72.43204583123858
 30
0.0
 11
-213.6641883218501
 21
72.01537916457191
 31
0.0
  0
LINE
  5
25B
330
1F
100
AcDbEntity
  8
1
  6
Continuous
 62
     2
100
AcDbLine
 10
-213.6641883218501
 20
72.01537916457191
 30
0.0
 11
-213.8112471453795
 21
71.84871249790525
 31
0.0
  0
LINE
  5
25C
330
1F
100
AcDbEntity
  8
1
  6
Continuous
 62
     2
100
AcDbLine
 10
-213.8112471453795
 20
71.84871249790525
 30
0.0
 11
-214.0318353806736
 21
71.68204583123858
 31
0.0
  0
LINE
  5
25D
330
1F
100
AcDbEntity
  8
1
  6
Continuous
 62
     2
100
AcDbLine
 10
-214.0318353806736
 20
71.68204583123858
 30
0.0
 11
-214.5465412630266
 21
71.68204583123858
 31
0.0
  0
LINE
  5
25E
330
1F
100
AcDbEntity
  8
1
  6
Continuous
 62
     2
100
AcDbLine
 10
-214.5465412630266
 20
71.68204583123858
 30
0.0
 11
-214.8406589100854
 21
71.84871249790525
 31
0.0
  0
LINE
  5
25F
330
1F
100
AcDbEntity
  8
1
  6
Continuous
 62
     2
100
AcDbLine
 10
-214.8406589100854
 20
71.84871249790525
 30
0.0
 11
-215.0612471453795
 21
72.01537916457191
 31
0.0
  0
LINE
  5
260
330
1F
100
AcDbEntity
  8
1
  6
Continuous
 62
     2
100
AcDbLine
 10
-220.1291421868824
 20
72.48143904145458
 30
0.0
 11
-220.1291421868824
 21
73.51268904145458
 31
0.0
  0
LINE
  5
261
330
1F
100
AcDbEntity
  8
1
  6
Continuous
 62
     2
100
AcDbLine
 10
-220.6291421868824
 20
72.99706404145458
 30
0.0
 11
-219.6291421868824
 21
72.99706404145458
 31
0.0
  0
LINE
  5
262
330
1F
100
AcDbEntity
  8
1
  6
Continuous
 62
     2
100
AcDbLine
 10
-220.6291421868824
 20
72.29393904145458
 30
0.0
 11
-219.6291421868824
 21
72.29393904145458
 31
0.0
  0
LINE
  5
263
330
1F
100
AcDbEntity
  8
1
  6
Continuous
 62
     2
100
AcDbLine
 10
-240.4739257983648
 20
74.5817576247308
 30
0.0
 11
-242.3268669748354
 21
71.89842429139746
 31
0.0
  0
LINE
  5
264
330
1F
100
AcDbEntity
  8
1
  6
Continuous
 62
     2
100
AcDbLine
 10
-242.3268669748354
 20
71.89842429139746
 30
0.0
 11
-239.8562787395412
 21
71.89842429139746
 31
0.0
  0
LINE
  5
265
330
1F
100
AcDbEntity
  8
1
  6
Continuous
 62
     2
100
AcDbLine
 10
-240.4739257983648
 20
71.0817576247308
 30
0.0
 11
-240.4739257983648
 21
72.71509095806414
 31
0.0
  0
LINE
  5
266
330
1F
100
AcDbEntity
  8
1
  6
Continuous
 62
     2
100
AcDbLine
 10
-238.8268669748354
 20
72.8317576247308
 30
0.0
 11
-236.9739257983648
 21
72.8317576247308
 31
0.0
  0
LINE
  5
267
330
1F
100
AcDbEntity
  8
1
  6
Continuous
 62
     2
100
AcDbLine
 10
-234.9722918114367
 20
71.0817576247308
 30
0.0
 11
-234.0000695892144
 21
74.4723826247308
 31
0.0
  0
LINE
  5
268
330
1F
100
AcDbEntity
  8
1
  6
Continuous
 62
     2
100
AcDbLine
 10
-234.1945140336589
 20
73.5973826247308
 30
0.0
 11
-234.5834029225478
 21
73.5973826247308
 31
0.0
  0
LINE
  5
269
330
1F
100
AcDbEntity
  8
1
  6
Continuous
 62
     2
100
AcDbLine
 10
-234.5834029225478
 20
73.5973826247308
 30
0.0
 11
-234.9722918114367
 21
73.3786326247308
 31
0.0
  0
LINE
  5
26A
330
1F
100
AcDbEntity
  8
1
  6
Continuous
 62
     2
100
AcDbLine
 10
-234.9722918114367
 20
73.3786326247308
 30
0.0
 11
-235.2639584781034
 21
72.8317576247308
 31
0.0
  0
LINE
  5
26B
330
1F
100
AcDbEntity
  8
1
  6
Continuous
 62
     2
100
AcDbLine
 10
-235.2639584781034
 20
72.8317576247308
 30
0.0
 11
-235.2639584781034
 21
72.3942576247308
 31
0.0
  0
LINE
  5
26C
330
1F
100
AcDbEntity
  8
1
  6
Continuous
 62
     2
100
AcDbLine
 10
-235.2639584781034
 20
72.3942576247308
 30
0.0
 11
-235.0695140336589
 21
71.9567576247308
 31
0.0
  0
LINE
  5
26D
330
1F
100
AcDbEntity
  8
1
  6
Continuous
 62
     2
100
AcDbLine
 10
-235.0695140336589
 20
71.9567576247308
 30
0.0
 11
-234.7778473669922
 21
71.8473826247308
 31
0.0
  0
LINE
  5
26E
330
1F
100
AcDbEntity
  8
1
  6
Continuous
 62
     2
100
AcDbLine
 10
-234.7778473669922
 20
71.8473826247308
 30
0.0
 11
-234.3889584781034
 21
71.8473826247308
 31
0.0
  0
LINE
  5
26F
330
1F
100
AcDbEntity
  8
1
  6
Continuous
 62
     2
100
AcDbLine
 10
-234.3889584781034
 20
71.8473826247308
 30
0.0
 11
-234.0000695892144
 21
72.0661326247308
 31
0.0
  0
LINE
  5
270
330
1F
100
AcDbEntity
  8
1
  6
Continuous
 62
     2
100
AcDbLine
 10
-234.0000695892144
 20
72.0661326247308
 30
0.0
 11
-233.7084029225478
 21
72.6130076247308
 31
0.0
  0
LINE
  5
271
330
1F
100
AcDbEntity
  8
1
  6
Continuous
 62
     2
100
AcDbLine
 10
-233.7084029225478
 20
72.6130076247308
 30
0.0
 11
-233.7084029225478
 21
73.0505076247308
 31
0.0
  0
LINE
  5
272
330
1F
100
AcDbEntity
  8
1
  6
Continuous
 62
     2
100
AcDbLine
 10
-233.7084029225478
 20
73.0505076247308
 30
0.0
 11
-233.9028473669922
 21
73.4880076247308
 31
0.0
  0
LINE
  5
273
330
1F
100
AcDbEntity
  8
1
  6
Continuous
 62
     2
100
AcDbLine
 10
-233.9028473669922
 20
73.4880076247308
 30
0.0
 11
-234.1945140336589
 21
73.5973826247308
 31
0.0
  0
LINE
  5
274
330
1F
100
AcDbEntity
  8
1
  6
Continuous
 62
     2
100
AcDbLine
 10
-230.4886316807177
 20
74.5817576247308
 30
0.0
 11
-232.2386316807177
 21
74.5817576247308
 31
0.0
  0
LINE
  5
275
330
1F
100
AcDbEntity
  8
1
  6
Continuous
 62
     2
100
AcDbLine
 10
-232.2386316807177
 20
74.5817576247308
 30
0.0
 11
-232.3415728571883
 21
72.8317576247308
 31
0.0
  0
LINE
  5
276
330
1F
100
AcDbEntity
  8
1
  6
Continuous
 62
     2
100
AcDbLine
 10
-232.3415728571883
 20
72.8317576247308
 30
0.0
 11
-231.8268669748354
 21
73.18175762473079
 31
0.0
  0
LINE
  5
277
330
1F
100
AcDbEntity
  8
1
  6
Continuous
 62
     2
100
AcDbLine
 10
-231.8268669748354
 20
73.18175762473079
 30
0.0
 11
-231.415102268953
 21
73.29842429139747
 31
0.0
  0
LINE
  5
278
330
1F
100
AcDbEntity
  8
1
  6
Continuous
 62
     2
100
AcDbLine
 10
-231.415102268953
 20
73.29842429139747
 30
0.0
 11
-231.0033375630707
 21
73.18175762473079
 31
0.0
  0
LINE
  5
279
330
1F
100
AcDbEntity
  8
1
  6
Continuous
 62
     2
100
AcDbLine
 10
-231.0033375630707
 20
73.18175762473079
 30
0.0
 11
-230.6945140336589
 21
72.94842429139746
 31
0.0
  0
LINE
  5
27A
330
1F
100
AcDbEntity
  8
1
  6
Continuous
 62
     2
100
AcDbLine
 10
-230.6945140336589
 20
72.94842429139746
 30
0.0
 11
-230.4886316807177
 21
72.71509095806414
 31
0.0
  0
LINE
  5
27B
330
1F
100
AcDbEntity
  8
1
  6
Continuous
 62
     2
100
AcDbLine
 10
-230.4886316807177
 20
72.71509095806414
 30
0.0
 11
-230.3856905042471
 21
72.1317576247308
 31
0.0
  0
LINE
  5
27C
330
1F
100
AcDbEntity
  8
1
  6
Continuous
 62
     2
100
AcDbLine
 10
-230.3856905042471
 20
72.1317576247308
 30
0.0
 11
-230.4886316807177
 21
71.54842429139747
 31
0.0
  0
LINE
  5
27D
330
1F
100
AcDbEntity
  8
1
  6
Continuous
 62
     2
100
AcDbLine
 10
-230.4886316807177
 20
71.54842429139747
 30
0.0
 11
-230.6945140336589
 21
71.31509095806413
 31
0.0
  0
LINE
  5
27E
330
1F
100
AcDbEntity
  8
1
  6
Continuous
 62
     2
100
AcDbLine
 10
-230.6945140336589
 20
71.31509095806413
 30
0.0
 11
-231.0033375630707
 21
71.0817576247308
 31
0.0
  0
LINE
  5
27F
330
1F
100
AcDbEntity
  8
1
  6
Continuous
 62
     2
100
AcDbLine
 10
-231.0033375630707
 20
71.0817576247308
 30
0.0
 11
-231.7239257983648
 21
71.0817576247308
 31
0.0
  0
LINE
  5
280
330
1F
100
AcDbEntity
  8
1
  6
Continuous
 62
     2
100
AcDbLine
 10
-231.7239257983648
 20
71.0817576247308
 30
0.0
 11
-232.1356905042471
 21
71.31509095806413
 31
0.0
  0
LINE
  5
281
330
1F
100
AcDbEntity
  8
1
  6
Continuous
 62
     2
100
AcDbLine
 10
-232.1356905042471
 20
71.31509095806413
 30
0.0
 11
-232.4445140336589
 21
71.54842429139747
 31
0.0
  0
LINE
  5
282
330
1F
100
AcDbEntity
  8
1
  6
Continuous
 62
     2
100
AcDbLine
 10
-229.1503963866001
 20
71.66509095806413
 30
0.0
 11
-228.9445140336589
 21
71.43175762473079
 31
0.0
  0
LINE
  5
283
330
1F
100
AcDbEntity
  8
1
  6
Continuous
 62
     2
100
AcDbLine
 10
-228.9445140336589
 20
71.43175762473079
 30
0.0
 11
-229.1503963866001
 21
71.19842429139746
 31
0.0
  0
LINE
  5
284
330
1F
100
AcDbEntity
  8
1
  6
Continuous
 62
     2
100
AcDbLine
 10
-229.1503963866001
 20
71.19842429139746
 30
0.0
 11
-229.3562787395412
 21
71.43175762473079
 31
0.0
  0
LINE
  5
285
330
1F
100
AcDbEntity
  8
1
  6
Continuous
 62
     2
100
AcDbLine
 10
-229.3562787395412
 20
71.43175762473079
 30
0.0
 11
-229.1503963866001
 21
71.66509095806413
 31
0.0
  0
LINE
  5
286
330
1F
100
AcDbEntity
  8
1
  6
Continuous
 62
     2
100
AcDbLine
 10
-229.0474552101295
 20
71.54842429139747
 30
0.0
 11
-229.0474552101295
 21
71.31509095806413
 31
0.0
  0
LINE
  5
287
330
1F
100
AcDbEntity
  8
1
  6
Continuous
 62
     2
100
AcDbLine
 10
-229.0474552101295
 20
71.31509095806413
 30
0.0
 11
-229.2533375630707
 21
71.31509095806413
 31
0.0
  0
LINE
  5
288
330
1F
100
AcDbEntity
  8
1
  6
Continuous
 62
     2
100
AcDbLine
 10
-229.2533375630707
 20
71.31509095806413
 30
0.0
 11
-229.2533375630707
 21
71.54842429139747
 31
0.0
  0
LINE
  5
289
330
1F
100
AcDbEntity
  8
1
  6
Continuous
 62
     2
100
AcDbLine
 10
-229.2533375630707
 20
71.54842429139747
 30
0.0
 11
-229.0474552101295
 21
71.54842429139747
 31
0.0
  0
LINE
  5
28A
330
1F
100
AcDbEntity
  8
1
  6
Continuous
 62
     2
100
AcDbLine
 10
-229.1503963866001
 20
71.54842429139747
 30
0.0
 11
-229.0474552101295
 21
71.43175762473079
 31
0.0
  0
LINE
  5
28B
330
1F
100
AcDbEntity
  8
1
  6
Continuous
 62
     2
100
AcDbLine
 10
-229.0474552101295
 20
71.43175762473079
 30
0.0
 11
-229.1503963866001
 21
71.31509095806413
 31
0.0
  0
LINE
  5
28C
330
1F
100
AcDbEntity
  8
1
  6
Continuous
 62
     2
100
AcDbLine
 10
-229.1503963866001
 20
71.31509095806413
 30
0.0
 11
-229.2533375630707
 21
71.43175762473079
 31
0.0
  0
LINE
  5
28D
330
1F
100
AcDbEntity
  8
1
  6
Continuous
 62
     2
100
AcDbLine
 10
-229.2533375630707
 20
71.43175762473079
 30
0.0
 11
-229.1503963866001
 21
71.54842429139747
 31
0.0
  0
LINE
  5
28E
330
1F
100
AcDbEntity
  8
1
  6
Continuous
 62
     2
100
AcDbLine
 10
-226.7827493277765
 20
74.5817576247308
 30
0.0
 11
-227.4003963866001
 21
74.34842429139746
 31
0.0
  0
LINE
  5
28F
330
1F
100
AcDbEntity
  8
1
  6
Continuous
 62
     2
100
AcDbLine
 10
-227.4003963866001
 20
74.34842429139746
 30
0.0
 11
-227.7092199160118
 21
73.76509095806414
 31
0.0
  0
LINE
  5
290
330
1F
100
AcDbEntity
  8
1
  6
Continuous
 62
     2
100
AcDbLine
 10
-227.7092199160118
 20
73.76509095806414
 30
0.0
 11
-227.915102268953
 21
72.8317576247308
 31
0.0
  0
LINE
  5
291
330
1F
100
AcDbEntity
  8
1
  6
Continuous
 62
     2
100
AcDbLine
 10
-227.915102268953
 20
72.8317576247308
 30
0.0
 11
-227.7092199160118
 21
71.89842429139746
 31
0.0
  0
LINE
  5
292
330
1F
100
AcDbEntity
  8
1
  6
Continuous
 62
     2
100
AcDbLine
 10
-227.7092199160118
 20
71.89842429139746
 30
0.0
 11
-227.4003963866001
 21
71.31509095806413
 31
0.0
  0
LINE
  5
293
330
1F
100
AcDbEntity
  8
1
  6
Continuous
 62
     2
100
AcDbLine
 10
-227.4003963866001
 20
71.31509095806413
 30
0.0
 11
-226.7827493277765
 21
71.0817576247308
 31
0.0
  0
LINE
  5
294
330
1F
100
AcDbEntity
  8
1
  6
Continuous
 62
     2
100
AcDbLine
 10
-226.7827493277765
 20
71.0817576247308
 30
0.0
 11
-226.165102268953
 21
71.31509095806413
 31
0.0
  0
LINE
  5
295
330
1F
100
AcDbEntity
  8
1
  6
Continuous
 62
     2
100
AcDbLine
 10
-226.165102268953
 20
71.31509095806413
 30
0.0
 11
-225.7533375630707
 21
71.89842429139746
 31
0.0
  0
LINE
  5
296
330
1F
100
AcDbEntity
  8
1
  6
Continuous
 62
     2
100
AcDbLine
 10
-225.7533375630707
 20
71.89842429139746
 30
0.0
 11
-225.6503963866001
 21
72.8317576247308
 31
0.0
  0
LINE
  5
297
330
1F
100
AcDbEntity
  8
1
  6
Continuous
 62
     2
100
AcDbLine
 10
-225.6503963866001
 20
72.8317576247308
 30
0.0
 11
-225.7533375630707
 21
73.76509095806414
 31
0.0
  0
LINE
  5
298
330
1F
100
AcDbEntity
  8
1
  6
Continuous
 62
     2
100
AcDbLine
 10
-225.7533375630707
 20
73.76509095806414
 30
0.0
 11
-226.165102268953
 21
74.34842429139746
 31
0.0
  0
LINE
  5
299
330
1F
100
AcDbEntity
  8
1
  6
Continuous
 62
     2
100
AcDbLine
 10
-226.165102268953
 20
74.34842429139746
 30
0.0
 11
-226.7827493277765
 21
74.5817576247308
 31
0.0
  0
LINE
  5
29A
330
1F
100
AcDbEntity
  8
1
  6
Continuous
 62
     2
100
AcDbLine
 10
-223.4886316807177
 20
74.5817576247308
 30
0.0
 11
-224.0033375630707
 21
74.46509095806414
 31
0.0
  0
LINE
  5
29B
330
1F
100
AcDbEntity
  8
1
  6
Continuous
 62
     2
100
AcDbLine
 10
-224.0033375630707
 20
74.46509095806414
 30
0.0
 11
-224.3121610924824
 21
74.11509095806413
 31
0.0
  0
LINE
  5
29C
330
1F
100
AcDbEntity
  8
1
  6
Continuous
 62
     2
100
AcDbLine
 10
-224.3121610924824
 20
74.11509095806413
 30
0.0
 11
-224.415102268953
 21
73.76509095806414
 31
0.0
  0
LINE
  5
29D
330
1F
100
AcDbEntity
  8
1
  6
Continuous
 62
     2
100
AcDbLine
 10
-224.415102268953
 20
73.76509095806414
 30
0.0
 11
-224.3121610924824
 21
73.41509095806413
 31
0.0
  0
LINE
  5
29E
330
1F
100
AcDbEntity
  8
1
  6
Continuous
 62
     2
100
AcDbLine
 10
-224.3121610924824
 20
73.41509095806413
 30
0.0
 11
-224.0033375630707
 21
73.06509095806413
 31
0.0
  0
LINE
  5
29F
330
1F
100
AcDbEntity
  8
1
  6
Continuous
 62
     2
100
AcDbLine
 10
-224.0033375630707
 20
73.06509095806413
 30
0.0
 11
-223.5915728571883
 21
72.94842429139746
 31
0.0
  0
LINE
  5
2A0
330
1F
100
AcDbEntity
  8
1
  6
Continuous
 62
     2
100
AcDbLine
 10
-223.5915728571883
 20
72.94842429139746
 30
0.0
 11
-223.2827493277765
 21
72.94842429139746
 31
0.0
  0
LINE
  5
2A1
330
1F
100
AcDbEntity
  8
1
  6
Continuous
 62
     2
100
AcDbLine
 10
-223.2827493277765
 20
72.94842429139746
 30
0.0
 11
-222.8709846218942
 21
72.8317576247308
 31
0.0
  0
LINE
  5
2A2
330
1F
100
AcDbEntity
  8
1
  6
Continuous
 62
     2
100
AcDbLine
 10
-222.8709846218942
 20
72.8317576247308
 30
0.0
 11
-222.4592199160119
 21
72.4817576247308
 31
0.0
  0
LINE
  5
2A3
330
1F
100
AcDbEntity
  8
1
  6
Continuous
 62
     2
100
AcDbLine
 10
-222.4592199160119
 20
72.4817576247308
 30
0.0
 11
-222.2533375630707
 21
72.01509095806414
 31
0.0
  0
LINE
  5
2A4
330
1F
100
AcDbEntity
  8
1
  6
Continuous
 62
     2
100
AcDbLine
 10
-222.2533375630707
 20
72.01509095806414
 30
0.0
 11
-222.4592199160119
 21
71.43175762473079
 31
0.0
  0
LINE
  5
2A5
330
1F
100
AcDbEntity
  8
1
  6
Continuous
 62
     2
100
AcDbLine
 10
-222.4592199160119
 20
71.43175762473079
 30
0.0
 11
-222.8709846218942
 21
71.19842429139746
 31
0.0
  0
LINE
  5
2A6
330
1F
100
AcDbEntity
  8
1
  6
Continuous
 62
     2
100
AcDbLine
 10
-222.8709846218942
 20
71.19842429139746
 30
0.0
 11
-223.4886316807177
 21
71.0817576247308
 31
0.0
  0
LINE
  5
2A7
330
1F
100
AcDbEntity
  8
1
  6
Continuous
 62
     2
100
AcDbLine
 10
-223.4886316807177
 20
71.0817576247308
 30
0.0
 11
-224.1062787395413
 21
71.19842429139746
 31
0.0
  0
LINE
  5
2A8
330
1F
100
AcDbEntity
  8
1
  6
Continuous
 62
     2
100
AcDbLine
 10
-224.1062787395413
 20
71.19842429139746
 30
0.0
 11
-224.415102268953
 21
71.43175762473079
 31
0.0
  0
LINE
  5
2A9
330
1F
100
AcDbEntity
  8
1
  6
Continuous
 62
     2
100
AcDbLine
 10
-224.415102268953
 20
71.43175762473079
 30
0.0
 11
-224.6209846218942
 21
72.01509095806414
 31
0.0
  0
LINE
  5
2AA
330
1F
100
AcDbEntity
  8
1
  6
Continuous
 62
     2
100
AcDbLine
 10
-224.6209846218942
 20
72.01509095806414
 30
0.0
 11
-224.5180434454236
 21
72.4817576247308
 31
0.0
  0
LINE
  5
2AB
330
1F
100
AcDbEntity
  8
1
  6
Continuous
 62
     2
100
AcDbLine
 10
-224.5180434454236
 20
72.4817576247308
 30
0.0
 11
-224.2092199160119
 21
72.71509095806414
 31
0.0
  0
LINE
  5
2AC
330
1F
100
AcDbEntity
  8
1
  6
Continuous
 62
     2
100
AcDbLine
 10
-224.2092199160119
 20
72.71509095806414
 30
0.0
 11
-224.0033375630707
 21
72.8317576247308
 31
0.0
  0
LINE
  5
2AD
330
1F
100
AcDbEntity
  8
1
  6
Continuous
 62
     2
100
AcDbLine
 10
-224.0033375630707
 20
72.8317576247308
 30
0.0
 11
-223.5915728571883
 21
72.94842429139746
 31
0.0
  0
LINE
  5
2AE
330
1F
100
AcDbEntity
  8
1
  6
Continuous
 62
     2
100
AcDbLine
 10
-223.5915728571883
 20
72.94842429139746
 30
0.0
 11
-223.2827493277765
 21
72.94842429139746
 31
0.0
  0
LINE
  5
2AF
330
1F
100
AcDbEntity
  8
1
  6
Continuous
 62
     2
100
AcDbLine
 10
-223.2827493277765
 20
72.94842429139746
 30
0.0
 11
-222.8709846218942
 21
73.06509095806413
 31
0.0
  0
LINE
  5
2B0
330
1F
100
AcDbEntity
  8
1
  6
Continuous
 62
     2
100
AcDbLine
 10
-222.8709846218942
 20
73.06509095806413
 30
0.0
 11
-222.5621610924824
 21
73.41509095806413
 31
0.0
  0
LINE
  5
2B1
330
1F
100
AcDbEntity
  8
1
  6
Continuous
 62
     2
100
AcDbLine
 10
-222.5621610924824
 20
73.41509095806413
 30
0.0
 11
-222.4592199160119
 21
73.76509095806414
 31
0.0
  0
LINE
  5
2B2
330
1F
100
AcDbEntity
  8
1
  6
Continuous
 62
     2
100
AcDbLine
 10
-222.4592199160119
 20
73.76509095806414
 30
0.0
 11
-222.5621610924824
 21
74.11509095806413
 31
0.0
  0
LINE
  5
2B3
330
1F
100
AcDbEntity
  8
1
  6
Continuous
 62
     2
100
AcDbLine
 10
-222.5621610924824
 20
74.11509095806413
 30
0.0
 11
-222.665102268953
 21
74.34842429139746
 31
0.0
  0
LINE
  5
2B4
330
1F
100
AcDbEntity
  8
1
  6
Continuous
 62
     2
100
AcDbLine
 10
-222.665102268953
 20
74.34842429139746
 30
0.0
 11
-222.9739257983648
 21
74.46509095806414
 31
0.0
  0
LINE
  5
2B5
330
1F
100
AcDbEntity
  8
1
  6
Continuous
 62
     2
100
AcDbLine
 10
-222.9739257983648
 20
74.46509095806414
 30
0.0
 11
-223.4886316807177
 21
74.5817576247308
 31
0.0
  0
LINE
  5
2B6
330
1F
100
AcDbEntity
  8
1
  6
Continuous
 62
     2
100
AcDbLine
 10
-107.5907157117234
 20
58.6980339280447
 30
0.0
 11
-107.5907157117234
 21
62.1980339280447
 31
0.0
  0
LINE
  5
2B7
330
1F
100
AcDbEntity
  8
1
  6
Continuous
 62
     2
100
AcDbLine
 10
-107.5907157117234
 20
62.1980339280447
 30
0.0
 11
-105.5318921823116
 21
58.6980339280447
 31
0.0
  0
LINE
  5
2B8
330
1F
100
AcDbEntity
  8
1
  6
Continuous
 62
     2
100
AcDbLine
 10
-105.5318921823116
 20
58.6980339280447
 30
0.0
 11
-105.5318921823116
 21
62.1980339280447
 31
0.0
  0
LINE
  5
2B9
330
1F
100
AcDbEntity
  8
1
  6
Continuous
 62
     2
100
AcDbLine
 10
-104.5024804176058
 20
58.6980339280447
 30
0.0
 11
-103.3701274764293
 21
62.1980339280447
 31
0.0
  0
LINE
  5
2BA
330
1F
100
AcDbEntity
  8
1
  6
Continuous
 62
     2
100
AcDbLine
 10
-103.3701274764293
 20
62.1980339280447
 30
0.0
 11
-102.2377745352528
 21
58.6980339280447
 31
0.0
  0
LINE
  5
2BB
330
1F
100
AcDbEntity
  8
1
  6
Continuous
 62
     2
100
AcDbLine
 10
-104.193656888194
 20
59.63136726137803
 30
0.0
 11
-102.5465980646646
 21
59.63136726137803
 31
0.0
  0
LINE
  5
2BC
330
1F
100
AcDbEntity
  8
1
  6
Continuous
 62
     2
100
AcDbLine
 10
-101.2083627705469
 20
58.6980339280447
 30
0.0
 11
-101.2083627705469
 21
62.1980339280447
 31
0.0
  0
LINE
  5
2BD
330
1F
100
AcDbEntity
  8
1
  6
Continuous
 62
     2
100
AcDbLine
 10
-101.2083627705469
 20
62.1980339280447
 30
0.0
 11
-99.87012747642927
 21
58.81470059471137
 31
0.0
  0
LINE
  5
2BE
330
1F
100
AcDbEntity
  8
1
  6
Continuous
 62
     2
100
AcDbLine
 10
-99.87012747642927
 20
58.81470059471137
 30
0.0
 11
-98.53189218231164
 21
62.1980339280447
 31
0.0
  0
LINE
  5
2BF
330
1F
100
AcDbEntity
  8
1
  6
Continuous
 62
     2
100
AcDbLine
 10
-98.53189218231164
 20
62.1980339280447
 30
0.0
 11
-98.53189218231164
 21
58.6980339280447
 31
0.0
  0
LINE
  5
2C0
330
1F
100
AcDbEntity
  8
1
  6
Continuous
 62
     2
100
AcDbLine
 10
-95.44365688819398
 20
62.1980339280447
 30
0.0
 11
-97.50248041760575
 21
62.1980339280447
 31
0.0
  0
LINE
  5
2C1
330
1F
100
AcDbEntity
  8
1
  6
Continuous
 62
     2
100
AcDbLine
 10
-97.50248041760575
 20
62.1980339280447
 30
0.0
 11
-97.50248041760575
 21
58.6980339280447
 31
0.0
  0
LINE
  5
2C2
330
1F
100
AcDbEntity
  8
1
  6
Continuous
 62
     2
100
AcDbLine
 10
-97.50248041760575
 20
58.6980339280447
 30
0.0
 11
-95.44365688819398
 21
58.6980339280447
 31
0.0
  0
LINE
  5
2C3
330
1F
100
AcDbEntity
  8
1
  6
Continuous
 62
     2
100
AcDbLine
 10
-97.50248041760575
 20
60.56470059471137
 30
0.0
 11
-95.64953924113516
 21
60.56470059471137
 31
0.0
  0
LINE
  5
2C4
330
1F
100
AcDbEntity
  8
1
  6
Continuous
 62
     2
100
AcDbLine
 10
-91.42895100584104
 20
58.6980339280447
 30
0.0
 11
-91.42895100584104
 21
62.1980339280447
 31
0.0
  0
LINE
  5
2C5
330
1F
100
AcDbEntity
  8
1
  6
Continuous
 62
     2
100
AcDbLine
 10
-91.42895100584104
 20
62.1980339280447
 30
0.0
 11
-90.09071571172339
 21
62.1980339280447
 31
0.0
  0
LINE
  5
2C6
330
1F
100
AcDbEntity
  8
1
  6
Continuous
 62
     2
100
AcDbLine
 10
-90.09071571172339
 20
62.1980339280447
 30
0.0
 11
-89.67895100584104
 21
61.96470059471137
 31
0.0
  0
LINE
  5
2C7
330
1F
100
AcDbEntity
  8
1
  6
Continuous
 62
     2
100
AcDbLine
 10
-89.67895100584104
 20
61.96470059471137
 30
0.0
 11
-89.47306865289987
 21
61.61470059471137
 31
0.0
  0
LINE
  5
2C8
330
1F
100
AcDbEntity
  8
1
  6
Continuous
 62
     2
100
AcDbLine
 10
-89.47306865289987
 20
61.61470059471137
 30
0.0
 11
-89.37012747642927
 21
61.38136726137803
 31
0.0
  0
LINE
  5
2C9
330
1F
100
AcDbEntity
  8
1
  6
Continuous
 62
     2
100
AcDbLine
 10
-89.37012747642927
 20
61.38136726137803
 30
0.0
 11
-89.47306865289987
 21
60.91470059471137
 31
0.0
  0
LINE
  5
2CA
330
1F
100
AcDbEntity
  8
1
  6
Continuous
 62
     2
100
AcDbLine
 10
-89.47306865289987
 20
60.91470059471137
 30
0.0
 11
-89.67895100584104
 21
60.68136726137804
 31
0.0
  0
LINE
  5
2CB
330
1F
100
AcDbEntity
  8
1
  6
Continuous
 62
     2
100
AcDbLine
 10
-89.67895100584104
 20
60.68136726137804
 30
0.0
 11
-90.09071571172339
 21
60.4480339280447
 31
0.0
  0
LINE
  5
2CC
330
1F
100
AcDbEntity
  8
1
  6
Continuous
 62
     2
100
AcDbLine
 10
-90.09071571172339
 20
60.4480339280447
 30
0.0
 11
-91.42895100584104
 21
60.4480339280447
 31
0.0
  0
LINE
  5
2CD
330
1F
100
AcDbEntity
  8
1
  6
Continuous
 62
     2
100
AcDbLine
 10
-88.3407157117234
 20
62.1980339280447
 30
0.0
 11
-88.3407157117234
 21
58.6980339280447
 31
0.0
  0
LINE
  5
2CE
330
1F
100
AcDbEntity
  8
1
  6
Continuous
 62
     2
100
AcDbLine
 10
-88.3407157117234
 20
58.6980339280447
 30
0.0
 11
-86.28189218231164
 21
58.6980339280447
 31
0.0
  0
LINE
  5
2CF
330
1F
100
AcDbEntity
  8
1
  6
Continuous
 62
     2
100
AcDbLine
 10
-85.25248041760575
 20
58.6980339280447
 30
0.0
 11
-84.12012747642929
 21
62.1980339280447
 31
0.0
  0
LINE
  5
2D0
330
1F
100
AcDbEntity
  8
1
  6
Continuous
 62
     2
100
AcDbLine
 10
-84.12012747642929
 20
62.1980339280447
 30
0.0
 11
-82.98777453525281
 21
58.6980339280447
 31
0.0
  0
LINE
  5
2D1
330
1F
100
AcDbEntity
  8
1
  6
Continuous
 62
     2
100
AcDbLine
 10
-84.94365688819398
 20
59.63136726137803
 30
0.0
 11
-83.29659806466458
 21
59.63136726137803
 31
0.0
  0
LINE
  5
2D2
330
1F
100
AcDbEntity
  8
1
  6
Continuous
 62
     2
100
AcDbLine
 10
-81.95836277054693
 20
62.1980339280447
 30
0.0
 11
-79.69365688819398
 21
62.1980339280447
 31
0.0
  0
LINE
  5
2D3
330
1F
100
AcDbEntity
  8
1
  6
Continuous
 62
     2
100
AcDbLine
 10
-80.82600982937046
 20
62.1980339280447
 30
0.0
 11
-80.82600982937046
 21
58.6980339280447
 31
0.0
  0
LINE
  5
2D4
330
1F
100
AcDbEntity
  8
1
  6
Continuous
 62
     2
100
AcDbLine
 10
-76.60542159407635
 20
62.1980339280447
 30
0.0
 11
-78.66424512348812
 21
62.1980339280447
 31
0.0
  0
LINE
  5
2D5
330
1F
100
AcDbEntity
  8
1
  6
Continuous
 62
     2
100
AcDbLine
 10
-78.66424512348812
 20
62.1980339280447
 30
0.0
 11
-78.66424512348812
 21
58.6980339280447
 31
0.0
  0
LINE
  5
2D6
330
1F
100
AcDbEntity
  8
1
  6
Continuous
 62
     2
100
AcDbLine
 10
-78.66424512348812
 20
58.6980339280447
 30
0.0
 11
-76.60542159407635
 21
58.6980339280447
 31
0.0
  0
LINE
  5
2D7
330
1F
100
AcDbEntity
  8
1
  6
Continuous
 62
     2
100
AcDbLine
 10
-78.66424512348812
 20
60.56470059471137
 30
0.0
 11
-76.81130394701752
 21
60.56470059471137
 31
0.0
  0
ARC
  5
2D8
330
1F
100
AcDbEntity
  8
1
  6
Continuous
 62
     7
100
AcDbCircle
 10
-297.6423141906044
 20
90.52114756887262
 30
0.0
 40
1.636265146448924
100
AcDbArc
 50
-57.84256594692069
 51
-32.15743405307566
  0
ARC
  5
2D9
330
1F
100
AcDbEntity
  8
1
  6
Continuous
 62
     7
100
AcDbCircle
 10
-297.6423141906044
 20
90.52114756887262
 30
0.0
 40
0.63499999999997
100
AcDbArc
 50
-67.2069291697561
 51
-22.79307083024193
  0
ARC
  5
2DA
330
1F
100
AcDbEntity
  8
1
  6
Continuous
 62
     7
100
AcDbCircle
 10
-297.6423141906044
 20
90.52114756887262
 30
0.0
 40
1.636265146448913
100
AcDbArc
 50
-147.8425659469222
 51
-122.1574340530793
  0
ARC
  5
2DB
330
1F
100
AcDbEntity
  8
1
  6
Continuous
 62
     7
100
AcDbCircle
 10
-297.6423141906044
 20
90.52114756887262
 30
0.0
 40
0.6349999999999176
100
AcDbArc
 50
-157.2069291697541
 51
-112.7930708302439
  0
ARC
  5
2DC
330
1F
100
AcDbEntity
  8
1
  6
Continuous
 62
     7
100
AcDbCircle
 10
-297.6423141906044
 20
90.52114756887262
 30
0.0
 40
1.636265146448941
100
AcDbArc
 50
122.1574340530766
 51
147.8425659469206
  0
ARC
  5
2DD
330
1F
100
AcDbEntity
  8
1
  6
Continuous
 62
     7
100
AcDbCircle
 10
-297.6423141906044
 20
90.52114756887262
 30
0.0
 40
0.6350000000000224
100
AcDbArc
 50
112.7930708302419
 51
157.2069291697494
  0
ARC
  5
2DE
330
1F
100
AcDbEntity
  8
1
  6
Continuous
 62
     7
100
AcDbCircle
 10
-297.6423141906044
 20
90.52114756887262
 30
0.0
 40
1.636265146449039
100
AcDbArc
 50
32.15743405307735
 51
57.84256594692175
  0
ARC
  5
2DF
330
1F
100
AcDbEntity
  8
1
  6
Continuous
 62
     7
100
AcDbCircle
 10
-297.6423141906044
 20
90.52114756887262
 30
0.0
 40
0.6350000000000445
100
AcDbArc
 50
22.79307083024666
 51
67.20692916974862
  0
ARC
  5
2E0
330
1F
100
AcDbEntity
  8
1
  6
Continuous
 62
     7
100
AcDbCircle
 10
-297.6423141906044
 20
125.8057759500814
 30
0.0
 40
0.6350000000000224
100
AcDbArc
 50
-67.20692916975807
 51
-22.7930708302502
  0
ARC
  5
2E1
330
1F
100
AcDbEntity
  8
1
  6
Continuous
 62
     7
100
AcDbCircle
 10
-297.6423141906044
 20
125.8057759500814
 30
0.0
 40
1.636265146448948
100
AcDbArc
 50
-57.84256594692122
 51
-32.15743405307735
  0
ARC
  5
2E2
330
1F
100
AcDbEntity
  8
1
  6
Continuous
 62
     7
100
AcDbCircle
 10
-297.6423141906044
 20
125.8057759500814
 30
0.0
 40
0.6350000000000224
100
AcDbArc
 50
22.79307083024193
 51
67.2069291697546
  0
ARC
  5
2E3
330
1F
100
AcDbEntity
  8
1
  6
Continuous
 62
     7
100
AcDbCircle
 10
-297.6423141906044
 20
125.8057759500814
 30
0.0
 40
1.636265146448987
100
AcDbArc
 50
32.1574340530744
 51
57.84256594691936
  0
ARC
  5
2E4
330
1F
100
AcDbEntity
  8
1
  6
Continuous
 62
     7
100
AcDbCircle
 10
-297.6423141906044
 20
125.8057759500814
 30
0.0
 40
0.6349999999999307
100
AcDbArc
 50
112.7930708302454
 51
157.2069291697581
  0
ARC
  5
2E5
330
1F
100
AcDbEntity
  8
1
  6
Continuous
 62
     7
100
AcDbCircle
 10
-297.6423141906044
 20
125.8057759500814
 30
0.0
 40
1.636265146448864
100
AcDbArc
 50
122.1574340530806
 51
147.8425659469235
  0
ARC
  5
2E6
330
1F
100
AcDbEntity
  8
1
  6
Continuous
 62
     7
100
AcDbCircle
 10
-297.6423141906044
 20
125.8057759500814
 30
0.0
 40
0.6350000000000224
100
AcDbArc
 50
-157.2069291697581
 51
-112.7930708302419
  0
ARC
  5
2E7
330
1F
100
AcDbEntity
  8
1
  6
Continuous
 62
     7
100
AcDbCircle
 10
-297.6423141906044
 20
125.8057759500814
 30
0.0
 40
1.636265146448943
100
AcDbArc
 50
-147.8425659469206
 51
-122.1574340530788
  0
ARC
  5
2E8
330
1F
100
AcDbEntity
  8
1
  6
Continuous
 62
     7
100
AcDbCircle
 10
-262.3576858093957
 20
125.8057759500814
 30
0.0
 40
1.636265146448887
100
AcDbArc
 50
122.1574340530754
 51
147.8425659469235
  0
ARC
  5
2E9
330
1F
100
AcDbEntity
  8
1
  6
Continuous
 62
     7
100
AcDbCircle
 10
-262.3576858093957
 20
125.8057759500814
 30
0.0
 40
0.6349999999999307
100
AcDbArc
 50
112.7930708302454
 51
157.2069291697541
  0
ARC
  5
2EA
330
1F
100
AcDbEntity
  8
1
  6
Continuous
 62
     7
100
AcDbCircle
 10
-262.3576858093957
 20
125.8057759500814
 30
0.0
 40
1.636265146448939
100
AcDbArc
 50
32.15743405307546
 51
57.84256594691954
  0
ARC
  5
2EB
330
1F
100
AcDbEntity
  8
1
  6
Continuous
 62
     7
100
AcDbCircle
 10
-262.3576858093957
 20
125.8057759500814
 30
0.0
 40
0.6350000000000224
100
AcDbArc
 50
22.79307083024193
 51
67.20692916974515
  0
ARC
  5
2EC
330
1F
100
AcDbEntity
  8
1
  6
Continuous
 62
     7
100
AcDbCircle
 10
-262.3576858093957
 20
125.8057759500814
 30
0.0
 40
1.636265146448978
100
AcDbArc
 50
-57.84256594691954
 51
-32.15743405307841
  0
ARC
  5
2ED
330
1F
100
AcDbEntity
  8
1
  6
Continuous
 62
     7
100
AcDbCircle
 10
-262.3576858093957
 20
125.8057759500814
 30
0.0
 40
0.6350000000000224
100
AcDbArc
 50
-67.20692916975807
 51
-22.7930708302502
  0
ARC
  5
2EE
330
1F
100
AcDbEntity
  8
1
  6
Continuous
 62
     7
100
AcDbCircle
 10
-262.3576858093957
 20
125.8057759500814
 30
0.0
 40
1.636265146448943
100
AcDbArc
 50
-147.8425659469206
 51
-122.1574340530788
  0
ARC
  5
2EF
330
1F
100
AcDbEntity
  8
1
  6
Continuous
 62
     7
100
AcDbCircle
 10
-262.3576858093957
 20
125.8057759500814
 30
0.0
 40
0.6349999999999562
100
AcDbArc
 50
-157.2069291697458
 51
-112.7930708302419
  0
ARC
  5
2F0
330
1F
100
AcDbEntity
  8
1
  6
Continuous
 62
     7
100
AcDbCircle
 10
-262.3576858093957
 20
90.52114756887266
 30
0.0
 40
0.63499999999997
100
AcDbArc
 50
112.7930708302439
 51
157.2069291697494
  0
ARC
  5
2F1
330
1F
100
AcDbEntity
  8
1
  6
Continuous
 62
     7
100
AcDbCircle
 10
-262.3576858093957
 20
90.52114756887266
 30
0.0
 40
1.636265146448875
100
AcDbArc
 50
122.1574340530757
 51
147.842565946921
  0
ARC
  5
2F2
330
1F
100
AcDbEntity
  8
1
  6
Continuous
 62
     7
100
AcDbCircle
 10
-262.3576858093957
 20
90.52114756887266
 30
0.0
 40
0.6349999999999176
100
AcDbArc
 50
-157.2069291697541
 51
-112.7930708302439
  0
ARC
  5
2F3
330
1F
100
AcDbEntity
  8
1
  6
Continuous
 62
     7
100
AcDbCircle
 10
-262.3576858093957
 20
90.52114756887266
 30
0.0
 40
1.636265146448906
100
AcDbArc
 50
-147.8425659469226
 51
-122.1574340530757
  0
ARC
  5
2F4
330
1F
100
AcDbEntity
  8
1
  6
Continuous
 62
     7
100
AcDbCircle
 10
-262.3576858093957
 20
90.52114756887266
 30
0.0
 40
0.6350000000000141
100
AcDbArc
 50
-67.20692916974663
 51
-22.79307083024666
  0
ARC
  5
2F5
330
1F
100
AcDbEntity
  8
1
  6
Continuous
 62
     7
100
AcDbCircle
 10
-262.3576858093957
 20
90.52114756887266
 30
0.0
 40
1.636265146448966
100
AcDbArc
 50
-57.84256594691927
 51
-32.15743405307799
  0
ARC
  5
2F6
330
1F
100
AcDbEntity
  8
1
  6
Continuous
 62
     7
100
AcDbCircle
 10
-262.3576858093957
 20
90.52114756887266
 30
0.0
 40
0.6350000000000224
100
AcDbArc
 50
22.79307083024193
 51
67.20692916974663
  0
ARC
  5
2F7
330
1F
100
AcDbEntity
  8
1
  6
Continuous
 62
     7
100
AcDbCircle
 10
-262.3576858093957
 20
90.52114756887266
 30
0.0
 40
1.636265146448954
100
AcDbArc
 50
32.15743405307631
 51
57.84256594691927
  0
ARC
  5
2F8
330
1F
100
AcDbEntity
  8
1
  6
Continuous
 62
     7
100
AcDbCircle
 10
-23.31681333402497
 20
108.163461759477
 30
0.0
 40
38.24999999999999
100
AcDbArc
 50
42.50190263102688
 51
47.49809736897309
  0
ARC
  5
2F9
330
1F
100
AcDbEntity
  8
1
  6
Continuous
 62
     7
100
AcDbCircle
 10
-23.31681333402497
 20
108.163461759477
 30
0.0
 40
38.25
100
AcDbArc
 50
-137.4980973689731
 51
-132.5019026310269
  0
ARC
  5
2FA
330
1F
100
AcDbEntity
  8
1
  6
Continuous
 62
     7
100
AcDbCircle
 10
-23.31681333402497
 20
108.163461759477
 30
0.0
 40
38.24999999999999
100
AcDbArc
 50
-47.49809736897317
 51
-42.50190263102689
  0
ARC
  5
2FB
330
1F
100
AcDbEntity
  8
1
  6
Continuous
 62
     7
100
AcDbCircle
 10
-23.31681333402497
 20
108.163461759477
 30
0.0
 40
38.25000000000001
100
AcDbArc
 50
132.5019026310269
 51
137.4980973689731
  0
ARC
  5
2FC
330
1F
100
AcDbEntity
  8
1
  6
Continuous
 62
     7
100
AcDbCircle
 10
-280.0
 20
108.163461759477
 30
0.0
 40
38.25000000000005
100
AcDbArc
 50
132.501902631027
 51
137.4980973689731
  0
ARC
  5
2FD
330
1F
100
AcDbEntity
  8
1
  6
Continuous
 62
     7
100
AcDbCircle
 10
-280.0
 20
108.163461759477
 30
0.0
 40
38.25
100
AcDbArc
 50
-47.49809736897313
 51
-42.50190263102689
  0
ARC
  5
2FE
330
1F
100
AcDbEntity
  8
1
  6
Continuous
 62
     7
100
AcDbCircle
 10
-280.0
 20
108.163461759477
 30
0.0
 40
38.25
100
AcDbArc
 50
-137.4980973689731
 51
-132.5019026310269
  0
ARC
  5
2FF
330
1F
100
AcDbEntity
  8
1
  6
Continuous
 62
     7
100
AcDbCircle
 10
-280.0
 20
108.163461759477
 30
0.0
 40
38.24999999999999
100
AcDbArc
 50
42.50190263102688
 51
47.49809736897313
  0
ARC
  5
300
330
1F
100
AcDbEntity
  8
1
  6
Continuous
 62
     3
100
AcDbCircle
 10
-281.2
 20
147.7387844771837
 30
0.0
 40
2.55990149041429
100
AcDbArc
 50
62.04564308366364
 51
117.9543569163364
  0
ARC
  5
301
330
1F
100
AcDbEntity
  8
1
  6
Continuous
 62
     3
100
AcDbCircle
 10
-278.8
 20
152.8200355784457
 30
0.0
 40
3.064735007092706
100
AcDbArc
 50
-113.051040475307
 51
-66.94895952469298
  0
ARC
  5
302
330
1F
100
AcDbEntity
  8
1
  6
Continuous
 62
     3
100
AcDbCircle
 10
-24.51681333402497
 20
148.390028541928
 30
0.0
 40
2.018311366610018
100
AcDbArc
 50
53.51898256997632
 51
126.4810174300237
  0
ARC
  5
303
330
1F
100
AcDbEntity
  8
1
  6
Continuous
 62
     3
100
AcDbCircle
 10
-22.11681333402497
 20
151.6657199496461
 30
0.0
 40
2.042534504847114
100
AcDbArc
 50
-125.9801811587342
 51
-54.01981884126567
  0
ARC
  5
304
330
1F
100
AcDbEntity
  8
1
  6
Continuous
 62
     3
100
AcDbCircle
 10
-125.023776467207
 20
162.673461759477
 30
0.0
 40
1.69
100
AcDbArc
 50
44.76027010391903
 51
135.239729896081
  0
ARC
  5
305
330
1F
100
AcDbEntity
  8
1
  6
Continuous
 62
     3
100
AcDbCircle
 10
-122.623776467207
 20
165.053461759477
 30
0.0
 40
1.69
100
AcDbArc
 50
-135.239729896081
 51
-44.76027010391937
  0
ARC
  5
306
330
1F
100
AcDbEntity
  8
1
  6
Continuous
 62
     3
100
AcDbCircle
 10
-125.023776467207
 20
160.673461759477
 30
0.0
 40
1.69
100
AcDbArc
 50
44.76027010391903
 51
135.239729896081
  0
ARC
  5
307
330
1F
100
AcDbEntity
  8
1
  6
Continuous
 62
     3
100
AcDbCircle
 10
-122.623776467207
 20
163.053461759477
 30
0.0
 40
1.69
100
AcDbArc
 50
-135.239729896081
 51
-44.76027010391937
  0
CIRCLE
  5
308
330
1F
100
AcDbEntity
  8
1
  6
Continuous
 62
     7
100
AcDbCircle
 10
-297.6423141906044
 20
90.52114756887262
 30
0.0
 40
2.75
  0
CIRCLE
  5
309
330
1F
100
AcDbEntity
  8
1
  6
Continuous
 62
     7
100
AcDbCircle
 10
-297.6423141906044
 20
125.8057759500814
 30
0.0
 40
2.749999999999915
  0
CIRCLE
  5
30A
330
1F
100
AcDbEntity
  8
1
  6
Continuous
 62
     7
100
AcDbCircle
 10
-262.3576858093957
 20
125.8057759500814
 30
0.0
 40
2.75
  0
CIRCLE
  5
30B
330
1F
100
AcDbEntity
  8
1
  6
Continuous
 62
     7
100
AcDbCircle
 10
-262.3576858093957
 20
90.52114756887266
 30
0.0
 40
2.75
  0
CIRCLE
  5
30C
330
1F
100
AcDbEntity
  8
1
  6
Continuous
 62
     7
100
AcDbCircle
 10
-23.31681333402497
 20
108.163461759477
 30
0.0
 40
3.75
  0
CIRCLE
  5
30D
330
1F
100
AcDbEntity
  8
1
  6
Continuous
 62
     7
100
AcDbCircle
 10
-23.31681333402497
 20
108.163461759477
 30
0.0
 40
28.2
  0
CIRCLE
  5
30E
330
1F
100
AcDbEntity
  8
1
  6
Continuous
 62
     7
100
AcDbCircle
 10
-46.88681333402496
 20
131.733461759477
 30
0.0
 40
2.539999999999957
  0
CIRCLE
  5
30F
330
1F
100
AcDbEntity
  8
1
  6
Continuous
 62
     7
100
AcDbCircle
 10
0.25318666597502
 20
131.733461759477
 30
0.0
 40
2.540000000000021
  0
CIRCLE
  5
310
330
1F
100
AcDbEntity
  8
1
  6
Continuous
 62
     7
100
AcDbCircle
 10
-46.88681333402496
 20
84.59346175947701
 30
0.0
 40
2.539999999999957
  0
CIRCLE
  5
311
330
1F
100
AcDbEntity
  8
1
  6
Continuous
 62
     7
100
AcDbCircle
 10
0.25318666597502
 20
84.59346175947701
 30
0.0
 40
2.540000000000021
  0
CIRCLE
  5
312
330
1F
100
AcDbEntity
  8
1
  6
Continuous
 62
     7
100
AcDbCircle
 10
-297.6423141906044
 20
125.8057759500814
 30
0.0
 40
3.499999999999915
  0
CIRCLE
  5
313
330
1F
100
AcDbEntity
  8
1
  6
Continuous
 62
     7
100
AcDbCircle
 10
-262.3576858093957
 20
125.8057759500814
 30
0.0
 40
3.5
  0
CIRCLE
  5
314
330
1F
100
AcDbEntity
  8
1
  6
Continuous
 62
     7
100
AcDbCircle
 10
-262.3576858093957
 20
90.52114756887266
 30
0.0
 40
3.5
  0
CIRCLE
  5
315
330
1F
100
AcDbEntity
  8
1
  6
Continuous
 62
     7
100
AcDbCircle
 10
-280.0
 20
108.163461759477
 30
0.0
 40
2.475000000000023
  0
CIRCLE
  5
316
330
1F
100
AcDbEntity
  8
1
  6
Continuous
 62
     7
100
AcDbCircle
 10
-280.0
 20
108.163461759477
 30
0.0
 40
3.175000000000011
  0
CIRCLE
  5
317
330
1F
100
AcDbEntity
  8
1
  6
Continuous
 62
     7
100
AcDbCircle
 10
-256.4299999999999
 20
131.733461759477
 30
0.0
 40
2.540000000000134
  0
CIRCLE
  5
318
330
1F
100
AcDbEntity
  8
1
  6
Continuous
 62
     7
100
AcDbCircle
 10
-303.57
 20
131.733461759477
 30
0.0
 40
2.54000000000002
  0
CIRCLE
  5
319
330
1F
100
AcDbEntity
  8
1
  6
Continuous
 62
     7
100
AcDbCircle
 10
-256.4299999999999
 20
84.59346175947701
 30
0.0
 40
2.540000000000134
  0
CIRCLE
  5
31A
330
1F
100
AcDbEntity
  8
1
  6
Continuous
 62
     7
100
AcDbCircle
 10
-303.57
 20
84.59346175947701
 30
0.0
 40
2.54000000000002
  0
CIRCLE
  5
31B
330
1F
100
AcDbEntity
  8
1
  6
Continuous
 62
     7
100
AcDbCircle
 10
-280.0
 20
108.163461759477
 30
0.0
 40
19.05000000000001
  0
CIRCLE
  5
31C
330
1F
100
AcDbEntity
  8
1
  6
Continuous
 62
     7
100
AcDbCircle
 10
-297.6423141906044
 20
90.52114756887262
 30
0.0
 40
3.499999999999886
  0
SPLINE
  5
31D
330
1F
100
AcDbEntity
  8
1
  6
Continuous
 62
     7
100
AcDbSpline
210
0.0
220
0.0
230
1.0
 70
     8
 71
     3
 72
    33
 73
    29
 74
    27
 42
0.0000000001
 43
0.0000000001
 44
0.00000001
 40
0.0
 40
0.0
 40
0.0
 40
0.0
 40
0.3431646928541742
 40
0.6865278656292546
 40
0.8230750923411594
 40
0.959224511683954
 40
1.095541023981304
 40
1.232202072420017
 40
1.365334668990368
 40
1.498294674634309
 40
1.62595917724147
 40
1.753619881261254
 40
1.87638489685962
 40
1.999077715871155
 40
2.119802097130166
 40
2.240529957880444
 40
2.363230110061162
 40
2.485988008566287
 40
2.613623483033095
 40
2.741310927340708
 40
2.874350551496375
 40
3.007416491764785
 40
3.143873484302661
 40
3.280333641353245
 40
3.416781792712282
 40
3.553255389719562
 40
3.81308877063567
 40
4.072795459220925
 40
4.072795459220925
 40
4.072795459220925
 40
4.072795459220925
 10
-144.8148129425125
 20
91.43335803220495
 30
0.0
 10
-144.8799017009692
 20
91.33904943610762
 30
0.0
 10
-145.0101168639804
 20
91.15037769761761
 30
0.0
 10
-145.1151617175263
 20
90.89374515067244
 30
0.0
 10
-145.161369192244
 20
90.69337894895948
 30
0.0
 10
-145.1742137216374
 20
90.55706528847833
 30
0.0
 10
-145.1638867135201
 20
90.42043702517192
 30
0.0
 10
-145.1322710527491
 20
90.28825643062886
 30
0.0
 10
-145.0813282774304
 20
90.16347192566413
 30
0.0
 10
-145.0125282887871
 20
90.05096248268036
 30
0.0
 10
-144.9268457155152
 20
89.95312437107486
 30
0.0
 10
-144.8279392544328
 20
89.87385986625
 30
0.0
 10
-144.7174828937851
 20
89.81515672297374
 30
0.0
 10
-144.6000759906708
 20
89.77895802314666
 30
0.0
 10
-144.4784803240697
 20
89.76705705245845
 30
0.0
 10
-144.3568821510325
 20
89.77895815585642
 30
0.0
 10
-144.2394741089222
 20
89.81515674812599
 30
0.0
 10
-144.129023782443
 20
89.873854536359
 30
0.0
 10
-144.030129298994
 20
89.95313083393967
 30
0.0
 10
-143.9444351312927
 20
90.05098658532673
 30
0.0
 10
-143.8755317861352
 20
90.16344285903573
 30
0.0
 10
-143.8246150236936
 20
90.28819171062884
 30
0.0
 10
-143.7935720303348
 20
90.42049279104162
 30
0.0
 10
-143.7831456931027
 20
90.55703716452831
 30
0.0
 10
-143.7934741377783
 20
90.69378987121772
 30
0.0
 10
-143.8346114554765
 20
90.86662930665074
 30
0.0
 10
-143.9305459765025
 20
91.07038757964514
 30
0.0
 10
-144.065221091346
 20
91.18207958456901
 30
0.0
 10
-144.1325422281823
 20
91.23791196871613
 30
0.0
 11
-144.8148129425125
 21
91.43335803220495
 31
0.0
 11
-144.999436091595
 21
91.14408947317278
 31
0.0
 11
-145.1286295601886
 21
90.82595850000146
 31
0.0
 11
-145.158417879563
 21
90.69270010007276
 31
0.0
 11
-145.1703547281823
 21
90.55707496953855
 31
0.0
 11
-145.1603142396086
 21
90.4211287297446
 31
0.0
 11
-145.1286295601886
 21
90.28819143907558
 31
0.0
 11
-145.0780931536953
 21
90.16502342420031
 31
0.0
 11
-145.0084867272652
 21
90.05173923068477
 31
0.0
 11
-144.9242324587272
 21
89.95582550143259
 31
0.0
 11
-144.8244172281823
 21
89.8762379703609
 31
0.0
 11
-144.7159517616753
 21
89.81873586926626
 31
0.0
 11
-144.5986225611056
 21
89.78285570022184
 31
0.0
 11
-144.4784814763743
 21
89.77100259978508
 31
0.0
 11
-144.358336895259
 21
89.78285570022187
 31
0.0
 11
-144.2410005538293
 21
89.81873759433394
 31
0.0
 11
-144.1325422281823
 21
89.8762379703609
 31
0.0
 11
-144.0327534393474
 21
89.95581819381643
 31
0.0
 11
-143.9484727290994
 21
90.05173923068476
 31
0.0
 11
-143.8787617435211
 21
90.16505260185157
 31
0.0
 11
-143.828329896176
 21
90.28819143907558
 31
0.0
 11
-143.797051492326
 21
90.42101527829534
 31
0.0
 11
-143.7866047281823
 21
90.55707496953855
 31
0.0
 11
-143.7970199178858
 21
90.69312504058865
 31
0.0
 11
-143.8283298961761
 21
90.82595850000145
 31
0.0
 11
-143.9452462370548
 21
91.05800150264064
 31
0.0
 11
-144.1325422281823
 21
91.23791196871613
 31
0.0
  0
SPLINE
  5
31E
330
1F
100
AcDbEntity
  8
1
  6
Continuous
 62
     7
100
AcDbSpline
210
0.0
220
0.0
230
1.0
 70
     8
 71
     3
 72
    31
 73
    27
 74
    25
 42
0.0000000001
 43
0.0000000001
 44
0.00000001
 40
0.0
 40
0.0
 40
0.0
 40
0.0
 40
0.5642786467864086
 40
1.132022769770669
 40
1.350292347143556
 40
1.56983997622327
 40
1.799895032820014
 40
2.029479619040074
 40
2.259244921739549
 40
2.489150472879622
 40
2.708033744439354
 40
2.92682983688452
 40
3.127734154391492
 40
3.328560885290069
 40
3.51243695010224
 40
3.695845347433996
 40
3.872027738621671
 40
4.048573187548898
 40
4.232574636494027
 40
4.416005113333967
 40
4.615841688564865
 40
4.817180076660143
 40
5.123074322036522
 40
5.427457837773351
 40
5.825593724476612
 40
6.224422202527068
 40
6.224422202527068
 40
6.224422202527068
 40
6.224422202527068
 10
-145.1703547281823
 20
91.52862516655071
 30
0.0
 10
-145.2613221188982
 20
91.36438310994738
 30
0.0
 10
-145.4438155699324
 20
91.03489031611615
 30
0.0
 10
-145.5849104744491
 20
90.59551282270715
 30
0.0
 10
-145.5733330025198
 20
90.25836330773772
 30
0.0
 10
-145.5312822175086
 20
90.03912400273236
 30
0.0
 10
-145.4597583818923
 20
89.8236058418417
 30
0.0
 10
-145.3587833068233
 20
89.61643726455148
 30
0.0
 10
-145.2315621646248
 20
89.42431848066548
 30
0.0
 10
-145.0820432057306
 20
89.25365986237198
 30
0.0
 10
-144.9134110291438
 20
89.10736811377609
 30
0.0
 10
-144.7330315177172
 20
88.99269981784514
 30
0.0
 10
-144.54235745663
 20
88.91026705512249
 30
0.0
 10
-144.3511786610038
 20
88.86517269849202
 30
0.0
 10
-144.1607420496484
 20
88.85837009067629
 30
0.0
 10
-143.9806996009372
 20
88.88973888977452
 30
0.0
 10
-143.8153190687691
 20
88.9615015270038
 30
0.0
 10
-143.6696726017684
 20
89.06796453706266
 30
0.0
 10
-143.5505505401094
 20
89.20670988350966
 30
0.0
 10
-143.4600678147251
 20
89.37444902501984
 30
0.0
 10
-143.4073487889439
 20
89.5633999639322
 30
0.0
 10
-143.3768658457247
 20
89.79727353567756
 30
0.0
 10
-143.3594499733954
 20
90.0678166635891
 30
0.0
 10
-143.3768847385446
 20
90.40366209213796
 30
0.0
 10
-143.4488794038197
 20
90.76867237254224
 30
0.0
 10
-143.5781787950042
 20
91.00238362225787
 30
0.0
 10
-143.6428846735599
 20
91.11934079895192
 30
0.0
 11
-145.1703547281823
 21
91.52862516655071
 31
0.0
 11
-145.4273035281053
 21
91.02624313518687
 31
0.0
 11
-145.5738555281926
 21
90.47773980752734
 31
0.0
 11
-145.5677492457955
 21
90.25955566116967
 31
0.0
 11
-145.5274039815053
 21
90.04374690072682
 31
0.0
 11
-145.4549695704566
 21
89.82539263545647
 31
0.0
 11
-145.354436689394
 21
89.6189895781751
 31
0.0
 11
-145.2274797565313
 21
89.42748492673637
 31
0.0
 11
-145.0758160600126
 21
89.25469984172233
 31
0.0
 11
-144.9101195814082
 21
89.11168039008446
 31
0.0
 11
-144.7251478532672
 21
88.99481640992882
 31
0.0
 11
-144.5404060686821
 21
88.91586694621148
 31
0.0
 11
-144.3447278302027
 21
88.87068506013959
 31
0.0
 11
-144.160946603042
 21
88.8647801677538
 31
0.0
 11
-143.9804402600024
 21
88.89727786512302
 31
0.0
 11
-143.8186965921886
 21
88.96712928519963
 31
0.0
 11
-143.6762235999443
 21
89.07138734013003
 31
0.0
 11
-143.5559059822839
 21
89.21060014160476
 31
0.0
 11
-143.4687708689912
 21
89.37201331289258
 31
0.0
 11
-143.4121694825705
 21
89.56366648885184
 31
0.0
 11
-143.3831039281721
 21
89.76289585432872
 31
0.0
 11
-143.3653585543064
 21
90.06827494834262
 31
0.0
 11
-143.3816047281823
 21
90.37222459299895
 31
0.0
 11
-143.4681011365147
 21
90.76085109187233
 31
0.0
 11
-143.6428846735599
 21
91.11934079895192
 31
0.0
  0
SPLINE
  5
31F
330
1F
100
AcDbEntity
  8
1
  6
Continuous
 62
     7
100
AcDbSpline
210
0.0
220
0.0
230
1.0
 70
    11
 71
     3
 72
    39
 73
    35
 74
    33
 42
0.0000000001
 43
0.0000000001
 44
0.00000001
 40
0.0
 40
0.0
 40
0.0
 40
0.0
 40
0.1216187323491919
 40
0.2433672738827804
 40
0.3111849873381043
 40
0.3790120728988355
 40
0.4508989574139513
 40
0.5227911808303047
 40
0.5962275518642728
 40
0.6696667009577664
 40
0.7415621269030281
 40
0.8134474374775584
 40
0.8812772776736049
 40
0.9490855697840647
 40
1.011995229757659
 40
1.074841109821563
 40
1.134302356027363
 40
1.193709750378815
 40
1.253117144730196
 40
1.312578390935932
 40
1.375424270999844
 40
1.438333930973443
 40
1.506142223083947
 40
1.57397206328003
 40
1.645857373854582
 40
1.717752799799874
 40
1.791191948893382
 40
1.864628319927318
 40
1.936520543343701
 40
2.008407427858794
 40
2.076234513419468
 40
2.144052226874803
 40
2.265800768408419
 40
2.387419500757603
 40
2.387419500757603
 40
2.387419500757603
 40
2.387419500757603
 10
-144.5876690128349
 20
98.65355785549659
 30
0.0
 10
-144.6256550529787
 20
98.63764569265402
 30
0.0
 10
-144.7016676774885
 20
98.60580438319636
 30
0.0
 10
-144.7662690417196
 20
98.519191207308
 30
0.0
 10
-144.8006352122521
 20
98.44061131342019
 30
0.0
 10
-144.817356970884
 20
98.37308968513972
 30
0.0
 10
-144.8239242253774
 20
98.30262782497361
 30
0.0
 10
-144.8201041780492
 20
98.23007498787446
 30
0.0
 10
-144.8061452943894
 20
98.1582610458803
 30
0.0
 10
-144.7823225050107
 20
98.08908669924874
 30
0.0
 10
-144.7493738888891
 20
98.02434409425403
 30
0.0
 10
-144.7084375232245
 20
97.9665711769913
 30
0.0
 10
-144.6601916931762
 20
97.91662129780138
 30
0.0
 10
-144.6067920839616
 20
97.8769514120221
 30
0.0
 10
-144.5487348898129
 20
97.84803808227664
 30
0.0
 10
-144.4888464200582
 20
97.83131890129029
 30
0.0
 10
-144.4279627288108
 20
97.82754243357823
 30
0.0
 10
-144.3687024993266
 20
97.83636370192755
 30
0.0
 10
-144.3129710009847
 20
97.85835437418545
 30
0.0
 10
-144.2621324115443
 20
97.89206673678436
 30
0.0
 10
-144.2186270658361
 20
97.93649020712635
 30
0.0
 10
-144.1828047257036
 20
97.9905584822683
 30
0.0
 10
-144.1563942504613
 20
98.05161341572568
 30
0.0
 10
-144.1395870756077
 20
98.11899419504425
 30
0.0
 10
-144.1330216016348
 20
98.1894951918769
 30
0.0
 10
-144.1368585655513
 20
98.26203824057029
 30
0.0
 10
-144.1508145980763
 20
98.33385637673273
 30
0.0
 10
-144.1746328212154
 20
98.40302851667553
 30
0.0
 10
-144.2076009817353
 20
98.46777114038407
 30
0.0
 10
-144.2485193210425
 20
98.52550927403918
 30
0.0
 10
-144.2967616029539
 20
98.57562384011902
 30
0.0
 10
-144.3658135266098
 20
98.6264929391862
 30
0.0
 10
-144.4650665370972
 20
98.66920146769246
 30
0.0
 10
-144.5468160556599
 20
98.65877053831767
 30
0.0
 10
-144.5876690128349
 20
98.65355785549659
 30
0.0
 11
-144.5876690128349
 21
98.65355785549659
 31
0.0
 11
-144.695261409929
 21
98.59685695474744
 31
0.0
 11
-144.7716723120811
 21
98.50207256047354
 31
0.0
 11
-144.7988388932931
 21
98.43993385173607
 31
0.0
 11
-144.8153986230201
 21
98.37415932104956
 31
0.0
 11
-144.8221764930405
 21
98.30259267628207
 31
0.0
 11
-144.8184875428484
 21
98.23079515937357
 31
0.0
 11
-144.8044899942046
 21
98.15870515158745
 31
0.0
 11
-144.780566502247
 21
98.08927190917339
 31
0.0
 11
-144.7478707785423
 21
98.02524112030368
 31
0.0
 11
-144.7062093383675
 21
97.96665936308389
 31
0.0
 11
-144.6589497066317
 21
97.91800327991625
 31
0.0
 11
-144.6043846225685
 21
97.87774640373189
 31
0.0
 11
-144.5479792073516
 21
97.84988864983474
 31
0.0
 11
-144.4873739183483
 21
97.83325724623079
 31
0.0
 11
-144.4280233341817
 21
97.82963123472629
 31
0.0
 11
-144.3692904435296
 21
97.83855793956522
 31
0.0
 11
-144.3139629157679
 21
97.8601936317286
 31
0.0
 11
-144.2643768079024
 21
97.89300914188917
 31
0.0
 11
-144.2202067898239
 21
97.93771500441242
 31
0.0
 11
-144.1852871442836
 21
97.99004323458823
 31
0.0
 11
-144.1581608334174
 21
98.05218925407247
 31
0.0
 11
-144.1415608333445
 21
98.11795647401223
 31
0.0
 11
-144.1347718464047
 21
98.18952048405032
 31
0.0
 11
-144.1384719135162
 21
98.26132063568822
 31
0.0
 11
-144.1524701829407
 21
98.33341333346473
 31
0.0
 11
-144.1763929541175
 21
98.4028438858884
 31
0.0
 11
-144.2090969879922
 21
98.46686683455587
 31
0.0
 11
-144.2507501179971
 21
98.52545643197793
 31
0.0
 11
-144.2979785299637
 21
98.5741389816109
 31
0.0
 11
-144.352574833796
 21
98.61436939132992
 31
0.0
 11
-144.4661408133228
 21
98.6582496335774
 31
0.0
 11
-144.5876690128349
 21
98.65355785549659
 31
0.0
  0
SPLINE
  5
320
330
1F
100
AcDbEntity
  8
1
  6
Continuous
 62
     7
100
AcDbSpline
210
0.0
220
0.0
230
1.0
 70
    11
 71
     3
 72
    39
 73
    35
 74
    33
 42
0.0000000001
 43
0.0000000001
 44
0.00000001
 40
0.0
 40
0.0
 40
0.0
 40
0.0
 40
0.403769125284007
 40
0.8083911053851778
 40
1.045429737778021
 40
1.282357567294056
 40
1.539152197369232
 40
1.795986980053493
 40
2.06024120530788
 40
2.324502573518469
 40
2.581339783000202
 40
2.838140068999737
 40
3.075123609701607
 40
3.312074513351917
 40
3.524456586820933
 40
3.736498362407912
 40
3.931090394907444
 40
4.125252367192203
 40
4.319411082377298
 40
4.514006935422011
 40
4.730912533322874
 40
4.948210117480833
 40
5.180303000744387
 40
5.41235493503931
 40
5.66913398083856
 40
5.925991404575535
 40
6.190258019818828
 40
6.454507443871965
 40
6.711341135843408
 40
6.968136697184083
 40
7.205064705479779
 40
7.442103213928279
 40
7.846725193179575
 40
8.250494314327542
 40
8.250494314327542
 40
8.250494314327542
 40
8.250494314327542
 10
-144.8715611529317
 20
99.71305774620745
 30
0.0
 10
-144.9969703694487
 20
99.65748997753758
 30
0.0
 10
-145.2480536960757
 20
99.54623706807541
 30
0.0
 10
-145.4471890481373
 20
99.24119033709671
 30
0.0
 10
-145.5509106662482
 20
98.96785560222494
 30
0.0
 10
-145.5990888766399
 20
98.72774254577347
 30
0.0
 10
-145.6142132376396
 20
98.47735977969646
 30
0.0
 10
-145.5952168866498
 20
98.21801799723889
 30
0.0
 10
-145.5434255277404
 20
97.9607093482688
 30
0.0
 10
-145.4596010321698
 20
97.71197372690105
 30
0.0
 10
-145.3464863423924
 20
97.47787286588544
 30
0.0
 10
-145.2081094628075
 20
97.26843420801198
 30
0.0
 10
-145.0462413609586
 20
97.08530984435939
 30
0.0
 10
-144.8688458118174
 20
96.93908145051549
 30
0.0
 10
-144.6761953978138
 20
96.82961650920183
 30
0.0
 10
-144.4787579479775
 20
96.76409621165563
 30
0.0
 10
-144.2777971200013
 20
96.74496706221976
 30
0.0
 10
-144.0832194986673
 20
96.77092141693592
 30
0.0
 10
-143.9017295135807
 20
96.84573054450148
 30
0.0
 10
-143.7359283373958
 20
96.96372508246696
 30
0.0
 10
-143.5958947223153
 20
97.12208128552473
 30
0.0
 10
-143.4841529099139
 20
97.31537408791031
 30
0.0
 10
-143.4053127463132
 20
97.52951907443506
 30
0.0
 10
-143.3576928773436
 20
97.76586320120856
 30
0.0
 10
-143.342683218387
 20
98.01478694509272
 30
0.0
 10
-143.3617585870487
 20
98.27408291715071
 30
0.0
 10
-143.4135309334016
 20
98.53141484796399
 30
0.0
 10
-143.4973383895454
 20
98.7801440999837
 30
0.0
 10
-143.6105578535036
 20
99.01423678938787
 30
0.0
 10
-143.748845666124
 20
99.22351355040841
 30
0.0
 10
-143.9106258669455
 20
99.40736890990965
 30
0.0
 10
-144.1371192470255
 20
99.5922223693158
 30
0.0
 10
-144.4620986691326
 20
99.7568331094569
 30
0.0
 10
-144.7351696889257
 20
99.72763926739
 30
0.0
 10
-144.8715611529317
 20
99.71305774620745
 30
0.0
 11
-144.8715611529317
 21
99.71305774620745
 31
0.0
 11
-145.2235651148268
 21
99.51526311194573
 31
0.0
 11
-145.4606309715182
 21
99.1873626295243
 31
0.0
 11
-145.5447443615395
 21
98.96574978949515
 31
0.0
 11
-145.5925742612195
 21
98.73370001661057
 31
0.0
 11
-145.6084900279695
 21
98.47739907942109
 31
0.0
 11
-145.5901413079524
 21
98.22122056730463
 31
0.0
 11
-145.5380368698688
 21
97.96215412197294
 31
0.0
 11
-145.4536255617875
 21
97.711736866584
 31
0.0
 11
-145.3414800806185
 21
97.48067682411073
 31
0.0
 11
-145.19949283647
 21
97.26670016793405
 31
0.0
 11
-145.0418542958316
 21
97.08975020588548
 31
0.0
 11
-144.8583952892728
 21
96.93978846525421
 31
0.0
 11
-144.6731560422496
 21
96.83590118743214
 31
0.0
 11
-144.4714743184517
 21
96.7704321345906
 31
0.0
 11
-144.2777203556884
 21
96.7523915961892
 31
0.0
 11
-144.0853983034329
 21
96.77905804885437
 31
0.0
 11
-143.9055112422898
 21
96.85212139065878
 31
0.0
 11
-143.7467337095028
 21
96.96462579548049
 31
0.0
 11
-143.6019409044
 21
97.12612837128404
 31
0.0
 11
-143.4920989448131
 21
97.31361966173507
 31
0.0
 11
-143.4110693007527
 21
97.53110828958727
 31
0.0
 11
-143.3643851951452
 21
97.75841577845124
 31
0.0
 11
-143.3484165284967
 21
98.0146978106873
 31
0.0
 11
-143.3668181484122
 21
98.27089522775718
 31
0.0
 11
-143.418922339615
 21
98.52997436082515
 31
0.0
 11
-143.5033338945771
 21
98.78037892847777
 31
0.0
 11
-143.6155332283296
 21
99.01140891535651
 31
0.0
 11
-143.7574666198945
 21
99.22541562712775
 31
0.0
 11
-143.9149132859795
 21
99.40246202910672
 31
0.0
 11
-144.0985641670918
 21
99.5523273298076
 31
0.0
 11
-144.4678194665747
 21
99.71776453812858
 31
0.0
 11
-144.8715611529317
 21
99.71305774620745
 31
0.0
  0
SPLINE
  5
321
330
1F
100
AcDbEntity
  8
1
  6
Continuous
 62
     7
100
AcDbSpline
210
0.0
220
0.0
230
1.0
 70
    11
 71
     3
 72
    39
 73
    35
 74
    33
 42
0.0000000001
 43
0.0000000001
 44
0.00000001
 40
0.0
 40
0.0
 40
0.0
 40
0.0
 40
0.4037691252840209
 40
0.8083911053851802
 40
1.04542973777805
 40
1.282357567294085
 40
1.539152197369247
 40
1.795986980053508
 40
2.06024120530788
 40
2.324502573518497
 40
2.581339783000243
 40
2.83814006899979
 40
3.075123609701659
 40
3.312074513351943
 40
3.524456586820951
 40
3.736498362407931
 40
3.931090394907462
 40
4.125252367192216
 40
4.319411082377316
 40
4.514006935422021
 40
4.730912533322884
 40
4.948210117480855
 40
5.180303000744396
 40
5.412354935039346
 40
5.669133980838611
 40
5.925991404575599
 40
6.190258019818891
 40
6.454507443872042
 40
6.711341135843433
 40
6.968136697184109
 40
7.205064705479804
 40
7.442103213928314
 40
7.846725193179616
 40
8.250494314327582
 40
8.250494314327582
 40
8.250494314327582
 40
8.250494314327582
 10
-144.8715611529317
 20
106.5106805897611
 30
0.0
 10
-144.9969703694486
 20
106.4551128210912
 30
0.0
 10
-145.2480536960757
 20
106.3438599116291
 30
0.0
 10
-145.4471890481373
 20
106.0388131806503
 30
0.0
 10
-145.5509106662482
 20
105.7654784457786
 30
0.0
 10
-145.5990888766399
 20
105.5253653893271
 30
0.0
 10
-145.6142132376396
 20
105.2749826232501
 30
0.0
 10
-145.5952168866497
 20
105.0156408407925
 30
0.0
 10
-145.5434255277404
 20
104.7583321918224
 30
0.0
 10
-145.4596010321698
 20
104.5095965704546
 30
0.0
 10
-145.3464863423924
 20
104.275495709439
 30
0.0
 10
-145.2081094628075
 20
104.0660570515656
 30
0.0
 10
-145.0462413609586
 20
103.8829326879129
 30
0.0
 10
-144.8688458118174
 20
103.7367042940691
 30
0.0
 10
-144.6761953978139
 20
103.6272393527555
 30
0.0
 10
-144.4787579479775
 20
103.5617190552093
 30
0.0
 10
-144.2777971200013
 20
103.5425899057733
 30
0.0
 10
-144.0832194986673
 20
103.5685442604895
 30
0.0
 10
-143.9017295135807
 20
103.6433533880551
 30
0.0
 10
-143.7359283373958
 20
103.7613479260206
 30
0.0
 10
-143.5958947223153
 20
103.9197041290783
 30
0.0
 10
-143.4841529099139
 20
104.1129969314639
 30
0.0
 10
-143.4053127463131
 20
104.3271419179887
 30
0.0
 10
-143.3576928773437
 20
104.5634860447622
 30
0.0
 10
-143.3426832183869
 20
104.8124097886464
 30
0.0
 10
-143.3617585870487
 20
105.0717057607044
 30
0.0
 10
-143.4135309334016
 20
105.3290376915176
 30
0.0
 10
-143.4973383895455
 20
105.5777669435374
 30
0.0
 10
-143.6105578535036
 20
105.8118596329414
 30
0.0
 10
-143.7488456661239
 20
106.021136393962
 30
0.0
 10
-143.9106258669456
 20
106.2049917534633
 30
0.0
 10
-144.1371192470255
 20
106.3898452128694
 30
0.0
 10
-144.4620986691326
 20
106.5544559530105
 30
0.0
 10
-144.7351696889257
 20
106.5252621109437
 30
0.0
 10
-144.8715611529317
 20
106.5106805897611
 30
0.0
 11
-144.8715611529317
 21
106.5106805897611
 31
0.0
 11
-145.2235651148268
 21
106.3128859554993
 31
0.0
 11
-145.4606309715182
 21
105.9849854730779
 31
0.0
 11
-145.5447443615395
 21
105.7633726330487
 31
0.0
 11
-145.5925742612195
 21
105.5313228601642
 31
0.0
 11
-145.6084900279695
 21
105.2750219229747
 31
0.0
 11
-145.5901413079524
 21
105.0188434108582
 31
0.0
 11
-145.5380368698688
 21
104.7597769655266
 31
0.0
 11
-145.4536255617875
 21
104.5093597101376
 31
0.0
 11
-145.3414800806185
 21
104.2782996676643
 31
0.0
 11
-145.19949283647
 21
104.0643230114876
 31
0.0
 11
-145.0418542958316
 21
103.887373049439
 31
0.0
 11
-144.8583952892728
 21
103.7374113088078
 31
0.0
 11
-144.6731560422496
 21
103.6335240309858
 31
0.0
 11
-144.4714743184517
 21
103.5680549781442
 31
0.0
 11
-144.2777203556884
 21
103.5500144397428
 31
0.0
 11
-144.0853983034329
 21
103.5766808924079
 31
0.0
 11
-143.9055112422898
 21
103.6497442342124
 31
0.0
 11
-143.7467337095028
 21
103.7622486390341
 31
0.0
 11
-143.6019409044
 21
103.9237512148376
 31
0.0
 11
-143.4920989448131
 21
104.1112425052887
 31
0.0
 11
-143.4110693007527
 21
104.3287311331408
 31
0.0
 11
-143.3643851951452
 21
104.5560386220048
 31
0.0
 11
-143.3484165284967
 21
104.8123206542409
 31
0.0
 11
-143.3668181484122
 21
105.0685180713108
 31
0.0
 11
-143.418922339615
 21
105.3275972043788
 31
0.0
 11
-143.5033338945771
 21
105.5780017720314
 31
0.0
 11
-143.6155332283296
 21
105.8090317589101
 31
0.0
 11
-143.7574666198945
 21
106.0230384706813
 31
0.0
 11
-143.9149132859795
 21
106.2000848726603
 31
0.0
 11
-144.0985641670918
 21
106.3499501733612
 31
0.0
 11
-144.4678194665747
 21
106.5153873816822
 31
0.0
 11
-144.8715611529317
 21
106.5106805897611
 31
0.0
  0
SPLINE
  5
322
330
1F
100
AcDbEntity
  8
1
  6
Continuous
 62
     7
100
AcDbSpline
210
0.0
220
0.0
230
1.0
 70
    11
 71
     3
 72
    39
 73
    35
 74
    33
 42
0.0000000001
 43
0.0000000001
 44
0.00000001
 40
0.0
 40
0.0
 40
0.0
 40
0.0
 40
0.1216187323491985
 40
0.2433672738827981
 40
0.3111849873381219
 40
0.379012072898867
 40
0.4508989574139827
 40
0.5227911808303503
 40
0.5962275518643183
 40
0.6696667009577716
 40
0.7415621269030334
 40
0.8134474374775521
 40
0.8812772776735883
 40
0.9490855697840734
 40
1.011995229757668
 40
1.074841109821579
 40
1.134302356027376
 40
1.193709750378831
 40
1.253117144730221
 40
1.312578390935942
 40
1.375424270999854
 40
1.438333930973442
 40
1.506142223083932
 40
1.573972063280015
 40
1.645857373854553
 40
1.71775279979986
 40
1.791191948893354
 40
1.86462831992733
 40
1.936520543343713
 40
2.008407427858806
 40
2.07623451341947
 40
2.144052226874822
 40
2.265800768408432
 40
2.387419500757616
 40
2.387419500757616
 40
2.387419500757616
 40
2.387419500757616
 10
-144.5876690128349
 20
105.4511806990502
 30
0.0
 10
-144.6256550529787
 20
105.4352685362076
 30
0.0
 10
-144.7016676774885
 20
105.40342722675
 30
0.0
 10
-144.7662690417196
 20
105.3168140508616
 30
0.0
 10
-144.8006352122521
 20
105.2382341569738
 30
0.0
 10
-144.8173569708841
 20
105.1707125286933
 30
0.0
 10
-144.8239242253774
 20
105.1002506685272
 30
0.0
 10
-144.8201041780492
 20
105.027697831428
 30
0.0
 10
-144.8061452943894
 20
104.9558838894339
 30
0.0
 10
-144.7823225050107
 20
104.8867095428024
 30
0.0
 10
-144.7493738888891
 20
104.8219669378076
 30
0.0
 10
-144.7084375232245
 20
104.7641940205448
 30
0.0
 10
-144.6601916931762
 20
104.7142441413551
 30
0.0
 10
-144.6067920839617
 20
104.6745742555756
 30
0.0
 10
-144.5487348898129
 20
104.6456609258303
 30
0.0
 10
-144.4888464200582
 20
104.6289417448438
 30
0.0
 10
-144.4279627288108
 20
104.6251652771318
 30
0.0
 10
-144.3687024993267
 20
104.6339865454812
 30
0.0
 10
-144.3129710009846
 20
104.6559772177391
 30
0.0
 10
-144.2621324115443
 20
104.689689580338
 30
0.0
 10
-144.2186270658362
 20
104.73411305068
 30
0.0
 10
-144.1828047257036
 20
104.7881813258219
 30
0.0
 10
-144.1563942504613
 20
104.8492362592793
 30
0.0
 10
-144.1395870756077
 20
104.9166170385979
 30
0.0
 10
-144.1330216016349
 20
104.9871180354305
 30
0.0
 10
-144.1368585655513
 20
105.0596610841239
 30
0.0
 10
-144.1508145980763
 20
105.1314792202863
 30
0.0
 10
-144.1746328212154
 20
105.2006513602292
 30
0.0
 10
-144.2076009817352
 20
105.2653939839377
 30
0.0
 10
-144.2485193210426
 20
105.3231321175928
 30
0.0
 10
-144.296761602954
 20
105.3732466836726
 30
0.0
 10
-144.3658135266098
 20
105.4241157827398
 30
0.0
 10
-144.4650665370972
 20
105.4668243112461
 30
0.0
 10
-144.5468160556599
 20
105.4563933818713
 30
0.0
 10
-144.5876690128349
 20
105.4511806990502
 30
0.0
 11
-144.5876690128349
 21
105.4511806990502
 31
0.0
 11
-144.695261409929
 21
105.394479798301
 31
0.0
 11
-144.7716723120811
 21
105.2996954040271
 31
0.0
 11
-144.7988388932931
 21
105.2375566952897
 31
0.0
 11
-144.8153986230201
 21
105.1717821646031
 31
0.0
 11
-144.8221764930405
 21
105.1002155198356
 31
0.0
 11
-144.8184875428484
 21
105.0284180029271
 31
0.0
 11
-144.8044899942046
 21
104.956327995141
 31
0.0
 11
-144.780566502247
 21
104.886894752727
 31
0.0
 11
-144.7478707785423
 21
104.8228639638573
 31
0.0
 11
-144.7062093383675
 21
104.7642822066375
 31
0.0
 11
-144.6589497066317
 21
104.7156261234699
 31
0.0
 11
-144.6043846225685
 21
104.6753692472855
 31
0.0
 11
-144.5479792073516
 21
104.6475114933883
 31
0.0
 11
-144.4873739183483
 21
104.6308800897843
 31
0.0
 11
-144.4280233341817
 21
104.6272540782799
 31
0.0
 11
-144.3692904435296
 21
104.6361807831188
 31
0.0
 11
-144.3139629157679
 21
104.6578164752822
 31
0.0
 11
-144.2643768079024
 21
104.6906319854428
 31
0.0
 11
-144.2202067898239
 21
104.735337847966
 31
0.0
 11
-144.1852871442836
 21
104.7876660781418
 31
0.0
 11
-144.1581608334174
 21
104.8498120976261
 31
0.0
 11
-144.1415608333445
 21
104.9155793175658
 31
0.0
 11
-144.1347718464047
 21
104.9871433276039
 31
0.0
 11
-144.1384719135162
 21
105.0589434792418
 31
0.0
 11
-144.1524701829407
 21
105.1310361770183
 31
0.0
 11
-144.1763929541175
 21
105.200466729442
 31
0.0
 11
-144.2090969879922
 21
105.2644896781095
 31
0.0
 11
-144.2507501179971
 21
105.3230792755315
 31
0.0
 11
-144.2979785299637
 21
105.3717618251645
 31
0.0
 11
-144.352574833796
 21
105.4119922348835
 31
0.0
 11
-144.4661408133228
 21
105.455872477131
 31
0.0
 11
-144.5876690128349
 21
105.4511806990502
 31
0.0
  0
ARC
  5
323
330
1F
100
AcDbEntity
  8
1
  6
Continuous
 62
     7
100
AcDbCircle
 10
-19.06681333402497
 20
136.863461759477
 30
0.0
 40
1.0
100
AcDbArc
 50
0.0
 51
90.0
  0
ARC
  5
324
330
1F
100
AcDbEntity
  8
1
  6
Continuous
 62
     7
100
AcDbCircle
 10
-27.56681333402497
 20
136.863461759477
 30
0.0
 40
1.0
100
AcDbArc
 50
90.0
 51
180.0
  0
ARC
  5
325
330
1F
100
AcDbEntity
  8
1
  6
Continuous
 62
     7
100
AcDbCircle
 10
-275.75
 20
136.863461759477
 30
0.0
 40
1.0
100
AcDbArc
 50
0.0
 51
90.0
  0
ARC
  5
326
330
1F
100
AcDbEntity
  8
1
  6
Continuous
 62
     7
100
AcDbCircle
 10
-284.25
 20
136.863461759477
 30
0.0
 40
1.0
100
AcDbArc
 50
90.0
 51
180.0
  0
ARC
  5
327
330
1F
100
AcDbEntity
  8
1
  6
Continuous
 62
     7
100
AcDbCircle
 10
-119.923776467207
 20
137.363461759477
 30
0.0
 40
0.5
100
AcDbArc
 50
0.0
 51
90.0
  0
ARC
  5
328
330
1F
100
AcDbEntity
  8
1
  6
Continuous
 62
     7
100
AcDbCircle
 10
-119.223776467207
 20
81.963461759477
 30
0.0
 40
2.0
100
AcDbArc
 50
-90.0
 51
0.0
  0
ARC
  5
329
330
1F
100
AcDbEntity
  8
1
  6
Continuous
 62
     7
100
AcDbCircle
 10
-119.223776467207
 20
134.363461759477
 30
0.0
 40
2.0
100
AcDbArc
 50
0.0
 51
90.0
  0
ARC
  5
32A
330
1F
100
AcDbEntity
  8
1
  6
Continuous
 62
     7
100
AcDbCircle
 10
-127.723776467207
 20
137.363461759477
 30
0.0
 40
0.5
100
AcDbArc
 50
90.0
 51
180.0
  0
ARC
  5
32B
330
1F
100
AcDbEntity
  8
1
  6
Continuous
 62
     7
100
AcDbCircle
 10
-146.393776467207
 20
131.163461759477
 30
0.0
 40
2.0
100
AcDbArc
 50
90.0
 51
180.0
  0
ARC
  5
32C
330
1F
100
AcDbEntity
  8
1
  6
Continuous
 62
     7
100
AcDbCircle
 10
-146.393776467207
 20
85.16346175947697
 30
0.0
 40
2.0
100
AcDbArc
 50
180.0
 51
-90.0
  0
ARC
  5
32D
330
1F
100
AcDbEntity
  8
1
  6
Continuous
 62
     7
100
AcDbCircle
 10
-130.393776467207
 20
131.163461759477
 30
0.0
 40
2.0
100
AcDbArc
 50
0.0
 51
90.0
  0
ARC
  5
32E
330
1F
100
AcDbEntity
  8
1
  6
Continuous
 62
     7
100
AcDbCircle
 10
-130.393776467207
 20
85.16346175947697
 30
0.0
 40
2.0
100
AcDbArc
 50
-90.0
 51
0.0
  0
SOLID
  5
32F
330
1F
100
AcDbEntity
  8
1
 62
     4
100
AcDbTrace
 10
-158.82680988267
 20
33.60476174621392
 30
0.0
 11
-158.82680988267
 21
34.52632922932569
 31
0.0
 12
-155.32680988267
 22
34.0655454877698
 32
0.0
 13
-155.32680988267
 23
34.0655454877698
 33
0.0
  0
LEADER
  5
330
330
1F
100
AcDbEntity
  8
1
  6
Continuous
 62
     4
100
AcDbLeader
  3
Standard
 71
     0
 76
     2
 10
-155.32680988267
 20
34.0655454877698
 30
0.0
 10
-172.842872098652
 20
34.0655454877698
 30
0.0
  0
SOLID
  5
331
330
1F
100
AcDbEntity
  8
1
 62
     4
100
AcDbTrace
 10
-200.3569389181089
 20
130.260852234328
 30
0.0
 11
-199.4353714349971
 21
130.260852234328
 31
0.0
 12
-199.896155176553
 22
126.760852234328
 32
0.0
 13
-199.896155176553
 23
126.760852234328
 33
0.0
  0
LEADER
  5
332
330
1F
100
AcDbEntity
  8
1
  6
Continuous
 62
     4
100
AcDbLeader
  3
Standard
 71
     0
 76
     2
 10
-199.896155176553
 20
126.760852234328
 30
0.0
 10
-199.896155176553
 20
151.813242232523
 30
0.0
  0
SOLID
  5
333
330
1F
100
AcDbEntity
  8
1
 62
     4
100
AcDbTrace
 10
-183.894151412291
 20
113.909396955319
 30
0.0
 11
-185.7496615067031
 21
111.284396955319
 31
0.0
 12
-182.0386413178789
 22
111.284396955319
 32
0.0
 13
-182.0386413178789
 23
111.284396955319
 33
0.0
  0
LEADER
  5
334
330
1F
100
AcDbEntity
  8
1
  6
Continuous
 62
     4
100
AcDbLeader
  3
Standard
 71
     0
 76
     2
 10
-183.894151412291
 20
111.284396955319
 30
0.0
 10
-183.894151412291
 20
131.696702619857
 30
0.0
  0
SOLID
  5
335
330
1F
100
AcDbEntity
  8
1
 62
     2
100
AcDbTrace
 10
-252.0568416762333
 20
80.38476869406163
 30
0.0
 11
-252.7690921287293
 21
79.7999730726278
 31
0.0
 12
-254.6339487757862
 22
82.7974105352632
 32
0.0
 13
-254.6339487757862
 23
82.7974105352632
 33
0.0
  0
LEADER
  5
336
330
1F
100
AcDbEntity
  8
1
  6
Continuous
 62
     2
100
AcDbLeader
  3
Standard
 71
     0
 76
     3
 10
-254.6339487757862
 20
82.7974105352632
 30
0.0
 10
-244.039828104143
 20
69.8943261659335
 30
0.0
 10
-239.039828104143
 20
69.8943261659335
 30
0.0
  0
SOLID
  5
337
330
1F
100
AcDbEntity
  8
1
 62
     2
100
AcDbTrace
 10
-133.2110421637935
 20
81.0167553532704
 30
0.0
 11
-133.8621433372461
 21
80.36456374963106
 31
0.0
 12
-136.013536278334
 22
83.16346175947697
 32
0.0
 13
-136.013536278334
 23
83.16346175947697
 33
0.0
  0
LEADER
  5
338
330
1F
100
AcDbEntity
  8
1
  6
Continuous
 62
     2
100
AcDbLeader
  3
Standard
 71
     0
 76
     3
 10
-136.013536278334
 20
83.16346175947697
 30
0.0
 10
-109.427216700777
 20
56.6215931151444
 30
0.0
 10
-104.427216700777
 20
56.6215931151444
 30
0.0
  0
DIMENSION
  5
344
330
1F
100
AcDbEntity
  8
1
100
AcDbDimension
  2
*D1
 10
-93.35648053319827
 20
136.363461759477
 30
0.0
 11
-97.10648053319827
 21
166.163461759477
 31
0.0
 70
    32
  1
305
 71
     5
 42
-1.0
 53
90.0
  3
ME10_DIM_10
100
AcDbAlignedDimension
 13
-122.023776467207
 23
195.963461759477
 33
0.0
 14
-119.223776467207
 24
136.363461759477
 34
0.0
 50
90.0
100
AcDbRotatedDimension
  0
DIMENSION
  5
356
330
1F
100
AcDbEntity
  8
1
100
AcDbDimension
  2
*D2
 10
-156.843776467207
 20
64.8787957900704
 30
0.0
 11
-163.520105912571
 21
68.6287957900704
 31
0.0
 70
    32
  1
<>
 71
     5
 42
-1.0
 53
0.00013888888889
  3
ME10_DIM_11
100
AcDbAlignedDimension
 13
-155.323776467207
 23
79.963461759477
 33
0.0
 14
-156.843776467207
 24
89.113461759477
 34
0.0
100
AcDbRotatedDimension
  0
DIMENSION
  5
361
330
1F
100
AcDbEntity
  8
1
100
AcDbDimension
  2
*D4
 10
-155.323776467207
 20
49.8696012752994
 30
0.0
 11
-136.273776467207
 21
53.6196012752994
 31
0.0
 70
    32
  1
38.1
 71
     5
 42
-1.0
 53
0.00013888888889
  3
ME10_DIM_12
100
AcDbAlignedDimension
 13
-117.223776467207
 23
81.963461759477
 33
0.0
 14
-155.323776467207
 24
79.963461759477
 34
0.0
100
AcDbRotatedDimension
  0
DIMENSION
  5
36D
330
1F
100
AcDbEntity
  8
1
100
AcDbDimension
  2
*D5
 10
-175.893776467207
 20
49.7411771182159
 30
0.0
 11
-165.608776467207
 21
53.4911771182159
 31
0.0
 70
    32
  1
20.57
 71
     5
 42
-1.0
 53
0.00013888888889
  3
ME10_DIM_13
100
AcDbAlignedDimension
 13
-155.323776467207
 23
79.963461759477
 33
0.0
 14
-175.893776467207
 24
105.688461759477
 34
0.0
100
AcDbRotatedDimension
  0
DIMENSION
  5
379
330
1F
100
AcDbEntity
  8
1
100
AcDbDimension
  2
*D6
 10
-303.57
 20
59.8467032100681
 30
0.0
 11
-280.0
 21
63.5967032100681
 31
0.0
 70
    32
  1
<>
 71
     5
 42
-1.0
 53
0.00013888888889
  3
ME10_DIM_14
100
AcDbAlignedDimension
 13
-256.43
 23
80.59346175947702
 33
0.0
 14
-303.57
 24
80.59346175947702
 34
0.0
100
AcDbRotatedDimension
  0
DIMENSION
  5
384
330
1F
100
AcDbEntity
  8
1
100
AcDbDimension
  2
*D7
 10
-308.2
 20
49.9750780456778
 30
0.0
 11
-280.0
 21
53.7250780456778
 31
0.0
 70
    32
  1
<>
 71
     5
 42
-1.0
 53
0.00013888888889
  3
ME10_DIM_15
100
AcDbAlignedDimension
 13
-251.8
 23
82.32119986157029
 33
0.0
 14
-308.2
 24
82.32119986157029
 34
0.0
100
AcDbRotatedDimension
  0
DIMENSION
  5
38F
330
1F
100
AcDbEntity
  8
1
100
AcDbDimension
  2
*D8
 10
-279.9999999999999
 20
69.9815717121755
 30
0.0
 11
-268.215
 21
73.7315717121755
 31
0.0
 70
    32
  1
<>
 71
     5
 42
-1.0
 53
0.00013888888889
  3
ME10_DIM_16
100
AcDbAlignedDimension
 13
-256.43
 23
80.59346175947702
 33
0.0
 14
-280.0
 24
75.2494702200777
 34
0.0
100
AcDbRotatedDimension
  0
DIMENSION
  5
39C
330
1F
100
AcDbEntity
  8
1
100
AcDbDimension
  2
*D9
 10
-104.782901953931
 20
195.963461759477
 30
0.0
 11
-108.532901953931
 21
173.036767447627
 31
0.0
 70
    32
  1
<>
 71
     5
 42
-1.0
 53
90.0
  3
ME10_DIM_17
100
AcDbAlignedDimension
 13
-122.023776467207
 23
186.363461759477
 33
0.0
 14
-122.023776467207
 24
195.963461759477
 34
0.0
 50
90.0
100
AcDbRotatedDimension
  0
DIMENSION
  5
3A9
330
1F
100
AcDbEntity
  8
1
100
AcDbDimension
  2
*D10
 10
-190.000715704896
 20
111.338461759477
 30
0.0
 11
-195.063215704896
 21
108.163461759477
 31
0.0
 70
    32
  1
<>
 71
     5
 42
-1.0
 53
90.0
  3
ME10_DIM_18
100
AcDbAlignedDimension
 13
-175.193776467207
 23
104.988461759477
 33
0.0
 14
-175.193776467207
 24
111.338461759477
 34
0.0
 50
90.0
100
AcDbRotatedDimension
  0
DIMENSION
  5
3B4
330
1F
100
AcDbEntity
  8
1
100
AcDbDimension
  2
*D11
 10
-93.35648053319827
 20
136.363461759477
 30
0.0
 11
-97.1648138665316
 21
108.163461759477
 31
0.0
 70
    32
  1
<>
 71
     5
 42
-1.0
 53
90.0
  3
ME10_DIM_19
100
AcDbAlignedDimension
 13
-119.223776467207
 23
79.963461759477
 33
0.0
 14
-119.223776467207
 24
136.363461759477
 34
0.0
 50
90.0
100
AcDbRotatedDimension
  0
DIMENSION
  5
3C1
330
1F
100
AcDbEntity
  8
1
100
AcDbDimension
  2
*D12
 10
-155.323776467207
 20
64.8787957900704
 30
0.0
 11
-143.150484785382
 21
68.6287957900704
 31
0.0
 70
    32
  1
<>
 71
     5
 42
-1.0
 53
0.00013888888889
  3
ME10_DIM_20
100
AcDbAlignedDimension
 13
-150.493776467207
 23
79.963461759477
 33
0.0
 14
-155.323776467207
 24
79.963461759477
 34
0.0
100
AcDbRotatedDimension
  0
DIMENSION
  5
3CC
330
1F
100
AcDbEntity
  8
1
100
AcDbDimension
  2
*D13
 10
-199.906025158195
 20
127.213461759477
 30
0.0
 11
-203.656025158195
 21
108.163461759477
 31
0.0
 70
    32
  1
<>
 71
     5
 42
-1.0
 53
90.0
  3
ME10_DIM_21
100
AcDbAlignedDimension
 13
-156.843776467207
 23
89.113461759477
 33
0.0
 14
-156.843776467207
 24
127.213461759477
 34
0.0
 50
90.0
100
AcDbRotatedDimension
  0
ENDSEC
  0
SECTION
  2
OBJECTS
  0
DICTIONARY
  5
C
330
0
100
AcDbDictionary
281
     1
  3
ACAD_GROUP
350
D
  3
ACAD_LAYOUT
350
1A
  3
ACAD_MLINESTYLE
350
17
  3
ACAD_PLOTSETTINGS
350
19
  3
ACAD_PLOTSTYLENAME
350
E
  0
DICTIONARY
  5
D
102
{ACAD_REACTORS
330
C
102
}
330
C
100
AcDbDictionary
281
     1
  0
DICTIONARY
  5
1A
102
{ACAD_REACTORS
330
C
102
}
330
C
100
AcDbDictionary
281
     1
  3
Layout1
350
1E
  3
Layout2
350
26
  3
Model
350
22
  0
DICTIONARY
  5
17
102
{ACAD_REACTORS
330
C
102
}
330
C
100
AcDbDictionary
281
     1
  3
Standard
350
18
  0
DICTIONARY
  5
19
102
{ACAD_REACTORS
330
C
102
}
330
C
100
AcDbDictionary
281
     1
  0
ACDBDICTIONARYWDFLT
  5
E
102
{ACAD_REACTORS
330
C
102
}
330
C
100
AcDbDictionary
281
     1
  3
Normal
350
F
100
AcDbDictionaryWithDefault
340
F
  0
LAYOUT
  5
1E
102
{ACAD_REACTORS
330
1A
102
}
330
1A
100
AcDbPlotSettings
  1

  2

  4

  6

 40
0.0
 41
0.0
 42
0.0
 43
0.0
 44
0.0
 45
0.0
 46
0.0
 47
0.0
 48
0.0
 49
0.0
140
0.0
141
0.0
142
1.0
143
1.0
 70
   688
 72
     0
 73
     0
 74
     5
  7

 75
    16
147
1.0
148
0.0
149
0.0
100
AcDbLayout
  1
Layout1
 70
     1
 71
     1
 10
0.0
 20
0.0
 11
0.0
 21
0.0
 12
0.0
 22
0.0
 32
0.0
 14
0.0
 24
0.0
 34
0.0
 15
0.0
 25
0.0
 35
0.0
146
0.0
 13
0.0
 23
0.0
 33
0.0
 16
1.0
 26
0.0
 36
0.0
 17
0.0
 27
1.0
 37
0.0
 76
     0
330
1B
  0
LAYOUT
  5
26
102
{ACAD_REACTORS
330
1A
102
}
330
1A
100
AcDbPlotSettings
  1

  2

  4

  6

 40
0.0
 41
0.0
 42
0.0
 43
0.0
 44
0.0
 45
0.0
 46
0.0
 47
0.0
 48
0.0
 49
0.0
140
0.0
141
0.0
142
1.0
143
1.0
 70
   688
 72
     0
 73
     0
 74
     5
  7

 75
    16
147
1.0
148
0.0
149
0.0
100
AcDbLayout
  1
Layout2
 70
     1
 71
     2
 10
0.0
 20
0.0
 11
0.0
 21
0.0
 12
0.0
 22
0.0
 32
0.0
 14
0.0
 24
0.0
 34
0.0
 15
0.0
 25
0.0
 35
0.0
146
0.0
 13
0.0
 23
0.0
 33
0.0
 16
1.0
 26
0.0
 36
0.0
 17
0.0
 27
1.0
 37
0.0
 76
     0
330
23
  0
LAYOUT
  5
22
102
{ACAD_REACTORS
330
1A
102
}
330
1A
100
AcDbPlotSettings
  1

  2

  4

  6

 40
0.0
 41
0.0
 42
0.0
 43
0.0
 44
0.0
 45
0.0
 46
0.0
 47
0.0
 48
0.0
 49
0.0
140
0.0
141
0.0
142
1.0
143
1.0
 70
  1712
 72
     0
 73
     0
 74
     0
  7

 75
     0
147
1.0
148
0.0
149
0.0
100
AcDbLayout
  1
Model
 70
     1
 71
     0
 10
0.0
 20
0.0
 11
0.0
 21
0.0
 12
0.0
 22
0.0
 32
0.0
 14
-311.370746455297
 24
30.5655454877698
 34
0.0
 15
8.053933121272
 25
202.963461759477
 35
0.0
146
0.0
 13
0.0
 23
0.0
 33
0.0
 16
1.0
 26
0.0
 36
0.0
 17
0.0
 27
1.0
 37
0.0
 76
     0
330
1F
  0
MLINESTYLE
  5
18
102
{ACAD_REACTORS
330
17
102
}
330
17
100
AcDbMlineStyle
  2
Standard
 70
     0
  3

 62
   256
 51
90.0
 52
90.0
 71
     2
 49
0.5
 62
   256
  6
BYLAYER
 49
-0.5
 62
   256
  6
BYLAYER
  0
ACDBPLACEHOLDER
  5
F
102
{ACAD_REACTORS
330
E
102
}
330
E
  0
ENDSEC
  0
EOF
