  0
SECTION
  2
HEADER
  9
$ACADVER
  1
AC1015
  9
$ACADMAINTVER
 70
     6
  9
$DWGCODEPAGE
  3
DOS932
  9
$INSBASE
 10
0.0
 20
0.0
 30
0.0
  9
$EXTMIN
 10
-22.81475945534001
 20
-49.75
 30
0.0
  9
$EXTMAX
 10
288.5278320705264
 20
46.25
 30
0.0
  9
$LIMMIN
 10
0.0
 20
0.0
  9
$LIMMAX
 10
12.0
 20
9.0
  9
$ORTHOMODE
 70
     0
  9
$REGENMODE
 70
     1
  9
$FILLMODE
 70
     1
  9
$QTEXTMODE
 70
     0
  9
$MIRRTEXT
 70
     1
  9
$LTSCALE
 40
1.0
  9
$ATTMODE
 70
     1
  9
$TEXTSIZE
 40
0.2
  9
$TRACEWID
 40
0.05
  9
$TEXTSTYLE
  7
Standard
  9
$CLAYER
  8
0
  9
$CELTYPE
  6
ByLayer
  9
$CECOLOR
 62
   256
  9
$CELTSCALE
 40
1.0
  9
$DISPSILH
 70
     0
  9
$DIMSCALE
 40
1.0
  9
$DIMASZ
 40
0.18
  9
$DIMEXO
 40
0.0625
  9
$DIMDLI
 40
0.38
  9
$DIMRND
 40
0.0
  9
$DIMDLE
 40
0.0
  9
$DIMEXE
 40
0.18
  9
$DIMTP
 40
0.0
  9
$DIMTM
 40
0.0
  9
$DIMTXT
 40
0.18
  9
$DIMCEN
 40
0.09
  9
$DIMTSZ
 40
0.0
  9
$DIMTOL
 70
     0
  9
$DIMLIM
 70
     0
  9
$DIMTIH
 70
     1
  9
$DIMTOH
 70
     1
  9
$DIMSE1
 70
     0
  9
$DIMSE2
 70
     0
  9
$DIMTAD
 70
     0
  9
$DIMZIN
 70
     0
  9
$DIMBLK
  1

  9
$DIMASO
 70
     1
  9
$DIMSHO
 70
     1
  9
$DIMPOST
  1

  9
$DIMAPOST
  1

  9
$DIMALT
 70
     0
  9
$DIMALTD
 70
     2
  9
$DIMALTF
 40
25.4
  9
$DIMLFAC
 40
1.0
  9
$DIMTOFL
 70
     0
  9
$DIMTVP
 40
0.0
  9
$DIMTIX
 70
     0
  9
$DIMSOXD
 70
     0
  9
$DIMSAH
 70
     0
  9
$DIMBLK1
  1

  9
$DIMBLK2
  1

  9
$DIMSTYLE
  2
Standard
  9
$DIMCLRD
 70
     0
  9
$DIMCLRE
 70
     0
  9
$DIMCLRT
 70
     0
  9
$DIMTFAC
 40
1.0
  9
$DIMGAP
 40
0.09
  9
$DIMJUST
 70
     0
  9
$DIMSD1
 70
     0
  9
$DIMSD2
 70
     0
  9
$DIMTOLJ
 70
     1
  9
$DIMTZIN
 70
     0
  9
$DIMALTZ
 70
     0
  9
$DIMALTTZ
 70
     0
  9
$DIMUPT
 70
     0
  9
$DIMDEC
 70
     4
  9
$DIMTDEC
 70
     4
  9
$DIMALTU
 70
     2
  9
$DIMALTTD
 70
     2
  9
$DIMTXSTY
  7
Standard
  9
$DIMAUNIT
 70
     0
  9
$DIMADEC
 70
     0
  9
$DIMALTRND
 40
0.0
  9
$DIMAZIN
 70
     0
  9
$DIMDSEP
 70
    46
  9
$DIMATFIT
 70
     3
  9
$DIMFRAC
 70
     0
  9
$DIMLDRBLK
  1

  9
$DIMLUNIT
 70
     2
  9
$DIMLWD
 70
    -2
  9
$DIMLWE
 70
    -2
  9
$DIMTMOVE
 70
     0
  9
$LUNITS
 70
     2
  9
$LUPREC
 70
     4
  9
$SKETCHINC
 40
0.1
  9
$FILLETRAD
 40
0.5
  9
$AUNITS
 70
     0
  9
$AUPREC
 70
     0
  9
$MENU
  1
.
  9
$ELEVATION
 40
0.0
  9
$PELEVATION
 40
0.0
  9
$THICKNESS
 40
0.0
  9
$LIMCHECK
 70
     0
  9
$CHAMFERA
 40
0.5
  9
$CHAMFERB
 40
0.5
  9
$CHAMFERC
 40
1.0
  9
$CHAMFERD
 40
0.0
  9
$SKPOLY
 70
     0
  9
$TDCREATE
 40
2454823.546365555
  9
$TDUCREATE
 40
2454823.171365555
  9
$TDUPDATE
 40
2454823.546365567
  9
$TDUUPDATE
 40
2454823.171365567
  9
$TDINDWG
 40
0.0000000116
  9
$TDUSRTIMER
 40
0.0000000116
  9
$USRTIMER
 70
     1
  9
$ANGBASE
 50
0.0
  9
$ANGDIR
 70
     0
  9
$PDMODE
 70
     0
  9
$PDSIZE
 40
0.0
  9
$PLINEWID
 40
0.0
  9
$SPLFRAME
 70
     0
  9
$SPLINETYPE
 70
     6
  9
$SPLINESEGS
 70
     8
  9
$HANDSEED
  5
2B0
  9
$SURFTAB1
 70
     6
  9
$SURFTAB2
 70
     6
  9
$SURFTYPE
 70
     6
  9
$SURFU
 70
     6
  9
$SURFV
 70
     6
  9
$UCSBASE
  2

  9
$UCSNAME
  2

  9
$UCSORG
 10
0.0
 20
0.0
 30
0.0
  9
$UCSXDIR
 10
1.0
 20
0.0
 30
0.0
  9
$UCSYDIR
 10
0.0
 20
1.0
 30
0.0
  9
$UCSORTHOREF
  2

  9
$UCSORTHOVIEW
 70
     0
  9
$UCSORGTOP
 10
0.0
 20
0.0
 30
0.0
  9
$UCSORGBOTTOM
 10
0.0
 20
0.0
 30
0.0
  9
$UCSORGLEFT
 10
0.0
 20
0.0
 30
0.0
  9
$UCSORGRIGHT
 10
0.0
 20
0.0
 30
0.0
  9
$UCSORGFRONT
 10
0.0
 20
0.0
 30
0.0
  9
$UCSORGBACK
 10
0.0
 20
0.0
 30
0.0
  9
$PUCSBASE
  2

  9
$PUCSNAME
  2

  9
$PUCSORG
 10
0.0
 20
0.0
 30
0.0
  9
$PUCSXDIR
 10
1.0
 20
0.0
 30
0.0
  9
$PUCSYDIR
 10
0.0
 20
1.0
 30
0.0
  9
$PUCSORTHOREF
  2

  9
$PUCSORTHOVIEW
 70
     0
  9
$PUCSORGTOP
 10
0.0
 20
0.0
 30
0.0
  9
$PUCSORGBOTTOM
 10
0.0
 20
0.0
 30
0.0
  9
$PUCSORGLEFT
 10
0.0
 20
0.0
 30
0.0
  9
$PUCSORGRIGHT
 10
0.0
 20
0.0
 30
0.0
  9
$PUCSORGFRONT
 10
0.0
 20
0.0
 30
0.0
  9
$PUCSORGBACK
 10
0.0
 20
0.0
 30
0.0
  9
$USERI1
 70
     0
  9
$USERI2
 70
     0
  9
$USERI3
 70
     0
  9
$USERI4
 70
     0
  9
$USERI5
 70
     0
  9
$USERR1
 40
14.5
  9
$USERR2
 40
0.0
  9
$USERR3
 40
0.0
  9
$USERR4
 40
0.0
  9
$USERR5
 40
0.0
  9
$WORLDVIEW
 70
     1
  9
$SHADEDGE
 70
     3
  9
$SHADEDIF
 70
    70
  9
$TILEMODE
 70
     1
  9
$MAXACTVP
 70
    64
  9
$PINSBASE
 10
0.0
 20
0.0
 30
0.0
  9
$PLIMCHECK
 70
     0
  9
$PEXTMIN
 10
1.00000000000000E+20
 20
1.00000000000000E+20
 30
1.00000000000000E+20
  9
$PEXTMAX
 10
-1.00000000000000E+20
 20
-1.00000000000000E+20
 30
-1.00000000000000E+20
  9
$PLIMMIN
 10
0.0
 20
0.0
  9
$PLIMMAX
 10
12.0
 20
9.0
  9
$UNITMODE
 70
     0
  9
$VISRETAIN
 70
     1
  9
$PLINEGEN
 70
     0
  9
$PSLTSCALE
 70
     1
  9
$TREEDEPTH
 70
  3020
  9
$CMLSTYLE
  2
Standard
  9
$CMLJUST
 70
     0
  9
$CMLSCALE
 40
1.0
  9
$PROXYGRAPHICS
 70
     1
  9
$MEASUREMENT
 70
     1
  9
$CELWEIGHT
370
    -1
  9
$ENDCAPS
280
     0
  9
$JOINSTYLE
280
     0
  9
$LWDISPLAY
290
     0
  9
$INSUNITS
 70
     1
  9
$HYPERLINKBASE
  1

  9
$STYLESHEET
  1

  9
$XEDIT
290
     1
  9
$CEPSNTYPE
380
     0
  9
$PSTYLEMODE
290
     1
  9
$FINGERPRINTGUID
  2
{2DC6D4E7-62AB-4C02-B713-73B44EAA3D61}
  9
$VERSIONGUID
  2
{FAEB1C32-E019-11D5-929B-00C0DF256EC4}
  9
$EXTNAMES
290
     1
  9
$PSVPSCALE
 40
0.0
  9
$OLESTARTUP
290
     0
  0
ENDSEC
  0
SECTION
  2
CLASSES
  0
CLASS
  1
ACDBDICTIONARYWDFLT
  2
AcDbDictionaryWithDefault
  3
ObjectDBX Classes
 90
        0
280
     0
281
     0
  0
CLASS
  1

  2
exOdDbCircle
  3

 90
        0
280
     0
281
     1
  0
CLASS
  1
ACDBPLACEHOLDER
  2
AcDbPlaceHolder
  3
ObjectDBX Classes
 90
        0
280
     0
281
     0
  0
CLASS
  1
LAYOUT
  2
AcDbLayout
  3
ObjectDBX Classes
 90
        0
280
     0
281
     0
  0
ENDSEC
  0
SECTION
  2
TABLES
  0
TABLE
  2
VPORT
  5
8
330
0
100
AcDbSymbolTable
 70
     1
  0
VPORT
  5
29
330
8
100
AcDbSymbolTableRecord
100
AcDbViewportTableRecord
  2
*Active
 70
     0
 10
0.0
 20
0.0
 11
1.0
 21
1.0
 12
132.8565363075932
 22
-1.75
 13
0.0
 23
0.0
 14
0.5
 24
0.5
 15
0.5
 25
0.5
 16
0.0
 26
0.0
 36
1.0
 17
0.0
 27
0.0
 37
0.0
 40
213.690291231124
 41
1.60267857142857
 42
50.0
 43
0.0
 44
0.0
 50
0.0
 51
0.0
 71
     0
 72
   100
 73
     1
 74
     3
 75
     0
 76
     0
 77
     0
 78
     0
281
     0
 65
     1
110
0.0
120
0.0
130
0.0
111
1.0
121
0.0
131
0.0
112
0.0
122
1.0
132
0.0
 79
     0
146
0.0
  0
ENDTAB
  0
TABLE
  2
LTYPE
  5
5
330
0
100
AcDbSymbolTable
 70
     8
  0
LTYPE
  5
14
330
5
100
AcDbSymbolTableRecord
100
AcDbLinetypeTableRecord
  2
ByBlock
 70
     0
  3

 72
    65
 73
     0
 40
0.0
  0
LTYPE
  5
15
330
5
100
AcDbSymbolTableRecord
100
AcDbLinetypeTableRecord
  2
ByLayer
 70
     0
  3

 72
    65
 73
     0
 40
0.0
  0
LTYPE
  5
16
330
5
100
AcDbSymbolTableRecord
100
AcDbLinetypeTableRecord
  2
Continuous
 70
     0
  3
Solid line
 72
    65
 73
     0
 40
0.0
  0
LTYPE
  5
2A
330
5
100
AcDbSymbolTableRecord
100
AcDbLinetypeTableRecord
  2
DASHED
 70
     0
  3
Dashed
 72
    65
 73
     2
 40
15.0
 49
7.0
 74
     0
 49
-8.0
 74
     0
  0
LTYPE
  5
2B
330
5
100
AcDbSymbolTableRecord
100
AcDbLinetypeTableRecord
  2
DOTTED
 70
     0
  3
Dotted
 72
    65
 73
     2
 40
1.0
 49
0.0
 74
     0
 49
-1.0
 74
     0
  0
LTYPE
  5
2C
330
5
100
AcDbSymbolTableRecord
100
AcDbLinetypeTableRecord
  2
DOT_CENTER
 70
     0
  3
Dot_Center
 72
    65
 73
     4
 40
14.0
 49
12.0
 74
     0
 49
-1.0
 74
     0
 49
0.0
 74
     0
 49
-1.0
 74
     0
  0
LTYPE
  5
2D
330
5
100
AcDbSymbolTableRecord
100
AcDbLinetypeTableRecord
  2
LONG_DASHED
 70
     0
  3
Long_Dashed
 72
    65
 73
     2
 40
15.0
 49
10.0
 74
     0
 49
-5.0
 74
     0
  0
LTYPE
  5
2E
330
5
100
AcDbSymbolTableRecord
100
AcDbLinetypeTableRecord
  2
DASH_CENTER
 70
     0
  3
Dash_Center
 72
    65
 73
     4
 40
14.0
 49
11.0
 74
     0
 49
-1.0
 74
     0
 49
1.0
 74
     0
 49
-1.0
 74
     0
  0
LTYPE
  5
2F
330
5
100
AcDbSymbolTableRecord
100
AcDbLinetypeTableRecord
  2
PHANTOM
 70
     0
  3
Phantom
 72
    65
 73
     6
 40
13.0
 49
10.0
 74
     0
 49
-1.0
 74
     0
 49
0.0
 74
     0
 49
-1.0
 74
     0
 49
0.0
 74
     0
 49
-1.0
 74
     0
  0
LTYPE
  5
30
330
5
100
AcDbSymbolTableRecord
100
AcDbLinetypeTableRecord
  2
CENTER_DASH_DASH
 70
     0
  3
Center_Dash_Dash
 72
    65
 73
     6
 40
14.0
 49
9.0
 74
     0
 49
-1.0
 74
     0
 49
1.0
 74
     0
 49
-1.0
 74
     0
 49
1.0
 74
     0
 49
-1.0
 74
     0
  0
ENDTAB
  0
TABLE
  2
LAYER
  5
2
330
0
100
AcDbSymbolTable
 70
     2
  0
LAYER
  5
10
330
2
100
AcDbSymbolTableRecord
100
AcDbLayerTableRecord
  2
0
 70
     0
 62
     7
  6
Continuous
370
    -3
390
F
  0
LAYER
  5
31
330
2
100
AcDbSymbolTableRecord
100
AcDbLayerTableRecord
  2
1
 70
     0
 62
     7
  6
Continuous
370
    -3
390
F
  0
ENDTAB
  0
TABLE
  2
STYLE
  5
3
330
0
100
AcDbSymbolTable
 70
     4
  0
STYLE
  5
11
330
3
100
AcDbSymbolTableRecord
100
AcDbTextStyleTableRecord
  2
Standard
 70
     0
 40
0.0
 41
1.0
 50
0.0
 71
     0
 42
0.2
  3
txt
  4

  0
STYLE
  5
22B
330
3
100
AcDbSymbolTableRecord
100
AcDbTextStyleTableRecord
  2
CONVERTER_11
 70
     0
 40
0.0
 41
0.76
 50
0.0
 71
     0
 42
0.2
  3
txt.shx
  4

  0
STYLE
  5
237
330
3
100
AcDbSymbolTableRecord
100
AcDbTextStyleTableRecord
  2
CONVERTER_12
 70
     0
 40
0.0
 41
0.95
 50
0.0
 71
     0
 42
0.2
  3
txt.shx
  4

  0
STYLE
  5
292
330
3
100
AcDbSymbolTableRecord
100
AcDbTextStyleTableRecord
  2
CONVERTER_13
 70
     0
 40
0.0
 41
0.89
 50
0.0
 71
     0
 42
0.2
  3
msmincho.ttc
  4

1001
ACAD
1000
MS Mincho
1071
    32785
  0
ENDTAB
  0
TABLE
  2
VIEW
  5
6
330
0
100
AcDbSymbolTable
 70
     0
  0
ENDTAB
  0
TABLE
  2
UCS
  5
7
330
0
100
AcDbSymbolTable
 70
     0
  0
ENDTAB
  0
TABLE
  2
APPID
  5
9
330
0
100
AcDbSymbolTable
 70
     1
  0
APPID
  5
12
330
9
100
AcDbSymbolTableRecord
100
AcDbRegAppTableRecord
  2
ACAD
 70
     0
  0
ENDTAB
  0
TABLE
  2
DIMSTYLE
  5
A
330
0
100
AcDbSymbolTable
 70
    13
100
AcDbDimStyleTable
  0
DIMSTYLE
105
27
330
A
100
AcDbSymbolTableRecord
100
AcDbDimStyleTableRecord
  2
Standard
 70
     0
340
11
  0
DIMSTYLE
105
22F
102
{ACAD_REACTORS
330
230
102
}
330
A
100
AcDbSymbolTableRecord
100
AcDbDimStyleTableRecord
  2
ME10_DIM_10
 70
     0
 41
3.5
 42
1.0
 44
1.5
 47
0.5
 48
1.0
 71
     1
 73
     0
 74
     0
 77
     1
 78
     8
140
3.5
146
0.7
147
2.0
172
     1
173
     1
176
     2
177
     2
178
     2
272
     1
340
22B
  0
DIMSTYLE
105
23B
102
{ACAD_REACTORS
330
23C
102
}
330
A
100
AcDbSymbolTableRecord
100
AcDbDimStyleTableRecord
  2
ME10_DIM_11
 70
     0
 41
3.5
 42
1.0
 44
1.5
 73
     0
 74
     0
 77
     1
 78
     8
140
3.5
147
2.0
172
     1
173
     1
176
     2
177
     2
178
     3
340
237
  0
DIMSTYLE
105
246
102
{ACAD_REACTORS
330
247
102
}
330
A
100
AcDbSymbolTableRecord
100
AcDbDimStyleTableRecord
  2
ME10_DIM_12
 70
     0
 41
3.5
 42
1.0
 44
1.5
 47
0.25
 48
0.25
 71
     1
 73
     0
 74
     0
 77
     1
 78
     8
140
3.5
146
0.7
147
2.0
172
     1
173
     1
176
     2
177
     2
178
     2
272
     2
340
237
  0
DIMSTYLE
105
251
102
{ACAD_REACTORS
330
252
102
}
330
A
100
AcDbSymbolTableRecord
100
AcDbDimStyleTableRecord
  2
ME10_DIM_13
 70
     0
 41
3.5
 42
1.0
 44
1.5
 47
0.5
 48
0.5
 71
     1
 73
     0
 74
     0
 77
     1
 78
     8
140
3.5
146
0.7
147
2.0
172
     1
173
     1
176
     2
177
     2
178
     2
272
     1
340
237
  0
DIMSTYLE
105
25C
102
{ACAD_REACTORS
330
25D
102
}
330
A
100
AcDbSymbolTableRecord
100
AcDbDimStyleTableRecord
  2
ME10_DIM_14
 70
     0
 41
3.5
 42
1.0
 44
1.5
 47
0.5
 48
0.5
 71
     1
 73
     0
 74
     0
 77
     1
 78
     8
140
3.5
146
0.7
147
2.0
172
     1
173
     1
176
     2
177
     2
178
     2
272
     1
340
237
  0
DIMSTYLE
105
267
102
{ACAD_REACTORS
330
268
102
}
330
A
100
AcDbSymbolTableRecord
100
AcDbDimStyleTableRecord
  2
ME10_DIM_15
 70
     0
 41
3.5
 42
1.0
 44
1.5
 47
0.25
 48
0.25
 71
     1
 73
     0
 74
     0
 77
     1
 78
     8
140
3.5
146
0.7
147
2.0
172
     1
173
     1
176
     2
177
     2
178
     2
272
     2
340
237
  0
DIMSTYLE
105
272
102
{ACAD_REACTORS
330
273
102
}
330
A
100
AcDbSymbolTableRecord
100
AcDbDimStyleTableRecord
  2
ME10_DIM_16
 70
     0
 41
3.5
 42
1.0
 44
1.5
 73
     0
 74
     0
 77
     1
 78
     8
140
3.5
147
2.0
172
     1
173
     1
176
     2
177
     2
178
     3
340
237
  0
DIMSTYLE
105
27F
102
{ACAD_REACTORS
330
280
102
}
330
A
100
AcDbSymbolTableRecord
100
AcDbDimStyleTableRecord
  2
ME10_DIM_17
 70
     0
 41
3.5
 42
1.0
 44
1.5
 47
0.2
 48
0.2
 71
     1
 73
     0
 74
     0
 77
     1
 78
     8
140
3.5
146
0.7
147
2.0
172
     1
173
     1
176
     2
177
     2
178
     2
272
     1
340
237
  0
DIMSTYLE
105
28A
102
{ACAD_REACTORS
330
28B
102
}
330
A
100
AcDbSymbolTableRecord
100
AcDbDimStyleTableRecord
  2
ME10_DIM_18
 70
     0
 41
3.5
 42
1.0
 44
1.5
 47
0.5
 48
0.5
 71
     1
 73
     0
 74
     0
 77
     1
 78
     8
140
3.5
146
0.7
147
2.0
172
     1
173
     1
176
     2
177
     2
178
     2
272
     1
340
237
  0
DIMSTYLE
105
296
102
{ACAD_REACTORS
330
297
102
}
330
A
100
AcDbSymbolTableRecord
100
AcDbDimStyleTableRecord
  2
ME10_DIM_19
 70
     0
  3
φ<>
 41
3.5
 42
1.0
 44
1.5
 48
0.025
 71
     1
 73
     0
 74
     0
 77
     1
 78
     8
140
3.5
146
0.7
147
2.0
172
     1
173
     1
176
     2
177
     2
178
     2
272
     0
340
292
  0
DIMSTYLE
105
2A3
102
{ACAD_REACTORS
330
2A4
102
}
330
A
100
AcDbSymbolTableRecord
100
AcDbDimStyleTableRecord
  2
ME10_DIM_20
 70
     0
  3
φ<>
 41
3.5
 42
1.0
 44
1.5
 48
0.012
 71
     1
 73
     0
 74
     0
 77
     1
 78
     8
140
3.5
146
0.7
147
2.0
172
     1
173
     1
176
     2
177
     2
178
     2
272
     0
340
292
  0
DIMSTYLE
105
2AE
102
{ACAD_REACTORS
330
2AF
102
}
330
A
100
AcDbSymbolTableRecord
100
AcDbDimStyleTableRecord
  2
ME10_DIM_21
 70
     0
 41
3.5
 42
1.0
 44
1.5
 47
1.0
 48
1.0
 71
     1
 73
     0
 74
     0
 77
     1
 78
     8
140
3.5
146
0.7
147
2.0
172
     1
173
     1
176
     2
177
     2
178
     2
272
     0
340
237
  0
ENDTAB
  0
TABLE
  2
BLOCK_RECORD
  5
1
330
0
100
AcDbSymbolTable
 70
    13
  0
BLOCK_RECORD
  5
1F
330
1
100
AcDbSymbolTableRecord
100
AcDbBlockTableRecord
  2
*Model_Space
340
22
  0
BLOCK_RECORD
  5
1B
330
1
100
AcDbSymbolTableRecord
100
AcDbBlockTableRecord
  2
*Paper_Space
340
1E
  0
BLOCK_RECORD
  5
23
330
1
100
AcDbSymbolTableRecord
100
AcDbBlockTableRecord
  2
*Paper_Space0
340
26
  0
BLOCK_RECORD
  5
223
330
1
100
AcDbSymbolTableRecord
100
AcDbBlockTableRecord
  2
*D1
340
0
  0
BLOCK_RECORD
  5
231
330
1
100
AcDbSymbolTableRecord
100
AcDbBlockTableRecord
  2
*D2
340
0
  0
BLOCK_RECORD
  5
23D
330
1
100
AcDbSymbolTableRecord
100
AcDbBlockTableRecord
  2
*D3
340
0
  0
BLOCK_RECORD
  5
248
330
1
100
AcDbSymbolTableRecord
100
AcDbBlockTableRecord
  2
*D4
340
0
  0
BLOCK_RECORD
  5
253
330
1
100
AcDbSymbolTableRecord
100
AcDbBlockTableRecord
  2
*D5
340
0
  0
BLOCK_RECORD
  5
25E
330
1
100
AcDbSymbolTableRecord
100
AcDbBlockTableRecord
  2
*D6
340
0
  0
BLOCK_RECORD
  5
269
330
1
100
AcDbSymbolTableRecord
100
AcDbBlockTableRecord
  2
*D7
340
0
  0
BLOCK_RECORD
  5
274
330
1
100
AcDbSymbolTableRecord
100
AcDbBlockTableRecord
  2
*D8
340
0
  0
BLOCK_RECORD
  5
281
330
1
100
AcDbSymbolTableRecord
100
AcDbBlockTableRecord
  2
*D9
340
0
  0
BLOCK_RECORD
  5
28C
330
1
100
AcDbSymbolTableRecord
100
AcDbBlockTableRecord
  2
*D10
340
0
  0
BLOCK_RECORD
  5
298
330
1
100
AcDbSymbolTableRecord
100
AcDbBlockTableRecord
  2
*D11
340
0
  0
BLOCK_RECORD
  5
2A5
330
1
100
AcDbSymbolTableRecord
100
AcDbBlockTableRecord
  2
*D12
340
0
  0
ENDTAB
  0
ENDSEC
  0
SECTION
  2
BLOCKS
  0
BLOCK
  5
20
330
1F
100
AcDbEntity
  8
0
100
AcDbBlockBegin
  2
*Model_Space
 70
     0
 71
     0
 10
0.0
 20
0.0
 30
0.0
  3
*Model_Space
  1

  0
ENDBLK
  5
21
330
1F
100
AcDbEntity
  8
0
100
AcDbBlockEnd
  0
BLOCK
  5
1C
330
1B
100
AcDbEntity
 67
     1
  8
0
100
AcDbBlockBegin
  2
*Paper_Space
 70
     0
 71
     0
 10
0.0
 20
0.0
 30
0.0
  3
*Paper_Space
  1

  0
ENDBLK
  5
1D
330
1B
100
AcDbEntity
 67
     1
  8
0
100
AcDbBlockEnd
  0
BLOCK
  5
24
330
23
100
AcDbEntity
  8
0
100
AcDbBlockBegin
  2
*Paper_Space0
 70
     0
 71
     0
 10
0.0
 20
0.0
 30
0.0
  3
*Paper_Space0
  1

  0
ENDBLK
  5
25
330
23
100
AcDbEntity
  8
0
100
AcDbBlockEnd
  0
BLOCK
  5
22D
330
223
100
AcDbEntity
  8
0
100
AcDbBlockBegin
  2
*D1
 70
     1
 71
     0
 10
0.0
 20
0.0
 30
0.0
  3
*D1
  1

  0
LINE
  5
224
330
223
100
AcDbEntity
  8
1
  6
Continuous
 62
     2
100
AcDbLine
 10
125.873890671466
 20
-39.5625
 30
0.0
 11
132.873890671466
 21
-39.5625
 31
0.0
  0
LINE
  5
225
330
223
100
AcDbEntity
  8
1
  6
Continuous
 62
     2
100
AcDbLine
 10
119.873890671466
 20
-39.5625
 30
0.0
 11
125.873890671466
 21
-39.5625
 31
0.0
  0
LINE
  5
226
330
223
100
AcDbEntity
  8
1
  6
Continuous
 62
     2
100
AcDbLine
 10
109.8625185203011
 20
-39.5625
 30
0.0
 11
119.873890671466
 21
-39.5625
 31
0.0
  0
LINE
  5
227
330
223
100
AcDbEntity
  8
1
  6
Continuous
 62
     2
100
AcDbLine
 10
119.873890671466
 20
-17.75
 30
0.0
 11
119.873890671466
 21
-41.0625
 31
0.0
  0
LINE
  5
228
330
223
100
AcDbEntity
  8
1
  6
Continuous
 62
     2
100
AcDbLine
 10
125.873890671466
 20
-20.0
 30
0.0
 11
125.873890671466
 21
-41.0625
 31
0.0
  0
SOLID
  5
229
330
223
100
AcDbEntity
  8
1
 62
     2
100
AcDbTrace
 10
116.373890671466
 20
-40.02328374155589
 30
0.0
 11
116.373890671466
 21
-39.10171625844411
 31
0.0
 12
119.873890671466
 22
-39.5625
 32
0.0
 13
119.873890671466
 23
-39.5625
 33
0.0
  0
SOLID
  5
22A
330
223
100
AcDbEntity
  8
1
 62
     2
100
AcDbTrace
 10
129.373890671466
 20
-39.10171625844411
 30
0.0
 11
129.373890671466
 21
-40.02328374155589
 31
0.0
 12
125.873890671466
 22
-39.5625
 32
0.0
 13
125.873890671466
 23
-39.5625
 33
0.0
  0
MTEXT
  5
22C
330
223
100
AcDbEntity
  8
1
 62
     2
100
AcDbMText
 10
109.8625185203011
 20
-36.25
 30
0.0
 40
3.5
 41
0.0
 71
     7
 72
     1
  1
\C2;6\C2;\H2.45;\S+0.5^ -1;
  7
CONVERTER_11
 11
0.9999999999970621
 21
2.424068405545307E-6
 31
0.0
 73
     1
 44
0.60024009603842
  0
ENDBLK
  5
22E
330
223
100
AcDbEntity
  8
0
100
AcDbBlockEnd
  0
BLOCK
  5
239
330
231
100
AcDbEntity
  8
0
100
AcDbBlockBegin
  2
*D2
 70
     1
 71
     0
 10
0.0
 20
0.0
 30
0.0
  3
*D2
  1

  0
LINE
  5
232
330
231
100
AcDbEntity
  8
1
  6
Continuous
 62
     2
100
AcDbLine
 10
164.123890671466
 20
-19.5
 30
0.0
 11
164.123890671466
 21
-41.32377870427692
 31
0.0
  0
LINE
  5
233
330
231
100
AcDbEntity
  8
1
  6
Continuous
 62
     2
100
AcDbLine
 10
147.873890671466
 20
-19.5
 30
0.0
 11
165.623890671466
 21
-19.5
 31
0.0
  0
LINE
  5
234
330
231
100
AcDbEntity
  8
1
  6
Continuous
 62
     2
100
AcDbLine
 10
146.373890671466
 20
-41.32377870427692
 30
0.0
 11
165.623890671466
 21
-41.32377870427692
 31
0.0
  0
SOLID
  5
235
330
231
100
AcDbEntity
  8
1
 62
     2
100
AcDbTrace
 10
164.5846744130219
 20
-23.0
 30
0.0
 11
163.6631069299101
 21
-23.0
 31
0.0
 12
164.123890671466
 22
-19.5
 32
0.0
 13
164.123890671466
 23
-19.5
 33
0.0
  0
SOLID
  5
236
330
231
100
AcDbEntity
  8
1
 62
     2
100
AcDbTrace
 10
163.6631069299101
 20
-37.82377870427692
 30
0.0
 11
164.5846744130219
 21
-37.82377870427692
 31
0.0
 12
164.123890671466
 22
-41.32377870427692
 32
0.0
 13
164.123890671466
 23
-41.32377870427692
 33
0.0
  0
MTEXT
  5
238
330
231
100
AcDbEntity
  8
1
 62
     3
100
AcDbMText
 10
162.123890671466
 20
-39.6765952344914
 30
0.0
 40
3.5
 41
0.0
 71
     7
 72
     1
  1
200MIN.
  7
CONVERTER_12
 11
0.0
 21
1.0
 31
0.0
 73
     1
 44
0.60024009603842
  0
ENDBLK
  5
23A
330
231
100
AcDbEntity
  8
0
100
AcDbBlockEnd
  0
BLOCK
  5
244
330
23D
100
AcDbEntity
  8
0
100
AcDbBlockBegin
  2
*D3
 70
     1
 71
     0
 10
0.0
 20
0.0
 30
0.0
  3
*D3
  1

  0
LINE
  5
23E
330
23D
100
AcDbEntity
  8
1
  6
Continuous
 62
     2
100
AcDbLine
 10
38.25
 20
15.5
 30
0.0
 11
38.25
 21
-15.5
 31
0.0
  0
LINE
  5
23F
330
23D
100
AcDbEntity
  8
1
  6
Continuous
 62
     2
100
AcDbLine
 10
19.21348446295301
 20
15.5
 30
0.0
 11
39.75
 21
15.5
 31
0.0
  0
LINE
  5
240
330
23D
100
AcDbEntity
  8
1
  6
Continuous
 62
     2
100
AcDbLine
 10
18.972584306019
 20
-15.5
 30
0.0
 11
39.75
 21
-15.5
 31
0.0
  0
SOLID
  5
241
330
23D
100
AcDbEntity
  8
1
 62
     2
100
AcDbTrace
 10
38.71078374155589
 20
12.0
 30
0.0
 11
37.78921625844411
 21
12.0
 31
0.0
 12
38.25
 22
15.5
 32
0.0
 13
38.25
 23
15.5
 33
0.0
  0
SOLID
  5
242
330
23D
100
AcDbEntity
  8
1
 62
     2
100
AcDbTrace
 10
37.78921625844411
 20
-12.0
 30
0.0
 11
38.71078374155589
 21
-12.0
 31
0.0
 12
38.25
 22
-15.5
 32
0.0
 13
38.25
 23
-15.5
 33
0.0
  0
MTEXT
  5
243
330
23D
100
AcDbEntity
  8
1
 62
     2
100
AcDbMText
 10
36.25
 20
-7.42514705882353
 30
0.0
 40
3.5
 41
0.0
 71
     7
 72
     1
  1
\C2;31\C2;\H2.45;{\Fgdt;`}0.25
  7
CONVERTER_12
 11
0.0
 21
1.0
 31
0.0
 73
     1
 44
0.60024009603842
  0
ENDBLK
  5
245
330
23D
100
AcDbEntity
  8
0
100
AcDbBlockEnd
  0
BLOCK
  5
24F
330
248
100
AcDbEntity
  8
0
100
AcDbBlockBegin
  2
*D4
 70
     1
 71
     0
 10
0.0
 20
0.0
 30
0.0
  3
*D4
  1

  0
LINE
  5
249
330
248
100
AcDbEntity
  8
1
  6
Continuous
 62
     2
100
AcDbLine
 10
48.25
 20
19.5
 30
0.0
 11
48.25
 21
-19.5
 31
0.0
  0
LINE
  5
24A
330
248
100
AcDbEntity
  8
1
  6
Continuous
 62
     2
100
AcDbLine
 10
18.1973835219198
 20
19.5
 30
0.0
 11
49.75
 21
19.5
 31
0.0
  0
LINE
  5
24B
330
248
100
AcDbEntity
  8
1
  6
Continuous
 62
     2
100
AcDbLine
 10
18.1973835219198
 20
-19.5
 30
0.0
 11
49.75
 21
-19.5
 31
0.0
  0
SOLID
  5
24C
330
248
100
AcDbEntity
  8
1
 62
     2
100
AcDbTrace
 10
48.71078374155589
 20
16.0
 30
0.0
 11
47.78921625844411
 21
16.0
 31
0.0
 12
48.25
 22
19.5
 32
0.0
 13
48.25
 23
19.5
 33
0.0
  0
SOLID
  5
24D
330
248
100
AcDbEntity
  8
1
 62
     2
100
AcDbTrace
 10
47.78921625844411
 20
-16.0
 30
0.0
 11
48.71078374155589
 21
-16.0
 31
0.0
 12
48.25
 22
-19.5
 32
0.0
 13
48.25
 23
-19.5
 33
0.0
  0
MTEXT
  5
24E
330
248
100
AcDbEntity
  8
1
 62
     2
100
AcDbMText
 10
46.25
 20
-6.73544117647059
 30
0.0
 40
3.5
 41
0.0
 71
     7
 72
     1
  1
\C2;39\C2;\H2.45;{\Fgdt;`}0.5
  7
CONVERTER_12
 11
0.0
 21
1.0
 31
0.0
 73
     1
 44
0.60024009603842
  0
ENDBLK
  5
250
330
248
100
AcDbEntity
  8
0
100
AcDbBlockEnd
  0
BLOCK
  5
25A
330
253
100
AcDbEntity
  8
0
100
AcDbBlockBegin
  2
*D5
 70
     1
 71
     0
 10
0.0
 20
0.0
 30
0.0
  3
*D5
  1

  0
LINE
  5
254
330
253
100
AcDbEntity
  8
1
  6
Continuous
 62
     2
100
AcDbLine
 10
-19.5
 20
40.75
 30
0.0
 11
19.5
 21
40.75
 31
0.0
  0
LINE
  5
255
330
253
100
AcDbEntity
  8
1
  6
Continuous
 62
     2
100
AcDbLine
 10
-19.5
 20
18.1973835219199
 30
0.0
 11
-19.5
 21
42.25
 31
0.0
  0
LINE
  5
256
330
253
100
AcDbEntity
  8
1
  6
Continuous
 62
     2
100
AcDbLine
 10
19.5
 20
18.1973835219199
 30
0.0
 11
19.5
 21
42.25
 31
0.0
  0
SOLID
  5
257
330
253
100
AcDbEntity
  8
1
 62
     2
100
AcDbTrace
 10
-16.0
 20
41.21078374155589
 30
0.0
 11
-16.0
 21
40.28921625844411
 31
0.0
 12
-19.5
 22
40.75
 32
0.0
 13
-19.5
 23
40.75
 33
0.0
  0
SOLID
  5
258
330
253
100
AcDbEntity
  8
1
 62
     2
100
AcDbTrace
 10
16.0
 20
40.28921625844411
 30
0.0
 11
16.0
 21
41.21078374155589
 31
0.0
 12
19.5
 22
40.75
 32
0.0
 13
19.5
 23
40.75
 33
0.0
  0
MTEXT
  5
259
330
253
100
AcDbEntity
  8
1
 62
     2
100
AcDbMText
 10
-6.73544117647059
 20
42.75
 30
0.0
 40
3.5
 41
0.0
 71
     7
 72
     1
  1
\C2;39\C2;\H2.45;{\Fgdt;`}0.5
  7
CONVERTER_12
 11
0.9999999999970621
 21
2.424068405545307E-6
 31
0.0
 73
     1
 44
0.60024009603842
  0
ENDBLK
  5
25B
330
253
100
AcDbEntity
  8
0
100
AcDbBlockEnd
  0
BLOCK
  5
265
330
25E
100
AcDbEntity
  8
0
100
AcDbBlockBegin
  2
*D6
 70
     1
 71
     0
 10
0.0
 20
0.0
 30
0.0
  3
*D6
  1

  0
LINE
  5
25F
330
25E
100
AcDbEntity
  8
1
  6
Continuous
 62
     2
100
AcDbLine
 10
-15.5
 20
30.75
 30
0.0
 11
15.5
 21
30.75
 31
0.0
  0
LINE
  5
260
330
25E
100
AcDbEntity
  8
1
  6
Continuous
 62
     2
100
AcDbLine
 10
-15.5
 20
19.21348446295298
 30
0.0
 11
-15.5
 21
32.25
 31
0.0
  0
LINE
  5
261
330
25E
100
AcDbEntity
  8
1
  6
Continuous
 62
     2
100
AcDbLine
 10
15.5
 20
18.972584306019
 30
0.0
 11
15.5
 21
32.25
 31
0.0
  0
SOLID
  5
262
330
25E
100
AcDbEntity
  8
1
 62
     2
100
AcDbTrace
 10
-12.0
 20
31.21078374155589
 30
0.0
 11
-12.0
 21
30.28921625844411
 31
0.0
 12
-15.5
 22
30.75
 32
0.0
 13
-15.5
 23
30.75
 33
0.0
  0
SOLID
  5
263
330
25E
100
AcDbEntity
  8
1
 62
     2
100
AcDbTrace
 10
12.0
 20
30.28921625844411
 30
0.0
 11
12.0
 21
31.21078374155589
 31
0.0
 12
15.5
 22
30.75
 32
0.0
 13
15.5
 23
30.75
 33
0.0
  0
MTEXT
  5
264
330
25E
100
AcDbEntity
  8
1
 62
     2
100
AcDbMText
 10
-7.42514705882353
 20
32.75
 30
0.0
 40
3.5
 41
0.0
 71
     7
 72
     1
  1
\C2;31\C2;\H2.45;{\Fgdt;`}0.25
  7
CONVERTER_12
 11
0.9999999999970621
 21
2.424068405545307E-6
 31
0.0
 73
     1
 44
0.60024009603842
  0
ENDBLK
  5
266
330
25E
100
AcDbEntity
  8
0
100
AcDbBlockEnd
  0
BLOCK
  5
270
330
269
100
AcDbEntity
  8
0
100
AcDbBlockBegin
  2
*D7
 70
     1
 71
     0
 10
0.0
 20
0.0
 30
0.0
  3
*D7
  1

  0
LINE
  5
26A
330
269
100
AcDbEntity
  8
1
  6
Continuous
 62
     2
100
AcDbLine
 10
125.873890671466
 20
30.75
 30
0.0
 11
147.373890671466
 21
30.75
 31
0.0
  0
LINE
  5
26B
330
269
100
AcDbEntity
  8
1
  6
Continuous
 62
     2
100
AcDbLine
 10
125.873890671466
 20
20.0
 30
0.0
 11
125.873890671466
 21
32.25
 31
0.0
  0
LINE
  5
26C
330
269
100
AcDbEntity
  8
1
  6
Continuous
 62
     2
100
AcDbLine
 10
147.373890671466
 20
20.0
 30
0.0
 11
147.373890671466
 21
32.25
 31
0.0
  0
SOLID
  5
26D
330
269
100
AcDbEntity
  8
1
 62
     2
100
AcDbTrace
 10
129.373890671466
 20
31.21078374155589
 30
0.0
 11
129.373890671466
 21
30.28921625844411
 31
0.0
 12
125.873890671466
 22
30.75
 32
0.0
 13
125.873890671466
 23
30.75
 33
0.0
  0
SOLID
  5
26E
330
269
100
AcDbEntity
  8
1
 62
     2
100
AcDbTrace
 10
143.873890671466
 20
30.28921625844411
 30
0.0
 11
143.873890671466
 21
31.21078374155589
 31
0.0
 12
147.373890671466
 22
30.75
 32
0.0
 13
147.373890671466
 23
30.75
 33
0.0
  0
MTEXT
  5
26F
330
269
100
AcDbEntity
  8
1
 62
     3
100
AcDbMText
 10
126.4327142008778
 20
32.75
 30
0.0
 40
3.5
 41
0.0
 71
     7
 72
     1
  1
22 MAX.
  7
CONVERTER_12
 11
0.9999999999970621
 21
2.424068405545307E-6
 31
0.0
 73
     1
 44
0.60024009603842
  0
ENDBLK
  5
271
330
269
100
AcDbEntity
  8
0
100
AcDbBlockEnd
  0
BLOCK
  5
27D
330
274
100
AcDbEntity
  8
0
100
AcDbBlockBegin
  2
*D8
 70
     1
 71
     0
 10
0.0
 20
0.0
 30
0.0
  3
*D8
  1

  0
LINE
  5
275
330
274
100
AcDbEntity
  8
1
  6
Continuous
 62
     2
100
AcDbLine
 10
125.873890671466
 20
40.75
 30
0.0
 11
132.873890671466
 21
40.75
 31
0.0
  0
LINE
  5
276
330
274
100
AcDbEntity
  8
1
  6
Continuous
 62
     2
100
AcDbLine
 10
123.873890671466
 20
40.75
 30
0.0
 11
125.873890671466
 21
40.75
 31
0.0
  0
LINE
  5
277
330
274
100
AcDbEntity
  8
1
  6
Continuous
 62
     2
100
AcDbLine
 10
107.7163607431205
 20
40.75
 30
0.0
 11
123.873890671466
 21
40.75
 31
0.0
  0
LINE
  5
278
330
274
100
AcDbEntity
  8
1
  6
Continuous
 62
     2
100
AcDbLine
 10
123.873890671466
 20
12.0
 30
0.0
 11
123.873890671466
 21
42.25
 31
0.0
  0
LINE
  5
279
330
274
100
AcDbEntity
  8
1
  6
Continuous
 62
     2
100
AcDbLine
 10
125.873890671466
 20
20.0
 30
0.0
 11
125.873890671466
 21
42.25
 31
0.0
  0
SOLID
  5
27A
330
274
100
AcDbEntity
  8
1
 62
     2
100
AcDbTrace
 10
120.373890671466
 20
40.28921625844411
 30
0.0
 11
120.373890671466
 21
41.21078374155589
 31
0.0
 12
123.873890671466
 22
40.75
 32
0.0
 13
123.873890671466
 23
40.75
 33
0.0
  0
SOLID
  5
27B
330
274
100
AcDbEntity
  8
1
 62
     2
100
AcDbTrace
 10
129.373890671466
 20
41.21078374155589
 30
0.0
 11
129.373890671466
 21
40.28921625844411
 31
0.0
 12
125.873890671466
 22
40.75
 32
0.0
 13
125.873890671466
 23
40.75
 33
0.0
  0
MTEXT
  5
27C
330
274
100
AcDbEntity
  8
1
 62
     2
100
AcDbMText
 10
107.7163607431205
 20
42.75
 30
0.0
 40
3.5
 41
0.0
 71
     7
 72
     1
  1
\C2;2\C2;\H2.45;{\Fgdt;`}0.2
  7
CONVERTER_12
 11
0.9999999999970621
 21
2.424068405545307E-6
 31
0.0
 73
     1
 44
0.60024009603842
  0
ENDBLK
  5
27E
330
274
100
AcDbEntity
  8
0
100
AcDbBlockEnd
  0
BLOCK
  5
288
330
281
100
AcDbEntity
  8
0
100
AcDbBlockBegin
  2
*D9
 70
     1
 71
     0
 10
0.0
 20
0.0
 30
0.0
  3
*D9
  1

  0
LINE
  5
282
330
281
100
AcDbEntity
  8
1
  6
Continuous
 62
     2
100
AcDbLine
 10
107.873890671466
 20
-48.25
 30
0.0
 11
125.873890671466
 21
-48.25
 31
0.0
  0
LINE
  5
283
330
281
100
AcDbEntity
  8
1
  6
Continuous
 62
     2
100
AcDbLine
 10
107.873890671466
 20
-3.0
 30
0.0
 11
107.873890671466
 21
-49.75
 31
0.0
  0
LINE
  5
284
330
281
100
AcDbEntity
  8
1
  6
Continuous
 62
     2
100
AcDbLine
 10
125.873890671466
 20
-20.0
 30
0.0
 11
125.873890671466
 21
-49.75
 31
0.0
  0
SOLID
  5
285
330
281
100
AcDbEntity
  8
1
 62
     2
100
AcDbTrace
 10
111.373890671466
 20
-47.78921625844411
 30
0.0
 11
111.373890671466
 21
-48.71078374155589
 31
0.0
 12
107.873890671466
 22
-48.25
 32
0.0
 13
107.873890671466
 23
-48.25
 33
0.0
  0
SOLID
  5
286
330
281
100
AcDbEntity
  8
1
 62
     2
100
AcDbTrace
 10
122.373890671466
 20
-48.71078374155589
 30
0.0
 11
122.373890671466
 21
-47.78921625844411
 31
0.0
 12
125.873890671466
 22
-48.25
 32
0.0
 13
125.873890671466
 23
-48.25
 33
0.0
  0
MTEXT
  5
287
330
281
100
AcDbEntity
  8
1
 62
     2
100
AcDbMText
 10
110.2928612597013
 20
-46.25
 30
0.0
 40
3.5
 41
0.0
 71
     7
 72
     1
  1
\C2;18\C2;\H2.45;{\Fgdt;`}0.5
  7
CONVERTER_12
 11
0.9999999999970621
 21
2.424068405545307E-6
 31
0.0
 73
     1
 44
0.60024009603842
  0
ENDBLK
  5
289
330
281
100
AcDbEntity
  8
0
100
AcDbBlockEnd
  0
BLOCK
  5
294
330
28C
100
AcDbEntity
  8
0
100
AcDbBlockBegin
  2
*D10
 70
     1
 71
     0
 10
0.0
 20
0.0
 30
0.0
  3
*D10
  1

  0
LINE
  5
28D
330
28C
100
AcDbEntity
  8
1
  6
Continuous
 62
     2
100
AcDbLine
 10
87.936390671466
 20
11.0
 30
0.0
 11
87.936390671466
 21
-11.0
 31
0.0
  0
LINE
  5
28E
330
28C
100
AcDbEntity
  8
1
  6
Continuous
 62
     2
100
AcDbLine
 10
122.873890671466
 20
11.0
 30
0.0
 11
86.436390671466
 21
11.0
 31
0.0
  0
LINE
  5
28F
330
28C
100
AcDbEntity
  8
1
  6
Continuous
 62
     2
100
AcDbLine
 10
122.873890671466
 20
-11.0
 30
0.0
 11
86.436390671466
 21
-11.0
 31
0.0
  0
SOLID
  5
290
330
28C
100
AcDbEntity
  8
1
 62
     2
100
AcDbTrace
 10
88.39717441302189
 20
7.5
 30
0.0
 11
87.47560692991011
 21
7.5
 31
0.0
 12
87.936390671466
 22
11.0
 32
0.0
 13
87.936390671466
 23
11.0
 33
0.0
  0
SOLID
  5
291
330
28C
100
AcDbEntity
  8
1
 62
     2
100
AcDbTrace
 10
87.47560692991011
 20
-7.5
 30
0.0
 11
88.39717441302189
 21
-7.5
 31
0.0
 12
87.936390671466
 22
-11.0
 32
0.0
 13
87.936390671466
 23
-11.0
 33
0.0
  0
MTEXT
  5
293
330
28C
100
AcDbEntity
  8
1
 62
     2
100
AcDbMText
 10
84.623890671466
 20
-13.09400326797385
 30
0.0
 40
3.5
 41
0.0
 71
     7
 72
     1
  1
\C2;φ\C2;\C2;22\C2;\H2.45;\S 0^ -0.025;
  7
CONVERTER_13
 11
0.0
 21
1.0
 31
0.0
 73
     1
 44
0.60024009603842
  0
ENDBLK
  5
295
330
28C
100
AcDbEntity
  8
0
100
AcDbBlockEnd
  0
BLOCK
  5
2A1
330
298
100
AcDbEntity
  8
0
100
AcDbBlockBegin
  2
*D11
 70
     1
 71
     0
 10
0.0
 20
0.0
 30
0.0
  3
*D11
  1

  0
LINE
  5
299
330
298
100
AcDbEntity
  8
1
  6
Continuous
 62
     2
100
AcDbLine
 10
97.936390671466
 20
-2.5
 30
0.0
 11
97.936390671466
 21
-9.49999999999999
 31
0.0
  0
LINE
  5
29A
330
298
100
AcDbEntity
  8
1
  6
Continuous
 62
     2
100
AcDbLine
 10
97.936390671466
 20
2.5
 30
0.0
 11
97.936390671466
 21
-2.5
 31
0.0
  0
LINE
  5
29B
330
298
100
AcDbEntity
  8
1
  6
Continuous
 62
     2
100
AcDbLine
 10
97.936390671466
 20
9.49999999999999
 30
0.0
 11
97.936390671466
 21
2.5
 31
0.0
  0
LINE
  5
29C
330
298
100
AcDbEntity
  8
1
  6
Continuous
 62
     2
100
AcDbLine
 10
107.373890671466
 20
2.49999999999999
 30
0.0
 11
96.436390671466
 21
2.5
 31
0.0
  0
LINE
  5
29D
330
298
100
AcDbEntity
  8
1
  6
Continuous
 62
     2
100
AcDbLine
 10
107.373890671466
 20
-2.5
 30
0.0
 11
96.436390671466
 21
-2.5
 31
0.0
  0
SOLID
  5
29E
330
298
100
AcDbEntity
  8
1
 62
     2
100
AcDbTrace
 10
97.47560692991011
 20
5.99999999999999
 30
0.0
 11
98.39717441302189
 21
5.99999999999999
 31
0.0
 12
97.936390671466
 22
2.5
 32
0.0
 13
97.936390671466
 23
2.5
 33
0.0
  0
SOLID
  5
29F
330
298
100
AcDbEntity
  8
1
 62
     2
100
AcDbTrace
 10
98.39717441302189
 20
-5.99999999999999
 30
0.0
 11
97.47560692991011
 21
-5.99999999999999
 31
0.0
 12
97.936390671466
 22
-2.5
 32
0.0
 13
97.936390671466
 23
-2.5
 33
0.0
  0
MTEXT
  5
2A0
330
298
100
AcDbEntity
  8
1
 62
     2
100
AcDbMText
 10
94.623890671466
 20
-11.16385620915032
 30
0.0
 40
3.5
 41
0.0
 71
     7
 72
     1
  1
\C2;φ\C2;\C2;5\C2;\H2.45;\S 0^ -0.012;
  7
CONVERTER_13
 11
0.0
 21
1.0
 31
0.0
 73
     1
 44
0.60024009603842
  0
ENDBLK
  5
2A2
330
298
100
AcDbEntity
  8
0
100
AcDbBlockEnd
  0
BLOCK
  5
2AC
330
2A5
100
AcDbEntity
  8
0
100
AcDbBlockBegin
  2
*D12
 70
     1
 71
     0
 10
0.0
 20
0.0
 30
0.0
  3
*D12
  1

  0
LINE
  5
2A6
330
2A5
100
AcDbEntity
  8
1
  6
Continuous
 62
     2
100
AcDbLine
 10
125.873890671466
 20
40.75
 30
0.0
 11
158.873890671466
 21
40.75
 31
0.0
  0
LINE
  5
2A7
330
2A5
100
AcDbEntity
  8
1
  6
Continuous
 62
     2
100
AcDbLine
 10
125.873890671466
 20
20.0
 30
0.0
 11
125.873890671466
 21
42.25
 31
0.0
  0
LINE
  5
2A8
330
2A5
100
AcDbEntity
  8
1
  6
Continuous
 62
     2
100
AcDbLine
 10
158.873890671466
 20
3.0
 30
0.0
 11
158.873890671466
 21
42.25
 31
0.0
  0
SOLID
  5
2A9
330
2A5
100
AcDbEntity
  8
1
 62
     2
100
AcDbTrace
 10
129.373890671466
 20
41.21078374155589
 30
0.0
 11
129.373890671466
 21
40.28921625844411
 31
0.0
 12
125.873890671466
 22
40.75
 32
0.0
 13
125.873890671466
 23
40.75
 33
0.0
  0
SOLID
  5
2AA
330
2A5
100
AcDbEntity
  8
1
 62
     2
100
AcDbTrace
 10
155.373890671466
 20
40.28921625844411
 30
0.0
 11
155.373890671466
 21
41.21078374155589
 31
0.0
 12
158.873890671466
 22
40.75
 32
0.0
 13
158.873890671466
 23
40.75
 33
0.0
  0
MTEXT
  5
2AB
330
2A5
100
AcDbEntity
  8
1
 62
     2
100
AcDbMText
 10
137.5016847891131
 20
42.75
 30
0.0
 40
3.5
 41
0.0
 71
     7
 72
     1
  1
\C2;33\C2;\H2.45;{\Fgdt;`}1
  7
CONVERTER_12
 11
0.9999999999970621
 21
2.424068405545307E-6
 31
0.0
 73
     1
 44
0.60024009603842
  0
ENDBLK
  5
2AD
330
2A5
100
AcDbEntity
  8
0
100
AcDbBlockEnd
  0
ENDSEC
  0
SECTION
  2
ENTITIES
  0
LINE
  5
32
330
1F
100
AcDbEntity
  8
1
  6
Continuous
 62
     2
100
AcDbLine
 10
286.4690085411146
 20
-7.70001802981612
 30
0.0
 11
288.3219497175852
 21
-7.70001802981612
 31
0.0
  0
LINE
  5
33
330
1F
100
AcDbEntity
  8
1
  6
Continuous
 62
     2
100
AcDbLine
 10
286.4690085411146
 20
-9.56668469648279
 30
0.0
 11
288.5278320705264
 21
-9.56668469648279
 31
0.0
  0
LINE
  5
34
330
1F
100
AcDbEntity
  8
1
  6
Continuous
 62
     2
100
AcDbLine
 10
286.4690085411146
 20
-6.06668469648279
 30
0.0
 11
286.4690085411146
 21
-9.56668469648279
 31
0.0
  0
LINE
  5
35
330
1F
100
AcDbEntity
  8
1
  6
Continuous
 62
     2
100
AcDbLine
 10
288.5278320705264
 20
-6.06668469648279
 30
0.0
 11
286.4690085411146
 21
-6.06668469648279
 31
0.0
  0
LINE
  5
36
330
1F
100
AcDbEntity
  8
1
  6
Continuous
 62
     2
100
AcDbLine
 10
284.3072438352322
 20
-6.06668469648279
 30
0.0
 11
284.3072438352322
 21
-9.56668469648279
 31
0.0
  0
LINE
  5
37
330
1F
100
AcDbEntity
  8
1
  6
Continuous
 62
     2
100
AcDbLine
 10
283.1748908940558
 20
-6.06668469648279
 30
0.0
 11
285.4395967764087
 21
-6.06668469648279
 31
0.0
  0
LINE
  5
38
330
1F
100
AcDbEntity
  8
1
  6
Continuous
 62
     2
100
AcDbLine
 10
280.1895967764087
 20
-8.63335136314945
 30
0.0
 11
281.8366555999381
 21
-8.63335136314945
 31
0.0
  0
LINE
  5
39
330
1F
100
AcDbEntity
  8
1
  6
Continuous
 62
     2
100
AcDbLine
 10
281.0131261881734
 20
-6.06668469648279
 30
0.0
 11
282.1454791293498
 21
-9.56668469648279
 31
0.0
  0
LINE
  5
3A
330
1F
100
AcDbEntity
  8
1
  6
Continuous
 62
     2
100
AcDbLine
 10
279.8807732469969
 20
-9.56668469648279
 30
0.0
 11
281.0131261881734
 21
-6.06668469648279
 31
0.0
  0
LINE
  5
3B
330
1F
100
AcDbEntity
  8
1
  6
Continuous
 62
     2
100
AcDbLine
 10
276.7925379528793
 20
-9.56668469648279
 30
0.0
 11
278.8513614822911
 21
-9.56668469648279
 31
0.0
  0
LINE
  5
3C
330
1F
100
AcDbEntity
  8
1
  6
Continuous
 62
     2
100
AcDbLine
 10
276.7925379528793
 20
-6.06668469648279
 30
0.0
 11
276.7925379528793
 21
-9.56668469648279
 31
0.0
  0
LINE
  5
3D
330
1F
100
AcDbEntity
  8
1
  6
Continuous
 62
     2
100
AcDbLine
 10
275.0425379528793
 20
-7.81668469648279
 30
0.0
 11
273.7043026587617
 21
-7.81668469648279
 31
0.0
  0
LINE
  5
3E
330
1F
100
AcDbEntity
  8
1
  6
Continuous
 62
     2
100
AcDbLine
 10
275.4543026587617
 20
-7.58335136314945
 30
0.0
 11
275.0425379528793
 21
-7.81668469648279
 31
0.0
  0
LINE
  5
3F
330
1F
100
AcDbEntity
  8
1
  6
Continuous
 62
     2
100
AcDbLine
 10
275.6601850117028
 20
-7.35001802981612
 30
0.0
 11
275.4543026587617
 21
-7.58335136314945
 31
0.0
  0
LINE
  5
40
330
1F
100
AcDbEntity
  8
1
  6
Continuous
 62
     2
100
AcDbLine
 10
275.7631261881734
 20
-6.88335136314945
 30
0.0
 11
275.6601850117028
 21
-7.35001802981612
 31
0.0
  0
LINE
  5
41
330
1F
100
AcDbEntity
  8
1
  6
Continuous
 62
     2
100
AcDbLine
 10
275.6601850117028
 20
-6.65001802981612
 30
0.0
 11
275.7631261881734
 21
-6.88335136314945
 31
0.0
  0
LINE
  5
42
330
1F
100
AcDbEntity
  8
1
  6
Continuous
 62
     2
100
AcDbLine
 10
275.4543026587617
 20
-6.30001802981612
 30
0.0
 11
275.6601850117028
 21
-6.65001802981612
 31
0.0
  0
LINE
  5
43
330
1F
100
AcDbEntity
  8
1
  6
Continuous
 62
     2
100
AcDbLine
 10
275.0425379528793
 20
-6.06668469648279
 30
0.0
 11
275.4543026587617
 21
-6.30001802981612
 31
0.0
  0
LINE
  5
44
330
1F
100
AcDbEntity
  8
1
  6
Continuous
 62
     2
100
AcDbLine
 10
273.7043026587617
 20
-6.06668469648279
 30
0.0
 11
275.0425379528793
 21
-6.06668469648279
 31
0.0
  0
LINE
  5
45
330
1F
100
AcDbEntity
  8
1
  6
Continuous
 62
     2
100
AcDbLine
 10
273.7043026587617
 20
-9.56668469648279
 30
0.0
 11
273.7043026587617
 21
-6.06668469648279
 31
0.0
  0
LINE
  5
46
330
1F
100
AcDbEntity
  8
1
  6
Continuous
 62
     2
100
AcDbLine
 10
267.6307732469969
 20
-7.70001802981612
 30
0.0
 11
269.4837144234675
 21
-7.70001802981612
 31
0.0
  0
LINE
  5
47
330
1F
100
AcDbEntity
  8
1
  6
Continuous
 62
     2
100
AcDbLine
 10
267.6307732469969
 20
-9.56668469648279
 30
0.0
 11
269.6895967764087
 21
-9.56668469648279
 31
0.0
  0
LINE
  5
48
330
1F
100
AcDbEntity
  8
1
  6
Continuous
 62
     2
100
AcDbLine
 10
267.6307732469969
 20
-6.06668469648279
 30
0.0
 11
267.6307732469969
 21
-9.56668469648279
 31
0.0
  0
LINE
  5
49
330
1F
100
AcDbEntity
  8
1
  6
Continuous
 62
     2
100
AcDbLine
 10
269.6895967764087
 20
-6.06668469648279
 30
0.0
 11
267.6307732469969
 21
-6.06668469648279
 31
0.0
  0
LINE
  5
4A
330
1F
100
AcDbEntity
  8
1
  6
Continuous
 62
     2
100
AcDbLine
 10
266.6013614822911
 20
-6.06668469648279
 30
0.0
 11
266.6013614822911
 21
-9.56668469648279
 31
0.0
  0
LINE
  5
4B
330
1F
100
AcDbEntity
  8
1
  6
Continuous
 62
     2
100
AcDbLine
 10
265.2631261881734
 20
-9.45001802981612
 30
0.0
 11
266.6013614822911
 21
-6.06668469648279
 31
0.0
  0
LINE
  5
4C
330
1F
100
AcDbEntity
  8
1
  6
Continuous
 62
     2
100
AcDbLine
 10
263.9248908940558
 20
-6.06668469648279
 30
0.0
 11
265.2631261881734
 21
-9.45001802981612
 31
0.0
  0
LINE
  5
4D
330
1F
100
AcDbEntity
  8
1
  6
Continuous
 62
     2
100
AcDbLine
 10
263.9248908940558
 20
-9.56668469648279
 30
0.0
 11
263.9248908940558
 21
-6.06668469648279
 31
0.0
  0
LINE
  5
4E
330
1F
100
AcDbEntity
  8
1
  6
Continuous
 62
     2
100
AcDbLine
 10
260.9395967764087
 20
-8.63335136314945
 30
0.0
 11
262.5866555999381
 21
-8.63335136314945
 31
0.0
  0
LINE
  5
4F
330
1F
100
AcDbEntity
  8
1
  6
Continuous
 62
     2
100
AcDbLine
 10
261.7631261881734
 20
-6.06668469648279
 30
0.0
 11
262.8954791293498
 21
-9.56668469648279
 31
0.0
  0
LINE
  5
50
330
1F
100
AcDbEntity
  8
1
  6
Continuous
 62
     2
100
AcDbLine
 10
260.6307732469969
 20
-9.56668469648279
 30
0.0
 11
261.7631261881734
 21
-6.06668469648279
 31
0.0
  0
LINE
  5
51
330
1F
100
AcDbEntity
  8
1
  6
Continuous
 62
     2
100
AcDbLine
 10
259.6013614822911
 20
-9.56668469648279
 30
0.0
 11
259.6013614822911
 21
-6.06668469648279
 31
0.0
  0
LINE
  5
52
330
1F
100
AcDbEntity
  8
1
  6
Continuous
 62
     2
100
AcDbLine
 10
257.5425379528793
 20
-6.06668469648279
 30
0.0
 11
259.6013614822911
 21
-9.56668469648279
 31
0.0
  0
LINE
  5
53
330
1F
100
AcDbEntity
  8
1
  6
Continuous
 62
     2
100
AcDbLine
 10
257.5425379528793
 20
-9.56668469648279
 30
0.0
 11
257.5425379528793
 21
-6.06668469648279
 31
0.0
  0
LINE
  5
54
330
1F
100
AcDbEntity
  8
1
  6
Continuous
 62
     3
100
AcDbLine
 10
38.34428519388126
 20
31.3251620202498
 30
0.0
 11
38.13840284094008
 21
31.55849535358313
 31
0.0
  0
LINE
  5
55
330
1F
100
AcDbEntity
  8
1
  6
Continuous
 62
     3
100
AcDbLine
 10
38.75604989976361
 20
31.09182868691647
 30
0.0
 11
38.34428519388126
 21
31.3251620202498
 31
0.0
  0
LINE
  5
56
330
1F
100
AcDbEntity
  8
1
  6
Continuous
 62
     3
100
AcDbLine
 10
39.27075578211655
 20
30.9751620202498
 30
0.0
 11
38.75604989976361
 21
31.09182868691647
 31
0.0
  0
LINE
  5
57
330
1F
100
AcDbEntity
  8
1
  6
Continuous
 62
     3
100
AcDbLine
 10
39.88840284094008
 20
31.09182868691647
 30
0.0
 11
39.27075578211655
 21
30.9751620202498
 31
0.0
  0
LINE
  5
58
330
1F
100
AcDbEntity
  8
1
  6
Continuous
 62
     3
100
AcDbLine
 10
40.19722637035185
 20
31.3251620202498
 30
0.0
 11
39.88840284094008
 21
31.09182868691647
 31
0.0
  0
LINE
  5
59
330
1F
100
AcDbEntity
  8
1
  6
Continuous
 62
     3
100
AcDbLine
 10
40.40310872329302
 20
31.90849535358314
 30
0.0
 11
40.19722637035185
 21
31.3251620202498
 31
0.0
  0
LINE
  5
5A
330
1F
100
AcDbEntity
  8
1
  6
Continuous
 62
     3
100
AcDbLine
 10
40.19722637035185
 20
32.49182868691647
 30
0.0
 11
40.40310872329302
 21
31.90849535358314
 31
0.0
  0
LINE
  5
5B
330
1F
100
AcDbEntity
  8
1
  6
Continuous
 62
     3
100
AcDbLine
 10
39.68252048799891
 20
32.84182868691647
 30
0.0
 11
40.19722637035185
 21
32.49182868691647
 31
0.0
  0
LINE
  5
5C
330
1F
100
AcDbEntity
  8
1
  6
Continuous
 62
     3
100
AcDbLine
 10
39.16781460564597
 20
32.84182868691647
 30
0.0
 11
39.68252048799891
 21
32.84182868691647
 31
0.0
  0
LINE
  5
5D
330
1F
100
AcDbEntity
  8
1
  6
Continuous
 62
     3
100
AcDbLine
 10
39.68252048799891
 20
32.84182868691647
 30
0.0
 11
39.16781460564597
 21
32.84182868691647
 31
0.0
  0
LINE
  5
5E
330
1F
100
AcDbEntity
  8
1
  6
Continuous
 62
     3
100
AcDbLine
 10
40.09428519388126
 20
33.0751620202498
 30
0.0
 11
39.68252048799891
 21
32.84182868691647
 31
0.0
  0
LINE
  5
5F
330
1F
100
AcDbEntity
  8
1
  6
Continuous
 62
     3
100
AcDbLine
 10
40.30016754682244
 20
33.54182868691647
 30
0.0
 11
40.09428519388126
 21
33.0751620202498
 31
0.0
  0
LINE
  5
60
330
1F
100
AcDbEntity
  8
1
  6
Continuous
 62
     3
100
AcDbLine
 10
40.19722637035185
 20
33.89182868691647
 30
0.0
 11
40.30016754682244
 21
33.54182868691647
 31
0.0
  0
LINE
  5
61
330
1F
100
AcDbEntity
  8
1
  6
Continuous
 62
     3
100
AcDbLine
 10
39.88840284094008
 20
34.35849535358314
 30
0.0
 11
40.19722637035185
 21
33.89182868691647
 31
0.0
  0
LINE
  5
62
330
1F
100
AcDbEntity
  8
1
  6
Continuous
 62
     3
100
AcDbLine
 10
39.27075578211655
 20
34.4751620202498
 30
0.0
 11
39.88840284094008
 21
34.35849535358314
 31
0.0
  0
LINE
  5
63
330
1F
100
AcDbEntity
  8
1
  6
Continuous
 62
     3
100
AcDbLine
 10
38.65310872329302
 20
34.35849535358314
 30
0.0
 11
39.27075578211655
 21
34.4751620202498
 31
0.0
  0
LINE
  5
64
330
1F
100
AcDbEntity
  8
1
  6
Continuous
 62
     3
100
AcDbLine
 10
38.24134401741067
 20
33.89182868691647
 30
0.0
 11
38.65310872329302
 21
34.35849535358314
 31
0.0
  0
LINE
  5
65
330
1F
100
AcDbEntity
  8
1
  6
Continuous
 62
     3
100
AcDbLine
 10
37.1089910762342
 20
34.4751620202498
 30
0.0
 11
37.1089910762342
 21
30.9751620202498
 31
0.0
  0
LINE
  5
66
330
1F
100
AcDbEntity
  8
1
  6
Continuous
 62
     3
100
AcDbLine
 10
35.77075578211655
 20
31.09182868691647
 30
0.0
 11
37.1089910762342
 21
34.4751620202498
 31
0.0
  0
LINE
  5
67
330
1F
100
AcDbEntity
  8
1
  6
Continuous
 62
     3
100
AcDbLine
 10
34.4325204879989
 20
34.4751620202498
 30
0.0
 11
35.77075578211655
 21
31.09182868691647
 31
0.0
  0
LINE
  5
68
330
1F
100
AcDbEntity
  8
1
  6
Continuous
 62
     3
100
AcDbLine
 10
34.4325204879989
 20
30.9751620202498
 30
0.0
 11
34.4325204879989
 21
34.4751620202498
 31
0.0
  0
LINE
  5
69
330
1F
100
AcDbEntity
  8
1
  6
Continuous
 62
     3
100
AcDbLine
 10
31.55016754682243
 20
32.7251620202498
 30
0.0
 11
33.40310872329302
 21
32.7251620202498
 31
0.0
  0
LINE
  5
6A
330
1F
100
AcDbEntity
  8
1
  6
Continuous
 62
     3
100
AcDbLine
 10
28.25604989976361
 20
30.9751620202498
 30
0.0
 11
30.52075578211655
 21
30.9751620202498
 31
0.0
  0
LINE
  5
6B
330
1F
100
AcDbEntity
  8
1
  6
Continuous
 62
     3
100
AcDbLine
 10
28.46193225270479
 20
31.55849535358313
 30
0.0
 11
28.25604989976361
 21
30.9751620202498
 31
0.0
  0
LINE
  5
6C
330
1F
100
AcDbEntity
  8
1
  6
Continuous
 62
     3
100
AcDbLine
 10
28.66781460564596
 20
31.90849535358314
 30
0.0
 11
28.46193225270479
 21
31.55849535358313
 31
0.0
  0
LINE
  5
6D
330
1F
100
AcDbEntity
  8
1
  6
Continuous
 62
     3
100
AcDbLine
 10
29.07957931152832
 20
32.25849535358314
 30
0.0
 11
28.66781460564596
 21
31.90849535358314
 31
0.0
  0
LINE
  5
6E
330
1F
100
AcDbEntity
  8
1
  6
Continuous
 62
     3
100
AcDbLine
 10
29.49134401741067
 20
32.49182868691647
 30
0.0
 11
29.07957931152832
 21
32.25849535358314
 31
0.0
  0
LINE
  5
6F
330
1F
100
AcDbEntity
  8
1
  6
Continuous
 62
     3
100
AcDbLine
 10
30.00604989976361
 20
32.84182868691647
 30
0.0
 11
29.49134401741067
 21
32.49182868691647
 31
0.0
  0
LINE
  5
70
330
1F
100
AcDbEntity
  8
1
  6
Continuous
 62
     3
100
AcDbLine
 10
30.31487342917538
 20
33.30849535358313
 30
0.0
 11
30.00604989976361
 21
32.84182868691647
 31
0.0
  0
LINE
  5
71
330
1F
100
AcDbEntity
  8
1
  6
Continuous
 62
     3
100
AcDbLine
 10
30.41781460564597
 20
33.7751620202498
 30
0.0
 11
30.31487342917538
 21
33.30849535358313
 31
0.0
  0
LINE
  5
72
330
1F
100
AcDbEntity
  8
1
  6
Continuous
 62
     3
100
AcDbLine
 10
30.00604989976361
 20
34.24182868691647
 30
0.0
 11
30.41781460564597
 21
33.7751620202498
 31
0.0
  0
LINE
  5
73
330
1F
100
AcDbEntity
  8
1
  6
Continuous
 62
     3
100
AcDbLine
 10
29.38840284094008
 20
34.4751620202498
 30
0.0
 11
30.00604989976361
 21
34.24182868691647
 31
0.0
  0
LINE
  5
74
330
1F
100
AcDbEntity
  8
1
  6
Continuous
 62
     3
100
AcDbLine
 10
28.77075578211655
 20
34.24182868691647
 30
0.0
 11
29.38840284094008
 21
34.4751620202498
 31
0.0
  0
LINE
  5
75
330
1F
100
AcDbEntity
  8
1
  6
Continuous
 62
     3
100
AcDbLine
 10
28.3589910762342
 20
33.7751620202498
 30
0.0
 11
28.77075578211655
 21
34.24182868691647
 31
0.0
  0
LINE
  5
76
330
1F
100
AcDbEntity
  8
1
  6
Continuous
 62
     3
100
AcDbLine
 10
218.4476172000234
 20
-43.79405122529194
 30
0.0
 11
218.4476172000234
 21
-44.61071789195861
 31
0.0
  0
LINE
  5
77
330
1F
100
AcDbEntity
  8
1
  6
Continuous
 62
     3
100
AcDbLine
 10
218.6534995529646
 20
-42.74405122529194
 30
0.0
 11
218.4476172000234
 21
-43.79405122529194
 31
0.0
  0
LINE
  5
78
330
1F
100
AcDbEntity
  8
1
  6
Continuous
 62
     3
100
AcDbLine
 10
219.4770289647293
 20
-41.11071789195861
 30
0.0
 11
218.6534995529646
 21
-42.74405122529194
 31
0.0
  0
LINE
  5
79
330
1F
100
AcDbEntity
  8
1
  6
Continuous
 62
     3
100
AcDbLine
 10
217.4182054353175
 20
-41.11071789195861
 30
0.0
 11
219.4770289647293
 21
-41.11071789195861
 31
0.0
  0
LINE
  5
7A
330
1F
100
AcDbEntity
  8
1
  6
Continuous
 62
     3
100
AcDbLine
 10
215.8740877882587
 20
-41.34405122529194
 30
0.0
 11
215.2564407294352
 21
-41.11071789195861
 31
0.0
  0
LINE
  5
7B
330
1F
100
AcDbEntity
  8
1
  6
Continuous
 62
     3
100
AcDbLine
 10
216.2858524941411
 20
-41.92738455862528
 30
0.0
 11
215.8740877882587
 21
-41.34405122529194
 31
0.0
  0
LINE
  5
7C
330
1F
100
AcDbEntity
  8
1
  6
Continuous
 62
     3
100
AcDbLine
 10
216.3887936706117
 20
-42.86071789195861
 30
0.0
 11
216.2858524941411
 21
-41.92738455862528
 31
0.0
  0
LINE
  5
7D
330
1F
100
AcDbEntity
  8
1
  6
Continuous
 62
     3
100
AcDbLine
 10
216.2858524941411
 20
-43.79405122529194
 30
0.0
 11
216.3887936706117
 21
-42.86071789195861
 31
0.0
  0
LINE
  5
7E
330
1F
100
AcDbEntity
  8
1
  6
Continuous
 62
     3
100
AcDbLine
 10
215.8740877882587
 20
-44.37738455862527
 30
0.0
 11
216.2858524941411
 21
-43.79405122529194
 31
0.0
  0
LINE
  5
7F
330
1F
100
AcDbEntity
  8
1
  6
Continuous
 62
     3
100
AcDbLine
 10
215.2564407294352
 20
-44.61071789195861
 30
0.0
 11
215.8740877882587
 21
-44.37738455862527
 31
0.0
  0
LINE
  5
80
330
1F
100
AcDbEntity
  8
1
  6
Continuous
 62
     3
100
AcDbLine
 10
214.6387936706117
 20
-44.37738455862527
 30
0.0
 11
215.2564407294352
 21
-44.61071789195861
 31
0.0
  0
LINE
  5
81
330
1F
100
AcDbEntity
  8
1
  6
Continuous
 62
     3
100
AcDbLine
 10
214.3299701411999
 20
-43.79405122529194
 30
0.0
 11
214.6387936706117
 21
-44.37738455862527
 31
0.0
  0
LINE
  5
82
330
1F
100
AcDbEntity
  8
1
  6
Continuous
 62
     3
100
AcDbLine
 10
214.1240877882587
 20
-42.86071789195861
 30
0.0
 11
214.3299701411999
 21
-43.79405122529194
 31
0.0
  0
LINE
  5
83
330
1F
100
AcDbEntity
  8
1
  6
Continuous
 62
     3
100
AcDbLine
 10
214.3299701411999
 20
-41.92738455862528
 30
0.0
 11
214.1240877882587
 21
-42.86071789195861
 31
0.0
  0
LINE
  5
84
330
1F
100
AcDbEntity
  8
1
  6
Continuous
 62
     3
100
AcDbLine
 10
214.6387936706117
 20
-41.34405122529194
 30
0.0
 11
214.3299701411999
 21
-41.92738455862528
 31
0.0
  0
LINE
  5
85
330
1F
100
AcDbEntity
  8
1
  6
Continuous
 62
     3
100
AcDbLine
 10
215.2564407294352
 20
-41.11071789195861
 30
0.0
 11
214.6387936706117
 21
-41.34405122529194
 31
0.0
  0
LINE
  5
86
330
1F
100
AcDbEntity
  8
1
  6
Continuous
 62
     3
100
AcDbLine
 10
212.5799701411999
 20
-41.34405122529194
 30
0.0
 11
211.9623230823764
 21
-41.11071789195861
 31
0.0
  0
LINE
  5
87
330
1F
100
AcDbEntity
  8
1
  6
Continuous
 62
     3
100
AcDbLine
 10
212.9917348470823
 20
-41.92738455862528
 30
0.0
 11
212.5799701411999
 21
-41.34405122529194
 31
0.0
  0
LINE
  5
88
330
1F
100
AcDbEntity
  8
1
  6
Continuous
 62
     3
100
AcDbLine
 10
213.0946760235528
 20
-42.86071789195861
 30
0.0
 11
212.9917348470823
 21
-41.92738455862528
 31
0.0
  0
LINE
  5
89
330
1F
100
AcDbEntity
  8
1
  6
Continuous
 62
     3
100
AcDbLine
 10
212.9917348470823
 20
-43.79405122529194
 30
0.0
 11
213.0946760235528
 21
-42.86071789195861
 31
0.0
  0
LINE
  5
8A
330
1F
100
AcDbEntity
  8
1
  6
Continuous
 62
     3
100
AcDbLine
 10
212.5799701411999
 20
-44.37738455862527
 30
0.0
 11
212.9917348470823
 21
-43.79405122529194
 31
0.0
  0
LINE
  5
8B
330
1F
100
AcDbEntity
  8
1
  6
Continuous
 62
     3
100
AcDbLine
 10
211.9623230823764
 20
-44.61071789195861
 30
0.0
 11
212.5799701411999
 21
-44.37738455862527
 31
0.0
  0
LINE
  5
8C
330
1F
100
AcDbEntity
  8
1
  6
Continuous
 62
     3
100
AcDbLine
 10
211.3446760235528
 20
-44.37738455862527
 30
0.0
 11
211.9623230823764
 21
-44.61071789195861
 31
0.0
  0
LINE
  5
8D
330
1F
100
AcDbEntity
  8
1
  6
Continuous
 62
     3
100
AcDbLine
 10
211.0358524941411
 20
-43.79405122529194
 30
0.0
 11
211.3446760235528
 21
-44.37738455862527
 31
0.0
  0
LINE
  5
8E
330
1F
100
AcDbEntity
  8
1
  6
Continuous
 62
     3
100
AcDbLine
 10
210.8299701411999
 20
-42.86071789195861
 30
0.0
 11
211.0358524941411
 21
-43.79405122529194
 31
0.0
  0
LINE
  5
8F
330
1F
100
AcDbEntity
  8
1
  6
Continuous
 62
     3
100
AcDbLine
 10
211.0358524941411
 20
-41.92738455862528
 30
0.0
 11
210.8299701411999
 21
-42.86071789195861
 31
0.0
  0
LINE
  5
90
330
1F
100
AcDbEntity
  8
1
  6
Continuous
 62
     3
100
AcDbLine
 10
211.3446760235528
 20
-41.34405122529194
 30
0.0
 11
211.0358524941411
 21
-41.92738455862528
 31
0.0
  0
LINE
  5
91
330
1F
100
AcDbEntity
  8
1
  6
Continuous
 62
     3
100
AcDbLine
 10
211.9623230823764
 20
-41.11071789195861
 30
0.0
 11
211.3446760235528
 21
-41.34405122529194
 31
0.0
  0
LINE
  5
92
330
1F
100
AcDbEntity
  8
1
  6
Continuous
 62
     3
100
AcDbLine
 10
209.2858524941411
 20
-41.11071789195861
 30
0.0
 11
209.2858524941411
 21
-44.61071789195861
 31
0.0
  0
LINE
  5
93
330
1F
100
AcDbEntity
  8
1
  6
Continuous
 62
     3
100
AcDbLine
 10
208.7711466117881
 20
-41.46071789195861
 30
0.0
 11
209.2858524941411
 21
-41.11071789195861
 31
0.0
  0
LINE
  5
94
330
1F
100
AcDbEntity
  8
1
  6
Continuous
 62
     3
100
AcDbLine
 10
205.1682054353176
 20
-44.61071789195861
 30
0.0
 11
207.2270289647293
 21
-44.61071789195861
 31
0.0
  0
LINE
  5
95
330
1F
100
AcDbEntity
  8
1
  6
Continuous
 62
     3
100
AcDbLine
 10
205.1682054353176
 20
-41.11071789195861
 30
0.0
 11
205.1682054353176
 21
-44.61071789195861
 31
0.0
  0
LINE
  5
96
330
1F
100
AcDbEntity
  8
1
  6
Continuous
 62
     3
100
AcDbLine
 10
204.1387936706117
 20
-43.91071789195861
 30
0.0
 11
204.1387936706117
 21
-41.11071789195861
 31
0.0
  0
LINE
  5
97
330
1F
100
AcDbEntity
  8
1
  6
Continuous
 62
     3
100
AcDbLine
 10
203.9329113176705
 20
-44.26071789195861
 30
0.0
 11
204.1387936706117
 21
-43.91071789195861
 31
0.0
  0
LINE
  5
98
330
1F
100
AcDbEntity
  8
1
  6
Continuous
 62
     3
100
AcDbLine
 10
203.6240877882587
 20
-44.49405122529194
 30
0.0
 11
203.9329113176705
 21
-44.26071789195861
 31
0.0
  0
LINE
  5
99
330
1F
100
AcDbEntity
  8
1
  6
Continuous
 62
     3
100
AcDbLine
 10
203.1093819059058
 20
-44.61071789195861
 30
0.0
 11
203.6240877882587
 21
-44.49405122529194
 31
0.0
  0
LINE
  5
9A
330
1F
100
AcDbEntity
  8
1
  6
Continuous
 62
     3
100
AcDbLine
 10
202.6976172000234
 20
-44.49405122529194
 30
0.0
 11
203.1093819059058
 21
-44.61071789195861
 31
0.0
  0
LINE
  5
9B
330
1F
100
AcDbEntity
  8
1
  6
Continuous
 62
     3
100
AcDbLine
 10
202.2858524941411
 20
-44.26071789195861
 30
0.0
 11
202.6976172000234
 21
-44.49405122529194
 31
0.0
  0
LINE
  5
9C
330
1F
100
AcDbEntity
  8
1
  6
Continuous
 62
     3
100
AcDbLine
 10
202.1829113176705
 20
-43.91071789195861
 30
0.0
 11
202.2858524941411
 21
-44.26071789195861
 31
0.0
  0
LINE
  5
9D
330
1F
100
AcDbEntity
  8
1
  6
Continuous
 62
     3
100
AcDbLine
 10
202.1829113176705
 20
-41.11071789195861
 30
0.0
 11
202.1829113176705
 21
-43.91071789195861
 31
0.0
  0
LINE
  5
9E
330
1F
100
AcDbEntity
  8
1
  6
Continuous
 62
     3
100
AcDbLine
 10
216.3887936706117
 20
-37.61071789195861
 30
0.0
 11
216.1829113176705
 21
-38.31071789195861
 31
0.0
  0
LINE
  5
9F
330
1F
100
AcDbEntity
  8
1
  6
Continuous
 62
     3
100
AcDbLine
 10
216.6976172000234
 20
-37.26071789195861
 30
0.0
 11
216.3887936706117
 21
-37.61071789195861
 31
0.0
  0
LINE
  5
A0
330
1F
100
AcDbEntity
  8
1
  6
Continuous
 62
     3
100
AcDbLine
 10
217.1093819059058
 20
-37.14405122529194
 30
0.0
 11
216.6976172000234
 21
-37.26071789195861
 31
0.0
  0
LINE
  5
A1
330
1F
100
AcDbEntity
  8
1
  6
Continuous
 62
     3
100
AcDbLine
 10
217.5211466117881
 20
-37.26071789195861
 30
0.0
 11
217.1093819059058
 21
-37.14405122529194
 31
0.0
  0
LINE
  5
A2
330
1F
100
AcDbEntity
  8
1
  6
Continuous
 62
     3
100
AcDbLine
 10
217.9329113176705
 20
-37.61071789195861
 30
0.0
 11
217.5211466117881
 21
-37.26071789195861
 31
0.0
  0
LINE
  5
A3
330
1F
100
AcDbEntity
  8
1
  6
Continuous
 62
     3
100
AcDbLine
 10
218.0358524941411
 20
-37.84405122529194
 30
0.0
 11
217.9329113176705
 21
-37.61071789195861
 31
0.0
  0
LINE
  5
A4
330
1F
100
AcDbEntity
  8
1
  6
Continuous
 62
     3
100
AcDbLine
 10
218.1387936706117
 20
-38.31071789195861
 30
0.0
 11
218.0358524941411
 21
-37.84405122529194
 31
0.0
  0
LINE
  5
A5
330
1F
100
AcDbEntity
  8
1
  6
Continuous
 62
     3
100
AcDbLine
 10
217.9329113176705
 20
-38.89405122529194
 30
0.0
 11
218.1387936706117
 21
-38.31071789195861
 31
0.0
  0
LINE
  5
A6
330
1F
100
AcDbEntity
  8
1
  6
Continuous
 62
     3
100
AcDbLine
 10
217.6240877882587
 20
-39.24405122529194
 30
0.0
 11
217.9329113176705
 21
-38.89405122529194
 31
0.0
  0
LINE
  5
A7
330
1F
100
AcDbEntity
  8
1
  6
Continuous
 62
     3
100
AcDbLine
 10
217.1093819059058
 20
-39.36071789195861
 30
0.0
 11
217.6240877882587
 21
-39.24405122529194
 31
0.0
  0
LINE
  5
A8
330
1F
100
AcDbEntity
  8
1
  6
Continuous
 62
     3
100
AcDbLine
 10
216.4917348470823
 20
-39.12738455862527
 30
0.0
 11
217.1093819059058
 21
-39.36071789195861
 31
0.0
  0
LINE
  5
A9
330
1F
100
AcDbEntity
  8
1
  6
Continuous
 62
     3
100
AcDbLine
 10
216.2858524941411
 20
-38.77738455862527
 30
0.0
 11
216.4917348470823
 21
-39.12738455862527
 31
0.0
  0
LINE
  5
AA
330
1F
100
AcDbEntity
  8
1
  6
Continuous
 62
     3
100
AcDbLine
 10
216.1829113176705
 20
-38.31071789195861
 30
0.0
 11
216.2858524941411
 21
-38.77738455862527
 31
0.0
  0
LINE
  5
AB
330
1F
100
AcDbEntity
  8
1
  6
Continuous
 62
     3
100
AcDbLine
 10
216.1829113176705
 20
-36.91071789195861
 30
0.0
 11
216.1829113176705
 21
-38.31071789195861
 31
0.0
  0
LINE
  5
AC
330
1F
100
AcDbEntity
  8
1
  6
Continuous
 62
     3
100
AcDbLine
 10
216.2858524941411
 20
-36.44405122529194
 30
0.0
 11
216.1829113176705
 21
-36.91071789195861
 31
0.0
  0
LINE
  5
AD
330
1F
100
AcDbEntity
  8
1
  6
Continuous
 62
     3
100
AcDbLine
 10
216.5946760235528
 20
-36.09405122529194
 30
0.0
 11
216.2858524941411
 21
-36.44405122529194
 31
0.0
  0
LINE
  5
AE
330
1F
100
AcDbEntity
  8
1
  6
Continuous
 62
     3
100
AcDbLine
 10
216.800558376494
 20
-35.97738455862528
 30
0.0
 11
216.5946760235528
 21
-36.09405122529194
 31
0.0
  0
LINE
  5
AF
330
1F
100
AcDbEntity
  8
1
  6
Continuous
 62
     3
100
AcDbLine
 10
217.1093819059058
 20
-35.86071789195861
 30
0.0
 11
216.800558376494
 21
-35.97738455862528
 31
0.0
  0
LINE
  5
B0
330
1F
100
AcDbEntity
  8
1
  6
Continuous
 62
     3
100
AcDbLine
 10
217.5211466117881
 20
-35.97738455862528
 30
0.0
 11
217.1093819059058
 21
-35.86071789195861
 31
0.0
  0
LINE
  5
B1
330
1F
100
AcDbEntity
  8
1
  6
Continuous
 62
     3
100
AcDbLine
 10
217.8299701411999
 20
-36.09405122529194
 30
0.0
 11
217.5211466117881
 21
-35.97738455862528
 31
0.0
  0
LINE
  5
B2
330
1F
100
AcDbEntity
  8
1
  6
Continuous
 62
     3
100
AcDbLine
 10
218.1387936706117
 20
-36.44405122529194
 30
0.0
 11
217.8299701411999
 21
-36.09405122529194
 31
0.0
  0
LINE
  5
B3
330
1F
100
AcDbEntity
  8
1
  6
Continuous
 62
     3
100
AcDbLine
 10
212.8887936706117
 20
-39.36071789195861
 30
0.0
 11
215.1534995529646
 21
-39.36071789195861
 31
0.0
  0
LINE
  5
B4
330
1F
100
AcDbEntity
  8
1
  6
Continuous
 62
     3
100
AcDbLine
 10
213.0946760235529
 20
-38.77738455862527
 30
0.0
 11
212.8887936706117
 21
-39.36071789195861
 31
0.0
  0
LINE
  5
B5
330
1F
100
AcDbEntity
  8
1
  6
Continuous
 62
     3
100
AcDbLine
 10
213.300558376494
 20
-38.42738455862528
 30
0.0
 11
213.0946760235529
 21
-38.77738455862527
 31
0.0
  0
LINE
  5
B6
330
1F
100
AcDbEntity
  8
1
  6
Continuous
 62
     3
100
AcDbLine
 10
213.7123230823764
 20
-38.07738455862528
 30
0.0
 11
213.300558376494
 21
-38.42738455862528
 31
0.0
  0
LINE
  5
B7
330
1F
100
AcDbEntity
  8
1
  6
Continuous
 62
     3
100
AcDbLine
 10
214.1240877882588
 20
-37.84405122529194
 30
0.0
 11
213.7123230823764
 21
-38.07738455862528
 31
0.0
  0
LINE
  5
B8
330
1F
100
AcDbEntity
  8
1
  6
Continuous
 62
     3
100
AcDbLine
 10
214.6387936706117
 20
-37.49405122529194
 30
0.0
 11
214.1240877882588
 21
-37.84405122529194
 31
0.0
  0
LINE
  5
B9
330
1F
100
AcDbEntity
  8
1
  6
Continuous
 62
     3
100
AcDbLine
 10
214.9476172000234
 20
-37.02738455862527
 30
0.0
 11
214.6387936706117
 21
-37.49405122529194
 31
0.0
  0
LINE
  5
BA
330
1F
100
AcDbEntity
  8
1
  6
Continuous
 62
     3
100
AcDbLine
 10
215.050558376494
 20
-36.56071789195861
 30
0.0
 11
214.9476172000234
 21
-37.02738455862527
 31
0.0
  0
LINE
  5
BB
330
1F
100
AcDbEntity
  8
1
  6
Continuous
 62
     3
100
AcDbLine
 10
214.6387936706117
 20
-36.09405122529194
 30
0.0
 11
215.050558376494
 21
-36.56071789195861
 31
0.0
  0
LINE
  5
BC
330
1F
100
AcDbEntity
  8
1
  6
Continuous
 62
     3
100
AcDbLine
 10
214.0211466117881
 20
-35.86071789195861
 30
0.0
 11
214.6387936706117
 21
-36.09405122529194
 31
0.0
  0
LINE
  5
BD
330
1F
100
AcDbEntity
  8
1
  6
Continuous
 62
     3
100
AcDbLine
 10
213.4034995529646
 20
-36.09405122529194
 30
0.0
 11
214.0211466117881
 21
-35.86071789195861
 31
0.0
  0
LINE
  5
BE
330
1F
100
AcDbEntity
  8
1
  6
Continuous
 62
     3
100
AcDbLine
 10
212.9917348470823
 20
-36.56071789195861
 30
0.0
 11
213.4034995529646
 21
-36.09405122529194
 31
0.0
  0
LINE
  5
BF
330
1F
100
AcDbEntity
  8
1
  6
Continuous
 62
     3
100
AcDbLine
 10
211.8593819059058
 20
-37.72738455862528
 30
0.0
 11
210.9329113176705
 21
-37.72738455862528
 31
0.0
  0
LINE
  5
C0
330
1F
100
AcDbEntity
  8
1
  6
Continuous
 62
     3
100
AcDbLine
 10
211.8593819059058
 20
-38.42738455862528
 30
0.0
 11
211.8593819059058
 21
-37.72738455862528
 31
0.0
  0
LINE
  5
C1
330
1F
100
AcDbEntity
  8
1
  6
Continuous
 62
     3
100
AcDbLine
 10
211.7564407294352
 20
-38.77738455862527
 30
0.0
 11
211.8593819059058
 21
-38.42738455862528
 31
0.0
  0
LINE
  5
C2
330
1F
100
AcDbEntity
  8
1
  6
Continuous
 62
     3
100
AcDbLine
 10
211.550558376494
 20
-39.01071789195861
 30
0.0
 11
211.7564407294352
 21
-38.77738455862527
 31
0.0
  0
LINE
  5
C3
330
1F
100
AcDbEntity
  8
1
  6
Continuous
 62
     3
100
AcDbLine
 10
211.2417348470823
 20
-39.24405122529194
 30
0.0
 11
211.550558376494
 21
-39.01071789195861
 31
0.0
  0
LINE
  5
C4
330
1F
100
AcDbEntity
  8
1
  6
Continuous
 62
     3
100
AcDbLine
 10
210.7270289647293
 20
-39.36071789195861
 30
0.0
 11
211.2417348470823
 21
-39.24405122529194
 31
0.0
  0
LINE
  5
C5
330
1F
100
AcDbEntity
  8
1
  6
Continuous
 62
     3
100
AcDbLine
 10
210.2123230823764
 20
-39.24405122529194
 30
0.0
 11
210.7270289647293
 21
-39.36071789195861
 31
0.0
  0
LINE
  5
C6
330
1F
100
AcDbEntity
  8
1
  6
Continuous
 62
     3
100
AcDbLine
 10
209.9034995529646
 20
-38.77738455862527
 30
0.0
 11
210.2123230823764
 21
-39.24405122529194
 31
0.0
  0
LINE
  5
C7
330
1F
100
AcDbEntity
  8
1
  6
Continuous
 62
     3
100
AcDbLine
 10
209.800558376494
 20
-38.54405122529194
 30
0.0
 11
209.9034995529646
 21
-38.77738455862527
 31
0.0
  0
LINE
  5
C8
330
1F
100
AcDbEntity
  8
1
  6
Continuous
 62
     3
100
AcDbLine
 10
209.5946760235528
 20
-37.61071789195861
 30
0.0
 11
209.800558376494
 21
-38.54405122529194
 31
0.0
  0
LINE
  5
C9
330
1F
100
AcDbEntity
  8
1
  6
Continuous
 62
     3
100
AcDbLine
 10
209.6976172000234
 20
-37.14405122529194
 30
0.0
 11
209.5946760235528
 21
-37.61071789195861
 31
0.0
  0
LINE
  5
CA
330
1F
100
AcDbEntity
  8
1
  6
Continuous
 62
     3
100
AcDbLine
 10
209.9034995529646
 20
-36.44405122529194
 30
0.0
 11
209.6976172000234
 21
-37.14405122529194
 31
0.0
  0
LINE
  5
CB
330
1F
100
AcDbEntity
  8
1
  6
Continuous
 62
     3
100
AcDbLine
 10
210.0064407294352
 20
-36.21071789195861
 30
0.0
 11
209.9034995529646
 21
-36.44405122529194
 31
0.0
  0
LINE
  5
CC
330
1F
100
AcDbEntity
  8
1
  6
Continuous
 62
     3
100
AcDbLine
 10
210.315264258847
 20
-35.97738455862528
 30
0.0
 11
210.0064407294352
 21
-36.21071789195861
 31
0.0
  0
LINE
  5
CD
330
1F
100
AcDbEntity
  8
1
  6
Continuous
 62
     3
100
AcDbLine
 10
210.7270289647293
 20
-35.86071789195861
 30
0.0
 11
210.315264258847
 21
-35.97738455862528
 31
0.0
  0
LINE
  5
CE
330
1F
100
AcDbEntity
  8
1
  6
Continuous
 62
     3
100
AcDbLine
 10
211.2417348470823
 20
-35.97738455862528
 30
0.0
 11
210.7270289647293
 21
-35.86071789195861
 31
0.0
  0
LINE
  5
CF
330
1F
100
AcDbEntity
  8
1
  6
Continuous
 62
     3
100
AcDbLine
 10
211.4476172000234
 20
-36.09405122529194
 30
0.0
 11
211.2417348470823
 21
-35.97738455862528
 31
0.0
  0
LINE
  5
D0
330
1F
100
AcDbEntity
  8
1
  6
Continuous
 62
     3
100
AcDbLine
 10
211.6534995529646
 20
-36.32738455862528
 30
0.0
 11
211.4476172000234
 21
-36.09405122529194
 31
0.0
  0
LINE
  5
D1
330
1F
100
AcDbEntity
  8
1
  6
Continuous
 62
     3
100
AcDbLine
 10
211.8593819059058
 20
-36.67738455862528
 30
0.0
 11
211.6534995529646
 21
-36.32738455862528
 31
0.0
  0
LINE
  5
D2
330
1F
100
AcDbEntity
  8
1
  6
Continuous
 62
     3
100
AcDbLine
 10
207.8446760235528
 20
-39.36071789195861
 30
0.0
 11
208.565264258847
 21
-35.86071789195861
 31
0.0
  0
LINE
  5
D3
330
1F
100
AcDbEntity
  8
1
  6
Continuous
 62
     3
100
AcDbLine
 10
207.0211466117881
 20
-35.97738455862528
 30
0.0
 11
207.8446760235528
 21
-39.36071789195861
 31
0.0
  0
LINE
  5
D4
330
1F
100
AcDbEntity
  8
1
  6
Continuous
 62
     3
100
AcDbLine
 10
206.300558376494
 20
-39.36071789195861
 30
0.0
 11
207.0211466117881
 21
-35.97738455862528
 31
0.0
  0
LINE
  5
D5
330
1F
100
AcDbEntity
  8
1
  6
Continuous
 62
     3
100
AcDbLine
 10
205.4770289647293
 20
-35.86071789195861
 30
0.0
 11
206.300558376494
 21
-39.36071789195861
 31
0.0
  0
LINE
  5
D6
330
1F
100
AcDbEntity
  8
1
  6
Continuous
 62
     3
100
AcDbLine
 10
202.4917348470823
 20
-38.42738455862528
 30
0.0
 11
204.1387936706117
 21
-38.42738455862528
 31
0.0
  0
LINE
  5
D7
330
1F
100
AcDbEntity
  8
1
  6
Continuous
 62
     3
100
AcDbLine
 10
203.315264258847
 20
-35.86071789195861
 30
0.0
 11
204.4476172000234
 21
-39.36071789195861
 31
0.0
  0
LINE
  5
D8
330
1F
100
AcDbEntity
  8
1
  6
Continuous
 62
     3
100
AcDbLine
 10
202.1829113176705
 20
-39.36071789195861
 30
0.0
 11
203.315264258847
 21
-35.86071789195861
 31
0.0
  0
LINE
  5
D9
330
1F
100
AcDbEntity
  8
1
  6
Continuous
 62
     7
100
AcDbLine
 10
249.673890671466
 20
14.0
 30
0.0
 11
249.673890671466
 21
-14.0
 31
0.0
  0
LINE
  5
DA
330
1F
100
AcDbEntity
  8
1
  6
Continuous
 62
     7
100
AcDbLine
 10
-19.80000000000001
 20
14.0
 30
0.0
 11
-19.80000000000001
 21
-14.0
 31
0.0
  0
LINE
  5
DB
330
1F
100
AcDbEntity
  8
1
  6
Continuous
 62
     7
100
AcDbLine
 10
215.8267145223109
 20
-15.12676701858572
 30
0.0
 11
215.0641000216694
 21
-15.11345553296181
 31
0.0
  0
LINE
  5
DC
330
1F
100
AcDbEntity
  8
1
  6
Continuous
 62
     7
100
AcDbLine
 10
215.0641000216694
 20
-15.11345553296181
 30
0.0
 11
214.8539845664116
 21
-15.01990610505442
 31
0.0
  0
LINE
  5
DD
330
1F
100
AcDbEntity
  8
1
  6
Continuous
 62
     7
100
AcDbLine
 10
214.7604351385042
 20
-14.80979064979661
 30
0.0
 11
214.7471236528803
 21
-14.04717614915512
 31
0.0
  0
LINE
  5
DE
330
1F
100
AcDbEntity
  8
1
  6
Continuous
 62
     7
100
AcDbLine
 10
214.8539845664116
 20
-15.01990610505442
 30
0.0
 11
214.7604351385042
 21
-14.80979064979661
 31
0.0
  0
LINE
  5
DF
330
1F
100
AcDbEntity
  8
1
  6
Continuous
 62
     7
100
AcDbLine
 10
214.0006576900517
 20
-14.04717614915512
 30
0.0
 11
213.9873462044278
 21
-14.8097906497965
 31
0.0
  0
LINE
  5
E0
330
1F
100
AcDbEntity
  8
1
  6
Continuous
 62
     7
100
AcDbLine
 10
213.9873462044278
 20
-14.8097906497965
 30
0.0
 11
213.8937967765204
 21
-15.01990610505442
 31
0.0
  0
LINE
  5
E1
330
1F
100
AcDbEntity
  8
1
  6
Continuous
 62
     7
100
AcDbLine
 10
213.6836813212626
 20
-15.11345553296181
 30
0.0
 11
212.9210668206211
 21
-15.12676701858572
 31
0.0
  0
LINE
  5
E2
330
1F
100
AcDbEntity
  8
1
  6
Continuous
 62
     7
100
AcDbLine
 10
213.8937967765204
 20
-15.01990610505442
 30
0.0
 11
213.6836813212626
 21
-15.11345553296181
 31
0.0
  0
LINE
  5
E3
330
1F
100
AcDbEntity
  8
1
  6
Continuous
 62
     7
100
AcDbLine
 10
212.9210668206211
 20
-15.8732329814143
 30
0.0
 11
213.6836813212626
 21
-15.88654446703822
 31
0.0
  0
LINE
  5
E4
330
1F
100
AcDbEntity
  8
1
  6
Continuous
 62
     7
100
AcDbLine
 10
213.6836813212626
 20
-15.88654446703822
 30
0.0
 11
213.8937967765204
 21
-15.98009389494561
 31
0.0
  0
LINE
  5
E5
330
1F
100
AcDbEntity
  8
1
  6
Continuous
 62
     7
100
AcDbLine
 10
213.9873462044278
 20
-16.19020935020342
 30
0.0
 11
214.0006576900517
 21
-16.95282385084491
 31
0.0
  0
LINE
  5
E6
330
1F
100
AcDbEntity
  8
1
  6
Continuous
 62
     7
100
AcDbLine
 10
213.8937967765204
 20
-15.98009389494561
 30
0.0
 11
213.9873462044278
 21
-16.19020935020342
 31
0.0
  0
LINE
  5
E7
330
1F
100
AcDbEntity
  8
1
  6
Continuous
 62
     7
100
AcDbLine
 10
214.7471236528803
 20
-16.95282385084491
 30
0.0
 11
214.7604351385042
 21
-16.19020935020342
 31
0.0
  0
LINE
  5
E8
330
1F
100
AcDbEntity
  8
1
  6
Continuous
 62
     7
100
AcDbLine
 10
214.7604351385042
 20
-16.19020935020342
 30
0.0
 11
214.8539845664116
 21
-15.98009389494561
 31
0.0
  0
LINE
  5
E9
330
1F
100
AcDbEntity
  8
1
  6
Continuous
 62
     7
100
AcDbLine
 10
215.0641000216694
 20
-15.88654446703822
 30
0.0
 11
215.8267145223109
 21
-15.8732329814143
 31
0.0
  0
LINE
  5
EA
330
1F
100
AcDbEntity
  8
1
  6
Continuous
 62
     7
100
AcDbLine
 10
214.8539845664116
 20
-15.98009389494561
 30
0.0
 11
215.0641000216694
 21
-15.88654446703822
 31
0.0
  0
LINE
  5
EB
330
1F
100
AcDbEntity
  8
1
  6
Continuous
 62
     7
100
AcDbLine
 10
246.8267145223109
 20
15.87323298141428
 30
0.0
 11
246.0641000216694
 21
15.88654446703819
 31
0.0
  0
LINE
  5
EC
330
1F
100
AcDbEntity
  8
1
  6
Continuous
 62
     7
100
AcDbLine
 10
245.7604351385042
 20
16.19020935020339
 30
0.0
 11
245.7471236528803
 21
16.95282385084488
 31
0.0
  0
LINE
  5
ED
330
1F
100
AcDbEntity
  8
1
  6
Continuous
 62
     7
100
AcDbLine
 10
245.0006576900517
 20
16.95282385084488
 30
0.0
 11
244.9873462044278
 21
16.1902093502035
 31
0.0
  0
LINE
  5
EE
330
1F
100
AcDbEntity
  8
1
  6
Continuous
 62
     7
100
AcDbLine
 10
244.9873462044278
 20
16.1902093502035
 30
0.0
 11
244.8937967765204
 21
15.98009389494558
 31
0.0
  0
LINE
  5
EF
330
1F
100
AcDbEntity
  8
1
  6
Continuous
 62
     7
100
AcDbLine
 10
244.6836813212626
 20
15.88654446703819
 30
0.0
 11
243.9210668206211
 21
15.87323298141428
 31
0.0
  0
LINE
  5
F0
330
1F
100
AcDbEntity
  8
1
  6
Continuous
 62
     7
100
AcDbLine
 10
244.8937967765204
 20
15.98009389494558
 30
0.0
 11
244.6836813212626
 21
15.88654446703819
 31
0.0
  0
LINE
  5
F1
330
1F
100
AcDbEntity
  8
1
  6
Continuous
 62
     7
100
AcDbLine
 10
243.9210668206211
 20
15.1267670185857
 30
0.0
 11
244.6836813212626
 21
15.11345553296178
 31
0.0
  0
LINE
  5
F2
330
1F
100
AcDbEntity
  8
1
  6
Continuous
 62
     7
100
AcDbLine
 10
244.6836813212626
 20
15.11345553296178
 30
0.0
 11
244.8937967765204
 21
15.01990610505439
 31
0.0
  0
LINE
  5
F3
330
1F
100
AcDbEntity
  8
1
  6
Continuous
 62
     7
100
AcDbLine
 10
244.9873462044278
 20
14.80979064979658
 30
0.0
 11
245.0006576900517
 21
14.04717614915509
 31
0.0
  0
LINE
  5
F4
330
1F
100
AcDbEntity
  8
1
  6
Continuous
 62
     7
100
AcDbLine
 10
244.8937967765204
 20
15.01990610505439
 30
0.0
 11
244.9873462044278
 21
14.80979064979658
 31
0.0
  0
LINE
  5
F5
330
1F
100
AcDbEntity
  8
1
  6
Continuous
 62
     7
100
AcDbLine
 10
245.7471236528803
 20
14.04717614915509
 30
0.0
 11
245.7604351385042
 21
14.80979064979658
 31
0.0
  0
LINE
  5
F6
330
1F
100
AcDbEntity
  8
1
  6
Continuous
 62
     7
100
AcDbLine
 10
245.7604351385042
 20
14.80979064979658
 30
0.0
 11
245.8539845664116
 21
15.01990610505439
 31
0.0
  0
LINE
  5
F7
330
1F
100
AcDbEntity
  8
1
  6
Continuous
 62
     7
100
AcDbLine
 10
246.0641000216694
 20
15.11345553296178
 30
0.0
 11
246.8267145223109
 21
15.1267670185857
 31
0.0
  0
LINE
  5
F8
330
1F
100
AcDbEntity
  8
1
  6
Continuous
 62
     7
100
AcDbLine
 10
245.8539845664116
 20
15.01990610505439
 30
0.0
 11
246.0641000216694
 21
15.11345553296178
 31
0.0
  0
LINE
  5
F9
330
1F
100
AcDbEntity
  8
1
  6
DASH_CENTER
 62
     3
100
AcDbLine
 10
249.673890671466
 20
15.5
 30
0.0
 11
241.073890671466
 21
15.5
 31
0.0
  0
LINE
  5
FA
330
1F
100
AcDbEntity
  8
1
  6
DASH_CENTER
 62
     3
100
AcDbLine
 10
245.373890671466
 20
19.79999999999998
 30
0.0
 11
245.373890671466
 21
11.19999999999999
 31
0.0
  0
LINE
  5
FB
330
1F
100
AcDbEntity
  8
1
  6
Continuous
 62
     7
100
AcDbLine
 10
119.873890671466
 20
-14.20000000000002
 30
0.0
 11
120.073890671466
 21
-14.0
 31
0.0
  0
LINE
  5
FC
330
1F
100
AcDbEntity
  8
1
  6
Continuous
 62
     7
100
AcDbLine
 10
125.873890671466
 20
-14.0
 30
0.0
 11
120.073890671466
 21
-14.0
 31
0.0
  0
LINE
  5
FD
330
1F
100
AcDbEntity
  8
1
  6
Continuous
 62
     3
100
AcDbLine
 10
125.873890671466
 20
-14.25
 30
0.0
 11
119.873890671466
 21
-14.25
 31
0.0
  0
LINE
  5
FE
330
1F
100
AcDbEntity
  8
1
  6
Continuous
 62
     7
100
AcDbLine
 10
120.073890671466
 20
-17.0
 30
0.0
 11
125.873890671466
 21
-17.0
 31
0.0
  0
LINE
  5
FF
330
1F
100
AcDbEntity
  8
1
  6
Continuous
 62
     3
100
AcDbLine
 10
119.873890671466
 20
-16.75
 30
0.0
 11
125.873890671466
 21
-16.75
 31
0.0
  0
LINE
  5
100
330
1F
100
AcDbEntity
  8
1
  6
Continuous
 62
     7
100
AcDbLine
 10
119.873890671466
 20
-16.80000000000001
 30
0.0
 11
120.073890671466
 21
-17.0
 31
0.0
  0
LINE
  5
101
330
1F
100
AcDbEntity
  8
1
  6
Continuous
 62
     7
100
AcDbLine
 10
119.873890671466
 20
-16.75
 30
0.0
 11
119.873890671466
 21
-16.80000000000001
 31
0.0
  0
LINE
  5
102
330
1F
100
AcDbEntity
  8
1
  6
Continuous
 62
     7
100
AcDbLine
 10
119.873890671466
 20
-16.75
 30
0.0
 11
119.873890671466
 21
-14.20000000000002
 31
0.0
  0
LINE
  5
103
330
1F
100
AcDbEntity
  8
1
  6
DASH_CENTER
 62
     3
100
AcDbLine
 10
118.373890671466
 20
-15.5
 30
0.0
 11
127.0628475732106
 21
-15.5
 31
0.0
  0
LINE
  5
104
330
1F
100
AcDbEntity
  8
1
  6
DASH_CENTER
 62
     3
100
AcDbLine
 10
127.0628475732106
 20
15.5
 30
0.0
 11
117.873890671466
 21
15.5
 31
0.0
  0
LINE
  5
105
330
1F
100
AcDbEntity
  8
1
  6
Continuous
 62
     7
100
AcDbLine
 10
119.573890671466
 20
14.0
 30
0.0
 11
119.373890671466
 21
14.19999999999999
 31
0.0
  0
LINE
  5
106
330
1F
100
AcDbEntity
  8
1
  6
Continuous
 62
     7
100
AcDbLine
 10
119.573890671466
 20
17.0
 30
0.0
 11
119.373890671466
 21
16.79999999999998
 31
0.0
  0
LINE
  5
107
330
1F
100
AcDbEntity
  8
1
  6
Continuous
 62
     7
100
AcDbLine
 10
119.573890671466
 20
14.0
 30
0.0
 11
125.873890671466
 21
14.0
 31
0.0
  0
LINE
  5
108
330
1F
100
AcDbEntity
  8
1
  6
Continuous
 62
     3
100
AcDbLine
 10
119.373890671466
 20
14.25
 30
0.0
 11
125.873890671466
 21
14.25
 31
0.0
  0
LINE
  5
109
330
1F
100
AcDbEntity
  8
1
  6
Continuous
 62
     7
100
AcDbLine
 10
125.873890671466
 20
17.0
 30
0.0
 11
119.573890671466
 21
17.0
 31
0.0
  0
LINE
  5
10A
330
1F
100
AcDbEntity
  8
1
  6
Continuous
 62
     3
100
AcDbLine
 10
125.873890671466
 20
16.75
 30
0.0
 11
119.373890671466
 21
16.75
 31
0.0
  0
LINE
  5
10B
330
1F
100
AcDbEntity
  8
1
  6
Continuous
 62
     7
100
AcDbLine
 10
119.373890671466
 20
16.79999999999998
 30
0.0
 11
119.373890671466
 21
14.19999999999999
 31
0.0
  0
LINE
  5
10C
330
1F
100
AcDbEntity
  8
1
  6
DASH_CENTER
 62
     3
100
AcDbLine
 10
148.773890671466
 20
15.5
 30
0.0
 11
143.373890671466
 21
15.5
 31
0.0
  0
LINE
  5
10D
330
1F
100
AcDbEntity
  8
1
  6
Continuous
 62
     7
100
AcDbLine
 10
144.873890671466
 20
12.29999999999998
 30
0.0
 11
144.873890671466
 21
19.5
 31
0.0
  0
LINE
  5
10E
330
1F
100
AcDbEntity
  8
1
  6
Continuous
 62
     7
100
AcDbLine
 10
145.9784450554634
 20
18.2033640131524
 30
0.0
 11
144.873890671466
 21
18.29999999999998
 31
0.0
  0
LINE
  5
10F
330
1F
100
AcDbEntity
  8
1
  6
Continuous
 62
     7
100
AcDbLine
 10
144.873890671466
 20
18.29999999999998
 30
0.0
 11
144.873890671466
 21
12.69999999999999
 31
0.0
  0
LINE
  5
110
330
1F
100
AcDbEntity
  8
1
  6
Continuous
 62
     7
100
AcDbLine
 10
144.873890671466
 20
12.69999999999999
 30
0.0
 11
145.9784450554634
 21
12.79663598684758
 31
0.0
  0
LINE
  5
111
330
1F
100
AcDbEntity
  8
1
  6
Continuous
 62
     7
100
AcDbLine
 10
144.873890671466
 20
12.29999999999998
 30
0.0
 11
147.373890671466
 21
11.79999999999998
 31
0.0
  0
LINE
  5
112
330
1F
100
AcDbEntity
  8
1
  6
Continuous
 62
     7
100
AcDbLine
 10
144.873890671466
 20
12.29999999999998
 30
0.0
 11
144.873890671466
 21
19.5
 31
0.0
  0
LINE
  5
113
330
1F
100
AcDbEntity
  8
1
  6
Continuous
 62
     7
100
AcDbLine
 10
144.873890671466
 20
12.29999999999998
 30
0.0
 11
147.373890671466
 21
11.79999999999998
 31
0.0
  0
LINE
  5
114
330
1F
100
AcDbEntity
  8
1
  6
Continuous
 62
     7
100
AcDbLine
 10
144.873890671466
 20
-12.70000000000002
 30
0.0
 11
144.873890671466
 21
-18.30000000000001
 31
0.0
  0
LINE
  5
115
330
1F
100
AcDbEntity
  8
1
  6
Continuous
 62
     7
100
AcDbLine
 10
145.9784450554634
 20
-12.7966359868476
 30
0.0
 11
144.873890671466
 21
-12.70000000000002
 31
0.0
  0
LINE
  5
116
330
1F
100
AcDbEntity
  8
1
  6
Continuous
 62
     7
100
AcDbLine
 10
144.873890671466
 20
-18.30000000000001
 30
0.0
 11
145.9784450554634
 21
-18.20336401315242
 31
0.0
  0
LINE
  5
117
330
1F
100
AcDbEntity
  8
1
  6
DASH_CENTER
 62
     3
100
AcDbLine
 10
143.373890671466
 20
-15.5
 30
0.0
 11
148.773890671466
 21
-15.5
 31
0.0
  0
LINE
  5
118
330
1F
100
AcDbEntity
  8
1
  6
Continuous
 62
     7
100
AcDbLine
 10
147.373890671466
 20
-11.80000000000001
 30
0.0
 11
144.873890671466
 21
-12.30000000000001
 31
0.0
  0
LINE
  5
119
330
1F
100
AcDbEntity
  8
1
  6
Continuous
 62
     7
100
AcDbLine
 10
144.873890671466
 20
-19.5
 30
0.0
 11
144.873890671466
 21
-12.30000000000001
 31
0.0
  0
LINE
  5
11A
330
1F
100
AcDbEntity
  8
1
  6
DASH_CENTER
 62
     3
100
AcDbLine
 10
106.3729456958535
 20
0.0
 30
0.0
 11
160.7907987091409
 21
0.0
 31
0.0
  0
LINE
  5
11B
330
1F
100
AcDbEntity
  8
1
  6
Continuous
 62
     7
100
AcDbLine
 10
107.873890671466
 20
-2.0
 30
0.0
 11
108.373890671466
 21
-2.5
 31
0.0
  0
LINE
  5
11C
330
1F
100
AcDbEntity
  8
1
  6
Continuous
 62
     3
100
AcDbLine
 10
241.673890671466
 20
-15.5
 30
0.0
 11
241.673890671466
 21
-19.5
 31
0.0
  0
LINE
  5
11D
330
1F
100
AcDbEntity
  8
1
  6
Continuous
 62
     3
100
AcDbLine
 10
214.373890671466
 20
-11.80000000000001
 30
0.0
 11
210.373890671466
 21
-11.80000000000001
 31
0.0
  0
LINE
  5
11E
330
1F
100
AcDbEntity
  8
1
  6
Continuous
 62
     3
100
AcDbLine
 10
218.073890671466
 20
15.5
 30
0.0
 11
218.073890671466
 21
19.5
 31
0.0
  0
LINE
  5
11F
330
1F
100
AcDbEntity
  8
1
  6
Continuous
 62
     7
100
AcDbLine
 10
242.173890671466
 20
-15.5
 30
0.0
 11
242.173890671466
 21
-19.5
 31
0.0
  0
LINE
  5
120
330
1F
100
AcDbEntity
  8
1
  6
Continuous
 62
     7
100
AcDbLine
 10
214.373890671466
 20
-12.30000000000001
 30
0.0
 11
210.373890671466
 21
-12.30000000000001
 31
0.0
  0
LINE
  5
121
330
1F
100
AcDbEntity
  8
1
  6
Continuous
 62
     7
100
AcDbLine
 10
217.573890671466
 20
15.5
 30
0.0
 11
217.573890671466
 21
19.5
 31
0.0
  0
LINE
  5
122
330
1F
100
AcDbEntity
  8
1
  6
Continuous
 62
     3
100
AcDbLine
 10
249.373890671466
 20
-11.80000000000001
 30
0.0
 11
245.373890671466
 21
-11.80000000000001
 31
0.0
  0
LINE
  5
123
330
1F
100
AcDbEntity
  8
1
  6
Continuous
 62
     3
100
AcDbLine
 10
218.073890671466
 20
-19.5
 30
0.0
 11
218.073890671466
 21
-15.5
 31
0.0
  0
LINE
  5
124
330
1F
100
AcDbEntity
  8
1
  6
Continuous
 62
     3
100
AcDbLine
 10
210.373890671466
 20
11.79999999999998
 30
0.0
 11
214.373890671466
 21
11.79999999999998
 31
0.0
  0
LINE
  5
125
330
1F
100
AcDbEntity
  8
1
  6
Continuous
 62
     7
100
AcDbLine
 10
245.373890671466
 20
-12.30000000000001
 30
0.0
 11
249.373890671466
 21
-12.30000000000001
 31
0.0
  0
LINE
  5
126
330
1F
100
AcDbEntity
  8
1
  6
Continuous
 62
     7
100
AcDbLine
 10
217.573890671466
 20
-15.5
 30
0.0
 11
217.573890671466
 21
-19.5
 31
0.0
  0
LINE
  5
127
330
1F
100
AcDbEntity
  8
1
  6
Continuous
 62
     7
100
AcDbLine
 10
214.373890671466
 20
12.29999999999998
 30
0.0
 11
210.373890671466
 21
12.29999999999998
 31
0.0
  0
LINE
  5
128
330
1F
100
AcDbEntity
  8
1
  6
Continuous
 62
     7
100
AcDbLine
 10
242.173890671466
 20
15.5
 30
0.0
 11
242.173890671466
 21
19.5
 31
0.0
  0
LINE
  5
129
330
1F
100
AcDbEntity
  8
1
  6
Continuous
 62
     3
100
AcDbLine
 10
245.373890671466
 20
11.79999999999998
 30
0.0
 11
249.373890671466
 21
11.79999999999998
 31
0.0
  0
LINE
  5
12A
330
1F
100
AcDbEntity
  8
1
  6
Continuous
 62
     7
100
AcDbLine
 10
245.373890671466
 20
12.29999999999998
 30
0.0
 11
249.373890671466
 21
12.29999999999998
 31
0.0
  0
LINE
  5
12B
330
1F
100
AcDbEntity
  8
1
  6
Continuous
 62
     3
100
AcDbLine
 10
241.673890671466
 20
19.5
 30
0.0
 11
241.673890671466
 21
15.5
 31
0.0
  0
LINE
  5
12C
330
1F
100
AcDbEntity
  8
1
  6
Continuous
 62
     7
100
AcDbLine
 10
215.8267145223109
 20
15.87323298141428
 30
0.0
 11
215.0641000216694
 21
15.88654446703819
 31
0.0
  0
LINE
  5
12D
330
1F
100
AcDbEntity
  8
1
  6
Continuous
 62
     7
100
AcDbLine
 10
215.0641000216694
 20
15.88654446703819
 30
0.0
 11
214.8539845664116
 21
15.98009389494558
 31
0.0
  0
LINE
  5
12E
330
1F
100
AcDbEntity
  8
1
  6
Continuous
 62
     7
100
AcDbLine
 10
214.7604351385042
 20
16.1902093502035
 30
0.0
 11
214.7471236528803
 21
16.95282385084488
 31
0.0
  0
LINE
  5
12F
330
1F
100
AcDbEntity
  8
1
  6
Continuous
 62
     7
100
AcDbLine
 10
214.8539845664116
 20
15.98009389494558
 30
0.0
 11
214.7604351385042
 21
16.1902093502035
 31
0.0
  0
LINE
  5
130
330
1F
100
AcDbEntity
  8
1
  6
Continuous
 62
     7
100
AcDbLine
 10
214.0006576900517
 20
16.95282385084488
 30
0.0
 11
213.9873462044278
 21
16.1902093502035
 31
0.0
  0
LINE
  5
131
330
1F
100
AcDbEntity
  8
1
  6
Continuous
 62
     7
100
AcDbLine
 10
213.9873462044278
 20
16.1902093502035
 30
0.0
 11
213.8937967765204
 21
15.98009389494558
 31
0.0
  0
LINE
  5
132
330
1F
100
AcDbEntity
  8
1
  6
Continuous
 62
     7
100
AcDbLine
 10
213.6836813212626
 20
15.88654446703819
 30
0.0
 11
212.9210668206211
 21
15.87323298141428
 31
0.0
  0
LINE
  5
133
330
1F
100
AcDbEntity
  8
1
  6
Continuous
 62
     7
100
AcDbLine
 10
213.8937967765204
 20
15.98009389494558
 30
0.0
 11
213.6836813212626
 21
15.88654446703819
 31
0.0
  0
LINE
  5
134
330
1F
100
AcDbEntity
  8
1
  6
Continuous
 62
     7
100
AcDbLine
 10
212.9210668206211
 20
15.1267670185857
 30
0.0
 11
213.6836813212626
 21
15.11345553296178
 31
0.0
  0
LINE
  5
135
330
1F
100
AcDbEntity
  8
1
  6
Continuous
 62
     7
100
AcDbLine
 10
213.6836813212626
 20
15.11345553296178
 30
0.0
 11
213.8937967765204
 21
15.01990610505439
 31
0.0
  0
LINE
  5
136
330
1F
100
AcDbEntity
  8
1
  6
Continuous
 62
     7
100
AcDbLine
 10
213.9873462044278
 20
14.80979064979658
 30
0.0
 11
214.0006576900517
 21
14.04717614915509
 31
0.0
  0
LINE
  5
137
330
1F
100
AcDbEntity
  8
1
  6
Continuous
 62
     7
100
AcDbLine
 10
213.8937967765204
 20
15.01990610505439
 30
0.0
 11
213.9873462044278
 21
14.80979064979658
 31
0.0
  0
LINE
  5
138
330
1F
100
AcDbEntity
  8
1
  6
Continuous
 62
     7
100
AcDbLine
 10
214.7471236528803
 20
14.04717614915509
 30
0.0
 11
214.7604351385042
 21
14.80979064979658
 31
0.0
  0
LINE
  5
139
330
1F
100
AcDbEntity
  8
1
  6
Continuous
 62
     7
100
AcDbLine
 10
214.7604351385042
 20
14.80979064979658
 30
0.0
 11
214.8539845664116
 21
15.01990610505439
 31
0.0
  0
LINE
  5
13A
330
1F
100
AcDbEntity
  8
1
  6
Continuous
 62
     7
100
AcDbLine
 10
215.0641000216694
 20
15.11345553296178
 30
0.0
 11
215.8267145223109
 21
15.1267670185857
 31
0.0
  0
LINE
  5
13B
330
1F
100
AcDbEntity
  8
1
  6
Continuous
 62
     7
100
AcDbLine
 10
214.8539845664116
 20
15.01990610505439
 30
0.0
 11
215.0641000216694
 21
15.11345553296178
 31
0.0
  0
LINE
  5
13C
330
1F
100
AcDbEntity
  8
1
  6
Continuous
 62
     7
100
AcDbLine
 10
246.8267145223109
 20
-15.12676701858572
 30
0.0
 11
246.0641000216694
 21
-15.11345553296181
 31
0.0
  0
LINE
  5
13D
330
1F
100
AcDbEntity
  8
1
  6
Continuous
 62
     7
100
AcDbLine
 10
246.0641000216694
 20
-15.11345553296181
 30
0.0
 11
245.8539845664116
 21
-15.01990610505442
 31
0.0
  0
LINE
  5
13E
330
1F
100
AcDbEntity
  8
1
  6
Continuous
 62
     7
100
AcDbLine
 10
245.7604351385042
 20
-14.8097906497965
 30
0.0
 11
245.7471236528803
 21
-14.04717614915501
 31
0.0
  0
LINE
  5
13F
330
1F
100
AcDbEntity
  8
1
  6
Continuous
 62
     7
100
AcDbLine
 10
245.8539845664116
 20
-15.01990610505442
 30
0.0
 11
245.7604351385042
 21
-14.8097906497965
 31
0.0
  0
LINE
  5
140
330
1F
100
AcDbEntity
  8
1
  6
Continuous
 62
     7
100
AcDbLine
 10
245.0006576900517
 20
-14.04717614915501
 30
0.0
 11
244.9873462044278
 21
-14.8097906497965
 31
0.0
  0
LINE
  5
141
330
1F
100
AcDbEntity
  8
1
  6
Continuous
 62
     7
100
AcDbLine
 10
244.9873462044278
 20
-14.8097906497965
 30
0.0
 11
244.8937967765204
 21
-15.0199061050543
 31
0.0
  0
LINE
  5
142
330
1F
100
AcDbEntity
  8
1
  6
Continuous
 62
     7
100
AcDbLine
 10
244.6836813212625
 20
-15.11345553296181
 30
0.0
 11
243.921066820621
 21
-15.12676701858572
 31
0.0
  0
LINE
  5
143
330
1F
100
AcDbEntity
  8
1
  6
Continuous
 62
     7
100
AcDbLine
 10
244.8937967765204
 20
-15.0199061050543
 30
0.0
 11
244.6836813212625
 21
-15.11345553296181
 31
0.0
  0
LINE
  5
144
330
1F
100
AcDbEntity
  8
1
  6
Continuous
 62
     7
100
AcDbLine
 10
243.921066820621
 20
-15.8732329814143
 30
0.0
 11
244.6836813212625
 21
-15.88654446703822
 31
0.0
  0
LINE
  5
145
330
1F
100
AcDbEntity
  8
1
  6
Continuous
 62
     7
100
AcDbLine
 10
244.6836813212625
 20
-15.88654446703822
 30
0.0
 11
244.8937967765204
 21
-15.98009389494561
 31
0.0
  0
LINE
  5
146
330
1F
100
AcDbEntity
  8
1
  6
Continuous
 62
     7
100
AcDbLine
 10
244.9873462044278
 20
-16.19020935020342
 30
0.0
 11
245.0006576900517
 21
-16.95282385084491
 31
0.0
  0
LINE
  5
147
330
1F
100
AcDbEntity
  8
1
  6
Continuous
 62
     7
100
AcDbLine
 10
244.8937967765204
 20
-15.98009389494561
 30
0.0
 11
244.9873462044278
 21
-16.19020935020342
 31
0.0
  0
LINE
  5
148
330
1F
100
AcDbEntity
  8
1
  6
Continuous
 62
     7
100
AcDbLine
 10
245.7471236528803
 20
-16.95282385084502
 30
0.0
 11
245.7604351385042
 21
-16.19020935020342
 31
0.0
  0
LINE
  5
149
330
1F
100
AcDbEntity
  8
1
  6
Continuous
 62
     7
100
AcDbLine
 10
245.7604351385042
 20
-16.19020935020342
 30
0.0
 11
245.8539845664116
 21
-15.98009389494561
 31
0.0
  0
LINE
  5
14A
330
1F
100
AcDbEntity
  8
1
  6
Continuous
 62
     7
100
AcDbLine
 10
246.0641000216694
 20
-15.88654446703822
 30
0.0
 11
246.8267145223109
 21
-15.8732329814143
 31
0.0
  0
LINE
  5
14B
330
1F
100
AcDbEntity
  8
1
  6
Continuous
 62
     7
100
AcDbLine
 10
245.8539845664116
 20
-15.98009389494561
 30
0.0
 11
246.0641000216694
 21
-15.88654446703822
 31
0.0
  0
LINE
  5
14C
330
1F
100
AcDbEntity
  8
1
  6
Continuous
 62
     7
100
AcDbLine
 10
230.961874744165
 20
-41.32377870427692
 30
0.0
 11
231.215562852726
 21
-41.32377870427692
 31
0.0
  0
LINE
  5
14D
330
1F
100
AcDbEntity
  8
1
  6
Continuous
 62
     3
100
AcDbLine
 10
230.961874744165
 20
-43.32815591168432
 30
0.0
 11
230.961874744165
 21
-41.32377870427692
 31
0.0
  0
LINE
  5
14E
330
1F
100
AcDbEntity
  8
1
  6
Continuous
 62
     3
100
AcDbLine
 10
231.215562852726
 20
-43.32815591168432
 30
0.0
 11
230.961874744165
 21
-43.32815591168432
 31
0.0
  0
LINE
  5
14F
330
1F
100
AcDbEntity
  8
1
  6
Continuous
 62
     3
100
AcDbLine
 10
231.215562852726
 20
-41.32377870427692
 30
0.0
 11
231.215562852726
 21
-43.32815591168432
 31
0.0
  0
LINE
  5
150
330
1F
100
AcDbEntity
  8
1
  6
Continuous
 62
     7
100
AcDbLine
 10
230.1227525389259
 20
-41.32377870427692
 30
0.0
 11
230.395955117376
 21
-41.32377870427692
 31
0.0
  0
LINE
  5
151
330
1F
100
AcDbEntity
  8
1
  6
Continuous
 62
     3
100
AcDbLine
 10
230.1227525389259
 20
-43.32815591168432
 30
0.0
 11
230.1227525389259
 21
-41.32377870427692
 31
0.0
  0
LINE
  5
152
330
1F
100
AcDbEntity
  8
1
  6
Continuous
 62
     3
100
AcDbLine
 10
230.395955117376
 20
-43.32815591168432
 30
0.0
 11
230.1227525389259
 21
-43.32815591168432
 31
0.0
  0
LINE
  5
153
330
1F
100
AcDbEntity
  8
1
  6
Continuous
 62
     3
100
AcDbLine
 10
230.395955117376
 20
-41.32377870427692
 30
0.0
 11
230.395955117376
 21
-43.32815591168432
 31
0.0
  0
LINE
  5
154
330
1F
100
AcDbEntity
  8
1
  6
Continuous
 62
     7
100
AcDbLine
 10
229.342173743354
 20
-41.32377870427692
 30
0.0
 11
229.6153763218041
 21
-41.32377870427692
 31
0.0
  0
LINE
  5
155
330
1F
100
AcDbEntity
  8
1
  6
Continuous
 62
     3
100
AcDbLine
 10
229.342173743354
 20
-43.32815591168432
 30
0.0
 11
229.342173743354
 21
-41.32377870427692
 31
0.0
  0
LINE
  5
156
330
1F
100
AcDbEntity
  8
1
  6
Continuous
 62
     3
100
AcDbLine
 10
229.6153763218041
 20
-43.32815591168432
 30
0.0
 11
229.342173743354
 21
-43.32815591168432
 31
0.0
  0
LINE
  5
157
330
1F
100
AcDbEntity
  8
1
  6
Continuous
 62
     3
100
AcDbLine
 10
229.6153763218041
 20
-41.32377870427692
 30
0.0
 11
229.6153763218041
 21
-43.32815591168432
 31
0.0
  0
LINE
  5
158
330
1F
100
AcDbEntity
  8
1
  6
Continuous
 62
     7
100
AcDbLine
 10
228.521952345429
 20
-41.32377870427692
 30
0.0
 11
228.791595680943
 21
-41.32377870427692
 31
0.0
  0
LINE
  5
159
330
1F
100
AcDbEntity
  8
1
  6
Continuous
 62
     3
100
AcDbLine
 10
228.521952345429
 20
-43.32815591168432
 30
0.0
 11
228.521952345429
 21
-41.32377870427692
 31
0.0
  0
LINE
  5
15A
330
1F
100
AcDbEntity
  8
1
  6
Continuous
 62
     3
100
AcDbLine
 10
228.791595680943
 20
-43.32815591168432
 30
0.0
 11
228.521952345429
 21
-43.32815591168432
 31
0.0
  0
LINE
  5
15B
330
1F
100
AcDbEntity
  8
1
  6
Continuous
 62
     3
100
AcDbLine
 10
228.791595680943
 20
-41.32377870427692
 30
0.0
 11
228.791595680943
 21
-43.32815591168432
 31
0.0
  0
LINE
  5
15C
330
1F
100
AcDbEntity
  8
1
  6
Continuous
 62
     3
100
AcDbLine
 10
228.273890671466
 20
-41.32377870427692
 30
0.0
 11
231.473890671466
 21
-41.32377870427692
 31
0.0
  0
LINE
  5
15D
330
1F
100
AcDbEntity
  8
1
  6
Continuous
 62
     3
100
AcDbLine
 10
231.473890671466
 20
-32.01067446169301
 30
0.0
 11
231.473890671466
 21
-41.32377870427692
 31
0.0
  0
LINE
  5
15E
330
1F
100
AcDbEntity
  8
1
  6
Continuous
 62
     3
100
AcDbLine
 10
230.673890671466
 20
-31.34716432777
 30
0.0
 11
230.673890671466
 21
-41.32377870427692
 31
0.0
  0
LINE
  5
15F
330
1F
100
AcDbEntity
  8
1
  6
Continuous
 62
     3
100
AcDbLine
 10
229.873890671466
 20
-31.39455790876451
 30
0.0
 11
229.873890671466
 21
-41.32377870427692
 31
0.0
  0
LINE
  5
160
330
1F
100
AcDbEntity
  8
1
  6
Continuous
 62
     3
100
AcDbLine
 10
229.073890671466
 20
-31.4893450707535
 30
0.0
 11
229.073890671466
 21
-41.32377870427692
 31
0.0
  0
LINE
  5
161
330
1F
100
AcDbEntity
  8
1
  6
Continuous
 62
     3
100
AcDbLine
 10
228.273890671466
 20
-31.4286077601852
 30
0.0
 11
228.273890671466
 21
-41.32377870427692
 31
0.0
  0
LINE
  5
162
330
1F
100
AcDbEntity
  8
1
  6
Continuous
 62
     3
100
AcDbLine
 10
231.473890671466
 20
-19.5
 30
0.0
 11
231.473890671466
 21
-31.51067446169301
 31
0.0
  0
LINE
  5
163
330
1F
100
AcDbEntity
  8
1
  6
Continuous
 62
     3
100
AcDbLine
 10
230.673890671466
 20
-19.5
 30
0.0
 11
230.673890671466
 21
-30.84716432777
 31
0.0
  0
LINE
  5
164
330
1F
100
AcDbEntity
  8
1
  6
Continuous
 62
     3
100
AcDbLine
 10
229.873890671466
 20
-19.5
 30
0.0
 11
229.873890671466
 21
-30.89455790876451
 31
0.0
  0
LINE
  5
165
330
1F
100
AcDbEntity
  8
1
  6
Continuous
 62
     3
100
AcDbLine
 10
229.073890671466
 20
-19.5
 30
0.0
 11
229.073890671466
 21
-30.9893450707535
 31
0.0
  0
LINE
  5
166
330
1F
100
AcDbEntity
  8
1
  6
Continuous
 62
     3
100
AcDbLine
 10
228.273890671466
 20
-19.5
 30
0.0
 11
228.273890671466
 21
-30.92860776022391
 31
0.0
  0
LINE
  5
167
330
1F
100
AcDbEntity
  8
1
  6
DASH_CENTER
 62
     3
100
AcDbLine
 10
207.059131216126
 20
0.0
 30
0.0
 11
253.1467346927439
 21
0.0
 31
0.0
  0
LINE
  5
168
330
1F
100
AcDbEntity
  8
1
  6
Continuous
 62
     7
100
AcDbLine
 10
210.373890671466
 20
17.1973835219199
 30
0.0
 11
210.373890671466
 21
-17.19738352191982
 31
0.0
  0
LINE
  5
169
330
1F
100
AcDbEntity
  8
1
  6
Continuous
 62
     7
100
AcDbLine
 10
249.373890671466
 20
17.1973835219199
 30
0.0
 11
249.373890671466
 21
-17.19738352191982
 31
0.0
  0
LINE
  5
16A
330
1F
100
AcDbEntity
  8
1
  6
Continuous
 62
     7
100
AcDbLine
 10
212.6765071495462
 20
-19.5
 30
0.0
 11
247.0712741933858
 21
-19.5
 31
0.0
  0
LINE
  5
16B
330
1F
100
AcDbEntity
  8
1
  6
Continuous
 62
     7
100
AcDbLine
 10
212.6765071495462
 20
19.5
 30
0.0
 11
247.0712741933858
 21
19.5
 31
0.0
  0
LINE
  5
16C
330
1F
100
AcDbEntity
  8
1
  6
Continuous
 62
     7
100
AcDbLine
 10
144.8618747441651
 20
-41.32377870427692
 30
0.0
 11
145.115562852726
 21
-41.32377870427692
 31
0.0
  0
LINE
  5
16D
330
1F
100
AcDbEntity
  8
1
  6
Continuous
 62
     3
100
AcDbLine
 10
144.8618747441651
 20
-43.32815591168432
 30
0.0
 11
144.8618747441651
 21
-41.32377870427692
 31
0.0
  0
LINE
  5
16E
330
1F
100
AcDbEntity
  8
1
  6
Continuous
 62
     3
100
AcDbLine
 10
145.115562852726
 20
-43.32815591168432
 30
0.0
 11
144.8618747441651
 21
-43.32815591168432
 31
0.0
  0
LINE
  5
16F
330
1F
100
AcDbEntity
  8
1
  6
Continuous
 62
     3
100
AcDbLine
 10
145.115562852726
 20
-41.32377870427692
 30
0.0
 11
145.115562852726
 21
-43.32815591168432
 31
0.0
  0
LINE
  5
170
330
1F
100
AcDbEntity
  8
1
  6
Continuous
 62
     7
100
AcDbLine
 10
144.022752538926
 20
-41.32377870427692
 30
0.0
 11
144.295955117376
 21
-41.32377870427692
 31
0.0
  0
LINE
  5
171
330
1F
100
AcDbEntity
  8
1
  6
Continuous
 62
     3
100
AcDbLine
 10
144.022752538926
 20
-43.32815591168432
 30
0.0
 11
144.022752538926
 21
-41.32377870427692
 31
0.0
  0
LINE
  5
172
330
1F
100
AcDbEntity
  8
1
  6
Continuous
 62
     3
100
AcDbLine
 10
144.295955117376
 20
-43.32815591168432
 30
0.0
 11
144.022752538926
 21
-43.32815591168432
 31
0.0
  0
LINE
  5
173
330
1F
100
AcDbEntity
  8
1
  6
Continuous
 62
     3
100
AcDbLine
 10
144.295955117376
 20
-41.32377870427692
 30
0.0
 11
144.295955117376
 21
-43.32815591168432
 31
0.0
  0
LINE
  5
174
330
1F
100
AcDbEntity
  8
1
  6
Continuous
 62
     7
100
AcDbLine
 10
143.2421737433541
 20
-41.32377870427692
 30
0.0
 11
143.515376321804
 21
-41.32377870427692
 31
0.0
  0
LINE
  5
175
330
1F
100
AcDbEntity
  8
1
  6
Continuous
 62
     3
100
AcDbLine
 10
143.2421737433541
 20
-43.32815591168432
 30
0.0
 11
143.2421737433541
 21
-41.32377870427692
 31
0.0
  0
LINE
  5
176
330
1F
100
AcDbEntity
  8
1
  6
Continuous
 62
     3
100
AcDbLine
 10
143.515376321804
 20
-43.32815591168432
 30
0.0
 11
143.2421737433541
 21
-43.32815591168432
 31
0.0
  0
LINE
  5
177
330
1F
100
AcDbEntity
  8
1
  6
Continuous
 62
     3
100
AcDbLine
 10
143.515376321804
 20
-41.32377870427692
 30
0.0
 11
143.515376321804
 21
-43.32815591168432
 31
0.0
  0
LINE
  5
178
330
1F
100
AcDbEntity
  8
1
  6
Continuous
 62
     7
100
AcDbLine
 10
142.421952345429
 20
-41.32377870427692
 30
0.0
 11
142.691595680943
 21
-41.32377870427692
 31
0.0
  0
LINE
  5
179
330
1F
100
AcDbEntity
  8
1
  6
Continuous
 62
     3
100
AcDbLine
 10
142.421952345429
 20
-43.32815591168432
 30
0.0
 11
142.421952345429
 21
-41.32377870427692
 31
0.0
  0
LINE
  5
17A
330
1F
100
AcDbEntity
  8
1
  6
Continuous
 62
     3
100
AcDbLine
 10
142.691595680943
 20
-43.32815591168432
 30
0.0
 11
142.421952345429
 21
-43.32815591168432
 31
0.0
  0
LINE
  5
17B
330
1F
100
AcDbEntity
  8
1
  6
Continuous
 62
     3
100
AcDbLine
 10
142.691595680943
 20
-41.32377870427692
 30
0.0
 11
142.691595680943
 21
-43.32815591168432
 31
0.0
  0
LINE
  5
17C
330
1F
100
AcDbEntity
  8
1
  6
Continuous
 62
     3
100
AcDbLine
 10
142.173890671466
 20
-41.32377870427692
 30
0.0
 11
145.373890671466
 21
-41.32377870427692
 31
0.0
  0
LINE
  5
17D
330
1F
100
AcDbEntity
  8
1
  6
Continuous
 62
     3
100
AcDbLine
 10
145.373890671466
 20
-32.01067446169301
 30
0.0
 11
145.373890671466
 21
-41.32377870427692
 31
0.0
  0
LINE
  5
17E
330
1F
100
AcDbEntity
  8
1
  6
Continuous
 62
     3
100
AcDbLine
 10
144.573890671466
 20
-31.34716432777
 30
0.0
 11
144.573890671466
 21
-41.32377870427692
 31
0.0
  0
LINE
  5
17F
330
1F
100
AcDbEntity
  8
1
  6
Continuous
 62
     3
100
AcDbLine
 10
143.773890671466
 20
-31.39455790876451
 30
0.0
 11
143.773890671466
 21
-41.32377870427692
 31
0.0
  0
LINE
  5
180
330
1F
100
AcDbEntity
  8
1
  6
Continuous
 62
     3
100
AcDbLine
 10
142.973890671466
 20
-31.4893450707535
 30
0.0
 11
142.973890671466
 21
-41.32377870427692
 31
0.0
  0
LINE
  5
181
330
1F
100
AcDbEntity
  8
1
  6
Continuous
 62
     3
100
AcDbLine
 10
142.173890671466
 20
-31.4286077601852
 30
0.0
 11
142.173890671466
 21
-41.32377870427692
 31
0.0
  0
LINE
  5
182
330
1F
100
AcDbEntity
  8
1
  6
Continuous
 62
     3
100
AcDbLine
 10
145.373890671466
 20
-19.5
 30
0.0
 11
145.373890671466
 21
-31.51067446169301
 31
0.0
  0
LINE
  5
183
330
1F
100
AcDbEntity
  8
1
  6
Continuous
 62
     3
100
AcDbLine
 10
144.573890671466
 20
-19.5
 30
0.0
 11
144.573890671466
 21
-30.84716432777
 31
0.0
  0
LINE
  5
184
330
1F
100
AcDbEntity
  8
1
  6
Continuous
 62
     3
100
AcDbLine
 10
143.773890671466
 20
-19.5
 30
0.0
 11
143.773890671466
 21
-30.89455790876451
 31
0.0
  0
LINE
  5
185
330
1F
100
AcDbEntity
  8
1
  6
Continuous
 62
     3
100
AcDbLine
 10
142.973890671466
 20
-19.5
 30
0.0
 11
142.973890671466
 21
-30.9893450707535
 31
0.0
  0
LINE
  5
186
330
1F
100
AcDbEntity
  8
1
  6
Continuous
 62
     3
100
AcDbLine
 10
142.173890671466
 20
-19.5
 30
0.0
 11
142.173890671466
 21
-30.92860776022391
 31
0.0
  0
LINE
  5
187
330
1F
100
AcDbEntity
  8
1
  6
Continuous
 62
     7
100
AcDbLine
 10
1.087984072699
 20
-41.32377870427692
 30
0.0
 11
1.34167218125999
 21
-41.32377870427692
 31
0.0
  0
LINE
  5
188
330
1F
100
AcDbEntity
  8
1
  6
Continuous
 62
     3
100
AcDbLine
 10
1.087984072699
 20
-43.32815591168432
 30
0.0
 11
1.087984072699
 21
-41.32377870427692
 31
0.0
  0
LINE
  5
189
330
1F
100
AcDbEntity
  8
1
  6
Continuous
 62
     3
100
AcDbLine
 10
1.34167218125999
 20
-43.32815591168432
 30
0.0
 11
1.087984072699
 21
-43.32815591168432
 31
0.0
  0
LINE
  5
18A
330
1F
100
AcDbEntity
  8
1
  6
Continuous
 62
     3
100
AcDbLine
 10
1.34167218125999
 20
-41.32377870427692
 30
0.0
 11
1.34167218125999
 21
-43.32815591168432
 31
0.0
  0
LINE
  5
18B
330
1F
100
AcDbEntity
  8
1
  6
Continuous
 62
     7
100
AcDbLine
 10
0.24886186745999
 20
-41.32377870427692
 30
0.0
 11
0.52206444591
 21
-41.32377870427692
 31
0.0
  0
LINE
  5
18C
330
1F
100
AcDbEntity
  8
1
  6
Continuous
 62
     3
100
AcDbLine
 10
0.24886186745999
 20
-43.32815591168432
 30
0.0
 11
0.24886186745999
 21
-41.32377870427692
 31
0.0
  0
LINE
  5
18D
330
1F
100
AcDbEntity
  8
1
  6
Continuous
 62
     3
100
AcDbLine
 10
0.52206444591
 20
-43.32815591168432
 30
0.0
 11
0.24886186745999
 21
-43.32815591168432
 31
0.0
  0
LINE
  5
18E
330
1F
100
AcDbEntity
  8
1
  6
Continuous
 62
     3
100
AcDbLine
 10
0.52206444591
 20
-41.32377870427692
 30
0.0
 11
0.52206444591
 21
-43.32815591168432
 31
0.0
  0
LINE
  5
18F
330
1F
100
AcDbEntity
  8
1
  6
Continuous
 62
     7
100
AcDbLine
 10
-0.531716928112
 20
-41.32377870427692
 30
0.0
 11
-0.25851434966199
 21
-41.32377870427692
 31
0.0
  0
LINE
  5
190
330
1F
100
AcDbEntity
  8
1
  6
Continuous
 62
     3
100
AcDbLine
 10
-0.531716928112
 20
-43.32815591168432
 30
0.0
 11
-0.531716928112
 21
-41.32377870427692
 31
0.0
  0
LINE
  5
191
330
1F
100
AcDbEntity
  8
1
  6
Continuous
 62
     3
100
AcDbLine
 10
-0.25851434966199
 20
-43.32815591168432
 30
0.0
 11
-0.531716928112
 21
-43.32815591168432
 31
0.0
  0
LINE
  5
192
330
1F
100
AcDbEntity
  8
1
  6
Continuous
 62
     3
100
AcDbLine
 10
-0.25851434966199
 20
-41.32377870427692
 30
0.0
 11
-0.25851434966199
 21
-43.32815591168432
 31
0.0
  0
LINE
  5
193
330
1F
100
AcDbEntity
  8
1
  6
Continuous
 62
     7
100
AcDbLine
 10
-1.351938326037
 20
-41.32377870427692
 30
0.0
 11
-1.082294990523
 21
-41.32377870427692
 31
0.0
  0
LINE
  5
194
330
1F
100
AcDbEntity
  8
1
  6
Continuous
 62
     3
100
AcDbLine
 10
-1.351938326037
 20
-43.32815591168432
 30
0.0
 11
-1.351938326037
 21
-41.32377870427692
 31
0.0
  0
LINE
  5
195
330
1F
100
AcDbEntity
  8
1
  6
Continuous
 62
     3
100
AcDbLine
 10
-1.082294990523
 20
-43.32815591168432
 30
0.0
 11
-1.351938326037
 21
-43.32815591168432
 31
0.0
  0
LINE
  5
196
330
1F
100
AcDbEntity
  8
1
  6
Continuous
 62
     3
100
AcDbLine
 10
-1.082294990523
 20
-41.32377870427692
 30
0.0
 11
-1.082294990523
 21
-43.32815591168432
 31
0.0
  0
LINE
  5
197
330
1F
100
AcDbEntity
  8
1
  6
Continuous
 62
     3
100
AcDbLine
 10
-1.60000000000009
 20
-41.32377870427692
 30
0.0
 11
1.59999999999999
 21
-41.32377870427692
 31
0.0
  0
LINE
  5
198
330
1F
100
AcDbEntity
  8
1
  6
Continuous
 62
     3
100
AcDbLine
 10
1.59999999999999
 20
-32.01067446169301
 30
0.0
 11
1.59999999999999
 21
-41.32377870427692
 31
0.0
  0
LINE
  5
199
330
1F
100
AcDbEntity
  8
1
  6
Continuous
 62
     3
100
AcDbLine
 10
0.8
 20
-31.34716432777
 30
0.0
 11
0.8
 21
-41.32377870427692
 31
0.0
  0
LINE
  5
19A
330
1F
100
AcDbEntity
  8
1
  6
Continuous
 62
     3
100
AcDbLine
 10
0.0
 20
-31.39455790876451
 30
0.0
 11
0.0
 21
-41.32377870427692
 31
0.0
  0
LINE
  5
19B
330
1F
100
AcDbEntity
  8
1
  6
Continuous
 62
     3
100
AcDbLine
 10
-0.8
 20
-31.4893450707535
 30
0.0
 11
-0.8
 21
-41.32377870427692
 31
0.0
  0
LINE
  5
19C
330
1F
100
AcDbEntity
  8
1
  6
Continuous
 62
     3
100
AcDbLine
 10
-1.60000000000009
 20
-31.4286077601852
 30
0.0
 11
-1.60000000000009
 21
-41.32377870427692
 31
0.0
  0
LINE
  5
19D
330
1F
100
AcDbEntity
  8
1
  6
Continuous
 62
     3
100
AcDbLine
 10
1.59999999999999
 20
-19.5
 30
0.0
 11
1.59999999999999
 21
-31.51067446169301
 31
0.0
  0
LINE
  5
19E
330
1F
100
AcDbEntity
  8
1
  6
Continuous
 62
     3
100
AcDbLine
 10
0.8
 20
-19.5
 30
0.0
 11
0.8
 21
-30.84716432777
 31
0.0
  0
LINE
  5
19F
330
1F
100
AcDbEntity
  8
1
  6
Continuous
 62
     3
100
AcDbLine
 10
0.0
 20
-19.5
 30
0.0
 11
0.0
 21
-30.89455790876451
 31
0.0
  0
LINE
  5
1A0
330
1F
100
AcDbEntity
  8
1
  6
Continuous
 62
     3
100
AcDbLine
 10
-0.8
 20
-19.5
 30
0.0
 11
-0.8
 21
-30.9893450707535
 31
0.0
  0
LINE
  5
1A1
330
1F
100
AcDbEntity
  8
1
  6
Continuous
 62
     3
100
AcDbLine
 10
-1.60000000000009
 20
-19.5
 30
0.0
 11
-1.60000000000009
 21
-30.92860776022391
 31
0.0
  0
LINE
  5
1A2
330
1F
100
AcDbEntity
  8
1
  6
DASH_CENTER
 62
     3
100
AcDbLine
 10
15.5
 20
-12.75886243913402
 30
0.0
 11
15.5
 21
-18.21348446295301
 31
0.0
  0
LINE
  5
1A3
330
1F
100
AcDbEntity
  8
1
  6
DASH_CENTER
 62
     3
100
AcDbLine
 10
-12.75886243913399
 20
-15.5
 30
0.0
 11
-18.21348446295309
 21
-15.5
 31
0.0
  0
LINE
  5
1A4
330
1F
100
AcDbEntity
  8
1
  6
DASH_CENTER
 62
     3
100
AcDbLine
 10
-15.5
 20
12.75886243913399
 30
0.0
 11
-15.5
 21
18.21348446295298
 31
0.0
  0
LINE
  5
1A5
330
1F
100
AcDbEntity
  8
1
  6
DASH_CENTER
 62
     3
100
AcDbLine
 10
17.972584306019
 20
-15.5
 30
0.0
 11
13.0713297338915
 21
-15.5
 31
0.0
  0
LINE
  5
1A6
330
1F
100
AcDbEntity
  8
1
  6
DASH_CENTER
 62
     3
100
AcDbLine
 10
-15.5
 20
-17.972584306019
 30
0.0
 11
-15.5
 21
-13.0713297338915
 31
0.0
  0
LINE
  5
1A7
330
1F
100
AcDbEntity
  8
1
  6
DASH_CENTER
 62
     3
100
AcDbLine
 10
-17.97258430601909
 20
15.5
 30
0.0
 11
-13.0713297338915
 21
15.5
 31
0.0
  0
LINE
  5
1A8
330
1F
100
AcDbEntity
  8
1
  6
DASH_CENTER
 62
     3
100
AcDbLine
 10
15.5
 20
17.972584306019
 30
0.0
 11
15.5
 21
13.0713297338915
 31
0.0
  0
LINE
  5
1A9
330
1F
100
AcDbEntity
  8
1
  6
DASH_CENTER
 62
     3
100
AcDbLine
 10
12.75886243913401
 20
15.5
 30
0.0
 11
18.21348446295301
 21
15.5
 31
0.0
  0
LINE
  5
1AA
330
1F
100
AcDbEntity
  8
1
  6
DASH_CENTER
 62
     3
100
AcDbLine
 10
0.0
 20
23.0319438643441
 30
0.0
 11
0.0
 21
-23.13471210537261
 31
0.0
  0
LINE
  5
1AB
330
1F
100
AcDbEntity
  8
1
  6
Continuous
 62
     7
100
AcDbLine
 10
125.873890671466
 20
19.0
 30
0.0
 11
126.373890671466
 21
19.5
 31
0.0
  0
LINE
  5
1AC
330
1F
100
AcDbEntity
  8
1
  6
Continuous
 62
     7
100
AcDbLine
 10
126.373890671466
 20
-19.5
 30
0.0
 11
125.873890671466
 21
-19.0
 31
0.0
  0
LINE
  5
1AD
330
1F
100
AcDbEntity
  8
1
  6
Continuous
 62
     7
100
AcDbLine
 10
147.373890671466
 20
-19.0
 30
0.0
 11
146.873890671466
 21
-19.5
 31
0.0
  0
LINE
  5
1AE
330
1F
100
AcDbEntity
  8
1
  6
Continuous
 62
     7
100
AcDbLine
 10
146.873890671466
 20
19.5
 30
0.0
 11
147.373890671466
 21
19.0
 31
0.0
  0
LINE
  5
1AF
330
1F
100
AcDbEntity
  8
1
  6
Continuous
 62
     7
100
AcDbLine
 10
134.273890671466
 20
-15.33239697419131
 30
0.0
 11
137.673890671466
 21
-15.33239697419131
 31
0.0
  0
LINE
  5
1B0
330
1F
100
AcDbEntity
  8
1
  6
Continuous
 62
     7
100
AcDbLine
 10
134.273890671466
 20
15.33239697419128
 30
0.0
 11
137.673890671466
 21
15.33239697419128
 31
0.0
  0
LINE
  5
1B1
330
1F
100
AcDbEntity
  8
1
  6
Continuous
 62
     7
100
AcDbLine
 10
137.673890671466
 20
-15.33239697419131
 30
0.0
 11
138.173890671466
 21
-14.83239697419131
 31
0.0
  0
LINE
  5
1B2
330
1F
100
AcDbEntity
  8
1
  6
Continuous
 62
     7
100
AcDbLine
 10
134.273890671466
 20
-15.33239697419131
 30
0.0
 11
133.773890671466
 21
-14.83239697419131
 31
0.0
  0
LINE
  5
1B3
330
1F
100
AcDbEntity
  8
1
  6
Continuous
 62
     7
100
AcDbLine
 10
137.673890671466
 20
15.33239697419128
 30
0.0
 11
138.173890671466
 21
14.83239697419128
 31
0.0
  0
LINE
  5
1B4
330
1F
100
AcDbEntity
  8
1
  6
Continuous
 62
     7
100
AcDbLine
 10
134.273890671466
 20
15.33239697419128
 30
0.0
 11
133.773890671466
 21
14.83239697419128
 31
0.0
  0
LINE
  5
1B5
330
1F
100
AcDbEntity
  8
1
  6
Continuous
 62
     7
100
AcDbLine
 10
137.673890671466
 20
-17.19738352191982
 30
0.0
 11
144.873890671466
 21
-17.19738352191982
 31
0.0
  0
LINE
  5
1B6
330
1F
100
AcDbEntity
  8
1
  6
Continuous
 62
     7
100
AcDbLine
 10
125.873890671466
 20
-17.19738352191982
 30
0.0
 11
134.273890671466
 21
-17.19738352191982
 31
0.0
  0
LINE
  5
1B7
330
1F
100
AcDbEntity
  8
1
  6
Continuous
 62
     7
100
AcDbLine
 10
147.373890671466
 20
-19.0
 30
0.0
 11
147.373890671466
 21
19.0
 31
0.0
  0
LINE
  5
1B8
330
1F
100
AcDbEntity
  8
1
  6
Continuous
 62
     7
100
AcDbLine
 10
137.673890671466
 20
17.1973835219199
 30
0.0
 11
144.873890671466
 21
17.1973835219199
 31
0.0
  0
LINE
  5
1B9
330
1F
100
AcDbEntity
  8
1
  6
Continuous
 62
     7
100
AcDbLine
 10
125.873890671466
 20
17.1973835219199
 30
0.0
 11
134.273890671466
 21
17.1973835219199
 31
0.0
  0
LINE
  5
1BA
330
1F
100
AcDbEntity
  8
1
  6
Continuous
 62
     7
100
AcDbLine
 10
137.673890671466
 20
15.33239697419128
 30
0.0
 11
137.673890671466
 21
19.5
 31
0.0
  0
LINE
  5
1BB
330
1F
100
AcDbEntity
  8
1
  6
Continuous
 62
     7
100
AcDbLine
 10
134.273890671466
 20
15.33239697419128
 30
0.0
 11
134.273890671466
 21
19.5
 31
0.0
  0
LINE
  5
1BC
330
1F
100
AcDbEntity
  8
1
  6
Continuous
 62
     7
100
AcDbLine
 10
131.373890671466
 20
14.83239697419128
 30
0.0
 11
131.373890671466
 21
-14.83239697419131
 31
0.0
  0
LINE
  5
1BD
330
1F
100
AcDbEntity
  8
1
  6
Continuous
 62
     7
100
AcDbLine
 10
134.273890671466
 20
-15.33239697419131
 30
0.0
 11
134.273890671466
 21
-19.5
 31
0.0
  0
LINE
  5
1BE
330
1F
100
AcDbEntity
  8
1
  6
Continuous
 62
     7
100
AcDbLine
 10
137.673890671466
 20
-15.33239697419131
 30
0.0
 11
137.673890671466
 21
-19.5
 31
0.0
  0
LINE
  5
1BF
330
1F
100
AcDbEntity
  8
1
  6
Continuous
 62
     7
100
AcDbLine
 10
140.373890671466
 20
14.83239697419128
 30
0.0
 11
140.373890671466
 21
-14.83239697419131
 31
0.0
  0
LINE
  5
1C0
330
1F
100
AcDbEntity
  8
1
  6
Continuous
 62
     7
100
AcDbLine
 10
138.173890671466
 20
-14.83239697419131
 30
0.0
 11
140.373890671466
 21
-14.83239697419131
 31
0.0
  0
LINE
  5
1C1
330
1F
100
AcDbEntity
  8
1
  6
Continuous
 62
     7
100
AcDbLine
 10
131.373890671466
 20
-14.83239697419131
 30
0.0
 11
133.773890671466
 21
-14.83239697419131
 31
0.0
  0
LINE
  5
1C2
330
1F
100
AcDbEntity
  8
1
  6
Continuous
 62
     7
100
AcDbLine
 10
138.173890671466
 20
14.83239697419128
 30
0.0
 11
140.373890671466
 21
14.83239697419128
 31
0.0
  0
LINE
  5
1C3
330
1F
100
AcDbEntity
  8
1
  6
Continuous
 62
     7
100
AcDbLine
 10
131.373890671466
 20
14.83239697419128
 30
0.0
 11
133.773890671466
 21
14.83239697419128
 31
0.0
  0
LINE
  5
1C4
330
1F
100
AcDbEntity
  8
1
  6
Continuous
 62
     7
100
AcDbLine
 10
-19.5
 20
17.1973835219199
 30
0.0
 11
-19.5
 21
-17.19738352191982
 31
0.0
  0
LINE
  5
1C5
330
1F
100
AcDbEntity
  8
1
  6
Continuous
 62
     7
100
AcDbLine
 10
19.5
 20
17.1973835219199
 30
0.0
 11
19.5
 21
-17.19738352191982
 31
0.0
  0
LINE
  5
1C6
330
1F
100
AcDbEntity
  8
1
  6
Continuous
 62
     7
100
AcDbLine
 10
-17.1973835219199
 20
-19.5
 30
0.0
 11
17.1973835219198
 21
-19.5
 31
0.0
  0
LINE
  5
1C7
330
1F
100
AcDbEntity
  8
1
  6
Continuous
 62
     7
100
AcDbLine
 10
-17.1973835219199
 20
19.5
 30
0.0
 11
17.1973835219198
 21
19.5
 31
0.0
  0
LINE
  5
1C8
330
1F
100
AcDbEntity
  8
1
  6
Continuous
 62
     7
100
AcDbLine
 10
123.873890671466
 20
-11.0
 30
0.0
 11
125.873890671466
 21
-11.0
 31
0.0
  0
LINE
  5
1C9
330
1F
100
AcDbEntity
  8
1
  6
Continuous
 62
     7
100
AcDbLine
 10
123.873890671466
 20
11.0
 30
0.0
 11
123.873890671466
 21
-11.0
 31
0.0
  0
LINE
  5
1CA
330
1F
100
AcDbEntity
  8
1
  6
Continuous
 62
     7
100
AcDbLine
 10
125.873890671466
 20
11.0
 30
0.0
 11
123.873890671466
 21
11.0
 31
0.0
  0
LINE
  5
1CB
330
1F
100
AcDbEntity
  8
1
  6
Continuous
 62
     7
100
AcDbLine
 10
125.873890671466
 20
-19.0
 30
0.0
 11
125.873890671466
 21
19.0
 31
0.0
  0
LINE
  5
1CC
330
1F
100
AcDbEntity
  8
1
  6
Continuous
 62
     7
100
AcDbLine
 10
146.873890671466
 20
-19.5
 30
0.0
 11
126.373890671466
 21
-19.5
 31
0.0
  0
LINE
  5
1CD
330
1F
100
AcDbEntity
  8
1
  6
Continuous
 62
     7
100
AcDbLine
 10
126.373890671466
 20
19.5
 30
0.0
 11
146.873890671466
 21
19.5
 31
0.0
  0
LINE
  5
1CE
330
1F
100
AcDbEntity
  8
1
  6
Continuous
 62
     7
100
AcDbLine
 10
108.373890671466
 20
-2.5
 30
0.0
 11
123.873890671466
 21
-2.5
 31
0.0
  0
LINE
  5
1CF
330
1F
100
AcDbEntity
  8
1
  6
DASH_CENTER
 62
     3
100
AcDbLine
 10
229.873890671466
 20
23.0319438643441
 30
0.0
 11
229.873890671466
 21
-23.13471210537261
 31
0.0
  0
LINE
  5
1D0
330
1F
100
AcDbEntity
  8
1
  6
Continuous
 62
     3
100
AcDbLine
 10
108.373890671466
 20
-2.5
 30
0.0
 11
108.373890671466
 21
2.5
 31
0.0
  0
LINE
  5
1D1
330
1F
100
AcDbEntity
  8
1
  6
Continuous
 62
     7
100
AcDbLine
 10
107.873890671466
 20
-2.0
 30
0.0
 11
107.873890671466
 21
2.0
 31
0.0
  0
LINE
  5
1D2
330
1F
100
AcDbEntity
  8
1
  6
Continuous
 62
     7
100
AcDbLine
 10
108.373890671466
 20
2.5
 30
0.0
 11
107.873890671466
 21
2.0
 31
0.0
  0
LINE
  5
1D3
330
1F
100
AcDbEntity
  8
1
  6
Continuous
 62
     7
100
AcDbLine
 10
108.373890671466
 20
2.5
 30
0.0
 11
123.873890671466
 21
2.5
 31
0.0
  0
LINE
  5
1D4
330
1F
100
AcDbEntity
  8
1
  6
DASH_CENTER
 62
     3
100
AcDbLine
 10
-22.81475945534001
 20
0.0
 30
0.0
 11
23.272844021278
 21
0.0
 31
0.0
  0
LINE
  5
1D5
330
1F
100
AcDbEntity
  8
1
  6
DASH_CENTER
 62
     3
100
AcDbLine
 10
214.373890671466
 20
11.19999999999999
 30
0.0
 11
214.373890671466
 21
19.79999999999998
 31
0.0
  0
LINE
  5
1D6
330
1F
100
AcDbEntity
  8
1
  6
DASH_CENTER
 62
     3
100
AcDbLine
 10
218.673890671466
 20
15.5
 30
0.0
 11
210.073890671466
 21
15.5
 31
0.0
  0
LINE
  5
1D7
330
1F
100
AcDbEntity
  8
1
  6
DASH_CENTER
 62
     3
100
AcDbLine
 10
210.073890671466
 20
-15.5
 30
0.0
 11
218.673890671466
 21
-15.5
 31
0.0
  0
LINE
  5
1D8
330
1F
100
AcDbEntity
  8
1
  6
DASH_CENTER
 62
     3
100
AcDbLine
 10
214.373890671466
 20
-19.80000000000001
 30
0.0
 11
214.373890671466
 21
-11.20000000000002
 31
0.0
  0
LINE
  5
1D9
330
1F
100
AcDbEntity
  8
1
  6
DASH_CENTER
 62
     3
100
AcDbLine
 10
245.373890671466
 20
-11.20000000000002
 30
0.0
 11
245.373890671466
 21
-19.80000000000001
 31
0.0
  0
LINE
  5
1DA
330
1F
100
AcDbEntity
  8
1
  6
DASH_CENTER
 62
     3
100
AcDbLine
 10
241.073890671466
 20
-15.5
 30
0.0
 11
249.673890671466
 21
-15.5
 31
0.0
  0
LINE
  5
1DB
330
1F
100
AcDbEntity
  8
1
  6
Continuous
 62
     7
100
AcDbLine
 10
158.373890671466
 20
-2.5
 30
0.0
 11
158.873890671466
 21
-2.0
 31
0.0
  0
LINE
  5
1DC
330
1F
100
AcDbEntity
  8
1
  6
Continuous
 62
     7
100
AcDbLine
 10
147.373890671466
 20
-2.5
 30
0.0
 11
158.373890671466
 21
-2.5
 31
0.0
  0
LINE
  5
1DD
330
1F
100
AcDbEntity
  8
1
  6
Continuous
 62
     3
100
AcDbLine
 10
158.373890671466
 20
2.5
 30
0.0
 11
158.373890671466
 21
-2.5
 31
0.0
  0
LINE
  5
1DE
330
1F
100
AcDbEntity
  8
1
  6
Continuous
 62
     7
100
AcDbLine
 10
158.873890671466
 20
2.0
 30
0.0
 11
158.873890671466
 21
-2.0
 31
0.0
  0
LINE
  5
1DF
330
1F
100
AcDbEntity
  8
1
  6
Continuous
 62
     7
100
AcDbLine
 10
158.873890671466
 20
2.0
 30
0.0
 11
158.373890671466
 21
2.5
 31
0.0
  0
LINE
  5
1E0
330
1F
100
AcDbEntity
  8
1
  6
Continuous
 62
     7
100
AcDbLine
 10
147.373890671466
 20
2.5
 30
0.0
 11
158.373890671466
 21
2.5
 31
0.0
  0
ARC
  5
1E1
330
1F
100
AcDbEntity
  8
1
  6
Continuous
 62
     7
100
AcDbCircle
 10
214.373890671466
 20
-15.5
 30
0.0
 40
1.499999999999745
100
AcDbArc
 50
-14.40781443536027
 51
14.40781443535948
  0
ARC
  5
1E2
330
1F
100
AcDbEntity
  8
1
  6
Continuous
 62
     7
100
AcDbCircle
 10
214.373890671466
 20
-15.5
 30
0.0
 40
1.499999999999718
100
AcDbArc
 50
75.59218556463934
 51
104.4078144353607
  0
ARC
  5
1E3
330
1F
100
AcDbEntity
  8
1
  6
Continuous
 62
     7
100
AcDbCircle
 10
214.373890671466
 20
-15.5
 30
0.0
 40
1.49999999999974
100
AcDbArc
 50
165.5921855646405
 51
-165.5921855646397
  0
ARC
  5
1E4
330
1F
100
AcDbEntity
  8
1
  6
Continuous
 62
     7
100
AcDbCircle
 10
214.373890671466
 20
-15.5
 30
0.0
 40
1.499999999999749
100
AcDbArc
 50
-104.4078144353604
 51
-75.59218556463965
  0
ARC
  5
1E5
330
1F
100
AcDbEntity
  8
1
  6
Continuous
 62
     7
100
AcDbCircle
 10
245.373890671466
 20
15.5
 30
0.0
 40
1.499999999999745
100
AcDbArc
 50
-14.40781443536027
 51
14.40781443535948
  0
ARC
  5
1E6
330
1F
100
AcDbEntity
  8
1
  6
Continuous
 62
     7
100
AcDbCircle
 10
245.373890671466
 20
15.5
 30
0.0
 40
1.499999999999718
100
AcDbArc
 50
75.59218556463934
 51
104.4078144353607
  0
ARC
  5
1E7
330
1F
100
AcDbEntity
  8
1
  6
Continuous
 62
     7
100
AcDbCircle
 10
245.373890671466
 20
15.5
 30
0.0
 40
1.49999999999974
100
AcDbArc
 50
165.5921855646405
 51
-165.5921855646397
  0
ARC
  5
1E8
330
1F
100
AcDbEntity
  8
1
  6
Continuous
 62
     7
100
AcDbCircle
 10
245.373890671466
 20
15.5
 30
0.0
 40
1.499999999999748
100
AcDbArc
 50
-104.4078144353604
 51
-75.59218556463962
  0
ARC
  5
1E9
330
1F
100
AcDbEntity
  8
1
  6
Continuous
 62
     7
100
AcDbCircle
 10
142.273890671466
 20
15.5
 30
0.0
 40
4.999999999999978
100
AcDbArc
 50
-25.26416482102336
 51
25.26416482102421
  0
ARC
  5
1EA
330
1F
100
AcDbEntity
  8
1
  6
Continuous
 62
     7
100
AcDbCircle
 10
142.273890671466
 20
-15.5
 30
0.0
 40
4.999999999999978
100
AcDbArc
 50
-25.26416482102336
 51
25.26416482102419
  0
ARC
  5
1EB
330
1F
100
AcDbEntity
  8
1
  6
Continuous
 62
     7
100
AcDbCircle
 10
214.373890671466
 20
15.5
 30
0.0
 40
1.499999999999745
100
AcDbArc
 50
-14.40781443536027
 51
14.40781443535948
  0
ARC
  5
1EC
330
1F
100
AcDbEntity
  8
1
  6
Continuous
 62
     7
100
AcDbCircle
 10
214.373890671466
 20
15.5
 30
0.0
 40
1.499999999999718
100
AcDbArc
 50
75.59218556463934
 51
104.4078144353607
  0
ARC
  5
1ED
330
1F
100
AcDbEntity
  8
1
  6
Continuous
 62
     7
100
AcDbCircle
 10
214.373890671466
 20
15.5
 30
0.0
 40
1.49999999999974
100
AcDbArc
 50
165.5921855646405
 51
-165.5921855646397
  0
ARC
  5
1EE
330
1F
100
AcDbEntity
  8
1
  6
Continuous
 62
     7
100
AcDbCircle
 10
214.373890671466
 20
15.5
 30
0.0
 40
1.499999999999748
100
AcDbArc
 50
-104.4078144353604
 51
-75.59218556463962
  0
ARC
  5
1EF
330
1F
100
AcDbEntity
  8
1
  6
Continuous
 62
     7
100
AcDbCircle
 10
245.373890671466
 20
-15.5
 30
0.0
 40
1.499999999999745
100
AcDbArc
 50
-14.40781443536027
 51
14.40781443535948
  0
ARC
  5
1F0
330
1F
100
AcDbEntity
  8
1
  6
Continuous
 62
     7
100
AcDbCircle
 10
245.373890671466
 20
-15.5
 30
0.0
 40
1.499999999999825
100
AcDbArc
 50
75.59218556464037
 51
104.4078144353596
  0
ARC
  5
1F1
330
1F
100
AcDbEntity
  8
1
  6
Continuous
 62
     7
100
AcDbCircle
 10
245.373890671466
 20
-15.5
 30
0.0
 40
1.499999999999822
100
AcDbArc
 50
165.5921855646413
 51
-165.5921855646405
  0
ARC
  5
1F2
330
1F
100
AcDbEntity
  8
1
  6
Continuous
 62
     7
100
AcDbCircle
 10
245.373890671466
 20
-15.5
 30
0.0
 40
1.499999999999749
100
AcDbArc
 50
-104.4078144353604
 51
-75.59218556464069
  0
ARC
  5
1F3
330
1F
100
AcDbEntity
  8
1
  6
Continuous
 62
     7
100
AcDbCircle
 10
229.873890671466
 20
0.0
 30
0.0
 40
25.99999999999997
100
AcDbArc
 50
-48.59037789072922
 51
-41.40962210927083
  0
ARC
  5
1F4
330
1F
100
AcDbEntity
  8
1
  6
Continuous
 62
     7
100
AcDbCircle
 10
229.873890671466
 20
0.0
 30
0.0
 40
25.99999999999999
100
AcDbArc
 50
-138.5903778907292
 51
-131.4096221092708
  0
ARC
  5
1F5
330
1F
100
AcDbEntity
  8
1
  6
Continuous
 62
     7
100
AcDbCircle
 10
229.873890671466
 20
0.0
 30
0.0
 40
25.99999999999997
100
AcDbArc
 50
131.4096221092708
 51
138.590377890729
  0
ARC
  5
1F6
330
1F
100
AcDbEntity
  8
1
  6
Continuous
 62
     7
100
AcDbCircle
 10
229.873890671466
 20
0.0
 30
0.0
 40
26.00000000000004
100
AcDbArc
 50
41.40962210927096
 51
48.59037789072922
  0
ARC
  5
1F7
330
1F
100
AcDbEntity
  8
1
  6
Continuous
 62
     7
100
AcDbCircle
 10
0.0
 20
0.0
 30
0.0
 40
25.99999999999998
100
AcDbArc
 50
-48.59037789072921
 51
-41.40962210927083
  0
ARC
  5
1F8
330
1F
100
AcDbEntity
  8
1
  6
Continuous
 62
     7
100
AcDbCircle
 10
0.0
 20
0.0
 30
0.0
 40
25.99999999999999
100
AcDbArc
 50
-138.5903778907292
 51
-131.409622109271
  0
ARC
  5
1F9
330
1F
100
AcDbEntity
  8
1
  6
Continuous
 62
     7
100
AcDbCircle
 10
0.0
 20
0.0
 30
0.0
 40
26.00000000000004
100
AcDbArc
 50
131.409622109271
 51
138.590377890729
  0
ARC
  5
1FA
330
1F
100
AcDbEntity
  8
1
  6
Continuous
 62
     7
100
AcDbCircle
 10
0.0
 20
0.0
 30
0.0
 40
26.00000000000004
100
AcDbArc
 50
41.40962210927096
 51
48.59037789072921
  0
ARC
  5
1FB
330
1F
100
AcDbEntity
  8
1
  6
Continuous
 62
     2
100
AcDbCircle
 10
225.9499016603293
 20
-5.89825487012772
 30
0.0
 40
0.7739711149936959
100
AcDbArc
 50
-127.388916937289
 51
-32.20950515066876
  0
ARC
  5
1FC
330
1F
100
AcDbEntity
  8
1
  6
Continuous
 62
     2
100
AcDbCircle
 10
227.6417731884809
 20
-6.96407525452122
 30
0.0
 40
1.225629435005693
100
AcDbArc
 50
-47.97132075872982
 51
147.7904948493161
  0
ARC
  5
1FD
330
1F
100
AcDbEntity
  8
1
  6
Continuous
 62
     2
100
AcDbCircle
 10
232.1060081544511
 20
-6.96407525452122
 30
0.0
 40
1.225629435005856
100
AcDbArc
 50
32.20950515067896
 51
-132.0286792412702
  0
ARC
  5
1FE
330
1F
100
AcDbEntity
  8
1
  6
Continuous
 62
     2
100
AcDbCircle
 10
233.7978796826027
 20
-5.89825487012772
 30
0.0
 40
0.7739711149937618
100
AcDbArc
 50
-147.7904948493234
 51
-52.61108306271102
  0
ARC
  5
1FF
330
1F
100
AcDbEntity
  8
1
  6
Continuous
 62
     2
100
AcDbCircle
 10
229.873890671466
 20
-0.76383223037521
 30
0.0
 40
7.236167769624744
100
AcDbArc
 50
-52.6110830627035
 51
-127.3889169372965
  0
CIRCLE
  5
200
330
1F
100
AcDbEntity
  8
1
  6
Continuous
 62
     7
100
AcDbCircle
 10
229.873890671466
 20
0.0
 30
0.0
 40
8.0
  0
CIRCLE
  5
201
330
1F
100
AcDbEntity
  8
1
  6
Continuous
 62
     7
100
AcDbCircle
 10
229.873890671466
 20
0.0
 30
0.0
 40
2.5
  0
CIRCLE
  5
202
330
1F
100
AcDbEntity
  8
1
  6
Continuous
 62
     7
100
AcDbCircle
 10
0.0
 20
0.0
 30
0.0
 40
6.5
  0
CIRCLE
  5
203
330
1F
100
AcDbEntity
  8
1
  6
Continuous
 62
     7
100
AcDbCircle
 10
214.373890671466
 20
-15.5
 30
0.0
 40
2.800000000000011
  0
CIRCLE
  5
204
330
1F
100
AcDbEntity
  8
1
  6
Continuous
 62
     7
100
AcDbCircle
 10
245.373890671466
 20
15.5
 30
0.0
 40
2.800000000000011
  0
CIRCLE
  5
205
330
1F
100
AcDbEntity
  8
1
  6
Continuous
 62
     7
100
AcDbCircle
 10
214.373890671466
 20
15.5
 30
0.0
 40
2.800000000000011
  0
CIRCLE
  5
206
330
1F
100
AcDbEntity
  8
1
  6
Continuous
 62
     7
100
AcDbCircle
 10
245.373890671466
 20
-15.5
 30
0.0
 40
2.800000000000011
  0
CIRCLE
  5
207
330
1F
100
AcDbEntity
  8
1
  6
Continuous
 62
     2
100
AcDbCircle
 10
-15.5
 20
-15.5
 30
0.0
 40
1.25
  0
CIRCLE
  5
208
330
1F
100
AcDbEntity
  8
1
  6
Continuous
 62
     3
100
AcDbCircle
 10
-15.5
 20
-15.5
 30
0.0
 40
1.5
  0
CIRCLE
  5
209
330
1F
100
AcDbEntity
  8
1
  6
Continuous
 62
     3
100
AcDbCircle
 10
15.5
 20
15.5
 30
0.0
 40
1.5
  0
CIRCLE
  5
20A
330
1F
100
AcDbEntity
  8
1
  6
Continuous
 62
     2
100
AcDbCircle
 10
15.5
 20
15.5
 30
0.0
 40
1.25
  0
CIRCLE
  5
20B
330
1F
100
AcDbEntity
  8
1
  6
Continuous
 62
     7
100
AcDbCircle
 10
0.0
 20
0.0
 30
0.0
 40
11.0
  0
CIRCLE
  5
20C
330
1F
100
AcDbEntity
  8
1
  6
Continuous
 62
     7
100
AcDbCircle
 10
229.873890671466
 20
0.0
 30
0.0
 40
3.25
  0
CIRCLE
  5
20D
330
1F
100
AcDbEntity
  8
1
  6
Continuous
 62
     2
100
AcDbCircle
 10
227.6417731884809
 20
-6.96407525452122
 30
0.0
 40
0.5832850249458081
  0
CIRCLE
  5
20E
330
1F
100
AcDbEntity
  8
1
  6
Continuous
 62
     2
100
AcDbCircle
 10
232.1060081544511
 20
-6.96407525452122
 30
0.0
 40
0.5832850249458081
  0
CIRCLE
  5
20F
330
1F
100
AcDbEntity
  8
1
  6
Continuous
 62
     7
100
AcDbCircle
 10
0.0
 20
0.0
 30
0.0
 40
2.5
  0
CIRCLE
  5
210
330
1F
100
AcDbEntity
  8
1
  6
Continuous
 62
     3
100
AcDbCircle
 10
0.0
 20
0.0
 30
0.0
 40
2.0
  0
ARC
  5
211
330
1F
100
AcDbEntity
  8
1
  6
Continuous
 62
     7
100
AcDbCircle
 10
145.8912893127158
 20
17.20716931506058
 30
0.0
 40
0.999999999999981
100
AcDbArc
 50
25.26416482102771
 51
85.00000000000382
  0
ARC
  5
212
330
1F
100
AcDbEntity
  8
1
  6
Continuous
 62
     7
100
AcDbCircle
 10
145.8912893127158
 20
13.79283068493939
 30
0.0
 40
1.000000000000058
100
AcDbArc
 50
-85.00000000000377
 51
-25.26416482102182
  0
ARC
  5
213
330
1F
100
AcDbEntity
  8
1
  6
Continuous
 62
     7
100
AcDbCircle
 10
145.8912893127158
 20
-13.79283068493942
 30
0.0
 40
0.9999999999999796
100
AcDbArc
 50
25.26416482102753
 51
85.00000000000382
  0
ARC
  5
214
330
1F
100
AcDbEntity
  8
1
  6
Continuous
 62
     7
100
AcDbCircle
 10
145.8912893127158
 20
-17.20716931506061
 30
0.0
 40
1.000000000000058
100
AcDbArc
 50
-85.00000000000377
 51
-25.26416482102182
  0
ARC
  5
215
330
1F
100
AcDbEntity
  8
1
  6
Continuous
 62
     7
100
AcDbCircle
 10
245.373890671466
 20
-15.5
 30
0.0
 40
3.19999999999999
100
AcDbArc
 50
90.0
 51
180.0
  0
ARC
  5
216
330
1F
100
AcDbEntity
  8
1
  6
Continuous
 62
     7
100
AcDbCircle
 10
214.373890671466
 20
-15.5
 30
0.0
 40
3.199999999999989
100
AcDbArc
 50
0.0
 51
90.0
  0
ARC
  5
217
330
1F
100
AcDbEntity
  8
1
  6
Continuous
 62
     7
100
AcDbCircle
 10
214.373890671466
 20
15.5
 30
0.0
 40
3.200000000000021
100
AcDbArc
 50
-90.0
 51
0.0
  0
ARC
  5
218
330
1F
100
AcDbEntity
  8
1
  6
Continuous
 62
     3
100
AcDbCircle
 10
245.373890671466
 20
-15.5
 30
0.0
 40
3.69999999999999
100
AcDbArc
 50
90.0
 51
180.0
  0
ARC
  5
219
330
1F
100
AcDbEntity
  8
1
  6
Continuous
 62
     3
100
AcDbCircle
 10
214.373890671466
 20
-15.5
 30
0.0
 40
3.699999999999989
100
AcDbArc
 50
0.0
 51
90.0
  0
ARC
  5
21A
330
1F
100
AcDbEntity
  8
1
  6
Continuous
 62
     3
100
AcDbCircle
 10
214.373890671466
 20
15.5
 30
0.0
 40
3.700000000000021
100
AcDbArc
 50
-90.0
 51
0.0
  0
ARC
  5
21B
330
1F
100
AcDbEntity
  8
1
  6
Continuous
 62
     3
100
AcDbCircle
 10
245.373890671466
 20
15.5
 30
0.0
 40
3.699999999999989
100
AcDbArc
 50
180.0
 51
-90.0
  0
ARC
  5
21C
330
1F
100
AcDbEntity
  8
1
  6
Continuous
 62
     7
100
AcDbCircle
 10
245.373890671466
 20
15.5
 30
0.0
 40
3.199999999999989
100
AcDbArc
 50
180.0
 51
-90.0
  0
SOLID
  5
21D
330
1F
100
AcDbEntity
  8
1
 62
     2
100
AcDbTrace
 10
251.9673399322039
 20
-2.68373101202472
 30
0.0
 11
251.194591845852
 21
-3.18587344298283
 31
0.0
 12
249.673890671466
 22
0.0
 32
0.0
 13
249.673890671466
 23
0.0
 33
0.0
  0
LEADER
  5
21E
330
1F
100
AcDbEntity
  8
1
  6
Continuous
 62
     2
100
AcDbLeader
  3
Standard
 71
     0
 76
     3
 10
249.673890671466
 20
0.0
 30
0.0
 10
257.0806756226253
 20
-11.3983175771605
 30
0.0
 10
262.0806756226253
 20
-11.3983175771605
 30
0.0
  0
SOLID
  5
21F
330
1F
100
AcDbEntity
  8
1
 62
     3
100
AcDbTrace
 10
18.37338968897378
 20
19.59449308956852
 30
0.0
 11
19.09340677319627
 21
19.01928701835865
 31
0.0
 12
16.54883629055659
 22
16.57235368960588
 32
0.0
 13
16.54883629055659
 23
16.57235368960588
 33
0.0
  0
LEADER
  5
220
330
1F
100
AcDbEntity
  8
1
  6
Continuous
 62
     3
100
AcDbLeader
  3
Standard
 71
     0
 76
     3
 10
16.54883629055659
 20
16.57235368960588
 30
0.0
 10
27.25604989976361
 20
29.9751620202498
 30
0.0
 10
32.25604989976361
 20
29.9751620202498
 30
0.0
  0
SOLID
  5
221
330
1F
100
AcDbEntity
  8
1
 62
     3
100
AcDbTrace
 10
225.5148896434453
 20
-37.07042341878677
 30
0.0
 11
225.0388966950202
 21
-36.28129900592238
 31
0.0
 12
228.273890671466
 22
-34.86809851454061
 32
0.0
 13
228.273890671466
 23
-34.86809851454061
 33
0.0
  0
LEADER
  5
222
330
1F
100
AcDbEntity
  8
1
  6
Continuous
 62
     3
100
AcDbLeader
  3
Standard
 71
     0
 76
     3
 10
228.273890671466
 20
-34.86809851454061
 30
0.0
 10
219.7161625750743
 20
-40.03004530267231
 30
0.0
 10
214.7161625750743
 20
-40.03004530267231
 30
0.0
  0
DIMENSION
  5
230
330
1F
100
AcDbEntity
  8
1
100
AcDbDimension
  2
*D1
 10
119.873890671466
 20
-39.5625
 30
0.0
 11
114.2292832261835
 21
-34.5
 31
0.0
 70
    32
  1
<>
 71
     5
 42
-1.0
 53
0.00013888888889
  3
ME10_DIM_10
100
AcDbAlignedDimension
 13
125.873890671466
 23
-19.0
 33
0.0
 14
119.873890671466
 24
-16.75
 34
0.0
100
AcDbRotatedDimension
  0
DIMENSION
  5
23C
330
1F
100
AcDbEntity
  8
1
100
AcDbDimension
  2
*D2
 10
164.123890671466
 20
-19.5
 30
0.0
 11
160.373890671466
 21
-30.41188935213846
 31
0.0
 70
    32
  1
200MIN.
 71
     5
 42
-1.0
 53
90.0
  3
ME10_DIM_11
100
AcDbAlignedDimension
 13
145.373890671466
 23
-41.32377870427692
 33
0.0
 14
146.873890671466
 24
-19.5
 34
0.0
 50
90.0
100
AcDbRotatedDimension
  0
DIMENSION
  5
247
330
1F
100
AcDbEntity
  8
1
100
AcDbDimension
  2
*D3
 10
38.25
 20
15.5
 30
0.0
 11
34.5
 21
0.0
 31
0.0
 70
    32
  1
<>
 71
     5
 42
-1.0
 53
90.0
  3
ME10_DIM_12
100
AcDbAlignedDimension
 13
17.972584306019
 23
-15.5
 33
0.0
 14
18.21348446295301
 24
15.5
 34
0.0
 50
90.0
100
AcDbRotatedDimension
  0
DIMENSION
  5
252
330
1F
100
AcDbEntity
  8
1
100
AcDbDimension
  2
*D4
 10
48.25
 20
19.5
 30
0.0
 11
44.5
 21
0.0
 31
0.0
 70
    32
  1
<>
 71
     5
 42
-1.0
 53
90.0
  3
ME10_DIM_13
100
AcDbAlignedDimension
 13
17.1973835219198
 23
-19.5
 33
0.0
 14
17.1973835219198
 24
19.5
 34
0.0
 50
90.0
100
AcDbRotatedDimension
  0
DIMENSION
  5
25D
330
1F
100
AcDbEntity
  8
1
100
AcDbDimension
  2
*D5
 10
-19.5
 20
40.75
 30
0.0
 11
0.0
 21
44.5
 31
0.0
 70
    32
  1
<>
 71
     5
 42
-1.0
 53
0.00013888888889
  3
ME10_DIM_14
100
AcDbAlignedDimension
 13
19.5
 23
17.1973835219199
 33
0.0
 14
-19.5
 24
17.1973835219199
 34
0.0
100
AcDbRotatedDimension
  0
DIMENSION
  5
268
330
1F
100
AcDbEntity
  8
1
100
AcDbDimension
  2
*D6
 10
-15.5
 20
30.75
 30
0.0
 11
0.0
 21
34.5
 31
0.0
 70
    32
  1
<>
 71
     5
 42
-1.0
 53
0.00013888888889
  3
ME10_DIM_15
100
AcDbAlignedDimension
 13
15.5
 23
17.972584306019
 33
0.0
 14
-15.5
 24
18.21348446295298
 34
0.0
100
AcDbRotatedDimension
  0
DIMENSION
  5
273
330
1F
100
AcDbEntity
  8
1
100
AcDbDimension
  2
*D7
 10
125.873890671466
 20
30.75
 30
0.0
 11
136.623890671466
 21
34.5
 31
0.0
 70
    32
  1
22 MAX.
 71
     5
 42
-1.0
 53
0.00013888888889
  3
ME10_DIM_16
100
AcDbAlignedDimension
 13
147.373890671466
 23
19.0
 33
0.0
 14
125.873890671466
 24
19.0
 34
0.0
100
AcDbRotatedDimension
  0
DIMENSION
  5
280
330
1F
100
AcDbEntity
  8
1
100
AcDbDimension
  2
*D8
 10
123.873890671466
 20
40.75
 30
0.0
 11
113.031213684297
 21
44.5
 31
0.0
 70
    32
  1
<>
 71
     5
 42
-1.0
 53
0.00013888888889
  3
ME10_DIM_17
100
AcDbAlignedDimension
 13
125.873890671466
 23
19.0
 33
0.0
 14
123.873890671466
 24
11.0
 34
0.0
100
AcDbRotatedDimension
  0
DIMENSION
  5
28B
330
1F
100
AcDbEntity
  8
1
100
AcDbDimension
  2
*D9
 10
107.873890671466
 20
-48.25
 30
0.0
 11
116.873890671466
 21
-44.5
 31
0.0
 70
    32
  1
<>
 71
     5
 42
-1.0
 53
0.00013888888889
  3
ME10_DIM_18
100
AcDbAlignedDimension
 13
125.873890671466
 23
-19.0
 33
0.0
 14
107.873890671466
 24
-2.0
 34
0.0
100
AcDbRotatedDimension
  0
DIMENSION
  5
297
330
1F
100
AcDbEntity
  8
1
100
AcDbDimension
  2
*D10
 10
87.936390671466
 20
11.0
 30
0.0
 11
82.873890671466
 21
0.0
 31
0.0
 70
    33
  1
<>
 71
     5
 42
-1.0
 53
90.0
  3
ME10_DIM_19
100
AcDbAlignedDimension
 13
123.873890671466
 23
-11.0
 33
0.0
 14
123.873890671466
 24
11.0
 34
0.0
  0
DIMENSION
  5
2A4
330
1F
100
AcDbEntity
  8
1
100
AcDbDimension
  2
*D11
 10
97.936390671466
 20
2.5
 30
0.0
 11
92.873890671466
 21
0.0
 31
0.0
 70
    32
  1
<>
 71
     5
 42
-1.0
 53
90.0
  3
ME10_DIM_20
100
AcDbAlignedDimension
 13
108.373890671466
 23
-2.5
 33
0.0
 14
108.373890671466
 24
2.5
 34
0.0
 50
90.0
100
AcDbRotatedDimension
  0
DIMENSION
  5
2AF
330
1F
100
AcDbEntity
  8
1
100
AcDbDimension
  2
*D12
 10
125.873890671466
 20
40.75
 30
0.0
 11
142.373890671466
 21
44.5
 31
0.0
 70
    32
  1
<>
 71
     5
 42
-1.0
 53
0.00013888888889
  3
ME10_DIM_21
100
AcDbAlignedDimension
 13
158.873890671466
 23
2.0
 33
0.0
 14
125.873890671466
 24
19.0
 34
0.0
100
AcDbRotatedDimension
  0
ENDSEC
  0
SECTION
  2
OBJECTS
  0
DICTIONARY
  5
C
330
0
100
AcDbDictionary
281
     1
  3
ACAD_GROUP
350
D
  3
ACAD_LAYOUT
350
1A
  3
ACAD_MLINESTYLE
350
17
  3
ACAD_PLOTSETTINGS
350
19
  3
ACAD_PLOTSTYLENAME
350
E
  0
DICTIONARY
  5
D
102
{ACAD_REACTORS
330
C
102
}
330
C
100
AcDbDictionary
281
     1
  0
DICTIONARY
  5
1A
102
{ACAD_REACTORS
330
C
102
}
330
C
100
AcDbDictionary
281
     1
  3
Layout1
350
1E
  3
Layout2
350
26
  3
Model
350
22
  0
DICTIONARY
  5
17
102
{ACAD_REACTORS
330
C
102
}
330
C
100
AcDbDictionary
281
     1
  3
Standard
350
18
  0
DICTIONARY
  5
19
102
{ACAD_REACTORS
330
C
102
}
330
C
100
AcDbDictionary
281
     1
  0
ACDBDICTIONARYWDFLT
  5
E
102
{ACAD_REACTORS
330
C
102
}
330
C
100
AcDbDictionary
281
     1
  3
Normal
350
F
100
AcDbDictionaryWithDefault
340
F
  0
LAYOUT
  5
1E
102
{ACAD_REACTORS
330
1A
102
}
330
1A
100
AcDbPlotSettings
  1

  2

  4

  6

 40
0.0
 41
0.0
 42
0.0
 43
0.0
 44
0.0
 45
0.0
 46
0.0
 47
0.0
 48
0.0
 49
0.0
140
0.0
141
0.0
142
1.0
143
1.0
 70
   688
 72
     0
 73
     0
 74
     5
  7

 75
    16
147
1.0
148
0.0
149
0.0
100
AcDbLayout
  1
Layout1
 70
     1
 71
     1
 10
0.0
 20
0.0
 11
0.0
 21
0.0
 12
0.0
 22
0.0
 32
0.0
 14
0.0
 24
0.0
 34
0.0
 15
0.0
 25
0.0
 35
0.0
146
0.0
 13
0.0
 23
0.0
 33
0.0
 16
1.0
 26
0.0
 36
0.0
 17
0.0
 27
1.0
 37
0.0
 76
     0
330
1B
  0
LAYOUT
  5
26
102
{ACAD_REACTORS
330
1A
102
}
330
1A
100
AcDbPlotSettings
  1

  2

  4

  6

 40
0.0
 41
0.0
 42
0.0
 43
0.0
 44
0.0
 45
0.0
 46
0.0
 47
0.0
 48
0.0
 49
0.0
140
0.0
141
0.0
142
1.0
143
1.0
 70
   688
 72
     0
 73
     0
 74
     5
  7

 75
    16
147
1.0
148
0.0
149
0.0
100
AcDbLayout
  1
Layout2
 70
     1
 71
     2
 10
0.0
 20
0.0
 11
0.0
 21
0.0
 12
0.0
 22
0.0
 32
0.0
 14
0.0
 24
0.0
 34
0.0
 15
0.0
 25
0.0
 35
0.0
146
0.0
 13
0.0
 23
0.0
 33
0.0
 16
1.0
 26
0.0
 36
0.0
 17
0.0
 27
1.0
 37
0.0
 76
     0
330
23
  0
LAYOUT
  5
22
102
{ACAD_REACTORS
330
1A
102
}
330
1A
100
AcDbPlotSettings
  1

  2

  4

  6

 40
0.0
 41
0.0
 42
0.0
 43
0.0
 44
0.0
 45
0.0
 46
0.0
 47
0.0
 48
0.0
 49
0.0
140
0.0
141
0.0
142
1.0
143
1.0
 70
  1712
 72
     0
 73
     0
 74
     0
  7

 75
     0
147
1.0
148
0.0
149
0.0
100
AcDbLayout
  1
Model
 70
     1
 71
     0
 10
0.0
 20
0.0
 11
0.0
 21
0.0
 12
0.0
 22
0.0
 32
0.0
 14
-22.81475945534001
 24
-49.75
 34
0.0
 15
288.5278320705264
 25
46.25
 35
0.0
146
0.0
 13
0.0
 23
0.0
 33
0.0
 16
1.0
 26
0.0
 36
0.0
 17
0.0
 27
1.0
 37
0.0
 76
     0
330
1F
  0
MLINESTYLE
  5
18
102
{ACAD_REACTORS
330
17
102
}
330
17
100
AcDbMlineStyle
  2
Standard
 70
     0
  3

 62
   256
 51
90.0
 52
90.0
 71
     2
 49
0.5
 62
   256
  6
BYLAYER
 49
-0.5
 62
   256
  6
BYLAYER
  0
ACDBPLACEHOLDER
  5
F
102
{ACAD_REACTORS
330
E
102
}
330
E
  0
ENDSEC
  0
EOF
