  0
SECTION
  2
HEADER
  9
$ACADVER
  1
AC1015
  9
$ACADMAINTVER
 70
     6
  9
$DWGCODEPAGE
  3
DOS932
  9
$INSBASE
 10
0.0
 20
0.0
 30
0.0
  9
$EXTMIN
 10
-181.577258841388
 20
-52.8611831020343
 30
0.0
  9
$EXTMAX
 10
183.7906875045884
 20
97.38676004043012
 30
0.0
  9
$LIMMIN
 10
0.0
 20
0.0
  9
$LIMMAX
 10
12.0
 20
9.0
  9
$ORTHOMODE
 70
     0
  9
$REGENMODE
 70
     1
  9
$FILLMODE
 70
     1
  9
$QTEXTMODE
 70
     0
  9
$MIRRTEXT
 70
     1
  9
$LTSCALE
 40
1.0
  9
$ATTMODE
 70
     1
  9
$TEXTSIZE
 40
0.2
  9
$TRACEWID
 40
0.05
  9
$TEXTSTYLE
  7
Standard
  9
$CLAYER
  8
0
  9
$CELTYPE
  6
ByLayer
  9
$CECOLOR
 62
   256
  9
$CELTSCALE
 40
1.0
  9
$DISPSILH
 70
     0
  9
$DIMSCALE
 40
1.0
  9
$DIMASZ
 40
0.18
  9
$DIMEXO
 40
0.0625
  9
$DIMDLI
 40
0.38
  9
$DIMRND
 40
0.0
  9
$DIMDLE
 40
0.0
  9
$DIMEXE
 40
0.18
  9
$DIMTP
 40
0.0
  9
$DIMTM
 40
0.0
  9
$DIMTXT
 40
0.18
  9
$DIMCEN
 40
0.09
  9
$DIMTSZ
 40
0.0
  9
$DIMTOL
 70
     0
  9
$DIMLIM
 70
     0
  9
$DIMTIH
 70
     1
  9
$DIMTOH
 70
     1
  9
$DIMSE1
 70
     0
  9
$DIMSE2
 70
     0
  9
$DIMTAD
 70
     0
  9
$DIMZIN
 70
     0
  9
$DIMBLK
  1

  9
$DIMASO
 70
     1
  9
$DIMSHO
 70
     1
  9
$DIMPOST
  1

  9
$DIMAPOST
  1

  9
$DIMALT
 70
     0
  9
$DIMALTD
 70
     2
  9
$DIMALTF
 40
25.4
  9
$DIMLFAC
 40
1.0
  9
$DIMTOFL
 70
     0
  9
$DIMTVP
 40
0.0
  9
$DIMTIX
 70
     0
  9
$DIMSOXD
 70
     0
  9
$DIMSAH
 70
     0
  9
$DIMBLK1
  1

  9
$DIMBLK2
  1

  9
$DIMSTYLE
  2
Standard
  9
$DIMCLRD
 70
     0
  9
$DIMCLRE
 70
     0
  9
$DIMCLRT
 70
     0
  9
$DIMTFAC
 40
1.0
  9
$DIMGAP
 40
0.09
  9
$DIMJUST
 70
     0
  9
$DIMSD1
 70
     0
  9
$DIMSD2
 70
     0
  9
$DIMTOLJ
 70
     1
  9
$DIMTZIN
 70
     0
  9
$DIMALTZ
 70
     0
  9
$DIMALTTZ
 70
     0
  9
$DIMUPT
 70
     0
  9
$DIMDEC
 70
     4
  9
$DIMTDEC
 70
     4
  9
$DIMALTU
 70
     2
  9
$DIMALTTD
 70
     2
  9
$DIMTXSTY
  7
Standard
  9
$DIMAUNIT
 70
     0
  9
$DIMADEC
 70
     0
  9
$DIMALTRND
 40
0.0
  9
$DIMAZIN
 70
     0
  9
$DIMDSEP
 70
    46
  9
$DIMATFIT
 70
     3
  9
$DIMFRAC
 70
     0
  9
$DIMLDRBLK
  1

  9
$DIMLUNIT
 70
     2
  9
$DIMLWD
 70
    -2
  9
$DIMLWE
 70
    -2
  9
$DIMTMOVE
 70
     0
  9
$LUNITS
 70
     2
  9
$LUPREC
 70
     4
  9
$SKETCHINC
 40
0.1
  9
$FILLETRAD
 40
0.5
  9
$AUNITS
 70
     0
  9
$AUPREC
 70
     0
  9
$MENU
  1
.
  9
$ELEVATION
 40
0.0
  9
$PELEVATION
 40
0.0
  9
$THICKNESS
 40
0.0
  9
$LIMCHECK
 70
     0
  9
$CHAMFERA
 40
0.5
  9
$CHAMFERB
 40
0.5
  9
$CHAMFERC
 40
1.0
  9
$CHAMFERD
 40
0.0
  9
$SKPOLY
 70
     0
  9
$TDCREATE
 40
2454823.554650787
  9
$TDUCREATE
 40
2454823.179650787
  9
$TDUPDATE
 40
2454823.554650798
  9
$TDUUPDATE
 40
2454823.179650798
  9
$TDINDWG
 40
0.0000000116
  9
$TDUSRTIMER
 40
0.0000000116
  9
$USRTIMER
 70
     1
  9
$ANGBASE
 50
0.0
  9
$ANGDIR
 70
     0
  9
$PDMODE
 70
     0
  9
$PDSIZE
 40
0.0
  9
$PLINEWID
 40
0.0
  9
$SPLFRAME
 70
     0
  9
$SPLINETYPE
 70
     6
  9
$SPLINESEGS
 70
     8
  9
$HANDSEED
  5
460
  9
$SURFTAB1
 70
     6
  9
$SURFTAB2
 70
     6
  9
$SURFTYPE
 70
     6
  9
$SURFU
 70
     6
  9
$SURFV
 70
     6
  9
$UCSBASE
  2

  9
$UCSNAME
  2

  9
$UCSORG
 10
0.0
 20
0.0
 30
0.0
  9
$UCSXDIR
 10
1.0
 20
0.0
 30
0.0
  9
$UCSYDIR
 10
0.0
 20
1.0
 30
0.0
  9
$UCSORTHOREF
  2

  9
$UCSORTHOVIEW
 70
     0
  9
$UCSORGTOP
 10
0.0
 20
0.0
 30
0.0
  9
$UCSORGBOTTOM
 10
0.0
 20
0.0
 30
0.0
  9
$UCSORGLEFT
 10
0.0
 20
0.0
 30
0.0
  9
$UCSORGRIGHT
 10
0.0
 20
0.0
 30
0.0
  9
$UCSORGFRONT
 10
0.0
 20
0.0
 30
0.0
  9
$UCSORGBACK
 10
0.0
 20
0.0
 30
0.0
  9
$PUCSBASE
  2

  9
$PUCSNAME
  2

  9
$PUCSORG
 10
0.0
 20
0.0
 30
0.0
  9
$PUCSXDIR
 10
1.0
 20
0.0
 30
0.0
  9
$PUCSYDIR
 10
0.0
 20
1.0
 30
0.0
  9
$PUCSORTHOREF
  2

  9
$PUCSORTHOVIEW
 70
     0
  9
$PUCSORGTOP
 10
0.0
 20
0.0
 30
0.0
  9
$PUCSORGBOTTOM
 10
0.0
 20
0.0
 30
0.0
  9
$PUCSORGLEFT
 10
0.0
 20
0.0
 30
0.0
  9
$PUCSORGRIGHT
 10
0.0
 20
0.0
 30
0.0
  9
$PUCSORGFRONT
 10
0.0
 20
0.0
 30
0.0
  9
$PUCSORGBACK
 10
0.0
 20
0.0
 30
0.0
  9
$USERI1
 70
     0
  9
$USERI2
 70
     0
  9
$USERI3
 70
     0
  9
$USERI4
 70
     0
  9
$USERI5
 70
     0
  9
$USERR1
 40
14.5
  9
$USERR2
 40
0.0
  9
$USERR3
 40
0.0
  9
$USERR4
 40
0.0
  9
$USERR5
 40
0.0
  9
$WORLDVIEW
 70
     1
  9
$SHADEDGE
 70
     3
  9
$SHADEDIF
 70
    70
  9
$TILEMODE
 70
     1
  9
$MAXACTVP
 70
    64
  9
$PINSBASE
 10
0.0
 20
0.0
 30
0.0
  9
$PLIMCHECK
 70
     0
  9
$PEXTMIN
 10
1.00000000000000E+20
 20
1.00000000000000E+20
 30
1.00000000000000E+20
  9
$PEXTMAX
 10
-1.00000000000000E+20
 20
-1.00000000000000E+20
 30
-1.00000000000000E+20
  9
$PLIMMIN
 10
0.0
 20
0.0
  9
$PLIMMAX
 10
12.0
 20
9.0
  9
$UNITMODE
 70
     0
  9
$VISRETAIN
 70
     1
  9
$PLINEGEN
 70
     0
  9
$PSLTSCALE
 70
     1
  9
$TREEDEPTH
 70
  3020
  9
$CMLSTYLE
  2
Standard
  9
$CMLJUST
 70
     0
  9
$CMLSCALE
 40
1.0
  9
$PROXYGRAPHICS
 70
     1
  9
$MEASUREMENT
 70
     1
  9
$CELWEIGHT
370
    -1
  9
$ENDCAPS
280
     0
  9
$JOINSTYLE
280
     0
  9
$LWDISPLAY
290
     0
  9
$INSUNITS
 70
     1
  9
$HYPERLINKBASE
  1

  9
$STYLESHEET
  1

  9
$XEDIT
290
     1
  9
$CEPSNTYPE
380
     0
  9
$PSTYLEMODE
290
     1
  9
$FINGERPRINTGUID
  2
{A86756FF-90A6-4089-8D14-20B19F57C025}
  9
$VERSIONGUID
  2
{FAEB1C32-E019-11D5-929B-00C0DF256EC4}
  9
$EXTNAMES
290
     1
  9
$PSVPSCALE
 40
0.0
  9
$OLESTARTUP
290
     0
  0
ENDSEC
  0
SECTION
  2
CLASSES
  0
CLASS
  1
ACDBDICTIONARYWDFLT
  2
AcDbDictionaryWithDefault
  3
ObjectDBX Classes
 90
        0
280
     0
281
     0
  0
CLASS
  1

  2
exOdDbCircle
  3

 90
        0
280
     0
281
     1
  0
CLASS
  1

  2
exOdDbPolyline
  3

 90
        0
280
     0
281
     1
  0
CLASS
  1
ACDBPLACEHOLDER
  2
AcDbPlaceHolder
  3
ObjectDBX Classes
 90
        0
280
     0
281
     0
  0
CLASS
  1
LAYOUT
  2
AcDbLayout
  3
ObjectDBX Classes
 90
        0
280
     0
281
     0
  0
ENDSEC
  0
SECTION
  2
TABLES
  0
TABLE
  2
VPORT
  5
8
330
0
100
AcDbSymbolTable
 70
     1
  0
VPORT
  5
29
330
8
100
AcDbSymbolTableRecord
100
AcDbViewportTableRecord
  2
*Active
 70
     0
 10
0.0
 20
0.0
 11
1.0
 21
1.0
 12
1.1067143316002
 22
22.26278846919791
 13
0.0
 23
0.0
 14
0.5
 24
0.5
 15
0.5
 25
0.5
 16
0.0
 26
0.0
 36
1.0
 17
0.0
 27
0.0
 37
0.0
 40
250.7706461828653
 41
1.60267857142857
 42
50.0
 43
0.0
 44
0.0
 50
0.0
 51
0.0
 71
     0
 72
   100
 73
     1
 74
     3
 75
     0
 76
     0
 77
     0
 78
     0
281
     0
 65
     1
110
0.0
120
0.0
130
0.0
111
1.0
121
0.0
131
0.0
112
0.0
122
1.0
132
0.0
 79
     0
146
0.0
  0
ENDTAB
  0
TABLE
  2
LTYPE
  5
5
330
0
100
AcDbSymbolTable
 70
     8
  0
LTYPE
  5
14
330
5
100
AcDbSymbolTableRecord
100
AcDbLinetypeTableRecord
  2
ByBlock
 70
     0
  3

 72
    65
 73
     0
 40
0.0
  0
LTYPE
  5
15
330
5
100
AcDbSymbolTableRecord
100
AcDbLinetypeTableRecord
  2
ByLayer
 70
     0
  3

 72
    65
 73
     0
 40
0.0
  0
LTYPE
  5
16
330
5
100
AcDbSymbolTableRecord
100
AcDbLinetypeTableRecord
  2
Continuous
 70
     0
  3
Solid line
 72
    65
 73
     0
 40
0.0
  0
LTYPE
  5
2A
330
5
100
AcDbSymbolTableRecord
100
AcDbLinetypeTableRecord
  2
DASHED
 70
     0
  3
Dashed
 72
    65
 73
     2
 40
15.0
 49
7.0
 74
     0
 49
-8.0
 74
     0
  0
LTYPE
  5
2B
330
5
100
AcDbSymbolTableRecord
100
AcDbLinetypeTableRecord
  2
DOTTED
 70
     0
  3
Dotted
 72
    65
 73
     2
 40
1.0
 49
0.0
 74
     0
 49
-1.0
 74
     0
  0
LTYPE
  5
2C
330
5
100
AcDbSymbolTableRecord
100
AcDbLinetypeTableRecord
  2
DOT_CENTER
 70
     0
  3
Dot_Center
 72
    65
 73
     4
 40
14.0
 49
12.0
 74
     0
 49
-1.0
 74
     0
 49
0.0
 74
     0
 49
-1.0
 74
     0
  0
LTYPE
  5
2D
330
5
100
AcDbSymbolTableRecord
100
AcDbLinetypeTableRecord
  2
LONG_DASHED
 70
     0
  3
Long_Dashed
 72
    65
 73
     2
 40
15.0
 49
10.0
 74
     0
 49
-5.0
 74
     0
  0
LTYPE
  5
2E
330
5
100
AcDbSymbolTableRecord
100
AcDbLinetypeTableRecord
  2
DASH_CENTER
 70
     0
  3
Dash_Center
 72
    65
 73
     4
 40
14.0
 49
11.0
 74
     0
 49
-1.0
 74
     0
 49
1.0
 74
     0
 49
-1.0
 74
     0
  0
LTYPE
  5
2F
330
5
100
AcDbSymbolTableRecord
100
AcDbLinetypeTableRecord
  2
PHANTOM
 70
     0
  3
Phantom
 72
    65
 73
     6
 40
13.0
 49
10.0
 74
     0
 49
-1.0
 74
     0
 49
0.0
 74
     0
 49
-1.0
 74
     0
 49
0.0
 74
     0
 49
-1.0
 74
     0
  0
LTYPE
  5
30
330
5
100
AcDbSymbolTableRecord
100
AcDbLinetypeTableRecord
  2
CENTER_DASH_DASH
 70
     0
  3
Center_Dash_Dash
 72
    65
 73
     6
 40
14.0
 49
9.0
 74
     0
 49
-1.0
 74
     0
 49
1.0
 74
     0
 49
-1.0
 74
     0
 49
1.0
 74
     0
 49
-1.0
 74
     0
  0
ENDTAB
  0
TABLE
  2
LAYER
  5
2
330
0
100
AcDbSymbolTable
 70
     2
  0
LAYER
  5
10
330
2
100
AcDbSymbolTableRecord
100
AcDbLayerTableRecord
  2
0
 70
     0
 62
     7
  6
Continuous
370
    -3
390
F
  0
LAYER
  5
31
330
2
100
AcDbSymbolTableRecord
100
AcDbLayerTableRecord
  2
1
 70
     0
 62
     7
  6
Continuous
370
    -3
390
F
  0
ENDTAB
  0
TABLE
  2
STYLE
  5
3
330
0
100
AcDbSymbolTable
 70
     4
  0
STYLE
  5
11
330
3
100
AcDbSymbolTableRecord
100
AcDbTextStyleTableRecord
  2
Standard
 70
     0
 40
0.0
 41
1.0
 50
0.0
 71
     0
 42
0.2
  3
txt
  4

  0
STYLE
  5
3D0
330
3
100
AcDbSymbolTableRecord
100
AcDbTextStyleTableRecord
  2
CONVERTER_11
 70
     0
 40
0.0
 41
0.89
 50
0.0
 71
     0
 42
0.2
  3
msmincho.ttc
  4

1001
ACAD
1000
MS Mincho
1071
    32785
  0
STYLE
  5
3DC
330
3
100
AcDbSymbolTableRecord
100
AcDbTextStyleTableRecord
  2
CONVERTER_12
 70
     0
 40
0.0
 41
0.95
 50
0.0
 71
     0
 42
0.2
  3
txt.shx
  4

  0
STYLE
  5
3EA
330
3
100
AcDbSymbolTableRecord
100
AcDbTextStyleTableRecord
  2
CONVERTER_13
 70
     0
 40
0.0
 41
0.76
 50
0.0
 71
     0
 42
0.2
  3
txt.shx
  4

  0
ENDTAB
  0
TABLE
  2
VIEW
  5
6
330
0
100
AcDbSymbolTable
 70
     0
  0
ENDTAB
  0
TABLE
  2
UCS
  5
7
330
0
100
AcDbSymbolTable
 70
     0
  0
ENDTAB
  0
TABLE
  2
APPID
  5
9
330
0
100
AcDbSymbolTable
 70
     1
  0
APPID
  5
12
330
9
100
AcDbSymbolTableRecord
100
AcDbRegAppTableRecord
  2
ACAD
 70
     0
  0
ENDTAB
  0
TABLE
  2
DIMSTYLE
  5
A
330
0
100
AcDbSymbolTable
 70
    13
100
AcDbDimStyleTable
  0
DIMSTYLE
105
27
330
A
100
AcDbSymbolTableRecord
100
AcDbDimStyleTableRecord
  2
Standard
 70
     0
340
11
  0
DIMSTYLE
105
3D4
102
{ACAD_REACTORS
330
3D5
102
}
330
A
100
AcDbSymbolTableRecord
100
AcDbDimStyleTableRecord
  2
ME10_DIM_10
 70
     0
  3
φ<>
 41
3.5
 42
1.0
 44
1.5
 47
0.03
 48
0.03
 71
     1
 73
     0
 74
     0
 77
     1
 78
     8
140
3.5
146
0.7
147
2.0
172
     1
173
     1
176
     2
177
     2
178
     2
272
     2
340
3D0
  0
DIMSTYLE
105
3E0
102
{ACAD_REACTORS
330
3E1
102
}
330
A
100
AcDbSymbolTableRecord
100
AcDbDimStyleTableRecord
  2
ME10_DIM_11
 70
     0
 41
3.5
 42
1.0
 44
1.5
 47
10.0
 48
10.0
 71
     1
 73
     0
 74
     0
 77
     1
 78
     8
140
3.5
146
0.7
147
2.0
172
     1
173
     1
176
     2
177
     2
178
     3
272
     0
340
3DC
  0
DIMSTYLE
105
3EE
102
{ACAD_REACTORS
330
3EF
102
}
330
A
100
AcDbSymbolTableRecord
100
AcDbDimStyleTableRecord
  2
ME10_DIM_12
 70
     0
 41
3.5
 42
1.0
 44
1.5
 47
0.15
 48
0.15
 71
     1
 73
     0
 74
     0
 77
     1
 78
     8
140
3.5
146
0.7
147
2.0
172
     1
173
     1
176
     2
177
     2
178
     2
272
     2
340
3EA
  0
DIMSTYLE
105
3FB
102
{ACAD_REACTORS
330
3FC
102
}
330
A
100
AcDbSymbolTableRecord
100
AcDbDimStyleTableRecord
  2
ME10_DIM_13
 70
     0
 41
3.5
 42
1.0
 44
1.5
 73
     0
 74
     0
 77
     1
 78
     8
140
3.5
147
2.0
172
     1
173
     1
176
     2
177
     2
178
     3
340
3DC
  0
DIMSTYLE
105
40D
102
{ACAD_REACTORS
330
40E
102
}
330
A
100
AcDbSymbolTableRecord
100
AcDbDimStyleTableRecord
  2
ME10_DIM_14
 70
     0
 41
1.75
 42
1.0
 44
1.5
 73
     0
 74
     0
 77
     1
 78
     8
140
3.5
147
2.0
172
     1
173
     1
176
     2
177
     2
178
     2
340
3DC
344
408
  0
DIMSTYLE
105
41A
102
{ACAD_REACTORS
330
41B
102
}
330
A
100
AcDbSymbolTableRecord
100
AcDbDimStyleTableRecord
  2
ME10_DIM_15
 70
     0
 41
3.5
 42
1.0
 44
1.5
 47
0.3
 48
0.3
 71
     1
 73
     0
 74
     0
 77
     1
 78
     8
140
3.5
146
0.7
147
2.0
172
     1
173
     1
176
     2
177
     2
178
     2
272
     1
340
3EA
343
408
  0
DIMSTYLE
105
425
102
{ACAD_REACTORS
330
426
102
}
330
A
100
AcDbSymbolTableRecord
100
AcDbDimStyleTableRecord
  2
ME10_DIM_16
 70
     0
 41
3.5
 42
1.0
 44
1.5
 47
1.0
 48
1.0
 71
     1
 73
     0
 74
     0
 77
     1
 78
     8
140
3.5
146
0.7
147
2.0
172
     1
173
     1
176
     2
177
     2
178
     3
272
     0
340
3DC
  0
DIMSTYLE
105
430
102
{ACAD_REACTORS
330
431
102
}
330
A
100
AcDbSymbolTableRecord
100
AcDbDimStyleTableRecord
  2
ME10_DIM_17
 70
     0
  3
□<>
 41
3.5
 42
1.0
 44
1.5
 47
0.3
 48
0.3
 71
     1
 73
     0
 74
     0
 77
     1
 78
     8
140
3.5
146
0.7
147
2.0
172
     1
173
     1
176
     2
177
     2
178
     2
272
     1
340
3D0
  0
DIMSTYLE
105
43B
102
{ACAD_REACTORS
330
43C
102
}
330
A
100
AcDbSymbolTableRecord
100
AcDbDimStyleTableRecord
  2
ME10_DIM_18
 70
     0
  3
□<>
 41
3.5
 42
1.0
 44
1.5
 47
0.5
 48
0.5
 71
     1
 73
     0
 74
     0
 77
     1
 78
     8
140
3.5
146
0.7
147
2.0
172
     1
173
     1
176
     2
177
     2
178
     2
272
     1
340
3D0
  0
DIMSTYLE
105
446
102
{ACAD_REACTORS
330
447
102
}
330
A
100
AcDbSymbolTableRecord
100
AcDbDimStyleTableRecord
  2
ME10_DIM_19
 70
     0
 41
3.5
 42
1.0
 44
1.5
 47
1.0
 48
1.0
 71
     1
 73
     0
 74
     0
 77
     1
 78
     8
140
3.5
146
0.7
147
2.0
172
     1
173
     1
176
     2
177
     2
178
     2
272
     0
340
3DC
  0
DIMSTYLE
105
453
102
{ACAD_REACTORS
330
454
102
}
330
A
100
AcDbSymbolTableRecord
100
AcDbDimStyleTableRecord
  2
ME10_DIM_20
 70
     0
  3
φ<>
 41
3.5
 42
1.0
 44
1.5
 48
0.012
 71
     1
 73
     0
 74
     0
 77
     1
 78
     8
140
3.5
146
0.7
147
2.0
172
     1
173
     1
176
     2
177
     2
178
     2
272
     0
340
3D0
  0
DIMSTYLE
105
45E
102
{ACAD_REACTORS
330
45F
102
}
330
A
100
AcDbSymbolTableRecord
100
AcDbDimStyleTableRecord
  2
ME10_DIM_21
 70
     0
 41
3.5
 42
1.0
 44
1.5
 47
0.25
 48
0.25
 71
     1
 73
     0
 74
     0
 77
     1
 78
     8
140
3.5
146
0.7
147
2.0
172
     1
173
     1
176
     2
177
     2
178
     2
272
     2
340
3DC
  0
ENDTAB
  0
TABLE
  2
BLOCK_RECORD
  5
1
330
0
100
AcDbSymbolTable
 70
    14
  0
BLOCK_RECORD
  5
1F
330
1
100
AcDbSymbolTableRecord
100
AcDbBlockTableRecord
  2
*Model_Space
340
22
  0
BLOCK_RECORD
  5
1B
330
1
100
AcDbSymbolTableRecord
100
AcDbBlockTableRecord
  2
*Paper_Space
340
1E
  0
BLOCK_RECORD
  5
23
330
1
100
AcDbSymbolTableRecord
100
AcDbBlockTableRecord
  2
*Paper_Space0
340
26
  0
BLOCK_RECORD
  5
3CA
330
1
100
AcDbSymbolTableRecord
100
AcDbBlockTableRecord
  2
*D1
340
0
  0
BLOCK_RECORD
  5
3D6
330
1
100
AcDbSymbolTableRecord
100
AcDbBlockTableRecord
  2
*D2
340
0
  0
BLOCK_RECORD
  5
3E2
330
1
100
AcDbSymbolTableRecord
100
AcDbBlockTableRecord
  2
*D3
340
0
  0
BLOCK_RECORD
  5
3F0
330
1
100
AcDbSymbolTableRecord
100
AcDbBlockTableRecord
  2
*D4
340
0
  0
BLOCK_RECORD
  5
3FD
330
1
100
AcDbSymbolTableRecord
100
AcDbBlockTableRecord
  2
*D5
340
0
  0
BLOCK_RECORD
  5
408
330
1
100
AcDbSymbolTableRecord
100
AcDbBlockTableRecord
  2
_Dot
340
0
  0
BLOCK_RECORD
  5
40F
330
1
100
AcDbSymbolTableRecord
100
AcDbBlockTableRecord
  2
*D7
340
0
  0
BLOCK_RECORD
  5
41C
330
1
100
AcDbSymbolTableRecord
100
AcDbBlockTableRecord
  2
*D8
340
0
  0
BLOCK_RECORD
  5
427
330
1
100
AcDbSymbolTableRecord
100
AcDbBlockTableRecord
  2
*D9
340
0
  0
BLOCK_RECORD
  5
432
330
1
100
AcDbSymbolTableRecord
100
AcDbBlockTableRecord
  2
*D10
340
0
  0
BLOCK_RECORD
  5
43D
330
1
100
AcDbSymbolTableRecord
100
AcDbBlockTableRecord
  2
*D11
340
0
  0
BLOCK_RECORD
  5
448
330
1
100
AcDbSymbolTableRecord
100
AcDbBlockTableRecord
  2
*D12
340
0
  0
BLOCK_RECORD
  5
455
330
1
100
AcDbSymbolTableRecord
100
AcDbBlockTableRecord
  2
*D13
340
0
  0
ENDTAB
  0
ENDSEC
  0
SECTION
  2
BLOCKS
  0
BLOCK
  5
20
330
1F
100
AcDbEntity
  8
0
100
AcDbBlockBegin
  2
*Model_Space
 70
     0
 71
     0
 10
0.0
 20
0.0
 30
0.0
  3
*Model_Space
  1

  0
ENDBLK
  5
21
330
1F
100
AcDbEntity
  8
0
100
AcDbBlockEnd
  0
BLOCK
  5
1C
330
1B
100
AcDbEntity
 67
     1
  8
0
100
AcDbBlockBegin
  2
*Paper_Space
 70
     0
 71
     0
 10
0.0
 20
0.0
 30
0.0
  3
*Paper_Space
  1

  0
ENDBLK
  5
1D
330
1B
100
AcDbEntity
 67
     1
  8
0
100
AcDbBlockEnd
  0
BLOCK
  5
24
330
23
100
AcDbEntity
  8
0
100
AcDbBlockBegin
  2
*Paper_Space0
 70
     0
 71
     0
 10
0.0
 20
0.0
 30
0.0
  3
*Paper_Space0
  1

  0
ENDBLK
  5
25
330
23
100
AcDbEntity
  8
0
100
AcDbBlockEnd
  0
BLOCK
  5
3D2
330
3CA
100
AcDbEntity
  8
0
100
AcDbBlockBegin
  2
*D1
 70
     1
 71
     0
 10
0.0
 20
0.0
 30
0.0
  3
*D1
  1

  0
LINE
  5
3CB
330
3CA
100
AcDbEntity
  8
1
  6
Continuous
 62
     2
100
AcDbLine
 10
-43.46615141952471
 20
-4.02752081406112
 30
0.0
 11
-43.46615141952471
 21
34.0724791859389
 31
0.0
  0
LINE
  5
3CC
330
3CA
100
AcDbEntity
  8
1
  6
Continuous
 62
     2
100
AcDbLine
 10
4.92818351672582
 20
34.0724791859389
 30
0.0
 11
-44.96615141952471
 21
34.0724791859389
 31
0.0
  0
LINE
  5
3CD
330
3CA
100
AcDbEntity
  8
1
  6
Continuous
 62
     2
100
AcDbLine
 10
4.92818351672582
 20
-4.02752081406112
 30
0.0
 11
-44.96615141952471
 21
-4.02752081406112
 31
0.0
  0
SOLID
  5
3CE
330
3CA
100
AcDbEntity
  8
1
 62
     2
100
AcDbTrace
 10
-43.00536767796882
 20
30.5724791859389
 30
0.0
 11
-43.92693516108059
 21
30.5724791859389
 31
0.0
 12
-43.46615141952471
 22
34.0724791859389
 32
0.0
 13
-43.46615141952471
 23
34.0724791859389
 33
0.0
  0
SOLID
  5
3CF
330
3CA
100
AcDbEntity
  8
1
 62
     2
100
AcDbTrace
 10
-43.92693516108059
 20
-0.52752081406112
 30
0.0
 11
-43.00536767796882
 21
-0.52752081406112
 31
0.0
 12
-43.46615141952471
 22
-4.02752081406112
 32
0.0
 13
-43.46615141952471
 23
-4.02752081406112
 33
0.0
  0
MTEXT
  5
3D1
330
3CA
100
AcDbEntity
  8
1
 62
     2
100
AcDbMText
 10
-45.46615141952471
 20
1.35921121208268
 30
0.0
 40
3.5
 41
0.0
 71
     7
 72
     1
  1
\C2;φ\C2;\C2;38.1\C2;\H2.45;{\Fgdt;`}0.03
  7
CONVERTER_11
 11
0.0
 21
1.0
 31
0.0
 73
     1
 44
0.60024009603842
  0
ENDBLK
  5
3D3
330
3CA
100
AcDbEntity
  8
0
100
AcDbBlockEnd
  0
BLOCK
  5
3DE
330
3D6
100
AcDbEntity
  8
0
100
AcDbBlockBegin
  2
*D2
 70
     1
 71
     0
 10
0.0
 20
0.0
 30
0.0
  3
*D2
  1

  0
LINE
  5
3D7
330
3D6
100
AcDbEntity
  8
1
  6
Continuous
 62
     2
100
AcDbLine
 10
69.2654519403786
 20
43.22247918593889
 30
0.0
 11
69.2654519403786
 21
88.99743120215899
 31
0.0
  0
LINE
  5
3D8
330
3D6
100
AcDbEntity
  8
1
  6
Continuous
 62
     2
100
AcDbLine
 10
41.01545194037858
 20
88.99743120215899
 30
0.0
 11
70.7654519403786
 21
88.99743120215899
 31
0.0
  0
LINE
  5
3D9
330
3D6
100
AcDbEntity
  8
1
  6
Continuous
 62
     2
100
AcDbLine
 10
46.72818351672579
 20
43.22247918593889
 30
0.0
 11
70.7654519403786
 21
43.22247918593889
 31
0.0
  0
SOLID
  5
3DA
330
3D6
100
AcDbEntity
  8
1
 62
     2
100
AcDbTrace
 10
68.80466819882271
 20
46.72247918593889
 30
0.0
 11
69.72623568193448
 21
46.72247918593889
 31
0.0
 12
69.2654519403786
 22
43.22247918593889
 32
0.0
 13
69.2654519403786
 23
43.22247918593889
 33
0.0
  0
SOLID
  5
3DB
330
3D6
100
AcDbEntity
  8
1
 62
     2
100
AcDbTrace
 10
69.72623568193448
 20
85.49743120215899
 30
0.0
 11
68.80466819882271
 21
85.49743120215899
 31
0.0
 12
69.2654519403786
 22
88.99743120215899
 32
0.0
 13
69.2654519403786
 23
88.99743120215899
 33
0.0
  0
MTEXT
  5
3DD
330
3D6
100
AcDbEntity
  8
1
 62
     3
100
AcDbMText
 10
67.2654519403786
 20
58.25760225287247
 30
0.0
 40
3.5
 41
0.0
 71
     7
 72
     1
  1
\C3;300\C3;\H2.45;{\Fgdt;`}10
  7
CONVERTER_12
 11
0.0
 21
1.0
 31
0.0
 73
     1
 44
0.60024009603842
  0
ENDBLK
  5
3DF
330
3D6
100
AcDbEntity
  8
0
100
AcDbBlockEnd
  0
BLOCK
  5
3EC
330
3E2
100
AcDbEntity
  8
0
100
AcDbBlockBegin
  2
*D3
 70
     1
 71
     0
 10
0.0
 20
0.0
 30
0.0
  3
*D3
  1

  0
LINE
  5
3E3
330
3E2
100
AcDbEntity
  8
1
  6
Continuous
 62
     2
100
AcDbLine
 10
-96.7444126746071
 20
17.64747918593889
 30
0.0
 11
-96.7444126746071
 21
35.75548512418614
 31
0.0
  0
LINE
  5
3E4
330
3E2
100
AcDbEntity
  8
1
  6
Continuous
 62
     2
100
AcDbLine
 10
-96.7444126746071
 20
11.84747918593889
 30
0.0
 11
-96.7444126746071
 21
17.64747918593889
 31
0.0
  0
LINE
  5
3E5
330
3E2
100
AcDbEntity
  8
1
  6
Continuous
 62
     2
100
AcDbLine
 10
-96.7444126746071
 20
4.84747918593889
 30
0.0
 11
-96.7444126746071
 21
11.84747918593889
 31
0.0
  0
LINE
  5
3E6
330
3E2
100
AcDbEntity
  8
1
  6
Continuous
 62
     2
100
AcDbLine
 10
-105.1936531652956
 20
17.64747918593889
 30
0.0
 11
-95.2444126746071
 21
17.64747918593889
 31
0.0
  0
LINE
  5
3E7
330
3E2
100
AcDbEntity
  8
1
  6
Continuous
 62
     2
100
AcDbLine
 10
-106.9797102752448
 20
11.84747918593889
 30
0.0
 11
-95.2444126746071
 21
11.84747918593889
 31
0.0
  0
SOLID
  5
3E8
330
3E2
100
AcDbEntity
  8
1
 62
     2
100
AcDbTrace
 10
-97.20519641616299
 20
21.14747918593889
 30
0.0
 11
-96.28362893305122
 21
21.14747918593889
 31
0.0
 12
-96.7444126746071
 22
17.64747918593889
 32
0.0
 13
-96.7444126746071
 23
17.64747918593889
 33
0.0
  0
SOLID
  5
3E9
330
3E2
100
AcDbEntity
  8
1
 62
     2
100
AcDbTrace
 10
-96.28362893305122
 20
8.34747918593889
 30
0.0
 11
-97.20519641616299
 21
8.34747918593889
 31
0.0
 12
-96.7444126746071
 22
11.84747918593889
 32
0.0
 13
-96.7444126746071
 23
11.84747918593889
 33
0.0
  0
MTEXT
  5
3EB
330
3E2
100
AcDbEntity
  8
1
 62
     2
100
AcDbMText
 10
-98.7444126746071
 20
21.86995571242144
 30
0.0
 40
3.5
 41
0.0
 71
     7
 72
     1
  1
\C2;5.8\C2;\H2.45;{\Fgdt;`}0.15
  7
CONVERTER_13
 11
0.0
 21
1.0
 31
0.0
 73
     1
 44
0.60024009603842
  0
ENDBLK
  5
3ED
330
3E2
100
AcDbEntity
  8
0
100
AcDbBlockEnd
  0
BLOCK
  5
3F9
330
3F0
100
AcDbEntity
  8
0
100
AcDbBlockBegin
  2
*D4
 70
     1
 71
     0
 10
0.0
 20
0.0
 30
0.0
  3
*D4
  1

  0
LINE
  5
3F1
330
3F0
100
AcDbEntity
  8
1
  6
Continuous
 62
     2
100
AcDbLine
 10
59.26545194037859
 20
95.99743120215899
 30
0.0
 11
59.26545194037859
 21
88.99743120215899
 31
0.0
  0
LINE
  5
3F2
330
3F0
100
AcDbEntity
  8
1
  6
Continuous
 62
     2
100
AcDbLine
 10
59.26545194037859
 20
88.99743120215899
 30
0.0
 11
59.26545194037859
 21
84.78766423551
 31
0.0
  0
LINE
  5
3F3
330
3F0
100
AcDbEntity
  8
1
  6
Continuous
 62
     2
100
AcDbLine
 10
59.26545194037859
 20
84.78766423551
 30
0.0
 11
59.26545194037859
 21
69.22804295827623
 31
0.0
  0
LINE
  5
3F4
330
3F0
100
AcDbEntity
  8
1
  6
Continuous
 62
     2
100
AcDbLine
 10
41.51545194037859
 20
84.78766423551
 30
0.0
 11
60.76545194037859
 21
84.78766423551
 31
0.0
  0
LINE
  5
3F5
330
3F0
100
AcDbEntity
  8
1
  6
Continuous
 62
     2
100
AcDbLine
 10
41.01545194037859
 20
88.99743120215899
 30
0.0
 11
60.76545194037859
 21
88.99743120215899
 31
0.0
  0
SOLID
  5
3F6
330
3F0
100
AcDbEntity
  8
1
 62
     2
100
AcDbTrace
 10
58.8046681988227
 20
92.49743120215899
 30
0.0
 11
59.72623568193448
 21
92.49743120215899
 31
0.0
 12
59.26545194037859
 22
88.99743120215899
 32
0.0
 13
59.26545194037859
 23
88.99743120215899
 33
0.0
  0
SOLID
  5
3F7
330
3F0
100
AcDbEntity
  8
1
 62
     2
100
AcDbTrace
 10
59.72623568193448
 20
81.28766423551
 30
0.0
 11
58.8046681988227
 21
81.28766423551
 31
0.0
 12
59.26545194037859
 22
84.78766423551
 32
0.0
 13
59.26545194037859
 23
84.78766423551
 33
0.0
  0
MTEXT
  5
3F8
330
3F0
100
AcDbEntity
  8
1
 62
     3
100
AcDbMText
 10
57.26545194037859
 20
69.22804295827623
 30
0.0
 40
3.5
 41
0.0
 71
     7
 72
     1
  1
5~10
  7
CONVERTER_12
 11
0.0
 21
1.0
 31
0.0
 73
     1
 44
0.60024009603842
  0
ENDBLK
  5
3FA
330
3F0
100
AcDbEntity
  8
0
100
AcDbBlockEnd
  0
BLOCK
  5
406
330
3FD
100
AcDbEntity
  8
0
100
AcDbBlockBegin
  2
*D5
 70
     1
 71
     0
 10
0.0
 20
0.0
 30
0.0
  3
*D5
  1

  0
LINE
  5
3FE
330
3FD
100
AcDbEntity
  8
1
  6
Continuous
 62
     2
100
AcDbLine
 10
7.2281835167258
 20
-28.1874880200168
 30
0.0
 11
12.2281835167258
 21
-28.1874880200168
 31
0.0
  0
LINE
  5
3FF
330
3FD
100
AcDbEntity
  8
1
  6
Continuous
 62
     2
100
AcDbLine
 10
12.2281835167258
 20
-28.1874880200168
 30
0.0
 11
19.2281835167258
 21
-28.1874880200168
 31
0.0
  0
LINE
  5
400
330
3FD
100
AcDbEntity
  8
1
  6
Continuous
 62
     2
100
AcDbLine
 10
7.2281835167258
 20
-13.67752081406111
 30
0.0
 11
7.2281835167258
 21
-29.6874880200168
 31
0.0
  0
LINE
  5
401
330
3FD
100
AcDbEntity
  8
1
  6
Continuous
 62
     2
100
AcDbLine
 10
12.2281835167258
 20
-14.17752081406111
 30
0.0
 11
12.2281835167258
 21
-29.6874880200168
 31
0.0
  0
CIRCLE
  5
402
102
{ACAD_REACTORS
330
403
102
}
330
3FD
100
AcDbEntity
  8
1
 62
     2
100
AcDbCircle
 10
7.2281835167258
 20
-28.1874880200168
 30
0.0
 40
0.875
  0
HATCH
  5
403
330
3FD
100
AcDbEntity
  8
1
 62
     2
100
AcDbHatch
 10
0.0
 20
0.0
 30
0.0
210
0.0
220
0.0
230
1.0
  2
SOLID
 70
     1
 71
     1
 91
        1
 92
        1
 93
        1
 72
     2
 10
7.2281835167258
 20
-28.1874880200168
 40
0.875
 50
0.0
 51
360.0
 73
     1
 97
        1
330
402
 75
     0
 76
     1
 98
        0
  0
SOLID
  5
404
330
3FD
100
AcDbEntity
  8
1
 62
     2
100
AcDbTrace
 10
15.7281835167258
 20
-27.72670427846091
 30
0.0
 11
15.7281835167258
 21
-28.64827176157269
 31
0.0
 12
12.2281835167258
 22
-28.1874880200168
 32
0.0
 13
12.2281835167258
 23
-28.1874880200168
 33
0.0
  0
MTEXT
  5
405
330
3FD
100
AcDbEntity
  8
1
 62
     2
100
AcDbMText
 10
15.49248532812593
 20
-26.1874880200168
 30
0.0
 40
3.5
 41
0.0
 71
     7
 72
     1
  1
5
  7
CONVERTER_12
 11
0.9999999999970621
 21
2.424068405545307E-6
 31
0.0
 73
     1
 44
0.60024009603842
  0
ENDBLK
  5
407
330
3FD
100
AcDbEntity
  8
0
100
AcDbBlockEnd
  0
BLOCK
  5
409
330
408
100
AcDbEntity
  8
0
100
AcDbBlockBegin
  2
_Dot
 70
     0
 71
     0
 10
0.0
 20
0.0
 30
0.0
  3
_Dot
  1

  0
LWPOLYLINE
  5
40B
330
408
100
AcDbEntity
  8
0
  6
ByBlock
 62
     0
100
AcDbPolyline
 90
        2
 70
     1
 43
0.5
 10
-0.25
 20
0.0
 42
1.0
 10
0.25
 20
0.0
 42
1.0
  0
LINE
  5
40C
330
408
100
AcDbEntity
  8
0
  6
ByBlock
 62
     0
370
    -2
100
AcDbLine
 10
-0.5
 20
0.0
 30
0.0
 11
-1.0
 21
0.0
 31
0.0
  0
ENDBLK
  5
40A
330
408
100
AcDbEntity
  8
0
100
AcDbBlockEnd
  0
BLOCK
  5
418
330
40F
100
AcDbEntity
  8
0
100
AcDbBlockBegin
  2
*D7
 70
     1
 71
     0
 10
0.0
 20
0.0
 30
0.0
  3
*D7
  1

  0
LINE
  5
410
330
40F
100
AcDbEntity
  8
1
  6
Continuous
 62
     2
100
AcDbLine
 10
5.62818351672581
 20
-28.1874880200168
 30
0.0
 11
7.2281835167258
 21
-28.1874880200168
 31
0.0
  0
LINE
  5
411
330
40F
100
AcDbEntity
  8
1
  6
Continuous
 62
     2
100
AcDbLine
 10
5.62818351672581
 20
-28.1874880200168
 30
0.0
 11
-7.88888326664335
 21
-28.1874880200168
 31
0.0
  0
LINE
  5
412
330
40F
100
AcDbEntity
  8
1
  6
Continuous
 62
     2
100
AcDbLine
 10
5.62818351672581
 20
-4.72752081406111
 30
0.0
 11
5.62818351672581
 21
-29.6874880200168
 31
0.0
  0
LINE
  5
413
330
40F
100
AcDbEntity
  8
1
  6
Continuous
 62
     2
100
AcDbLine
 10
7.2281835167258
 20
-13.67752081406111
 30
0.0
 11
7.2281835167258
 21
-29.6874880200168
 31
0.0
  0
SOLID
  5
414
330
40F
100
AcDbEntity
  8
1
 62
     2
100
AcDbTrace
 10
2.12818351672581
 20
-28.64827176157269
 30
0.0
 11
2.12818351672581
 21
-27.72670427846091
 31
0.0
 12
5.62818351672581
 22
-28.1874880200168
 32
0.0
 13
5.62818351672581
 23
-28.1874880200168
 33
0.0
  0
CIRCLE
  5
415
102
{ACAD_REACTORS
330
416
102
}
330
40F
100
AcDbEntity
  8
1
 62
     2
100
AcDbCircle
 10
7.2281835167258
 20
-28.1874880200168
 30
0.0
 40
0.875
  0
HATCH
  5
416
330
40F
100
AcDbEntity
  8
1
 62
     2
100
AcDbHatch
 10
0.0
 20
0.0
 30
0.0
210
0.0
220
0.0
230
1.0
  2
SOLID
 70
     1
 71
     1
 91
        1
 92
        1
 93
        1
 72
     2
 10
7.2281835167258
 20
-28.1874880200168
 40
0.875
 50
0.0
 51
360.0
 73
     1
 97
        1
330
415
 75
     0
 76
     1
 98
        0
  0
MTEXT
  5
417
330
40F
100
AcDbEntity
  8
1
 62
     2
100
AcDbMText
 10
-7.88888326664335
 20
-26.1874880200168
 30
0.0
 40
3.5
 41
0.0
 71
     7
 72
     1
  1
\C2;1.6\C2;\H2.45;{\Fgdt;`}0.3
  7
CONVERTER_13
 11
0.9999999999970621
 21
2.424068405545307E-6
 31
0.0
 73
     1
 44
0.60024009603842
  0
ENDBLK
  5
419
330
40F
100
AcDbEntity
  8
0
100
AcDbBlockEnd
  0
BLOCK
  5
423
330
41C
100
AcDbEntity
  8
0
100
AcDbBlockBegin
  2
*D8
 70
     1
 71
     0
 10
0.0
 20
0.0
 30
0.0
  3
*D8
  1

  0
LINE
  5
41D
330
41C
100
AcDbEntity
  8
1
  6
Continuous
 62
     2
100
AcDbLine
 10
7.2281835167258
 20
-38.2676401590737
 30
0.0
 11
46.2281835167258
 21
-38.2676401590737
 31
0.0
  0
LINE
  5
41E
330
41C
100
AcDbEntity
  8
1
  6
Continuous
 62
     2
100
AcDbLine
 10
46.2281835167258
 20
-13.67752081406111
 30
0.0
 11
46.2281835167258
 21
-39.7676401590737
 31
0.0
  0
LINE
  5
41F
330
41C
100
AcDbEntity
  8
1
  6
Continuous
 62
     2
100
AcDbLine
 10
7.2281835167258
 20
-13.67752081406111
 30
0.0
 11
7.2281835167258
 21
-39.7676401590737
 31
0.0
  0
SOLID
  5
420
330
41C
100
AcDbEntity
  8
1
 62
     2
100
AcDbTrace
 10
10.7281835167258
 20
-37.80685641751781
 30
0.0
 11
10.7281835167258
 21
-38.72842390062959
 31
0.0
 12
7.2281835167258
 22
-38.2676401590737
 32
0.0
 13
7.2281835167258
 23
-38.2676401590737
 33
0.0
  0
SOLID
  5
421
330
41C
100
AcDbEntity
  8
1
 62
     2
100
AcDbTrace
 10
42.7281835167258
 20
-38.72842390062959
 30
0.0
 11
42.7281835167258
 21
-37.80685641751781
 31
0.0
 12
46.2281835167258
 22
-38.2676401590737
 32
0.0
 13
46.2281835167258
 23
-38.2676401590737
 33
0.0
  0
MTEXT
  5
422
330
41C
100
AcDbEntity
  8
1
 62
     3
100
AcDbMText
 10
22.01038939907874
 20
-36.2676401590737
 30
0.0
 40
3.5
 41
0.0
 71
     7
 72
     1
  1
\C3;39\C3;\H2.45;{\Fgdt;`}1
  7
CONVERTER_12
 11
0.9999999999970621
 21
2.424068405545307E-6
 31
0.0
 73
     1
 44
0.60024009603842
  0
ENDBLK
  5
424
330
41C
100
AcDbEntity
  8
0
100
AcDbBlockEnd
  0
BLOCK
  5
42E
330
427
100
AcDbEntity
  8
0
100
AcDbBlockBegin
  2
*D9
 70
     1
 71
     0
 10
0.0
 20
0.0
 30
0.0
  3
*D9
  1

  0
LINE
  5
428
330
427
100
AcDbEntity
  8
1
  6
Continuous
 62
     2
100
AcDbLine
 10
-131.5497102752448
 20
-28.2239585296426
 30
0.0
 11
-84.4097102752448
 21
-28.2239585296426
 31
0.0
  0
LINE
  5
429
330
427
100
AcDbEntity
  8
1
  6
Continuous
 62
     2
100
AcDbLine
 10
-84.4097102752448
 20
-13.2975208140611
 30
0.0
 11
-84.4097102752448
 21
-29.7239585296426
 31
0.0
  0
LINE
  5
42A
330
427
100
AcDbEntity
  8
1
  6
Continuous
 62
     2
100
AcDbLine
 10
-131.5497102752448
 20
-13.2975208140611
 30
0.0
 11
-131.5497102752448
 21
-29.7239585296426
 31
0.0
  0
SOLID
  5
42B
330
427
100
AcDbEntity
  8
1
 62
     2
100
AcDbTrace
 10
-128.0497102752448
 20
-27.76317478808672
 30
0.0
 11
-128.0497102752448
 21
-28.68474227119849
 31
0.0
 12
-131.5497102752448
 22
-28.2239585296426
 32
0.0
 13
-131.5497102752448
 23
-28.2239585296426
 33
0.0
  0
SOLID
  5
42C
330
427
100
AcDbEntity
  8
1
 62
     2
100
AcDbTrace
 10
-87.9097102752448
 20
-28.68474227119849
 30
0.0
 11
-87.9097102752448
 21
-27.76317478808672
 31
0.0
 12
-84.4097102752448
 22
-28.2239585296426
 32
0.0
 13
-84.4097102752448
 23
-28.2239585296426
 33
0.0
  0
MTEXT
  5
42D
330
427
100
AcDbEntity
  8
1
 62
     2
100
AcDbMText
 10
-122.1542527588881
 20
-26.22397244379525
 30
0.0
 40
3.5
 41
0.0
 71
     7
 72
     1
  1
\C2;□\C2;\C2;47.14\C2;\H2.45;{\Fgdt;`}0.3
  7
CONVERTER_11
 11
0.9999999999970621
 21
2.424068405545307E-6
 31
0.0
 73
     1
 44
0.60024009603842
  0
ENDBLK
  5
42F
330
427
100
AcDbEntity
  8
0
100
AcDbBlockEnd
  0
BLOCK
  5
439
330
432
100
AcDbEntity
  8
0
100
AcDbBlockBegin
  2
*D10
 70
     1
 71
     0
 10
0.0
 20
0.0
 30
0.0
  3
*D10
  1

  0
LINE
  5
433
330
432
100
AcDbEntity
  8
1
  6
Continuous
 62
     2
100
AcDbLine
 10
-136.1797102752448
 20
-38.2097117973963
 30
0.0
 11
-79.7797102752448
 21
-38.2097117973963
 31
0.0
  0
LINE
  5
434
330
432
100
AcDbEntity
  8
1
  6
Continuous
 62
     2
100
AcDbLine
 10
-79.7797102752448
 20
-9.17752081406111
 30
0.0
 11
-79.7797102752448
 21
-39.7097117973963
 31
0.0
  0
LINE
  5
435
330
432
100
AcDbEntity
  8
1
  6
Continuous
 62
     2
100
AcDbLine
 10
-136.1797102752448
 20
-9.17752081406111
 30
0.0
 11
-136.1797102752448
 21
-39.7097117973963
 31
0.0
  0
SOLID
  5
436
330
432
100
AcDbEntity
  8
1
 62
     2
100
AcDbTrace
 10
-132.6797102752448
 20
-37.74892805584042
 30
0.0
 11
-132.6797102752448
 21
-38.67049553895219
 31
0.0
 12
-136.1797102752448
 22
-38.2097117973963
 32
0.0
 13
-136.1797102752448
 23
-38.2097117973963
 33
0.0
  0
SOLID
  5
437
330
432
100
AcDbEntity
  8
1
 62
     2
100
AcDbTrace
 10
-83.2797102752448
 20
-38.67049553895219
 30
0.0
 11
-83.2797102752448
 21
-37.74892805584042
 31
0.0
 12
-79.7797102752448
 22
-38.2097117973963
 32
0.0
 13
-79.7797102752448
 23
-38.2097117973963
 33
0.0
  0
MTEXT
  5
438
330
432
100
AcDbEntity
  8
1
 62
     2
100
AcDbMText
 10
-120.5380762882998
 20
-36.20972571154895
 30
0.0
 40
3.5
 41
0.0
 71
     7
 72
     1
  1
\C2;□\C2;\C2;56.4\C2;\H2.45;{\Fgdt;`}0.5
  7
CONVERTER_11
 11
0.9999999999970621
 21
2.424068405545307E-6
 31
0.0
 73
     1
 44
0.60024009603842
  0
ENDBLK
  5
43A
330
432
100
AcDbEntity
  8
0
100
AcDbBlockEnd
  0
BLOCK
  5
444
330
43D
100
AcDbEntity
  8
0
100
AcDbBlockBegin
  2
*D11
 70
     1
 71
     0
 10
0.0
 20
0.0
 30
0.0
  3
*D11
  1

  0
LINE
  5
43E
330
43D
100
AcDbEntity
  8
1
  6
Continuous
 62
     2
100
AcDbLine
 10
-12.77181648327416
 20
-38.2676401590737
 30
0.0
 11
7.2281835167258
 21
-38.2676401590737
 31
0.0
  0
LINE
  5
43F
330
43D
100
AcDbEntity
  8
1
  6
Continuous
 62
     2
100
AcDbLine
 10
-12.77181648327416
 20
11.54747918593887
 30
0.0
 11
-12.77181648327416
 21
-39.7676401590737
 31
0.0
  0
LINE
  5
440
330
43D
100
AcDbEntity
  8
1
  6
Continuous
 62
     2
100
AcDbLine
 10
7.2281835167258
 20
-13.67752081406111
 30
0.0
 11
7.2281835167258
 21
-39.7676401590737
 31
0.0
  0
SOLID
  5
441
330
43D
100
AcDbEntity
  8
1
 62
     2
100
AcDbTrace
 10
-9.27181648327416
 20
-37.80685641751781
 30
0.0
 11
-9.27181648327416
 21
-38.72842390062959
 31
0.0
 12
-12.77181648327416
 22
-38.2676401590737
 32
0.0
 13
-12.77181648327416
 23
-38.2676401590737
 33
0.0
  0
SOLID
  5
442
330
43D
100
AcDbEntity
  8
1
 62
     2
100
AcDbTrace
 10
3.7281835167258
 20
-38.72842390062959
 30
0.0
 11
3.7281835167258
 21
-37.80685641751781
 31
0.0
 12
7.2281835167258
 22
-38.2676401590737
 32
0.0
 13
7.2281835167258
 23
-38.2676401590737
 33
0.0
  0
MTEXT
  5
443
330
43D
100
AcDbEntity
  8
1
 62
     2
100
AcDbMText
 10
-7.64402236562712
 20
-36.2676401590737
 30
0.0
 40
3.5
 41
0.0
 71
     7
 72
     1
  1
\C2;20\C2;\H2.45;{\Fgdt;`}1
  7
CONVERTER_12
 11
0.9999999999970621
 21
2.424068405545307E-6
 31
0.0
 73
     1
 44
0.60024009603842
  0
ENDBLK
  5
445
330
43D
100
AcDbEntity
  8
0
100
AcDbBlockEnd
  0
BLOCK
  5
451
330
448
100
AcDbEntity
  8
0
100
AcDbBlockBegin
  2
*D12
 70
     1
 71
     0
 10
0.0
 20
0.0
 30
0.0
  3
*D12
  1

  0
LINE
  5
449
330
448
100
AcDbEntity
  8
1
  6
Continuous
 62
     2
100
AcDbLine
 10
-30.22727353463679
 20
11.84747918593888
 30
0.0
 11
-30.22727353463679
 21
18.19747918593885
 31
0.0
  0
LINE
  5
44A
330
448
100
AcDbEntity
  8
1
  6
Continuous
 62
     2
100
AcDbLine
 10
-30.22727353463679
 20
11.84747918593888
 30
0.0
 11
-30.22727353463679
 21
4.84747918593888
 31
0.0
  0
LINE
  5
44B
330
448
100
AcDbEntity
  8
1
  6
Continuous
 62
     2
100
AcDbLine
 10
-30.22727353463679
 20
18.19747918593885
 30
0.0
 11
-30.22727353463679
 21
25.19747918593885
 31
0.0
  0
LINE
  5
44C
330
448
100
AcDbEntity
  8
1
  6
Continuous
 62
     2
100
AcDbLine
 10
-13.07181648327412
 20
11.84747918593888
 30
0.0
 11
-31.72727353463679
 21
11.84747918593888
 31
0.0
  0
LINE
  5
44D
330
448
100
AcDbEntity
  8
1
  6
Continuous
 62
     2
100
AcDbLine
 10
1.72818351672586
 20
18.19747918593885
 30
0.0
 11
-31.72727353463679
 21
18.19747918593885
 31
0.0
  0
SOLID
  5
44E
330
448
100
AcDbEntity
  8
1
 62
     2
100
AcDbTrace
 10
-29.7664897930809
 20
8.34747918593888
 30
0.0
 11
-30.68805727619267
 21
8.34747918593888
 31
0.0
 12
-30.22727353463679
 22
11.84747918593888
 32
0.0
 13
-30.22727353463679
 23
11.84747918593888
 33
0.0
  0
SOLID
  5
44F
330
448
100
AcDbEntity
  8
1
 62
     2
100
AcDbTrace
 10
-30.68805727619267
 20
21.69747918593885
 30
0.0
 11
-29.7664897930809
 21
21.69747918593885
 31
0.0
 12
-30.22727353463679
 22
18.19747918593885
 32
0.0
 13
-30.22727353463679
 23
18.19747918593885
 33
0.0
  0
MTEXT
  5
450
330
448
100
AcDbEntity
  8
1
 62
     2
100
AcDbMText
 10
-33.53977353463679
 20
-0.03770055262323
 30
0.0
 40
3.5
 41
0.0
 71
     7
 72
     1
  1
\C2;φ\C2;\C2;6.35\C2;\H2.45;\S 0^ -0.012;
  7
CONVERTER_11
 11
0.0
 21
1.0
 31
0.0
 73
     1
 44
0.60024009603842
  0
ENDBLK
  5
452
330
448
100
AcDbEntity
  8
0
100
AcDbBlockEnd
  0
BLOCK
  5
45C
330
455
100
AcDbEntity
  8
0
100
AcDbBlockBegin
  2
*D13
 70
     1
 71
     0
 10
0.0
 20
0.0
 30
0.0
  3
*D13
  1

  0
LINE
  5
456
330
455
100
AcDbEntity
  8
1
  6
Continuous
 62
     2
100
AcDbLine
 10
-12.77181648327416
 20
27.1710522505757
 30
0.0
 11
2.22818351672585
 21
27.1710522505757
 31
0.0
  0
LINE
  5
457
330
455
100
AcDbEntity
  8
1
  6
Continuous
 62
     2
100
AcDbLine
 10
-12.77181648327416
 20
18.64747918593889
 30
0.0
 11
-12.77181648327416
 21
28.6710522505757
 31
0.0
  0
LINE
  5
458
330
455
100
AcDbEntity
  8
1
  6
Continuous
 62
     2
100
AcDbLine
 10
2.22818351672585
 20
18.64747918593889
 30
0.0
 11
2.22818351672585
 21
28.6710522505757
 31
0.0
  0
SOLID
  5
459
330
455
100
AcDbEntity
  8
1
 62
     2
100
AcDbTrace
 10
-9.27181648327416
 20
27.63183599213158
 30
0.0
 11
-9.27181648327416
 21
26.71026850901981
 31
0.0
 12
-12.77181648327416
 22
27.1710522505757
 32
0.0
 13
-12.77181648327416
 23
27.1710522505757
 33
0.0
  0
SOLID
  5
45A
330
455
100
AcDbEntity
  8
1
 62
     2
100
AcDbTrace
 10
-1.27181648327415
 20
26.71026850901981
 30
0.0
 11
-1.27181648327415
 21
27.63183599213158
 31
0.0
 12
2.22818351672585
 22
27.1710522505757
 32
0.0
 13
2.22818351672585
 23
27.1710522505757
 33
0.0
  0
MTEXT
  5
45B
330
455
100
AcDbEntity
  8
1
 62
     2
100
AcDbMText
 10
-12.85137530680357
 20
29.1710522505757
 30
0.0
 40
3.5
 41
0.0
 71
     7
 72
     1
  1
\C2;15\C2;\H2.45;{\Fgdt;`}0.25
  7
CONVERTER_12
 11
0.9999999999970621
 21
2.424068405545307E-6
 31
0.0
 73
     1
 44
0.60024009603842
  0
ENDBLK
  5
45D
330
455
100
AcDbEntity
  8
0
100
AcDbBlockEnd
  0
ENDSEC
  0
SECTION
  2
ENTITIES
  0
POINT
  5
32
330
1F
100
AcDbEntity
  8
1
 62
     3
 60
     1
100
AcDbPoint
 10
7.2281835167258
 20
-13.67752081406111
 30
0.0
  0
POINT
  5
33
330
1F
100
AcDbEntity
  8
1
 62
     3
 60
     1
100
AcDbPoint
 10
7.2281835167258
 20
-52.77752081406111
 30
0.0
  0
LINE
  5
34
330
1F
100
AcDbEntity
  8
1
  6
Continuous
 62
     3
100
AcDbLine
 10
-152.6507882531527
 20
38.48317431733768
 30
0.0
 11
-150.7978470766821
 21
38.48317431733768
 31
0.0
  0
LINE
  5
35
330
1F
100
AcDbEntity
  8
1
  6
Continuous
 62
     3
100
AcDbLine
 10
-152.6507882531527
 20
36.61650765067101
 30
0.0
 11
-150.5919647237409
 21
36.61650765067101
 31
0.0
  0
LINE
  5
36
330
1F
100
AcDbEntity
  8
1
  6
Continuous
 62
     3
100
AcDbLine
 10
-152.6507882531527
 20
40.11650765067101
 30
0.0
 11
-152.6507882531527
 21
36.61650765067101
 31
0.0
  0
LINE
  5
37
330
1F
100
AcDbEntity
  8
1
  6
Continuous
 62
     3
100
AcDbLine
 10
-150.5919647237409
 20
40.11650765067101
 30
0.0
 11
-152.6507882531527
 21
40.11650765067101
 31
0.0
  0
LINE
  5
38
330
1F
100
AcDbEntity
  8
1
  6
Continuous
 62
     3
100
AcDbLine
 10
-154.8125529590351
 20
40.11650765067101
 30
0.0
 11
-154.8125529590351
 21
36.61650765067101
 31
0.0
  0
LINE
  5
39
330
1F
100
AcDbEntity
  8
1
  6
Continuous
 62
     3
100
AcDbLine
 10
-155.9449059002115
 20
40.11650765067101
 30
0.0
 11
-153.6802000178586
 21
40.11650765067101
 31
0.0
  0
LINE
  5
3A
330
1F
100
AcDbEntity
  8
1
  6
Continuous
 62
     3
100
AcDbLine
 10
-158.9302000178586
 20
37.54984098400434
 30
0.0
 11
-157.2831411943292
 21
37.54984098400434
 31
0.0
  0
LINE
  5
3B
330
1F
100
AcDbEntity
  8
1
  6
Continuous
 62
     3
100
AcDbLine
 10
-158.1066706060939
 20
40.11650765067101
 30
0.0
 11
-156.9743176649174
 21
36.61650765067101
 31
0.0
  0
LINE
  5
3C
330
1F
100
AcDbEntity
  8
1
  6
Continuous
 62
     3
100
AcDbLine
 10
-159.2390235472703
 20
36.61650765067101
 30
0.0
 11
-158.1066706060939
 21
40.11650765067101
 31
0.0
  0
LINE
  5
3D
330
1F
100
AcDbEntity
  8
1
  6
Continuous
 62
     3
100
AcDbLine
 10
-162.327258841388
 20
36.61650765067101
 30
0.0
 11
-160.2684353119762
 21
36.61650765067101
 31
0.0
  0
LINE
  5
3E
330
1F
100
AcDbEntity
  8
1
  6
Continuous
 62
     3
100
AcDbLine
 10
-162.327258841388
 20
40.11650765067101
 30
0.0
 11
-162.327258841388
 21
36.61650765067101
 31
0.0
  0
LINE
  5
3F
330
1F
100
AcDbEntity
  8
1
  6
Continuous
 62
     3
100
AcDbLine
 10
-164.077258841388
 20
38.36650765067101
 30
0.0
 11
-165.4154941355056
 21
38.36650765067101
 31
0.0
  0
LINE
  5
40
330
1F
100
AcDbEntity
  8
1
  6
Continuous
 62
     3
100
AcDbLine
 10
-163.6654941355056
 20
38.59984098400435
 30
0.0
 11
-164.077258841388
 21
38.36650765067101
 31
0.0
  0
LINE
  5
41
330
1F
100
AcDbEntity
  8
1
  6
Continuous
 62
     3
100
AcDbLine
 10
-163.4596117825645
 20
38.83317431733768
 30
0.0
 11
-163.6654941355056
 21
38.59984098400435
 31
0.0
  0
LINE
  5
42
330
1F
100
AcDbEntity
  8
1
  6
Continuous
 62
     3
100
AcDbLine
 10
-163.3566706060939
 20
39.29984098400435
 30
0.0
 11
-163.4596117825645
 21
38.83317431733768
 31
0.0
  0
LINE
  5
43
330
1F
100
AcDbEntity
  8
1
  6
Continuous
 62
     3
100
AcDbLine
 10
-163.4596117825645
 20
39.53317431733768
 30
0.0
 11
-163.3566706060939
 21
39.29984098400435
 31
0.0
  0
LINE
  5
44
330
1F
100
AcDbEntity
  8
1
  6
Continuous
 62
     3
100
AcDbLine
 10
-163.6654941355056
 20
39.88317431733768
 30
0.0
 11
-163.4596117825645
 21
39.53317431733768
 31
0.0
  0
LINE
  5
45
330
1F
100
AcDbEntity
  8
1
  6
Continuous
 62
     3
100
AcDbLine
 10
-164.077258841388
 20
40.11650765067101
 30
0.0
 11
-163.6654941355056
 21
39.88317431733768
 31
0.0
  0
LINE
  5
46
330
1F
100
AcDbEntity
  8
1
  6
Continuous
 62
     3
100
AcDbLine
 10
-165.4154941355056
 20
40.11650765067101
 30
0.0
 11
-164.077258841388
 21
40.11650765067101
 31
0.0
  0
LINE
  5
47
330
1F
100
AcDbEntity
  8
1
  6
Continuous
 62
     3
100
AcDbLine
 10
-165.4154941355056
 20
36.61650765067101
 30
0.0
 11
-165.4154941355056
 21
40.11650765067101
 31
0.0
  0
LINE
  5
48
330
1F
100
AcDbEntity
  8
1
  6
Continuous
 62
     3
100
AcDbLine
 10
-171.4890235472703
 20
38.48317431733768
 30
0.0
 11
-169.6360823707998
 21
38.48317431733768
 31
0.0
  0
LINE
  5
49
330
1F
100
AcDbEntity
  8
1
  6
Continuous
 62
     3
100
AcDbLine
 10
-171.4890235472703
 20
36.61650765067101
 30
0.0
 11
-169.4302000178586
 21
36.61650765067101
 31
0.0
  0
LINE
  5
4A
330
1F
100
AcDbEntity
  8
1
  6
Continuous
 62
     3
100
AcDbLine
 10
-171.4890235472703
 20
40.11650765067101
 30
0.0
 11
-171.4890235472703
 21
36.61650765067101
 31
0.0
  0
LINE
  5
4B
330
1F
100
AcDbEntity
  8
1
  6
Continuous
 62
     3
100
AcDbLine
 10
-169.4302000178586
 20
40.11650765067101
 30
0.0
 11
-171.4890235472703
 21
40.11650765067101
 31
0.0
  0
LINE
  5
4C
330
1F
100
AcDbEntity
  8
1
  6
Continuous
 62
     3
100
AcDbLine
 10
-172.5184353119762
 20
40.11650765067101
 30
0.0
 11
-172.5184353119762
 21
36.61650765067101
 31
0.0
  0
LINE
  5
4D
330
1F
100
AcDbEntity
  8
1
  6
Continuous
 62
     3
100
AcDbLine
 10
-173.8566706060939
 20
36.73317431733768
 30
0.0
 11
-172.5184353119762
 21
40.11650765067101
 31
0.0
  0
LINE
  5
4E
330
1F
100
AcDbEntity
  8
1
  6
Continuous
 62
     3
100
AcDbLine
 10
-175.1949059002115
 20
40.11650765067101
 30
0.0
 11
-173.8566706060939
 21
36.73317431733768
 31
0.0
  0
LINE
  5
4F
330
1F
100
AcDbEntity
  8
1
  6
Continuous
 62
     3
100
AcDbLine
 10
-175.1949059002115
 20
36.61650765067101
 30
0.0
 11
-175.1949059002115
 21
40.11650765067101
 31
0.0
  0
LINE
  5
50
330
1F
100
AcDbEntity
  8
1
  6
Continuous
 62
     3
100
AcDbLine
 10
-178.1802000178586
 20
37.54984098400434
 30
0.0
 11
-176.5331411943292
 21
37.54984098400434
 31
0.0
  0
LINE
  5
51
330
1F
100
AcDbEntity
  8
1
  6
Continuous
 62
     3
100
AcDbLine
 10
-177.3566706060939
 20
40.11650765067101
 30
0.0
 11
-176.2243176649174
 21
36.61650765067101
 31
0.0
  0
LINE
  5
52
330
1F
100
AcDbEntity
  8
1
  6
Continuous
 62
     3
100
AcDbLine
 10
-178.4890235472703
 20
36.61650765067101
 30
0.0
 11
-177.3566706060939
 21
40.11650765067101
 31
0.0
  0
LINE
  5
53
330
1F
100
AcDbEntity
  8
1
  6
Continuous
 62
     3
100
AcDbLine
 10
-179.5184353119762
 20
36.61650765067101
 30
0.0
 11
-179.5184353119762
 21
40.11650765067101
 31
0.0
  0
LINE
  5
54
330
1F
100
AcDbEntity
  8
1
  6
Continuous
 62
     3
100
AcDbLine
 10
-181.577258841388
 20
40.11650765067101
 30
0.0
 11
-179.5184353119762
 21
36.61650765067101
 31
0.0
  0
LINE
  5
55
330
1F
100
AcDbEntity
  8
1
  6
Continuous
 62
     3
100
AcDbLine
 10
-181.577258841388
 20
36.61650765067101
 30
0.0
 11
-181.577258841388
 21
40.11650765067101
 31
0.0
  0
LINE
  5
56
330
1F
100
AcDbEntity
  8
1
  6
Continuous
 62
     4
100
AcDbLine
 10
-23.13399429543511
 20
-16.66091251957581
 30
0.0
 11
-21.48693547190569
 21
-16.66091251957581
 31
0.0
  0
LINE
  5
57
330
1F
100
AcDbEntity
  8
1
  6
Continuous
 62
     4
100
AcDbLine
 10
-22.3104648836704
 20
-14.09424585290914
 30
0.0
 11
-21.17811194249393
 21
-17.59424585290914
 31
0.0
  0
LINE
  5
58
330
1F
100
AcDbEntity
  8
1
  6
Continuous
 62
     4
100
AcDbLine
 10
-23.44281782484687
 20
-17.59424585290914
 30
0.0
 11
-22.3104648836704
 21
-14.09424585290914
 31
0.0
  0
LINE
  5
59
330
1F
100
AcDbEntity
  8
1
  6
Continuous
 62
     4
100
AcDbLine
 10
-25.8104648836704
 20
-12.34424585290914
 30
0.0
 11
-25.8104648836704
 21
-19.34424585290914
 31
0.0
  0
LINE
  5
5A
330
1F
100
AcDbEntity
  8
1
  6
Continuous
 62
     4
100
AcDbLine
 10
-18.8104648836704
 20
-12.34424585290914
 30
0.0
 11
-25.8104648836704
 21
-12.34424585290914
 31
0.0
  0
LINE
  5
5B
330
1F
100
AcDbEntity
  8
1
  6
Continuous
 62
     4
100
AcDbLine
 10
-18.8104648836704
 20
-19.34424585290914
 30
0.0
 11
-18.8104648836704
 21
-12.34424585290914
 31
0.0
  0
LINE
  5
5C
330
1F
100
AcDbEntity
  8
1
  6
Continuous
 62
     4
100
AcDbLine
 10
-25.8104648836704
 20
-19.34424585290914
 30
0.0
 11
-18.8104648836704
 21
-19.34424585290914
 31
0.0
  0
LINE
  5
5D
330
1F
100
AcDbEntity
  8
1
  6
Continuous
 62
     4
100
AcDbLine
 10
-5.94006945964414
 20
47.75334487773993
 30
0.0
 11
-6.18712828317355
 21
47.98667821107326
 31
0.0
  0
LINE
  5
5E
330
1F
100
AcDbEntity
  8
1
  6
Continuous
 62
     4
100
AcDbLine
 10
-5.61065769493826
 20
47.52001154440659
 30
0.0
 11
-5.94006945964414
 21
47.75334487773993
 31
0.0
  0
LINE
  5
5F
330
1F
100
AcDbEntity
  8
1
  6
Continuous
 62
     4
100
AcDbLine
 10
-5.03418710670296
 20
47.52001154440659
 30
0.0
 11
-5.61065769493826
 21
47.52001154440659
 31
0.0
  0
LINE
  5
60
330
1F
100
AcDbEntity
  8
1
  6
Continuous
 62
     4
100
AcDbLine
 10
-4.78712828317355
 20
47.75334487773993
 30
0.0
 11
-5.03418710670296
 21
47.52001154440659
 31
0.0
  0
LINE
  5
61
330
1F
100
AcDbEntity
  8
1
  6
Continuous
 62
     4
100
AcDbLine
 10
-4.62242240082061
 20
47.98667821107326
 30
0.0
 11
-4.78712828317355
 21
47.75334487773993
 31
0.0
  0
LINE
  5
62
330
1F
100
AcDbEntity
  8
1
  6
Continuous
 62
     4
100
AcDbLine
 10
-4.54006945964414
 20
48.57001154440659
 30
0.0
 11
-4.62242240082061
 21
47.98667821107326
 31
0.0
  0
LINE
  5
63
330
1F
100
AcDbEntity
  8
1
  6
Continuous
 62
     4
100
AcDbLine
 10
-4.62242240082061
 20
49.15334487773993
 30
0.0
 11
-4.54006945964414
 21
48.57001154440659
 31
0.0
  0
LINE
  5
64
330
1F
100
AcDbEntity
  8
1
  6
Continuous
 62
     4
100
AcDbLine
 10
-4.78712828317355
 20
49.38667821107326
 30
0.0
 11
-4.62242240082061
 21
49.15334487773993
 31
0.0
  0
LINE
  5
65
330
1F
100
AcDbEntity
  8
1
  6
Continuous
 62
     4
100
AcDbLine
 10
-5.03418710670296
 20
49.62001154440659
 30
0.0
 11
-4.78712828317355
 21
49.38667821107326
 31
0.0
  0
LINE
  5
66
330
1F
100
AcDbEntity
  8
1
  6
Continuous
 62
     4
100
AcDbLine
 10
-5.36359887140885
 20
49.73667821107326
 30
0.0
 11
-5.03418710670296
 21
49.62001154440659
 31
0.0
  0
LINE
  5
67
330
1F
100
AcDbEntity
  8
1
  6
Continuous
 62
     4
100
AcDbLine
 10
-5.69301063611473
 20
49.62001154440659
 30
0.0
 11
-5.36359887140885
 21
49.73667821107326
 31
0.0
  0
LINE
  5
68
330
1F
100
AcDbEntity
  8
1
  6
Continuous
 62
     4
100
AcDbLine
 10
-6.10477534199708
 20
49.27001154440659
 30
0.0
 11
-5.69301063611473
 21
49.62001154440659
 31
0.0
  0
LINE
  5
69
330
1F
100
AcDbEntity
  8
1
  6
Continuous
 62
     4
100
AcDbLine
 10
-6.02242240082061
 20
51.02001154440659
 30
0.0
 11
-6.10477534199708
 21
49.27001154440659
 31
0.0
  0
LINE
  5
6A
330
1F
100
AcDbEntity
  8
1
  6
Continuous
 62
     4
100
AcDbLine
 10
-4.62242240082061
 20
51.02001154440659
 30
0.0
 11
-6.02242240082061
 21
51.02001154440659
 31
0.0
  0
LINE
  5
6B
330
1F
100
AcDbEntity
  8
1
  6
Continuous
 62
     4
100
AcDbLine
 10
-7.42242240082061
 20
50.78667821107326
 30
0.0
 11
-7.91654004787943
 21
51.02001154440659
 31
0.0
  0
LINE
  5
6C
330
1F
100
AcDbEntity
  8
1
  6
Continuous
 62
     4
100
AcDbLine
 10
-7.09301063611473
 20
50.20334487773992
 30
0.0
 11
-7.42242240082061
 21
50.78667821107326
 31
0.0
  0
LINE
  5
6D
330
1F
100
AcDbEntity
  8
1
  6
Continuous
 62
     4
100
AcDbLine
 10
-7.01065769493826
 20
49.27001154440659
 30
0.0
 11
-7.09301063611473
 21
50.20334487773992
 31
0.0
  0
LINE
  5
6E
330
1F
100
AcDbEntity
  8
1
  6
Continuous
 62
     4
100
AcDbLine
 10
-7.09301063611473
 20
48.33667821107326
 30
0.0
 11
-7.01065769493826
 21
49.27001154440659
 31
0.0
  0
LINE
  5
6F
330
1F
100
AcDbEntity
  8
1
  6
Continuous
 62
     4
100
AcDbLine
 10
-7.42242240082061
 20
47.75334487773993
 30
0.0
 11
-7.09301063611473
 21
48.33667821107326
 31
0.0
  0
LINE
  5
70
330
1F
100
AcDbEntity
  8
1
  6
Continuous
 62
     4
100
AcDbLine
 10
-7.91654004787943
 20
47.52001154440659
 30
0.0
 11
-7.42242240082061
 21
47.75334487773993
 31
0.0
  0
LINE
  5
71
330
1F
100
AcDbEntity
  8
1
  6
Continuous
 62
     4
100
AcDbLine
 10
-8.41065769493826
 20
47.75334487773993
 30
0.0
 11
-7.91654004787943
 21
47.52001154440659
 31
0.0
  0
LINE
  5
72
330
1F
100
AcDbEntity
  8
1
  6
Continuous
 62
     4
100
AcDbLine
 10
-8.65771651846767
 20
48.33667821107326
 30
0.0
 11
-8.41065769493826
 21
47.75334487773993
 31
0.0
  0
LINE
  5
73
330
1F
100
AcDbEntity
  8
1
  6
Continuous
 62
     4
100
AcDbLine
 10
-8.82242240082061
 20
49.27001154440659
 30
0.0
 11
-8.65771651846767
 21
48.33667821107326
 31
0.0
  0
LINE
  5
74
330
1F
100
AcDbEntity
  8
1
  6
Continuous
 62
     4
100
AcDbLine
 10
-8.65771651846767
 20
50.20334487773992
 30
0.0
 11
-8.82242240082061
 21
49.27001154440659
 31
0.0
  0
LINE
  5
75
330
1F
100
AcDbEntity
  8
1
  6
Continuous
 62
     4
100
AcDbLine
 10
-8.41065769493826
 20
50.78667821107326
 30
0.0
 11
-8.65771651846767
 21
50.20334487773992
 31
0.0
  0
LINE
  5
76
330
1F
100
AcDbEntity
  8
1
  6
Continuous
 62
     4
100
AcDbLine
 10
-7.91654004787943
 20
51.02001154440659
 30
0.0
 11
-8.41065769493826
 21
50.78667821107326
 31
0.0
  0
LINE
  5
77
330
1F
100
AcDbEntity
  8
1
  6
Continuous
 62
     4
100
AcDbLine
 10
-9.89301063611473
 20
47.87001154440659
 30
0.0
 11
-9.81065769493826
 21
47.98667821107326
 31
0.0
  0
LINE
  5
78
330
1F
100
AcDbEntity
  8
1
  6
Continuous
 62
     4
100
AcDbLine
 10
-9.81065769493826
 20
47.75334487773993
 30
0.0
 11
-9.89301063611473
 21
47.87001154440659
 31
0.0
  0
LINE
  5
79
330
1F
100
AcDbEntity
  8
1
  6
Continuous
 62
     4
100
AcDbLine
 10
-9.72830475376179
 20
47.87001154440659
 30
0.0
 11
-9.81065769493826
 21
47.75334487773993
 31
0.0
  0
LINE
  5
7A
330
1F
100
AcDbEntity
  8
1
  6
Continuous
 62
     4
100
AcDbLine
 10
-9.81065769493826
 20
47.98667821107326
 30
0.0
 11
-9.72830475376179
 21
47.87001154440659
 31
0.0
  0
LINE
  5
7B
330
1F
100
AcDbEntity
  8
1
  6
Continuous
 62
     4
100
AcDbLine
 10
-9.89301063611473
 20
47.98667821107326
 30
0.0
 11
-9.72830475376179
 21
47.98667821107326
 31
0.0
  0
LINE
  5
7C
330
1F
100
AcDbEntity
  8
1
  6
Continuous
 62
     4
100
AcDbLine
 10
-9.89301063611473
 20
47.75334487773993
 30
0.0
 11
-9.89301063611473
 21
47.98667821107326
 31
0.0
  0
LINE
  5
7D
330
1F
100
AcDbEntity
  8
1
  6
Continuous
 62
     4
100
AcDbLine
 10
-9.72830475376179
 20
47.75334487773993
 30
0.0
 11
-9.89301063611473
 21
47.75334487773993
 31
0.0
  0
LINE
  5
7E
330
1F
100
AcDbEntity
  8
1
  6
Continuous
 62
     4
100
AcDbLine
 10
-9.72830475376179
 20
47.98667821107326
 30
0.0
 11
-9.72830475376179
 21
47.75334487773993
 31
0.0
  0
LINE
  5
7F
330
1F
100
AcDbEntity
  8
1
  6
Continuous
 62
     4
100
AcDbLine
 10
-9.9753635772912
 20
47.87001154440659
 30
0.0
 11
-9.81065769493826
 21
48.10334487773993
 31
0.0
  0
LINE
  5
80
330
1F
100
AcDbEntity
  8
1
  6
Continuous
 62
     4
100
AcDbLine
 10
-9.81065769493826
 20
47.63667821107326
 30
0.0
 11
-9.9753635772912
 21
47.87001154440659
 31
0.0
  0
LINE
  5
81
330
1F
100
AcDbEntity
  8
1
  6
Continuous
 62
     4
100
AcDbLine
 10
-9.64595181258532
 20
47.87001154440659
 30
0.0
 11
-9.81065769493826
 21
47.63667821107326
 31
0.0
  0
LINE
  5
82
330
1F
100
AcDbEntity
  8
1
  6
Continuous
 62
     4
100
AcDbLine
 10
-9.81065769493826
 20
48.10334487773993
 30
0.0
 11
-9.64595181258532
 21
47.87001154440659
 31
0.0
  0
LINE
  5
83
330
1F
100
AcDbEntity
  8
1
  6
Continuous
 62
     4
100
AcDbLine
 10
-11.21065769493826
 20
50.78667821107326
 30
0.0
 11
-11.70477534199708
 21
51.02001154440659
 31
0.0
  0
LINE
  5
84
330
1F
100
AcDbEntity
  8
1
  6
Continuous
 62
     4
100
AcDbLine
 10
-10.88124593023238
 20
50.20334487773992
 30
0.0
 11
-11.21065769493826
 21
50.78667821107326
 31
0.0
  0
LINE
  5
85
330
1F
100
AcDbEntity
  8
1
  6
Continuous
 62
     4
100
AcDbLine
 10
-10.7988929890559
 20
49.27001154440659
 30
0.0
 11
-10.88124593023238
 21
50.20334487773992
 31
0.0
  0
LINE
  5
86
330
1F
100
AcDbEntity
  8
1
  6
Continuous
 62
     4
100
AcDbLine
 10
-10.88124593023238
 20
48.33667821107326
 30
0.0
 11
-10.7988929890559
 21
49.27001154440659
 31
0.0
  0
LINE
  5
87
330
1F
100
AcDbEntity
  8
1
  6
Continuous
 62
     4
100
AcDbLine
 10
-11.21065769493826
 20
47.75334487773993
 30
0.0
 11
-10.88124593023238
 21
48.33667821107326
 31
0.0
  0
LINE
  5
88
330
1F
100
AcDbEntity
  8
1
  6
Continuous
 62
     4
100
AcDbLine
 10
-11.70477534199708
 20
47.52001154440659
 30
0.0
 11
-11.21065769493826
 21
47.75334487773993
 31
0.0
  0
LINE
  5
89
330
1F
100
AcDbEntity
  8
1
  6
Continuous
 62
     4
100
AcDbLine
 10
-12.19889298905591
 20
47.75334487773993
 30
0.0
 11
-11.70477534199708
 21
47.52001154440659
 31
0.0
  0
LINE
  5
8A
330
1F
100
AcDbEntity
  8
1
  6
Continuous
 62
     4
100
AcDbLine
 10
-12.44595181258532
 20
48.33667821107326
 30
0.0
 11
-12.19889298905591
 21
47.75334487773993
 31
0.0
  0
LINE
  5
8B
330
1F
100
AcDbEntity
  8
1
  6
Continuous
 62
     4
100
AcDbLine
 10
-12.61065769493826
 20
49.27001154440659
 30
0.0
 11
-12.44595181258532
 21
48.33667821107326
 31
0.0
  0
LINE
  5
8C
330
1F
100
AcDbEntity
  8
1
  6
Continuous
 62
     4
100
AcDbLine
 10
-12.44595181258532
 20
50.20334487773992
 30
0.0
 11
-12.61065769493826
 21
49.27001154440659
 31
0.0
  0
LINE
  5
8D
330
1F
100
AcDbEntity
  8
1
  6
Continuous
 62
     4
100
AcDbLine
 10
-12.19889298905591
 20
50.78667821107326
 30
0.0
 11
-12.44595181258532
 21
50.20334487773992
 31
0.0
  0
LINE
  5
8E
330
1F
100
AcDbEntity
  8
1
  6
Continuous
 62
     4
100
AcDbLine
 10
-11.70477534199708
 20
51.02001154440659
 30
0.0
 11
-12.19889298905591
 21
50.78667821107326
 31
0.0
  0
LINE
  5
8F
330
1F
100
AcDbEntity
  8
1
  6
Continuous
 62
     4
100
AcDbLine
 10
-1.5753635772912
 20
45.77001154440659
 30
0.0
 11
-1.5753635772912
 21
52.77001154440659
 31
0.0
  0
LINE
  5
90
330
1F
100
AcDbEntity
  8
1
  6
Continuous
 62
     4
100
AcDbLine
 10
-22.5753635772912
 20
52.77001154440659
 30
0.0
 11
-22.5753635772912
 21
45.77001154440659
 31
0.0
  0
LINE
  5
91
330
1F
100
AcDbEntity
  8
1
  6
Continuous
 62
     4
100
AcDbLine
 10
-1.5753635772912
 20
52.77001154440659
 30
0.0
 11
-22.5753635772912
 21
52.77001154440659
 31
0.0
  0
LINE
  5
92
330
1F
100
AcDbEntity
  8
1
  6
Continuous
 62
     4
100
AcDbLine
 10
-15.5753635772912
 20
45.77001154440659
 30
0.0
 11
-15.5753635772912
 21
52.77001154440659
 31
0.0
  0
LINE
  5
93
330
1F
100
AcDbEntity
  8
1
  6
Continuous
 62
     4
100
AcDbLine
 10
-22.5753635772912
 20
45.77001154440659
 30
0.0
 11
-1.5753635772912
 21
45.77001154440659
 31
0.0
  0
LINE
  5
94
330
1F
100
AcDbEntity
  8
1
  6
Continuous
 62
     4
100
AcDbLine
 10
-18.3753635772912
 20
49.9700115444066
 30
0.0
 11
-21.7003635772912
 21
46.64501154440659
 31
0.0
  0
LINE
  5
95
330
1F
100
AcDbEntity
  8
1
  6
Continuous
 62
     4
100
AcDbLine
 10
-16.4503635772912
 20
51.89501154440659
 30
0.0
 11
-19.0753635772912
 21
50.67001154440659
 31
0.0
  0
LINE
  5
96
330
1F
100
AcDbEntity
  8
1
  6
Continuous
 62
     4
100
AcDbLine
 10
-17.6753635772912
 20
49.27001154440659
 30
0.0
 11
-16.4503635772912
 21
51.89501154440659
 31
0.0
  0
LINE
  5
97
330
1F
100
AcDbEntity
  8
1
  6
Continuous
 62
     4
100
AcDbLine
 10
-19.0753635772912
 20
50.67001154440659
 30
0.0
 11
-17.6753635772912
 21
49.27001154440659
 31
0.0
  0
LINE
  5
98
330
1F
100
AcDbEntity
  8
1
  6
Continuous
 62
     4
100
AcDbLine
 10
-11.84044326996111
 20
66.71897629399862
 30
0.0
 11
-10.19338444643169
 21
66.71897629399862
 31
0.0
  0
LINE
  5
99
330
1F
100
AcDbEntity
  8
1
  6
Continuous
 62
     4
100
AcDbLine
 10
-11.0169138581964
 20
69.28564296066529
 30
0.0
 11
-9.88456091701993
 21
65.78564296066529
 31
0.0
  0
LINE
  5
9A
330
1F
100
AcDbEntity
  8
1
  6
Continuous
 62
     4
100
AcDbLine
 10
-12.14926679937287
 20
65.78564296066529
 30
0.0
 11
-11.0169138581964
 21
69.28564296066529
 31
0.0
  0
LINE
  5
9B
330
1F
100
AcDbEntity
  8
1
  6
Continuous
 62
     4
100
AcDbLine
 10
-17.56397268172581
 20
66.01897629399862
 30
0.0
 11
-17.74926679937287
 21
66.25230962733195
 31
0.0
  0
LINE
  5
9C
330
1F
100
AcDbEntity
  8
1
  6
Continuous
 62
     4
100
AcDbLine
 10
-17.3169138581964
 20
65.78564296066529
 30
0.0
 11
-17.56397268172581
 21
66.01897629399862
 31
0.0
  0
LINE
  5
9D
330
1F
100
AcDbEntity
  8
1
  6
Continuous
 62
     4
100
AcDbLine
 10
-16.88456091701993
 20
65.78564296066529
 30
0.0
 11
-17.3169138581964
 21
65.78564296066529
 31
0.0
  0
LINE
  5
9E
330
1F
100
AcDbEntity
  8
1
  6
Continuous
 62
     4
100
AcDbLine
 10
-16.69926679937287
 20
66.01897629399862
 30
0.0
 11
-16.88456091701993
 21
65.78564296066529
 31
0.0
  0
LINE
  5
9F
330
1F
100
AcDbEntity
  8
1
  6
Continuous
 62
     4
100
AcDbLine
 10
-16.57573738760816
 20
66.25230962733195
 30
0.0
 11
-16.69926679937287
 21
66.01897629399862
 31
0.0
  0
LINE
  5
A0
330
1F
100
AcDbEntity
  8
1
  6
Continuous
 62
     4
100
AcDbLine
 10
-16.51397268172581
 20
66.83564296066528
 30
0.0
 11
-16.57573738760816
 21
66.25230962733195
 31
0.0
  0
LINE
  5
A1
330
1F
100
AcDbEntity
  8
1
  6
Continuous
 62
     4
100
AcDbLine
 10
-16.57573738760816
 20
67.41897629399863
 30
0.0
 11
-16.51397268172581
 21
66.83564296066528
 31
0.0
  0
LINE
  5
A2
330
1F
100
AcDbEntity
  8
1
  6
Continuous
 62
     4
100
AcDbLine
 10
-16.69926679937287
 20
67.65230962733195
 30
0.0
 11
-16.57573738760816
 21
67.41897629399863
 31
0.0
  0
LINE
  5
A3
330
1F
100
AcDbEntity
  8
1
  6
Continuous
 62
     4
100
AcDbLine
 10
-16.88456091701993
 20
67.88564296066528
 30
0.0
 11
-16.69926679937287
 21
67.65230962733195
 31
0.0
  0
LINE
  5
A4
330
1F
100
AcDbEntity
  8
1
  6
Continuous
 62
     4
100
AcDbLine
 10
-17.13161974054934
 20
68.00230962733195
 30
0.0
 11
-16.88456091701993
 21
67.88564296066528
 31
0.0
  0
LINE
  5
A5
330
1F
100
AcDbEntity
  8
1
  6
Continuous
 62
     4
100
AcDbLine
 10
-17.37867856407875
 20
67.88564296066528
 30
0.0
 11
-17.13161974054934
 21
68.00230962733195
 31
0.0
  0
LINE
  5
A6
330
1F
100
AcDbEntity
  8
1
  6
Continuous
 62
     4
100
AcDbLine
 10
-17.68750209349052
 20
67.53564296066529
 30
0.0
 11
-17.37867856407875
 21
67.88564296066528
 31
0.0
  0
LINE
  5
A7
330
1F
100
AcDbEntity
  8
1
  6
Continuous
 62
     4
100
AcDbLine
 10
-17.62573738760816
 20
69.28564296066529
 30
0.0
 11
-17.68750209349052
 21
67.53564296066529
 31
0.0
  0
LINE
  5
A8
330
1F
100
AcDbEntity
  8
1
  6
Continuous
 62
     4
100
AcDbLine
 10
-16.57573738760816
 20
69.28564296066529
 30
0.0
 11
-17.62573738760816
 21
69.28564296066529
 31
0.0
  0
LINE
  5
A9
330
1F
100
AcDbEntity
  8
1
  6
Continuous
 62
     4
100
AcDbLine
 10
-18.98456091701993
 20
66.60230962733195
 30
0.0
 11
-18.98456091701993
 21
65.78564296066529
 31
0.0
  0
LINE
  5
AA
330
1F
100
AcDbEntity
  8
1
  6
Continuous
 62
     4
100
AcDbLine
 10
-18.86103150525522
 20
67.65230962733195
 30
0.0
 11
-18.98456091701993
 21
66.60230962733195
 31
0.0
  0
LINE
  5
AB
330
1F
100
AcDbEntity
  8
1
  6
Continuous
 62
     4
100
AcDbLine
 10
-18.3669138581964
 20
69.28564296066529
 30
0.0
 11
-18.86103150525522
 21
67.65230962733195
 31
0.0
  0
LINE
  5
AC
330
1F
100
AcDbEntity
  8
1
  6
Continuous
 62
     4
100
AcDbLine
 10
-19.60220797584346
 20
69.28564296066529
 30
0.0
 11
-18.3669138581964
 21
69.28564296066529
 31
0.0
  0
LINE
  5
AD
330
1F
100
AcDbEntity
  8
1
  6
Continuous
 62
     4
100
AcDbLine
 10
-20.52867856407875
 20
69.05230962733195
 30
0.0
 11
-20.89926679937287
 21
69.28564296066529
 31
0.0
  0
LINE
  5
AE
330
1F
100
AcDbEntity
  8
1
  6
Continuous
 62
     4
100
AcDbLine
 10
-20.28161974054934
 20
68.46897629399862
 30
0.0
 11
-20.52867856407875
 21
69.05230962733195
 31
0.0
  0
LINE
  5
AF
330
1F
100
AcDbEntity
  8
1
  6
Continuous
 62
     4
100
AcDbLine
 10
-20.21985503466699
 20
67.53564296066529
 30
0.0
 11
-20.28161974054934
 21
68.46897629399862
 31
0.0
  0
LINE
  5
B0
330
1F
100
AcDbEntity
  8
1
  6
Continuous
 62
     4
100
AcDbLine
 10
-20.28161974054934
 20
66.60230962733195
 30
0.0
 11
-20.21985503466699
 21
67.53564296066529
 31
0.0
  0
LINE
  5
B1
330
1F
100
AcDbEntity
  8
1
  6
Continuous
 62
     4
100
AcDbLine
 10
-20.52867856407875
 20
66.01897629399862
 30
0.0
 11
-20.28161974054934
 21
66.60230962733195
 31
0.0
  0
LINE
  5
B2
330
1F
100
AcDbEntity
  8
1
  6
Continuous
 62
     4
100
AcDbLine
 10
-20.89926679937287
 20
65.78564296066529
 30
0.0
 11
-20.52867856407875
 21
66.01897629399862
 31
0.0
  0
LINE
  5
B3
330
1F
100
AcDbEntity
  8
1
  6
Continuous
 62
     4
100
AcDbLine
 10
-21.26985503466699
 20
66.01897629399862
 30
0.0
 11
-20.89926679937287
 21
65.78564296066529
 31
0.0
  0
LINE
  5
B4
330
1F
100
AcDbEntity
  8
1
  6
Continuous
 62
     4
100
AcDbLine
 10
-21.45514915231404
 20
66.60230962733195
 30
0.0
 11
-21.26985503466699
 21
66.01897629399862
 31
0.0
  0
LINE
  5
B5
330
1F
100
AcDbEntity
  8
1
  6
Continuous
 62
     4
100
AcDbLine
 10
-21.57867856407875
 20
67.53564296066529
 30
0.0
 11
-21.45514915231404
 21
66.60230962733195
 31
0.0
  0
LINE
  5
B6
330
1F
100
AcDbEntity
  8
1
  6
Continuous
 62
     4
100
AcDbLine
 10
-21.45514915231404
 20
68.46897629399862
 30
0.0
 11
-21.57867856407875
 21
67.53564296066529
 31
0.0
  0
LINE
  5
B7
330
1F
100
AcDbEntity
  8
1
  6
Continuous
 62
     4
100
AcDbLine
 10
-21.26985503466699
 20
69.05230962733195
 30
0.0
 11
-21.45514915231404
 21
68.46897629399862
 31
0.0
  0
LINE
  5
B8
330
1F
100
AcDbEntity
  8
1
  6
Continuous
 62
     4
100
AcDbLine
 10
-20.89926679937287
 20
69.28564296066529
 30
0.0
 11
-21.26985503466699
 21
69.05230962733195
 31
0.0
  0
LINE
  5
B9
330
1F
100
AcDbEntity
  8
1
  6
Continuous
 62
     4
100
AcDbLine
 10
-22.38161974054934
 20
66.13564296066528
 30
0.0
 11
-22.31985503466699
 21
66.25230962733195
 31
0.0
  0
LINE
  5
BA
330
1F
100
AcDbEntity
  8
1
  6
Continuous
 62
     4
100
AcDbLine
 10
-22.31985503466699
 20
66.01897629399862
 30
0.0
 11
-22.38161974054934
 21
66.13564296066528
 31
0.0
  0
LINE
  5
BB
330
1F
100
AcDbEntity
  8
1
  6
Continuous
 62
     4
100
AcDbLine
 10
-22.25809032878464
 20
66.13564296066528
 30
0.0
 11
-22.31985503466699
 21
66.01897629399862
 31
0.0
  0
LINE
  5
BC
330
1F
100
AcDbEntity
  8
1
  6
Continuous
 62
     4
100
AcDbLine
 10
-22.31985503466699
 20
66.25230962733195
 30
0.0
 11
-22.25809032878464
 21
66.13564296066528
 31
0.0
  0
LINE
  5
BD
330
1F
100
AcDbEntity
  8
1
  6
Continuous
 62
     4
100
AcDbLine
 10
-22.38161974054934
 20
66.25230962733195
 30
0.0
 11
-22.25809032878464
 21
66.25230962733195
 31
0.0
  0
LINE
  5
BE
330
1F
100
AcDbEntity
  8
1
  6
Continuous
 62
     4
100
AcDbLine
 10
-22.38161974054934
 20
66.01897629399862
 30
0.0
 11
-22.38161974054934
 21
66.25230962733195
 31
0.0
  0
LINE
  5
BF
330
1F
100
AcDbEntity
  8
1
  6
Continuous
 62
     4
100
AcDbLine
 10
-22.25809032878464
 20
66.01897629399862
 30
0.0
 11
-22.38161974054934
 21
66.01897629399862
 31
0.0
  0
LINE
  5
C0
330
1F
100
AcDbEntity
  8
1
  6
Continuous
 62
     4
100
AcDbLine
 10
-22.25809032878464
 20
66.25230962733195
 30
0.0
 11
-22.25809032878464
 21
66.01897629399862
 31
0.0
  0
LINE
  5
C1
330
1F
100
AcDbEntity
  8
1
  6
Continuous
 62
     4
100
AcDbLine
 10
-22.44338444643169
 20
66.13564296066528
 30
0.0
 11
-22.31985503466699
 21
66.36897629399861
 31
0.0
  0
LINE
  5
C2
330
1F
100
AcDbEntity
  8
1
  6
Continuous
 62
     4
100
AcDbLine
 10
-22.31985503466699
 20
65.90230962733195
 30
0.0
 11
-22.44338444643169
 21
66.13564296066528
 31
0.0
  0
LINE
  5
C3
330
1F
100
AcDbEntity
  8
1
  6
Continuous
 62
     4
100
AcDbLine
 10
-22.19632562290228
 20
66.13564296066528
 30
0.0
 11
-22.31985503466699
 21
65.90230962733195
 31
0.0
  0
LINE
  5
C4
330
1F
100
AcDbEntity
  8
1
  6
Continuous
 62
     4
100
AcDbLine
 10
-22.31985503466699
 20
66.36897629399861
 30
0.0
 11
-22.19632562290228
 21
66.13564296066528
 31
0.0
  0
LINE
  5
C5
330
1F
100
AcDbEntity
  8
1
  6
Continuous
 62
     4
100
AcDbLine
 10
-23.36985503466699
 20
69.05230962733195
 30
0.0
 11
-23.74044326996111
 21
69.28564296066529
 31
0.0
  0
LINE
  5
C6
330
1F
100
AcDbEntity
  8
1
  6
Continuous
 62
     4
100
AcDbLine
 10
-23.12279621113758
 20
68.46897629399862
 30
0.0
 11
-23.36985503466699
 21
69.05230962733195
 31
0.0
  0
LINE
  5
C7
330
1F
100
AcDbEntity
  8
1
  6
Continuous
 62
     4
100
AcDbLine
 10
-23.06103150525522
 20
67.53564296066529
 30
0.0
 11
-23.12279621113758
 21
68.46897629399862
 31
0.0
  0
LINE
  5
C8
330
1F
100
AcDbEntity
  8
1
  6
Continuous
 62
     4
100
AcDbLine
 10
-23.12279621113758
 20
66.60230962733195
 30
0.0
 11
-23.06103150525522
 21
67.53564296066529
 31
0.0
  0
LINE
  5
C9
330
1F
100
AcDbEntity
  8
1
  6
Continuous
 62
     4
100
AcDbLine
 10
-23.36985503466699
 20
66.01897629399862
 30
0.0
 11
-23.12279621113758
 21
66.60230962733195
 31
0.0
  0
LINE
  5
CA
330
1F
100
AcDbEntity
  8
1
  6
Continuous
 62
     4
100
AcDbLine
 10
-23.74044326996111
 20
65.78564296066529
 30
0.0
 11
-23.36985503466699
 21
66.01897629399862
 31
0.0
  0
LINE
  5
CB
330
1F
100
AcDbEntity
  8
1
  6
Continuous
 62
     4
100
AcDbLine
 10
-24.11103150525522
 20
66.01897629399862
 30
0.0
 11
-23.74044326996111
 21
65.78564296066529
 31
0.0
  0
LINE
  5
CC
330
1F
100
AcDbEntity
  8
1
  6
Continuous
 62
     4
100
AcDbLine
 10
-24.29632562290228
 20
66.60230962733195
 30
0.0
 11
-24.11103150525522
 21
66.01897629399862
 31
0.0
  0
LINE
  5
CD
330
1F
100
AcDbEntity
  8
1
  6
Continuous
 62
     4
100
AcDbLine
 10
-24.41985503466699
 20
67.53564296066529
 30
0.0
 11
-24.29632562290228
 21
66.60230962733195
 31
0.0
  0
LINE
  5
CE
330
1F
100
AcDbEntity
  8
1
  6
Continuous
 62
     4
100
AcDbLine
 10
-24.29632562290228
 20
68.46897629399862
 30
0.0
 11
-24.41985503466699
 21
67.53564296066529
 31
0.0
  0
LINE
  5
CF
330
1F
100
AcDbEntity
  8
1
  6
Continuous
 62
     4
100
AcDbLine
 10
-24.11103150525522
 20
69.05230962733195
 30
0.0
 11
-24.29632562290228
 21
68.46897629399862
 31
0.0
  0
LINE
  5
D0
330
1F
100
AcDbEntity
  8
1
  6
Continuous
 62
     4
100
AcDbLine
 10
-23.74044326996111
 20
69.28564296066529
 30
0.0
 11
-24.11103150525522
 21
69.05230962733195
 31
0.0
  0
LINE
  5
D1
330
1F
100
AcDbEntity
  8
1
  6
Continuous
 62
     4
100
AcDbLine
 10
-25.29485503466698
 20
68.19189296066529
 30
0.0
 11
-25.46985503466699
 21
68.30126796066529
 31
0.0
  0
LINE
  5
D2
330
1F
100
AcDbEntity
  8
1
  6
Continuous
 62
     4
100
AcDbLine
 10
-25.17818836800032
 20
67.75439296066529
 30
0.0
 11
-25.29485503466698
 21
68.19189296066529
 31
0.0
  0
LINE
  5
D3
330
1F
100
AcDbEntity
  8
1
  6
Continuous
 62
     4
100
AcDbLine
 10
-25.17818836800032
 20
67.31689296066529
 30
0.0
 11
-25.17818836800032
 21
67.75439296066529
 31
0.0
  0
LINE
  5
D4
330
1F
100
AcDbEntity
  8
1
  6
Continuous
 62
     4
100
AcDbLine
 10
-25.35318836800032
 20
66.77001796066529
 30
0.0
 11
-25.17818836800032
 21
67.31689296066529
 31
0.0
  0
LINE
  5
D5
330
1F
100
AcDbEntity
  8
1
  6
Continuous
 62
     4
100
AcDbLine
 10
-25.58652170133365
 20
66.55126796066529
 30
0.0
 11
-25.35318836800032
 21
66.77001796066529
 31
0.0
  0
LINE
  5
D6
330
1F
100
AcDbEntity
  8
1
  6
Continuous
 62
     4
100
AcDbLine
 10
-25.81985503466699
 20
66.55126796066529
 30
0.0
 11
-25.58652170133365
 21
66.55126796066529
 31
0.0
  0
LINE
  5
D7
330
1F
100
AcDbEntity
  8
1
  6
Continuous
 62
     4
100
AcDbLine
 10
-25.99485503466699
 20
66.66064296066529
 30
0.0
 11
-25.81985503466699
 21
66.55126796066529
 31
0.0
  0
LINE
  5
D8
330
1F
100
AcDbEntity
  8
1
  6
Continuous
 62
     4
100
AcDbLine
 10
-26.11152170133365
 20
67.09814296066529
 30
0.0
 11
-25.99485503466699
 21
66.66064296066529
 31
0.0
  0
LINE
  5
D9
330
1F
100
AcDbEntity
  8
1
  6
Continuous
 62
     4
100
AcDbLine
 10
-26.11152170133365
 20
67.53564296066529
 30
0.0
 11
-26.11152170133365
 21
67.09814296066529
 31
0.0
  0
LINE
  5
DA
330
1F
100
AcDbEntity
  8
1
  6
Continuous
 62
     4
100
AcDbLine
 10
-25.93652170133365
 20
68.08251796066529
 30
0.0
 11
-26.11152170133365
 21
67.53564296066529
 31
0.0
  0
LINE
  5
DB
330
1F
100
AcDbEntity
  8
1
  6
Continuous
 62
     4
100
AcDbLine
 10
-25.70318836800032
 20
68.30126796066529
 30
0.0
 11
-25.93652170133365
 21
68.08251796066529
 31
0.0
  0
LINE
  5
DC
330
1F
100
AcDbEntity
  8
1
  6
Continuous
 62
     4
100
AcDbLine
 10
-25.46985503466699
 20
68.30126796066529
 30
0.0
 11
-25.70318836800032
 21
68.30126796066529
 31
0.0
  0
LINE
  5
DD
330
1F
100
AcDbEntity
  8
1
  6
Continuous
 62
     4
100
AcDbLine
 10
-25.93652170133365
 20
65.78564296066529
 30
0.0
 11
-25.35318836800032
 21
69.17626796066529
 31
0.0
  0
LINE
  5
DE
330
1F
100
AcDbEntity
  8
1
  6
Continuous
 62
     4
100
AcDbLine
 10
-14.5169138581964
 20
71.03564296066529
 30
0.0
 11
-14.5169138581964
 21
64.03564296066529
 31
0.0
  0
LINE
  5
DF
330
1F
100
AcDbEntity
  8
1
  6
Continuous
 62
     4
100
AcDbLine
 10
-7.5169138581964
 20
64.03564296066529
 30
0.0
 11
-7.5169138581964
 21
71.03564296066529
 31
0.0
  0
LINE
  5
E0
330
1F
100
AcDbEntity
  8
1
  6
Continuous
 62
     4
100
AcDbLine
 10
-35.5169138581964
 20
71.03564296066529
 30
0.0
 11
-35.5169138581964
 21
64.03564296066529
 31
0.0
  0
LINE
  5
E1
330
1F
100
AcDbEntity
  8
1
  6
Continuous
 62
     4
100
AcDbLine
 10
-7.5169138581964
 20
71.03564296066529
 30
0.0
 11
-35.5169138581964
 21
71.03564296066529
 31
0.0
  0
LINE
  5
E2
330
1F
100
AcDbEntity
  8
1
  6
Continuous
 62
     4
100
AcDbLine
 10
-28.5169138581964
 20
64.03564296066529
 30
0.0
 11
-28.5169138581964
 21
71.03564296066529
 31
0.0
  0
LINE
  5
E3
330
1F
100
AcDbEntity
  8
1
  6
Continuous
 62
     4
100
AcDbLine
 10
-35.5169138581964
 20
64.03564296066529
 30
0.0
 11
-7.5169138581964
 21
64.03564296066529
 31
0.0
  0
LINE
  5
E4
330
1F
100
AcDbEntity
  8
1
  6
Continuous
 62
     4
100
AcDbLine
 10
-34.46691385819641
 20
68.58564296066528
 30
0.0
 11
-34.6419138581964
 21
67.88564296066528
 31
0.0
  0
LINE
  5
E5
330
1F
100
AcDbEntity
  8
1
  6
Continuous
 62
     4
100
AcDbLine
 10
-34.11691385819641
 20
69.11064296066529
 30
0.0
 11
-34.46691385819641
 21
68.58564296066528
 31
0.0
  0
LINE
  5
E6
330
1F
100
AcDbEntity
  8
1
  6
Continuous
 62
     4
100
AcDbLine
 10
-33.59191385819641
 20
69.63564296066528
 30
0.0
 11
-34.11691385819641
 21
69.11064296066529
 31
0.0
  0
LINE
  5
E7
330
1F
100
AcDbEntity
  8
1
  6
Continuous
 62
     4
100
AcDbLine
 10
-33.0669138581964
 20
69.98564296066529
 30
0.0
 11
-33.59191385819641
 21
69.63564296066528
 31
0.0
  0
LINE
  5
E8
330
1F
100
AcDbEntity
  8
1
  6
Continuous
 62
     4
100
AcDbLine
 10
-32.36691385819641
 20
70.16064296066529
 30
0.0
 11
-33.0669138581964
 21
69.98564296066529
 31
0.0
  0
LINE
  5
E9
330
1F
100
AcDbEntity
  8
1
  6
Continuous
 62
     4
100
AcDbLine
 10
-31.6669138581964
 20
70.16064296066529
 30
0.0
 11
-32.36691385819641
 21
70.16064296066529
 31
0.0
  0
LINE
  5
EA
330
1F
100
AcDbEntity
  8
1
  6
Continuous
 62
     4
100
AcDbLine
 10
-30.9669138581964
 20
69.98564296066529
 30
0.0
 11
-31.6669138581964
 21
70.16064296066529
 31
0.0
  0
LINE
  5
EB
330
1F
100
AcDbEntity
  8
1
  6
Continuous
 62
     4
100
AcDbLine
 10
-30.4419138581964
 20
69.63564296066528
 30
0.0
 11
-30.9669138581964
 21
69.98564296066529
 31
0.0
  0
LINE
  5
EC
330
1F
100
AcDbEntity
  8
1
  6
Continuous
 62
     4
100
AcDbLine
 10
-29.9169138581964
 20
69.11064296066529
 30
0.0
 11
-30.4419138581964
 21
69.63564296066528
 31
0.0
  0
LINE
  5
ED
330
1F
100
AcDbEntity
  8
1
  6
Continuous
 62
     4
100
AcDbLine
 10
-29.5669138581964
 20
68.58564296066528
 30
0.0
 11
-29.9169138581964
 21
69.11064296066529
 31
0.0
  0
LINE
  5
EE
330
1F
100
AcDbEntity
  8
1
  6
Continuous
 62
     4
100
AcDbLine
 10
-29.3919138581964
 20
67.88564296066528
 30
0.0
 11
-29.5669138581964
 21
68.58564296066528
 31
0.0
  0
LINE
  5
EF
330
1F
100
AcDbEntity
  8
1
  6
Continuous
 62
     4
100
AcDbLine
 10
-29.3919138581964
 20
67.18564296066529
 30
0.0
 11
-29.3919138581964
 21
67.88564296066528
 31
0.0
  0
LINE
  5
F0
330
1F
100
AcDbEntity
  8
1
  6
Continuous
 62
     4
100
AcDbLine
 10
-29.5669138581964
 20
66.48564296066529
 30
0.0
 11
-29.3919138581964
 21
67.18564296066529
 31
0.0
  0
LINE
  5
F1
330
1F
100
AcDbEntity
  8
1
  6
Continuous
 62
     4
100
AcDbLine
 10
-29.9169138581964
 20
65.96064296066528
 30
0.0
 11
-29.5669138581964
 21
66.48564296066529
 31
0.0
  0
LINE
  5
F2
330
1F
100
AcDbEntity
  8
1
  6
Continuous
 62
     4
100
AcDbLine
 10
-30.4419138581964
 20
65.43564296066529
 30
0.0
 11
-29.9169138581964
 21
65.96064296066528
 31
0.0
  0
LINE
  5
F3
330
1F
100
AcDbEntity
  8
1
  6
Continuous
 62
     4
100
AcDbLine
 10
-30.9669138581964
 20
65.08564296066528
 30
0.0
 11
-30.4419138581964
 21
65.43564296066529
 31
0.0
  0
LINE
  5
F4
330
1F
100
AcDbEntity
  8
1
  6
Continuous
 62
     4
100
AcDbLine
 10
-31.6669138581964
 20
64.91064296066529
 30
0.0
 11
-30.9669138581964
 21
65.08564296066528
 31
0.0
  0
LINE
  5
F5
330
1F
100
AcDbEntity
  8
1
  6
Continuous
 62
     4
100
AcDbLine
 10
-32.36691385819641
 20
64.91064296066529
 30
0.0
 11
-31.6669138581964
 21
64.91064296066529
 31
0.0
  0
LINE
  5
F6
330
1F
100
AcDbEntity
  8
1
  6
Continuous
 62
     4
100
AcDbLine
 10
-33.0669138581964
 20
65.08564296066528
 30
0.0
 11
-32.36691385819641
 21
64.91064296066529
 31
0.0
  0
LINE
  5
F7
330
1F
100
AcDbEntity
  8
1
  6
Continuous
 62
     4
100
AcDbLine
 10
-33.59191385819641
 20
65.43564296066529
 30
0.0
 11
-33.0669138581964
 21
65.08564296066528
 31
0.0
  0
LINE
  5
F8
330
1F
100
AcDbEntity
  8
1
  6
Continuous
 62
     4
100
AcDbLine
 10
-34.11691385819641
 20
65.96064296066528
 30
0.0
 11
-33.59191385819641
 21
65.43564296066529
 31
0.0
  0
LINE
  5
F9
330
1F
100
AcDbEntity
  8
1
  6
Continuous
 62
     4
100
AcDbLine
 10
-34.46691385819641
 20
66.48564296066529
 30
0.0
 11
-34.11691385819641
 21
65.96064296066528
 31
0.0
  0
LINE
  5
FA
330
1F
100
AcDbEntity
  8
1
  6
Continuous
 62
     4
100
AcDbLine
 10
-34.6419138581964
 20
67.18564296066529
 30
0.0
 11
-34.46691385819641
 21
66.48564296066529
 31
0.0
  0
LINE
  5
FB
330
1F
100
AcDbEntity
  8
1
  6
Continuous
 62
     4
100
AcDbLine
 10
-34.6419138581964
 20
67.88564296066528
 30
0.0
 11
-34.6419138581964
 21
67.18564296066529
 31
0.0
  0
LINE
  5
FC
330
1F
100
AcDbEntity
  8
1
  6
Continuous
 62
     4
100
AcDbLine
 10
-33.4169138581964
 20
68.58564296066528
 30
0.0
 11
-33.7669138581964
 21
67.88564296066528
 31
0.0
  0
LINE
  5
FD
330
1F
100
AcDbEntity
  8
1
  6
Continuous
 62
     4
100
AcDbLine
 10
-33.0669138581964
 20
68.93564296066529
 30
0.0
 11
-33.4169138581964
 21
68.58564296066528
 31
0.0
  0
LINE
  5
FE
330
1F
100
AcDbEntity
  8
1
  6
Continuous
 62
     4
100
AcDbLine
 10
-32.36691385819641
 20
69.28564296066529
 30
0.0
 11
-33.0669138581964
 21
68.93564296066529
 31
0.0
  0
LINE
  5
FF
330
1F
100
AcDbEntity
  8
1
  6
Continuous
 62
     4
100
AcDbLine
 10
-31.6669138581964
 20
69.28564296066529
 30
0.0
 11
-32.36691385819641
 21
69.28564296066529
 31
0.0
  0
LINE
  5
100
330
1F
100
AcDbEntity
  8
1
  6
Continuous
 62
     4
100
AcDbLine
 10
-30.9669138581964
 20
68.93564296066529
 30
0.0
 11
-31.6669138581964
 21
69.28564296066529
 31
0.0
  0
LINE
  5
101
330
1F
100
AcDbEntity
  8
1
  6
Continuous
 62
     4
100
AcDbLine
 10
-30.61691385819641
 20
68.58564296066528
 30
0.0
 11
-30.9669138581964
 21
68.93564296066529
 31
0.0
  0
LINE
  5
102
330
1F
100
AcDbEntity
  8
1
  6
Continuous
 62
     4
100
AcDbLine
 10
-30.2669138581964
 20
67.88564296066528
 30
0.0
 11
-30.61691385819641
 21
68.58564296066528
 31
0.0
  0
LINE
  5
103
330
1F
100
AcDbEntity
  8
1
  6
Continuous
 62
     4
100
AcDbLine
 10
-30.2669138581964
 20
67.18564296066529
 30
0.0
 11
-30.2669138581964
 21
67.88564296066528
 31
0.0
  0
LINE
  5
104
330
1F
100
AcDbEntity
  8
1
  6
Continuous
 62
     4
100
AcDbLine
 10
-30.61691385819641
 20
66.48564296066529
 30
0.0
 11
-30.2669138581964
 21
67.18564296066529
 31
0.0
  0
LINE
  5
105
330
1F
100
AcDbEntity
  8
1
  6
Continuous
 62
     4
100
AcDbLine
 10
-30.9669138581964
 20
66.13564296066528
 30
0.0
 11
-30.61691385819641
 21
66.48564296066529
 31
0.0
  0
LINE
  5
106
330
1F
100
AcDbEntity
  8
1
  6
Continuous
 62
     4
100
AcDbLine
 10
-31.6669138581964
 20
65.78564296066529
 30
0.0
 11
-30.9669138581964
 21
66.13564296066528
 31
0.0
  0
LINE
  5
107
330
1F
100
AcDbEntity
  8
1
  6
Continuous
 62
     4
100
AcDbLine
 10
-32.36691385819641
 20
65.78564296066529
 30
0.0
 11
-31.6669138581964
 21
65.78564296066529
 31
0.0
  0
LINE
  5
108
330
1F
100
AcDbEntity
  8
1
  6
Continuous
 62
     4
100
AcDbLine
 10
-33.0669138581964
 20
66.13564296066528
 30
0.0
 11
-32.36691385819641
 21
65.78564296066529
 31
0.0
  0
LINE
  5
109
330
1F
100
AcDbEntity
  8
1
  6
Continuous
 62
     4
100
AcDbLine
 10
-33.4169138581964
 20
66.48564296066529
 30
0.0
 11
-33.0669138581964
 21
66.13564296066528
 31
0.0
  0
LINE
  5
10A
330
1F
100
AcDbEntity
  8
1
  6
Continuous
 62
     4
100
AcDbLine
 10
-33.7669138581964
 20
67.18564296066529
 30
0.0
 11
-33.4169138581964
 21
66.48564296066529
 31
0.0
  0
LINE
  5
10B
330
1F
100
AcDbEntity
  8
1
  6
Continuous
 62
     4
100
AcDbLine
 10
-33.7669138581964
 20
67.88564296066528
 30
0.0
 11
-33.7669138581964
 21
67.18564296066529
 31
0.0
  0
LINE
  5
10C
330
1F
100
AcDbEntity
  8
1
  6
Continuous
 62
     3
100
AcDbLine
 10
-62.64559011406351
 20
50.92574058180792
 30
0.0
 11
-62.95441364347528
 21
51.15907391514126
 31
0.0
  0
LINE
  5
10D
330
1F
100
AcDbEntity
  8
1
  6
Continuous
 62
     3
100
AcDbLine
 10
-62.23382540818116
 20
50.69240724847459
 30
0.0
 11
-62.64559011406351
 21
50.92574058180792
 31
0.0
  0
LINE
  5
10E
330
1F
100
AcDbEntity
  8
1
  6
Continuous
 62
     3
100
AcDbLine
 10
-61.51323717288705
 20
50.69240724847459
 30
0.0
 11
-62.23382540818116
 21
50.69240724847459
 31
0.0
  0
LINE
  5
10F
330
1F
100
AcDbEntity
  8
1
  6
Continuous
 62
     3
100
AcDbLine
 10
-61.20441364347528
 20
50.92574058180792
 30
0.0
 11
-61.51323717288705
 21
50.69240724847459
 31
0.0
  0
LINE
  5
110
330
1F
100
AcDbEntity
  8
1
  6
Continuous
 62
     3
100
AcDbLine
 10
-60.9985312905341
 20
51.15907391514126
 30
0.0
 11
-61.20441364347528
 21
50.92574058180792
 31
0.0
  0
LINE
  5
111
330
1F
100
AcDbEntity
  8
1
  6
Continuous
 62
     3
100
AcDbLine
 10
-60.89559011406351
 20
51.74240724847459
 30
0.0
 11
-60.9985312905341
 21
51.15907391514126
 31
0.0
  0
LINE
  5
112
330
1F
100
AcDbEntity
  8
1
  6
Continuous
 62
     3
100
AcDbLine
 10
-60.9985312905341
 20
52.32574058180792
 30
0.0
 11
-60.89559011406351
 21
51.74240724847459
 31
0.0
  0
LINE
  5
113
330
1F
100
AcDbEntity
  8
1
  6
Continuous
 62
     3
100
AcDbLine
 10
-61.20441364347528
 20
52.55907391514126
 30
0.0
 11
-60.9985312905341
 21
52.32574058180792
 31
0.0
  0
LINE
  5
114
330
1F
100
AcDbEntity
  8
1
  6
Continuous
 62
     3
100
AcDbLine
 10
-61.51323717288705
 20
52.79240724847459
 30
0.0
 11
-61.20441364347528
 21
52.55907391514126
 31
0.0
  0
LINE
  5
115
330
1F
100
AcDbEntity
  8
1
  6
Continuous
 62
     3
100
AcDbLine
 10
-61.92500187876939
 20
52.90907391514126
 30
0.0
 11
-61.51323717288705
 21
52.79240724847459
 31
0.0
  0
LINE
  5
116
330
1F
100
AcDbEntity
  8
1
  6
Continuous
 62
     3
100
AcDbLine
 10
-62.33676658465175
 20
52.79240724847459
 30
0.0
 11
-61.92500187876939
 21
52.90907391514126
 31
0.0
  0
LINE
  5
117
330
1F
100
AcDbEntity
  8
1
  6
Continuous
 62
     3
100
AcDbLine
 10
-62.85147246700469
 20
52.44240724847459
 30
0.0
 11
-62.33676658465175
 21
52.79240724847459
 31
0.0
  0
LINE
  5
118
330
1F
100
AcDbEntity
  8
1
  6
Continuous
 62
     3
100
AcDbLine
 10
-62.7485312905341
 20
54.19240724847459
 30
0.0
 11
-62.85147246700469
 21
52.44240724847459
 31
0.0
  0
LINE
  5
119
330
1F
100
AcDbEntity
  8
1
  6
Continuous
 62
     3
100
AcDbLine
 10
-60.9985312905341
 20
54.19240724847459
 30
0.0
 11
-62.7485312905341
 21
54.19240724847459
 31
0.0
  0
LINE
  5
11A
330
1F
100
AcDbEntity
  8
1
  6
Continuous
 62
     3
100
AcDbLine
 10
-64.29264893759292
 20
51.04240724847459
 30
0.0
 11
-64.18970776112234
 21
51.15907391514126
 31
0.0
  0
LINE
  5
11B
330
1F
100
AcDbEntity
  8
1
  6
Continuous
 62
     3
100
AcDbLine
 10
-64.18970776112234
 20
50.92574058180792
 30
0.0
 11
-64.29264893759292
 21
51.04240724847459
 31
0.0
  0
LINE
  5
11C
330
1F
100
AcDbEntity
  8
1
  6
Continuous
 62
     3
100
AcDbLine
 10
-64.08676658465174
 20
51.04240724847459
 30
0.0
 11
-64.18970776112234
 21
50.92574058180792
 31
0.0
  0
LINE
  5
11D
330
1F
100
AcDbEntity
  8
1
  6
Continuous
 62
     3
100
AcDbLine
 10
-64.18970776112234
 20
51.15907391514126
 30
0.0
 11
-64.08676658465174
 21
51.04240724847459
 31
0.0
  0
LINE
  5
11E
330
1F
100
AcDbEntity
  8
1
  6
Continuous
 62
     3
100
AcDbLine
 10
-64.29264893759292
 20
51.15907391514126
 30
0.0
 11
-64.08676658465174
 21
51.15907391514126
 31
0.0
  0
LINE
  5
11F
330
1F
100
AcDbEntity
  8
1
  6
Continuous
 62
     3
100
AcDbLine
 10
-64.29264893759292
 20
50.92574058180792
 30
0.0
 11
-64.29264893759292
 21
51.15907391514126
 31
0.0
  0
LINE
  5
120
330
1F
100
AcDbEntity
  8
1
  6
Continuous
 62
     3
100
AcDbLine
 10
-64.08676658465174
 20
50.92574058180792
 30
0.0
 11
-64.29264893759292
 21
50.92574058180792
 31
0.0
  0
LINE
  5
121
330
1F
100
AcDbEntity
  8
1
  6
Continuous
 62
     3
100
AcDbLine
 10
-64.08676658465174
 20
51.15907391514126
 30
0.0
 11
-64.08676658465174
 21
50.92574058180792
 31
0.0
  0
LINE
  5
122
330
1F
100
AcDbEntity
  8
1
  6
Continuous
 62
     3
100
AcDbLine
 10
-64.39559011406351
 20
51.04240724847459
 30
0.0
 11
-64.18970776112234
 21
51.27574058180792
 31
0.0
  0
LINE
  5
123
330
1F
100
AcDbEntity
  8
1
  6
Continuous
 62
     3
100
AcDbLine
 10
-64.18970776112234
 20
50.80907391514126
 30
0.0
 11
-64.39559011406351
 21
51.04240724847459
 31
0.0
  0
LINE
  5
124
330
1F
100
AcDbEntity
  8
1
  6
Continuous
 62
     3
100
AcDbLine
 10
-63.98382540818115
 20
51.04240724847459
 30
0.0
 11
-64.18970776112234
 21
50.80907391514126
 31
0.0
  0
LINE
  5
125
330
1F
100
AcDbEntity
  8
1
  6
Continuous
 62
     3
100
AcDbLine
 10
-64.18970776112234
 20
51.27574058180792
 30
0.0
 11
-63.98382540818115
 21
51.04240724847459
 31
0.0
  0
LINE
  5
126
330
1F
100
AcDbEntity
  8
1
  6
Continuous
 62
     3
100
AcDbLine
 10
-66.04264893759292
 20
50.69240724847459
 30
0.0
 11
-66.04264893759292
 21
52.32574058180792
 31
0.0
  0
LINE
  5
127
330
1F
100
AcDbEntity
  8
1
  6
Continuous
 62
     3
100
AcDbLine
 10
-67.89559011406351
 20
51.50907391514126
 30
0.0
 11
-65.4250018787694
 21
51.50907391514126
 31
0.0
  0
LINE
  5
128
330
1F
100
AcDbEntity
  8
1
  6
Continuous
 62
     3
100
AcDbLine
 10
-66.04264893759292
 20
54.19240724847459
 30
0.0
 11
-67.89559011406351
 21
51.50907391514126
 31
0.0
  0
LINE
  5
129
330
1F
100
AcDbEntity
  8
1
  6
Continuous
 62
     3
100
AcDbLine
 10
-69.35392344739684
 20
53.09865724847459
 30
0.0
 11
-69.64559011406351
 21
53.20803224847459
 31
0.0
  0
LINE
  5
12A
330
1F
100
AcDbEntity
  8
1
  6
Continuous
 62
     3
100
AcDbLine
 10
-69.1594790029524
 20
52.66115724847459
 30
0.0
 11
-69.35392344739684
 21
53.09865724847459
 31
0.0
  0
LINE
  5
12B
330
1F
100
AcDbEntity
  8
1
  6
Continuous
 62
     3
100
AcDbLine
 10
-69.1594790029524
 20
52.22365724847459
 30
0.0
 11
-69.1594790029524
 21
52.66115724847459
 31
0.0
  0
LINE
  5
12C
330
1F
100
AcDbEntity
  8
1
  6
Continuous
 62
     3
100
AcDbLine
 10
-69.45114566961907
 20
51.67678224847459
 30
0.0
 11
-69.1594790029524
 21
52.22365724847459
 31
0.0
  0
LINE
  5
12D
330
1F
100
AcDbEntity
  8
1
  6
Continuous
 62
     3
100
AcDbLine
 10
-69.84003455850795
 20
51.45803224847459
 30
0.0
 11
-69.45114566961907
 21
51.67678224847459
 31
0.0
  0
LINE
  5
12E
330
1F
100
AcDbEntity
  8
1
  6
Continuous
 62
     3
100
AcDbLine
 10
-70.22892344739684
 20
51.45803224847459
 30
0.0
 11
-69.84003455850795
 21
51.45803224847459
 31
0.0
  0
LINE
  5
12F
330
1F
100
AcDbEntity
  8
1
  6
Continuous
 62
     3
100
AcDbLine
 10
-70.52059011406351
 20
51.56740724847459
 30
0.0
 11
-70.22892344739684
 21
51.45803224847459
 31
0.0
  0
LINE
  5
130
330
1F
100
AcDbEntity
  8
1
  6
Continuous
 62
     3
100
AcDbLine
 10
-70.71503455850795
 20
52.00490724847459
 30
0.0
 11
-70.52059011406351
 21
51.56740724847459
 31
0.0
  0
LINE
  5
131
330
1F
100
AcDbEntity
  8
1
  6
Continuous
 62
     3
100
AcDbLine
 10
-70.71503455850795
 20
52.44240724847459
 30
0.0
 11
-70.71503455850795
 21
52.00490724847459
 31
0.0
  0
LINE
  5
132
330
1F
100
AcDbEntity
  8
1
  6
Continuous
 62
     3
100
AcDbLine
 10
-70.42336789184128
 20
52.98928224847459
 30
0.0
 11
-70.71503455850795
 21
52.44240724847459
 31
0.0
  0
LINE
  5
133
330
1F
100
AcDbEntity
  8
1
  6
Continuous
 62
     3
100
AcDbLine
 10
-70.0344790029524
 20
53.20803224847459
 30
0.0
 11
-70.42336789184128
 21
52.98928224847459
 31
0.0
  0
LINE
  5
134
330
1F
100
AcDbEntity
  8
1
  6
Continuous
 62
     3
100
AcDbLine
 10
-69.64559011406351
 20
53.20803224847459
 30
0.0
 11
-70.0344790029524
 21
53.20803224847459
 31
0.0
  0
LINE
  5
135
330
1F
100
AcDbEntity
  8
1
  6
Continuous
 62
     3
100
AcDbLine
 10
-70.42336789184128
 20
50.69240724847459
 30
0.0
 11
-69.45114566961907
 21
54.08303224847459
 31
0.0
  0
LINE
  5
136
330
1F
100
AcDbEntity
  8
1
  6
Continuous
 62
     3
100
AcDbLine
 10
-74.27794305523999
 20
52.44240724847459
 30
0.0
 11
-72.4250018787694
 21
52.44240724847459
 31
0.0
  0
LINE
  5
137
330
1F
100
AcDbEntity
  8
1
  6
Continuous
 62
     3
100
AcDbLine
 10
-75.9250018787694
 20
50.69240724847459
 30
0.0
 11
-75.9250018787694
 21
52.32574058180792
 31
0.0
  0
LINE
  5
138
330
1F
100
AcDbEntity
  8
1
  6
Continuous
 62
     3
100
AcDbLine
 10
-77.77794305523999
 20
51.50907391514126
 30
0.0
 11
-75.30735481994587
 21
51.50907391514126
 31
0.0
  0
LINE
  5
139
330
1F
100
AcDbEntity
  8
1
  6
Continuous
 62
     3
100
AcDbLine
 10
-75.9250018787694
 20
54.19240724847459
 30
0.0
 11
-77.77794305523999
 21
51.50907391514126
 31
0.0
  0
LINE
  5
13A
330
1F
100
AcDbEntity
  8
1
  6
Continuous
 62
     3
100
AcDbLine
 10
23.23939234730921
 20
87.70342670709678
 30
0.0
 11
23.23939234730921
 21
86.88676004043012
 31
0.0
  0
LINE
  5
13B
330
1F
100
AcDbEntity
  8
1
  6
Continuous
 62
     3
100
AcDbLine
 10
23.40409822966215
 20
88.75342670709678
 30
0.0
 11
23.23939234730921
 21
87.70342670709678
 31
0.0
  0
LINE
  5
13C
330
1F
100
AcDbEntity
  8
1
  6
Continuous
 62
     3
100
AcDbLine
 10
24.06292175907391
 20
90.38676004043012
 30
0.0
 11
23.40409822966215
 21
88.75342670709678
 31
0.0
  0
LINE
  5
13D
330
1F
100
AcDbEntity
  8
1
  6
Continuous
 62
     3
100
AcDbLine
 10
22.4158629355445
 20
90.38676004043012
 30
0.0
 11
24.06292175907391
 21
90.38676004043012
 31
0.0
  0
LINE
  5
13E
330
1F
100
AcDbEntity
  8
1
  6
Continuous
 62
     3
100
AcDbLine
 10
21.18056881789744
 20
90.15342670709678
 30
0.0
 11
20.68645117083862
 21
90.38676004043012
 31
0.0
  0
LINE
  5
13F
330
1F
100
AcDbEntity
  8
1
  6
Continuous
 62
     3
100
AcDbLine
 10
21.50998058260332
 20
89.57009337376346
 30
0.0
 11
21.18056881789744
 21
90.15342670709678
 31
0.0
  0
LINE
  5
140
330
1F
100
AcDbEntity
  8
1
  6
Continuous
 62
     3
100
AcDbLine
 10
21.59233352377979
 20
88.63676004043012
 30
0.0
 11
21.50998058260332
 21
89.57009337376346
 31
0.0
  0
LINE
  5
141
330
1F
100
AcDbEntity
  8
1
  6
Continuous
 62
     3
100
AcDbLine
 10
21.50998058260332
 20
87.70342670709678
 30
0.0
 11
21.59233352377979
 21
88.63676004043012
 31
0.0
  0
LINE
  5
142
330
1F
100
AcDbEntity
  8
1
  6
Continuous
 62
     3
100
AcDbLine
 10
21.18056881789744
 20
87.12009337376345
 30
0.0
 11
21.50998058260332
 21
87.70342670709678
 31
0.0
  0
LINE
  5
143
330
1F
100
AcDbEntity
  8
1
  6
Continuous
 62
     3
100
AcDbLine
 10
20.68645117083862
 20
86.88676004043012
 30
0.0
 11
21.18056881789744
 21
87.12009337376345
 31
0.0
  0
LINE
  5
144
330
1F
100
AcDbEntity
  8
1
  6
Continuous
 62
     3
100
AcDbLine
 10
20.19233352377979
 20
87.12009337376345
 30
0.0
 11
20.68645117083862
 21
86.88676004043012
 31
0.0
  0
LINE
  5
145
330
1F
100
AcDbEntity
  8
1
  6
Continuous
 62
     3
100
AcDbLine
 10
19.94527470025038
 20
87.70342670709678
 30
0.0
 11
20.19233352377979
 21
87.12009337376345
 31
0.0
  0
LINE
  5
146
330
1F
100
AcDbEntity
  8
1
  6
Continuous
 62
     3
100
AcDbLine
 10
19.78056881789744
 20
88.63676004043012
 30
0.0
 11
19.94527470025038
 21
87.70342670709678
 31
0.0
  0
LINE
  5
147
330
1F
100
AcDbEntity
  8
1
  6
Continuous
 62
     3
100
AcDbLine
 10
19.94527470025038
 20
89.57009337376346
 30
0.0
 11
19.78056881789744
 21
88.63676004043012
 31
0.0
  0
LINE
  5
148
330
1F
100
AcDbEntity
  8
1
  6
Continuous
 62
     3
100
AcDbLine
 10
20.19233352377979
 20
90.15342670709678
 30
0.0
 11
19.94527470025038
 21
89.57009337376346
 31
0.0
  0
LINE
  5
149
330
1F
100
AcDbEntity
  8
1
  6
Continuous
 62
     3
100
AcDbLine
 10
20.68645117083862
 20
90.38676004043012
 30
0.0
 11
20.19233352377979
 21
90.15342670709678
 31
0.0
  0
LINE
  5
14A
330
1F
100
AcDbEntity
  8
1
  6
Continuous
 62
     3
100
AcDbLine
 10
18.54527470025038
 20
90.15342670709678
 30
0.0
 11
18.05115705319156
 21
90.38676004043012
 31
0.0
  0
LINE
  5
14B
330
1F
100
AcDbEntity
  8
1
  6
Continuous
 62
     3
100
AcDbLine
 10
18.87468646495627
 20
89.57009337376346
 30
0.0
 11
18.54527470025038
 21
90.15342670709678
 31
0.0
  0
LINE
  5
14C
330
1F
100
AcDbEntity
  8
1
  6
Continuous
 62
     3
100
AcDbLine
 10
18.95703940613274
 20
88.63676004043012
 30
0.0
 11
18.87468646495627
 21
89.57009337376346
 31
0.0
  0
LINE
  5
14D
330
1F
100
AcDbEntity
  8
1
  6
Continuous
 62
     3
100
AcDbLine
 10
18.87468646495627
 20
87.70342670709678
 30
0.0
 11
18.95703940613274
 21
88.63676004043012
 31
0.0
  0
LINE
  5
14E
330
1F
100
AcDbEntity
  8
1
  6
Continuous
 62
     3
100
AcDbLine
 10
18.54527470025038
 20
87.12009337376345
 30
0.0
 11
18.87468646495627
 21
87.70342670709678
 31
0.0
  0
LINE
  5
14F
330
1F
100
AcDbEntity
  8
1
  6
Continuous
 62
     3
100
AcDbLine
 10
18.05115705319156
 20
86.88676004043012
 30
0.0
 11
18.54527470025038
 21
87.12009337376345
 31
0.0
  0
LINE
  5
150
330
1F
100
AcDbEntity
  8
1
  6
Continuous
 62
     3
100
AcDbLine
 10
17.55703940613273
 20
87.12009337376345
 30
0.0
 11
18.05115705319156
 21
86.88676004043012
 31
0.0
  0
LINE
  5
151
330
1F
100
AcDbEntity
  8
1
  6
Continuous
 62
     3
100
AcDbLine
 10
17.30998058260332
 20
87.70342670709678
 30
0.0
 11
17.55703940613273
 21
87.12009337376345
 31
0.0
  0
LINE
  5
152
330
1F
100
AcDbEntity
  8
1
  6
Continuous
 62
     3
100
AcDbLine
 10
17.14527470025038
 20
88.63676004043012
 30
0.0
 11
17.30998058260332
 21
87.70342670709678
 31
0.0
  0
LINE
  5
153
330
1F
100
AcDbEntity
  8
1
  6
Continuous
 62
     3
100
AcDbLine
 10
17.30998058260332
 20
89.57009337376346
 30
0.0
 11
17.14527470025038
 21
88.63676004043012
 31
0.0
  0
LINE
  5
154
330
1F
100
AcDbEntity
  8
1
  6
Continuous
 62
     3
100
AcDbLine
 10
17.55703940613273
 20
90.15342670709678
 30
0.0
 11
17.30998058260332
 21
89.57009337376346
 31
0.0
  0
LINE
  5
155
330
1F
100
AcDbEntity
  8
1
  6
Continuous
 62
     3
100
AcDbLine
 10
18.05115705319156
 20
90.38676004043012
 30
0.0
 11
17.55703940613273
 21
90.15342670709678
 31
0.0
  0
LINE
  5
156
330
1F
100
AcDbEntity
  8
1
  6
Continuous
 62
     3
100
AcDbLine
 10
15.90998058260333
 20
90.38676004043012
 30
0.0
 11
15.90998058260333
 21
86.88676004043012
 31
0.0
  0
LINE
  5
157
330
1F
100
AcDbEntity
  8
1
  6
Continuous
 62
     3
100
AcDbLine
 10
15.49821587672097
 20
90.03676004043012
 30
0.0
 11
15.90998058260333
 21
90.38676004043012
 31
0.0
  0
LINE
  5
158
330
1F
100
AcDbEntity
  8
1
  6
Continuous
 62
     3
100
AcDbLine
 10
12.6158629355445
 20
86.88676004043012
 30
0.0
 11
14.26292175907391
 21
86.88676004043012
 31
0.0
  0
LINE
  5
159
330
1F
100
AcDbEntity
  8
1
  6
Continuous
 62
     3
100
AcDbLine
 10
12.6158629355445
 20
90.38676004043012
 30
0.0
 11
12.6158629355445
 21
86.88676004043012
 31
0.0
  0
LINE
  5
15A
330
1F
100
AcDbEntity
  8
1
  6
Continuous
 62
     3
100
AcDbLine
 10
11.79233352377979
 20
87.58676004043012
 30
0.0
 11
11.79233352377979
 21
90.38676004043012
 31
0.0
  0
LINE
  5
15B
330
1F
100
AcDbEntity
  8
1
  6
Continuous
 62
     3
100
AcDbLine
 10
11.62762764142685
 20
87.23676004043011
 30
0.0
 11
11.79233352377979
 21
87.58676004043012
 31
0.0
  0
LINE
  5
15C
330
1F
100
AcDbEntity
  8
1
  6
Continuous
 62
     3
100
AcDbLine
 10
11.38056881789744
 20
87.00342670709678
 30
0.0
 11
11.62762764142685
 21
87.23676004043011
 31
0.0
  0
LINE
  5
15D
330
1F
100
AcDbEntity
  8
1
  6
Continuous
 62
     3
100
AcDbLine
 10
10.96880411201509
 20
86.88676004043012
 30
0.0
 11
11.38056881789744
 21
87.00342670709678
 31
0.0
  0
LINE
  5
15E
330
1F
100
AcDbEntity
  8
1
  6
Continuous
 62
     3
100
AcDbLine
 10
10.63939234730921
 20
87.00342670709678
 30
0.0
 11
10.96880411201509
 21
86.88676004043012
 31
0.0
  0
LINE
  5
15F
330
1F
100
AcDbEntity
  8
1
  6
Continuous
 62
     3
100
AcDbLine
 10
10.30998058260332
 20
87.23676004043011
 30
0.0
 11
10.63939234730921
 21
87.00342670709678
 31
0.0
  0
LINE
  5
160
330
1F
100
AcDbEntity
  8
1
  6
Continuous
 62
     3
100
AcDbLine
 10
10.22762764142685
 20
87.58676004043012
 30
0.0
 11
10.30998058260332
 21
87.23676004043011
 31
0.0
  0
LINE
  5
161
330
1F
100
AcDbEntity
  8
1
  6
Continuous
 62
     3
100
AcDbLine
 10
10.22762764142685
 20
90.38676004043012
 30
0.0
 11
10.22762764142685
 21
87.58676004043012
 31
0.0
  0
LINE
  5
162
330
1F
100
AcDbEntity
  8
1
  6
Continuous
 62
     3
100
AcDbLine
 10
20.52174528848568
 20
93.88676004043012
 30
0.0
 11
20.52174528848568
 21
95.52009337376346
 31
0.0
  0
LINE
  5
163
330
1F
100
AcDbEntity
  8
1
  6
Continuous
 62
     3
100
AcDbLine
 10
19.03939234730921
 20
94.70342670709678
 30
0.0
 11
21.0158629355445
 21
94.70342670709678
 31
0.0
  0
LINE
  5
164
330
1F
100
AcDbEntity
  8
1
  6
Continuous
 62
     3
100
AcDbLine
 10
20.52174528848568
 20
97.38676004043012
 30
0.0
 11
19.03939234730921
 21
94.70342670709678
 31
0.0
  0
LINE
  5
165
330
1F
100
AcDbEntity
  8
1
  6
Continuous
 62
     3
100
AcDbLine
 10
16.40409822966215
 20
93.88676004043012
 30
0.0
 11
18.2158629355445
 21
93.88676004043012
 31
0.0
  0
LINE
  5
166
330
1F
100
AcDbEntity
  8
1
  6
Continuous
 62
     3
100
AcDbLine
 10
16.56880411201509
 20
94.47009337376345
 30
0.0
 11
16.40409822966215
 21
93.88676004043012
 31
0.0
  0
LINE
  5
167
330
1F
100
AcDbEntity
  8
1
  6
Continuous
 62
     3
100
AcDbLine
 10
16.73350999436803
 20
94.82009337376346
 30
0.0
 11
16.56880411201509
 21
94.47009337376345
 31
0.0
  0
LINE
  5
168
330
1F
100
AcDbEntity
  8
1
  6
Continuous
 62
     3
100
AcDbLine
 10
17.06292175907391
 20
95.17009337376345
 30
0.0
 11
16.73350999436803
 21
94.82009337376346
 31
0.0
  0
LINE
  5
169
330
1F
100
AcDbEntity
  8
1
  6
Continuous
 62
     3
100
AcDbLine
 10
17.39233352377979
 20
95.40342670709678
 30
0.0
 11
17.06292175907391
 21
95.17009337376345
 31
0.0
  0
LINE
  5
16A
330
1F
100
AcDbEntity
  8
1
  6
Continuous
 62
     3
100
AcDbLine
 10
17.80409822966215
 20
95.75342670709678
 30
0.0
 11
17.39233352377979
 21
95.40342670709678
 31
0.0
  0
LINE
  5
16B
330
1F
100
AcDbEntity
  8
1
  6
Continuous
 62
     3
100
AcDbLine
 10
18.05115705319156
 20
96.22009337376345
 30
0.0
 11
17.80409822966215
 21
95.75342670709678
 31
0.0
  0
LINE
  5
16C
330
1F
100
AcDbEntity
  8
1
  6
Continuous
 62
     3
100
AcDbLine
 10
18.13350999436803
 20
96.68676004043012
 30
0.0
 11
18.05115705319156
 21
96.22009337376345
 31
0.0
  0
LINE
  5
16D
330
1F
100
AcDbEntity
  8
1
  6
Continuous
 62
     3
100
AcDbLine
 10
17.80409822966215
 20
97.15342670709678
 30
0.0
 11
18.13350999436803
 21
96.68676004043012
 31
0.0
  0
LINE
  5
16E
330
1F
100
AcDbEntity
  8
1
  6
Continuous
 62
     3
100
AcDbLine
 10
17.30998058260332
 20
97.38676004043012
 30
0.0
 11
17.80409822966215
 21
97.15342670709678
 31
0.0
  0
LINE
  5
16F
330
1F
100
AcDbEntity
  8
1
  6
Continuous
 62
     3
100
AcDbLine
 10
16.8158629355445
 20
97.15342670709678
 30
0.0
 11
17.30998058260332
 21
97.38676004043012
 31
0.0
  0
LINE
  5
170
330
1F
100
AcDbEntity
  8
1
  6
Continuous
 62
     3
100
AcDbLine
 10
16.48645117083862
 20
96.68676004043012
 30
0.0
 11
16.8158629355445
 21
97.15342670709678
 31
0.0
  0
LINE
  5
171
330
1F
100
AcDbEntity
  8
1
  6
Continuous
 62
     3
100
AcDbLine
 10
15.58056881789744
 20
95.52009337376346
 30
0.0
 11
14.83939234730921
 21
95.52009337376346
 31
0.0
  0
LINE
  5
172
330
1F
100
AcDbEntity
  8
1
  6
Continuous
 62
     3
100
AcDbLine
 10
15.58056881789744
 20
94.82009337376346
 30
0.0
 11
15.58056881789744
 21
95.52009337376346
 31
0.0
  0
LINE
  5
173
330
1F
100
AcDbEntity
  8
1
  6
Continuous
 62
     3
100
AcDbLine
 10
15.49821587672097
 20
94.47009337376345
 30
0.0
 11
15.58056881789744
 21
94.82009337376346
 31
0.0
  0
LINE
  5
174
330
1F
100
AcDbEntity
  8
1
  6
Continuous
 62
     3
100
AcDbLine
 10
15.33350999436803
 20
94.23676004043011
 30
0.0
 11
15.49821587672097
 21
94.47009337376345
 31
0.0
  0
LINE
  5
175
330
1F
100
AcDbEntity
  8
1
  6
Continuous
 62
     3
100
AcDbLine
 10
15.08645117083862
 20
94.00342670709678
 30
0.0
 11
15.33350999436803
 21
94.23676004043011
 31
0.0
  0
LINE
  5
176
330
1F
100
AcDbEntity
  8
1
  6
Continuous
 62
     3
100
AcDbLine
 10
14.67468646495627
 20
93.88676004043012
 30
0.0
 11
15.08645117083862
 21
94.00342670709678
 31
0.0
  0
LINE
  5
177
330
1F
100
AcDbEntity
  8
1
  6
Continuous
 62
     3
100
AcDbLine
 10
14.26292175907391
 20
94.00342670709678
 30
0.0
 11
14.67468646495627
 21
93.88676004043012
 31
0.0
  0
LINE
  5
178
330
1F
100
AcDbEntity
  8
1
  6
Continuous
 62
     3
100
AcDbLine
 10
14.0158629355445
 20
94.47009337376345
 30
0.0
 11
14.26292175907391
 21
94.00342670709678
 31
0.0
  0
LINE
  5
179
330
1F
100
AcDbEntity
  8
1
  6
Continuous
 62
     3
100
AcDbLine
 10
13.93350999436803
 20
94.70342670709678
 30
0.0
 11
14.0158629355445
 21
94.47009337376345
 31
0.0
  0
LINE
  5
17A
330
1F
100
AcDbEntity
  8
1
  6
Continuous
 62
     3
100
AcDbLine
 10
13.76880411201509
 20
95.63676004043012
 30
0.0
 11
13.93350999436803
 21
94.70342670709678
 31
0.0
  0
LINE
  5
17B
330
1F
100
AcDbEntity
  8
1
  6
Continuous
 62
     3
100
AcDbLine
 10
13.85115705319156
 20
96.10342670709679
 30
0.0
 11
13.76880411201509
 21
95.63676004043012
 31
0.0
  0
LINE
  5
17C
330
1F
100
AcDbEntity
  8
1
  6
Continuous
 62
     3
100
AcDbLine
 10
14.0158629355445
 20
96.80342670709679
 30
0.0
 11
13.85115705319156
 21
96.10342670709679
 31
0.0
  0
LINE
  5
17D
330
1F
100
AcDbEntity
  8
1
  6
Continuous
 62
     3
100
AcDbLine
 10
14.09821587672097
 20
97.03676004043012
 30
0.0
 11
14.0158629355445
 21
96.80342670709679
 31
0.0
  0
LINE
  5
17E
330
1F
100
AcDbEntity
  8
1
  6
Continuous
 62
     3
100
AcDbLine
 10
14.34527470025038
 20
97.27009337376346
 30
0.0
 11
14.09821587672097
 21
97.03676004043012
 31
0.0
  0
LINE
  5
17F
330
1F
100
AcDbEntity
  8
1
  6
Continuous
 62
     3
100
AcDbLine
 10
14.67468646495627
 20
97.38676004043012
 30
0.0
 11
14.34527470025038
 21
97.27009337376346
 31
0.0
  0
LINE
  5
180
330
1F
100
AcDbEntity
  8
1
  6
Continuous
 62
     3
100
AcDbLine
 10
15.08645117083862
 20
97.27009337376346
 30
0.0
 11
14.67468646495627
 21
97.38676004043012
 31
0.0
  0
LINE
  5
181
330
1F
100
AcDbEntity
  8
1
  6
Continuous
 62
     3
100
AcDbLine
 10
15.25115705319156
 20
97.15342670709678
 30
0.0
 11
15.08645117083862
 21
97.27009337376346
 31
0.0
  0
LINE
  5
182
330
1F
100
AcDbEntity
  8
1
  6
Continuous
 62
     3
100
AcDbLine
 10
15.4158629355445
 20
96.92009337376345
 30
0.0
 11
15.25115705319156
 21
97.15342670709678
 31
0.0
  0
LINE
  5
183
330
1F
100
AcDbEntity
  8
1
  6
Continuous
 62
     3
100
AcDbLine
 10
15.58056881789744
 20
96.57009337376346
 30
0.0
 11
15.4158629355445
 21
96.92009337376345
 31
0.0
  0
LINE
  5
184
330
1F
100
AcDbEntity
  8
1
  6
Continuous
 62
     3
100
AcDbLine
 10
12.36880411201509
 20
93.88676004043012
 30
0.0
 11
12.94527470025038
 21
97.38676004043012
 31
0.0
  0
LINE
  5
185
330
1F
100
AcDbEntity
  8
1
  6
Continuous
 62
     3
100
AcDbLine
 10
11.70998058260332
 20
97.27009337376346
 30
0.0
 11
12.36880411201509
 21
93.88676004043012
 31
0.0
  0
LINE
  5
186
330
1F
100
AcDbEntity
  8
1
  6
Continuous
 62
     3
100
AcDbLine
 10
11.13350999436803
 20
93.88676004043012
 30
0.0
 11
11.70998058260332
 21
97.27009337376346
 31
0.0
  0
LINE
  5
187
330
1F
100
AcDbEntity
  8
1
  6
Continuous
 62
     3
100
AcDbLine
 10
10.47468646495627
 20
97.38676004043012
 30
0.0
 11
11.13350999436803
 21
93.88676004043012
 31
0.0
  0
LINE
  5
188
330
1F
100
AcDbEntity
  8
1
  6
Continuous
 62
     3
100
AcDbLine
 10
8.08645117083862
 20
94.82009337376346
 30
0.0
 11
9.40409822966215
 21
94.82009337376346
 31
0.0
  0
LINE
  5
189
330
1F
100
AcDbEntity
  8
1
  6
Continuous
 62
     3
100
AcDbLine
 10
8.74527470025038
 20
97.38676004043012
 30
0.0
 11
9.65115705319156
 21
93.88676004043012
 31
0.0
  0
LINE
  5
18A
330
1F
100
AcDbEntity
  8
1
  6
Continuous
 62
     3
100
AcDbLine
 10
7.83939234730921
 20
93.88676004043012
 30
0.0
 11
8.74527470025038
 21
97.38676004043012
 31
0.0
  0
LINE
  5
18B
330
1F
100
AcDbEntity
  8
1
  6
Continuous
 62
     2
100
AcDbLine
 10
-4.45993849952733
 20
22.5741292312818
 30
0.0
 11
-4.67170320540968
 21
22.7741292312818
 31
0.0
  0
LINE
  5
18C
330
1F
100
AcDbEntity
  8
1
  6
Continuous
 62
     2
100
AcDbLine
 10
-4.17758555835086
 20
22.3741292312818
 30
0.0
 11
-4.45993849952733
 21
22.5741292312818
 31
0.0
  0
LINE
  5
18D
330
1F
100
AcDbEntity
  8
1
  6
Continuous
 62
     2
100
AcDbLine
 10
-3.68346791129203
 20
22.3741292312818
 30
0.0
 11
-4.17758555835086
 21
22.3741292312818
 31
0.0
  0
LINE
  5
18E
330
1F
100
AcDbEntity
  8
1
  6
Continuous
 62
     2
100
AcDbLine
 10
-3.47170320540968
 20
22.5741292312818
 30
0.0
 11
-3.68346791129203
 21
22.3741292312818
 31
0.0
  0
LINE
  5
18F
330
1F
100
AcDbEntity
  8
1
  6
Continuous
 62
     2
100
AcDbLine
 10
-3.33052673482145
 20
22.7741292312818
 30
0.0
 11
-3.47170320540968
 21
22.5741292312818
 31
0.0
  0
LINE
  5
190
330
1F
100
AcDbEntity
  8
1
  6
Continuous
 62
     2
100
AcDbLine
 10
-3.25993849952733
 20
23.2741292312818
 30
0.0
 11
-3.33052673482145
 21
22.7741292312818
 31
0.0
  0
LINE
  5
191
330
1F
100
AcDbEntity
  8
1
  6
Continuous
 62
     2
100
AcDbLine
 10
-3.33052673482145
 20
23.7741292312818
 30
0.0
 11
-3.25993849952733
 21
23.2741292312818
 31
0.0
  0
LINE
  5
192
330
1F
100
AcDbEntity
  8
1
  6
Continuous
 62
     2
100
AcDbLine
 10
-3.47170320540968
 20
23.9741292312818
 30
0.0
 11
-3.33052673482145
 21
23.7741292312818
 31
0.0
  0
LINE
  5
193
330
1F
100
AcDbEntity
  8
1
  6
Continuous
 62
     2
100
AcDbLine
 10
-3.68346791129203
 20
24.1741292312818
 30
0.0
 11
-3.47170320540968
 21
23.9741292312818
 31
0.0
  0
LINE
  5
194
330
1F
100
AcDbEntity
  8
1
  6
Continuous
 62
     2
100
AcDbLine
 10
-3.96582085246851
 20
24.2741292312818
 30
0.0
 11
-3.68346791129203
 21
24.1741292312818
 31
0.0
  0
LINE
  5
195
330
1F
100
AcDbEntity
  8
1
  6
Continuous
 62
     2
100
AcDbLine
 10
-4.24817379364498
 20
24.1741292312818
 30
0.0
 11
-3.96582085246851
 21
24.2741292312818
 31
0.0
  0
LINE
  5
196
330
1F
100
AcDbEntity
  8
1
  6
Continuous
 62
     2
100
AcDbLine
 10
-4.60111497011556
 20
23.8741292312818
 30
0.0
 11
-4.24817379364498
 21
24.1741292312818
 31
0.0
  0
LINE
  5
197
330
1F
100
AcDbEntity
  8
1
  6
Continuous
 62
     2
100
AcDbLine
 10
-4.53052673482145
 20
25.3741292312818
 30
0.0
 11
-4.60111497011556
 21
23.8741292312818
 31
0.0
  0
LINE
  5
198
330
1F
100
AcDbEntity
  8
1
  6
Continuous
 62
     2
100
AcDbLine
 10
-3.33052673482145
 20
25.3741292312818
 30
0.0
 11
-4.53052673482145
 21
25.3741292312818
 31
0.0
  0
LINE
  5
199
330
1F
100
AcDbEntity
  8
1
  6
Continuous
 62
     2
100
AcDbLine
 10
-5.58935026423321
 20
22.6741292312818
 30
0.0
 11
-5.51876202893909
 21
22.7741292312818
 31
0.0
  0
LINE
  5
19A
330
1F
100
AcDbEntity
  8
1
  6
Continuous
 62
     2
100
AcDbLine
 10
-5.51876202893909
 20
22.5741292312818
 30
0.0
 11
-5.58935026423321
 21
22.6741292312818
 31
0.0
  0
LINE
  5
19B
330
1F
100
AcDbEntity
  8
1
  6
Continuous
 62
     2
100
AcDbLine
 10
-5.44817379364498
 20
22.6741292312818
 30
0.0
 11
-5.51876202893909
 21
22.5741292312818
 31
0.0
  0
LINE
  5
19C
330
1F
100
AcDbEntity
  8
1
  6
Continuous
 62
     2
100
AcDbLine
 10
-5.51876202893909
 20
22.7741292312818
 30
0.0
 11
-5.44817379364498
 21
22.6741292312818
 31
0.0
  0
LINE
  5
19D
330
1F
100
AcDbEntity
  8
1
  6
Continuous
 62
     2
100
AcDbLine
 10
-5.58935026423321
 20
22.7741292312818
 30
0.0
 11
-5.44817379364498
 21
22.7741292312818
 31
0.0
  0
LINE
  5
19E
330
1F
100
AcDbEntity
  8
1
  6
Continuous
 62
     2
100
AcDbLine
 10
-5.58935026423321
 20
22.5741292312818
 30
0.0
 11
-5.58935026423321
 21
22.7741292312818
 31
0.0
  0
LINE
  5
19F
330
1F
100
AcDbEntity
  8
1
  6
Continuous
 62
     2
100
AcDbLine
 10
-5.44817379364498
 20
22.5741292312818
 30
0.0
 11
-5.58935026423321
 21
22.5741292312818
 31
0.0
  0
LINE
  5
1A0
330
1F
100
AcDbEntity
  8
1
  6
Continuous
 62
     2
100
AcDbLine
 10
-5.44817379364498
 20
22.7741292312818
 30
0.0
 11
-5.44817379364498
 21
22.5741292312818
 31
0.0
  0
LINE
  5
1A1
330
1F
100
AcDbEntity
  8
1
  6
Continuous
 62
     2
100
AcDbLine
 10
-5.65993849952733
 20
22.6741292312818
 30
0.0
 11
-5.51876202893909
 21
22.8741292312818
 31
0.0
  0
LINE
  5
1A2
330
1F
100
AcDbEntity
  8
1
  6
Continuous
 62
     2
100
AcDbLine
 10
-5.51876202893909
 20
22.4741292312818
 30
0.0
 11
-5.65993849952733
 21
22.6741292312818
 31
0.0
  0
LINE
  5
1A3
330
1F
100
AcDbEntity
  8
1
  6
Continuous
 62
     2
100
AcDbLine
 10
-5.37758555835086
 20
22.6741292312818
 30
0.0
 11
-5.51876202893909
 21
22.4741292312818
 31
0.0
  0
LINE
  5
1A4
330
1F
100
AcDbEntity
  8
1
  6
Continuous
 62
     2
100
AcDbLine
 10
-5.51876202893909
 20
22.8741292312818
 30
0.0
 11
-5.37758555835086
 21
22.6741292312818
 31
0.0
  0
LINE
  5
1A5
330
1F
100
AcDbEntity
  8
1
  6
Continuous
 62
     2
100
AcDbLine
 10
-6.71876202893909
 20
25.1741292312818
 30
0.0
 11
-7.1422914407038
 21
25.3741292312818
 31
0.0
  0
LINE
  5
1A6
330
1F
100
AcDbEntity
  8
1
  6
Continuous
 62
     2
100
AcDbLine
 10
-6.43640908776262
 20
24.6741292312818
 30
0.0
 11
-6.71876202893909
 21
25.1741292312818
 31
0.0
  0
LINE
  5
1A7
330
1F
100
AcDbEntity
  8
1
  6
Continuous
 62
     2
100
AcDbLine
 10
-6.36582085246851
 20
23.8741292312818
 30
0.0
 11
-6.43640908776262
 21
24.6741292312818
 31
0.0
  0
LINE
  5
1A8
330
1F
100
AcDbEntity
  8
1
  6
Continuous
 62
     2
100
AcDbLine
 10
-6.43640908776262
 20
23.0741292312818
 30
0.0
 11
-6.36582085246851
 21
23.8741292312818
 31
0.0
  0
LINE
  5
1A9
330
1F
100
AcDbEntity
  8
1
  6
Continuous
 62
     2
100
AcDbLine
 10
-6.71876202893909
 20
22.5741292312818
 30
0.0
 11
-6.43640908776262
 21
23.0741292312818
 31
0.0
  0
LINE
  5
1AA
330
1F
100
AcDbEntity
  8
1
  6
Continuous
 62
     2
100
AcDbLine
 10
-7.1422914407038
 20
22.3741292312818
 30
0.0
 11
-6.71876202893909
 21
22.5741292312818
 31
0.0
  0
LINE
  5
1AB
330
1F
100
AcDbEntity
  8
1
  6
Continuous
 62
     2
100
AcDbLine
 10
-7.56582085246851
 20
22.5741292312818
 30
0.0
 11
-7.1422914407038
 21
22.3741292312818
 31
0.0
  0
LINE
  5
1AC
330
1F
100
AcDbEntity
  8
1
  6
Continuous
 62
     2
100
AcDbLine
 10
-7.77758555835086
 20
23.0741292312818
 30
0.0
 11
-7.56582085246851
 21
22.5741292312818
 31
0.0
  0
LINE
  5
1AD
330
1F
100
AcDbEntity
  8
1
  6
Continuous
 62
     2
100
AcDbLine
 10
-7.91876202893909
 20
23.8741292312818
 30
0.0
 11
-7.77758555835086
 21
23.0741292312818
 31
0.0
  0
LINE
  5
1AE
330
1F
100
AcDbEntity
  8
1
  6
Continuous
 62
     2
100
AcDbLine
 10
-7.77758555835086
 20
24.6741292312818
 30
0.0
 11
-7.91876202893909
 21
23.8741292312818
 31
0.0
  0
LINE
  5
1AF
330
1F
100
AcDbEntity
  8
1
  6
Continuous
 62
     2
100
AcDbLine
 10
-7.56582085246851
 20
25.1741292312818
 30
0.0
 11
-7.77758555835086
 21
24.6741292312818
 31
0.0
  0
LINE
  5
1B0
330
1F
100
AcDbEntity
  8
1
  6
Continuous
 62
     2
100
AcDbLine
 10
-7.1422914407038
 20
25.3741292312818
 30
0.0
 11
-7.56582085246851
 21
25.1741292312818
 31
0.0
  0
LINE
  5
1B1
330
1F
100
AcDbEntity
  8
1
  6
Continuous
 62
     2
100
AcDbLine
 10
-9.18935026423321
 20
23.7741292312818
 30
0.0
 11
-8.62464438188027
 21
22.3741292312818
 31
0.0
  0
LINE
  5
1B2
330
1F
100
AcDbEntity
  8
1
  6
Continuous
 62
     2
100
AcDbLine
 10
-9.18935026423321
 20
23.7741292312818
 30
0.0
 11
-10.10699732305674
 21
23.7741292312818
 31
0.0
  0
LINE
  5
1B3
330
1F
100
AcDbEntity
  8
1
  6
Continuous
 62
     2
100
AcDbLine
 10
-8.90699732305674
 20
23.9741292312818
 30
0.0
 11
-9.18935026423321
 21
23.7741292312818
 31
0.0
  0
LINE
  5
1B4
330
1F
100
AcDbEntity
  8
1
  6
Continuous
 62
     2
100
AcDbLine
 10
-8.7658208524685
 20
24.1741292312818
 30
0.0
 11
-8.90699732305674
 21
23.9741292312818
 31
0.0
  0
LINE
  5
1B5
330
1F
100
AcDbEntity
  8
1
  6
Continuous
 62
     2
100
AcDbLine
 10
-8.69523261717439
 20
24.5741292312818
 30
0.0
 11
-8.7658208524685
 21
24.1741292312818
 31
0.0
  0
LINE
  5
1B6
330
1F
100
AcDbEntity
  8
1
  6
Continuous
 62
     2
100
AcDbLine
 10
-8.7658208524685
 20
24.8741292312818
 30
0.0
 11
-8.69523261717439
 21
24.5741292312818
 31
0.0
  0
LINE
  5
1B7
330
1F
100
AcDbEntity
  8
1
  6
Continuous
 62
     2
100
AcDbLine
 10
-8.90699732305674
 20
25.1741292312818
 30
0.0
 11
-8.7658208524685
 21
24.8741292312818
 31
0.0
  0
LINE
  5
1B8
330
1F
100
AcDbEntity
  8
1
  6
Continuous
 62
     2
100
AcDbLine
 10
-9.18935026423321
 20
25.3741292312818
 30
0.0
 11
-8.90699732305674
 21
25.1741292312818
 31
0.0
  0
LINE
  5
1B9
330
1F
100
AcDbEntity
  8
1
  6
Continuous
 62
     2
100
AcDbLine
 10
-10.10699732305674
 20
25.3741292312818
 30
0.0
 11
-9.18935026423321
 21
25.3741292312818
 31
0.0
  0
LINE
  5
1BA
330
1F
100
AcDbEntity
  8
1
  6
Continuous
 62
     2
100
AcDbLine
 10
-10.10699732305674
 20
22.3741292312818
 30
0.0
 11
-10.10699732305674
 21
25.3741292312818
 31
0.0
  0
LINE
  5
1BB
330
1F
100
AcDbEntity
  8
1
  6
Continuous
 62
     3
100
AcDbLine
 10
22.83039575860017
 20
79.86146142303477
 30
0.0
 11
22.55245458212958
 21
79.27812808970144
 31
0.0
  0
LINE
  5
1BC
330
1F
100
AcDbEntity
  8
1
  6
Continuous
 62
     3
100
AcDbLine
 10
22.9230428174237
 20
81.02812808970144
 30
0.0
 11
22.83039575860017
 21
79.86146142303477
 31
0.0
  0
LINE
  5
1BD
330
1F
100
AcDbEntity
  8
1
  6
Continuous
 62
     3
100
AcDbLine
 10
22.83039575860017
 20
82.19479475636811
 30
0.0
 11
22.9230428174237
 21
81.02812808970144
 31
0.0
  0
LINE
  5
1BE
330
1F
100
AcDbEntity
  8
1
  6
Continuous
 62
     3
100
AcDbLine
 10
22.55245458212958
 20
82.77812808970144
 30
0.0
 11
22.83039575860017
 21
82.19479475636811
 31
0.0
  0
LINE
  5
1BF
330
1F
100
AcDbEntity
  8
1
  6
Continuous
 62
     3
100
AcDbLine
 10
19.95833693507075
 20
79.62812808970143
 30
0.0
 11
19.7730428174237
 21
80.0947947563681
 31
0.0
  0
LINE
  5
1C0
330
1F
100
AcDbEntity
  8
1
  6
Continuous
 62
     3
100
AcDbLine
 10
20.23627811154135
 20
79.3947947563681
 30
0.0
 11
19.95833693507075
 21
79.62812808970143
 31
0.0
  0
LINE
  5
1C1
330
1F
100
AcDbEntity
  8
1
  6
Continuous
 62
     3
100
AcDbLine
 10
20.60686634683546
 20
79.27812808970144
 30
0.0
 11
20.23627811154135
 21
79.3947947563681
 31
0.0
  0
LINE
  5
1C2
330
1F
100
AcDbEntity
  8
1
  6
Continuous
 62
     3
100
AcDbLine
 10
20.97745458212958
 20
79.27812808970144
 30
0.0
 11
20.60686634683546
 21
79.27812808970144
 31
0.0
  0
LINE
  5
1C3
330
1F
100
AcDbEntity
  8
1
  6
Continuous
 62
     3
100
AcDbLine
 10
21.25539575860017
 20
79.3947947563681
 30
0.0
 11
20.97745458212958
 21
79.27812808970144
 31
0.0
  0
LINE
  5
1C4
330
1F
100
AcDbEntity
  8
1
  6
Continuous
 62
     3
100
AcDbLine
 10
21.53333693507076
 20
79.62812808970143
 30
0.0
 11
21.25539575860017
 21
79.3947947563681
 31
0.0
  0
LINE
  5
1C5
330
1F
100
AcDbEntity
  8
1
  6
Continuous
 62
     3
100
AcDbLine
 10
21.62598399389428
 20
80.0947947563681
 30
0.0
 11
21.53333693507076
 21
79.62812808970143
 31
0.0
  0
LINE
  5
1C6
330
1F
100
AcDbEntity
  8
1
  6
Continuous
 62
     3
100
AcDbLine
 10
21.53333693507076
 20
80.56146142303477
 30
0.0
 11
21.62598399389428
 21
80.0947947563681
 31
0.0
  0
LINE
  5
1C7
330
1F
100
AcDbEntity
  8
1
  6
Continuous
 62
     3
100
AcDbLine
 10
21.25539575860017
 20
80.91146142303478
 30
0.0
 11
21.53333693507076
 21
80.56146142303477
 31
0.0
  0
LINE
  5
1C8
330
1F
100
AcDbEntity
  8
1
  6
Continuous
 62
     3
100
AcDbLine
 10
20.97745458212958
 20
81.02812808970144
 30
0.0
 11
21.25539575860017
 21
80.91146142303478
 31
0.0
  0
LINE
  5
1C9
330
1F
100
AcDbEntity
  8
1
  6
Continuous
 62
     3
100
AcDbLine
 10
20.60686634683546
 20
81.02812808970144
 30
0.0
 11
20.97745458212958
 21
81.02812808970144
 31
0.0
  0
LINE
  5
1CA
330
1F
100
AcDbEntity
  8
1
  6
Continuous
 62
     3
100
AcDbLine
 10
20.23627811154135
 20
81.1447947563681
 30
0.0
 11
20.60686634683546
 21
81.02812808970144
 31
0.0
  0
LINE
  5
1CB
330
1F
100
AcDbEntity
  8
1
  6
Continuous
 62
     3
100
AcDbLine
 10
20.05098399389429
 20
81.26146142303477
 30
0.0
 11
20.23627811154135
 21
81.1447947563681
 31
0.0
  0
LINE
  5
1CC
330
1F
100
AcDbEntity
  8
1
  6
Continuous
 62
     3
100
AcDbLine
 10
19.86568987624723
 20
81.49479475636811
 30
0.0
 11
20.05098399389429
 21
81.26146142303477
 31
0.0
  0
LINE
  5
1CD
330
1F
100
AcDbEntity
  8
1
  6
Continuous
 62
     3
100
AcDbLine
 10
19.7730428174237
 20
81.96146142303478
 30
0.0
 11
19.86568987624723
 21
81.49479475636811
 31
0.0
  0
LINE
  5
1CE
330
1F
100
AcDbEntity
  8
1
  6
Continuous
 62
     3
100
AcDbLine
 10
19.86568987624723
 20
82.42812808970145
 30
0.0
 11
19.7730428174237
 21
81.96146142303478
 31
0.0
  0
LINE
  5
1CF
330
1F
100
AcDbEntity
  8
1
  6
Continuous
 62
     3
100
AcDbLine
 10
20.14363105271782
 20
82.66146142303478
 30
0.0
 11
19.86568987624723
 21
82.42812808970145
 31
0.0
  0
LINE
  5
1D0
330
1F
100
AcDbEntity
  8
1
  6
Continuous
 62
     3
100
AcDbLine
 10
20.32892517036487
 20
82.77812808970144
 30
0.0
 11
20.14363105271782
 21
82.66146142303478
 31
0.0
  0
LINE
  5
1D1
330
1F
100
AcDbEntity
  8
1
  6
Continuous
 62
     3
100
AcDbLine
 10
20.97745458212958
 20
82.77812808970144
 30
0.0
 11
20.32892517036487
 21
82.77812808970144
 31
0.0
  0
LINE
  5
1D2
330
1F
100
AcDbEntity
  8
1
  6
Continuous
 62
     3
100
AcDbLine
 10
21.3480428174237
 20
82.5447947563681
 30
0.0
 11
20.97745458212958
 21
82.77812808970144
 31
0.0
  0
LINE
  5
1D3
330
1F
100
AcDbEntity
  8
1
  6
Continuous
 62
     3
100
AcDbLine
 10
21.53333693507076
 20
82.19479475636811
 30
0.0
 11
21.3480428174237
 21
82.5447947563681
 31
0.0
  0
LINE
  5
1D4
330
1F
100
AcDbEntity
  8
1
  6
Continuous
 62
     3
100
AcDbLine
 10
18.01274869977664
 20
79.27812808970144
 30
0.0
 11
16.99363105271781
 21
79.27812808970144
 31
0.0
  0
LINE
  5
1D5
330
1F
100
AcDbEntity
  8
1
  6
Continuous
 62
     3
100
AcDbLine
 10
18.47598399389428
 20
79.62812808970143
 30
0.0
 11
18.01274869977664
 21
79.27812808970144
 31
0.0
  0
LINE
  5
1D6
330
1F
100
AcDbEntity
  8
1
  6
Continuous
 62
     3
100
AcDbLine
 10
18.75392517036487
 20
80.32812808970144
 30
0.0
 11
18.47598399389428
 21
79.62812808970143
 31
0.0
  0
LINE
  5
1D7
330
1F
100
AcDbEntity
  8
1
  6
Continuous
 62
     3
100
AcDbLine
 10
18.8465722291884
 20
81.02812808970144
 30
0.0
 11
18.75392517036487
 21
80.32812808970144
 31
0.0
  0
LINE
  5
1D8
330
1F
100
AcDbEntity
  8
1
  6
Continuous
 62
     3
100
AcDbLine
 10
18.75392517036487
 20
81.8447947563681
 30
0.0
 11
18.8465722291884
 21
81.02812808970144
 31
0.0
  0
LINE
  5
1D9
330
1F
100
AcDbEntity
  8
1
  6
Continuous
 62
     3
100
AcDbLine
 10
18.47598399389428
 20
82.42812808970145
 30
0.0
 11
18.75392517036487
 21
81.8447947563681
 31
0.0
  0
LINE
  5
1DA
330
1F
100
AcDbEntity
  8
1
  6
Continuous
 62
     3
100
AcDbLine
 10
18.01274869977664
 20
82.77812808970144
 30
0.0
 11
18.47598399389428
 21
82.42812808970145
 31
0.0
  0
LINE
  5
1DB
330
1F
100
AcDbEntity
  8
1
  6
Continuous
 62
     3
100
AcDbLine
 10
16.99363105271781
 20
82.77812808970144
 30
0.0
 11
18.01274869977664
 21
82.77812808970144
 31
0.0
  0
LINE
  5
1DC
330
1F
100
AcDbEntity
  8
1
  6
Continuous
 62
     3
100
AcDbLine
 10
16.99363105271781
 20
79.27812808970144
 30
0.0
 11
16.99363105271781
 21
82.77812808970144
 31
0.0
  0
LINE
  5
1DD
330
1F
100
AcDbEntity
  8
1
  6
Continuous
 62
     3
100
AcDbLine
 10
14.30686634683546
 20
80.21146142303478
 30
0.0
 11
15.78921928801193
 21
80.21146142303478
 31
0.0
  0
LINE
  5
1DE
330
1F
100
AcDbEntity
  8
1
  6
Continuous
 62
     3
100
AcDbLine
 10
15.0480428174237
 20
82.77812808970144
 30
0.0
 11
16.06716046448252
 21
79.27812808970144
 31
0.0
  0
LINE
  5
1DF
330
1F
100
AcDbEntity
  8
1
  6
Continuous
 62
     3
100
AcDbLine
 10
14.02892517036487
 20
79.27812808970144
 30
0.0
 11
15.0480428174237
 21
82.77812808970144
 31
0.0
  0
LINE
  5
1E0
330
1F
100
AcDbEntity
  8
1
  6
Continuous
 62
     3
100
AcDbLine
 10
11.24951340565899
 20
81.1447947563681
 30
0.0
 11
12.91716046448252
 21
81.1447947563681
 31
0.0
  0
LINE
  5
1E1
330
1F
100
AcDbEntity
  8
1
  6
Continuous
 62
     3
100
AcDbLine
 10
11.24951340565899
 20
79.27812808970144
 30
0.0
 11
13.10245458212958
 21
79.27812808970144
 31
0.0
  0
LINE
  5
1E2
330
1F
100
AcDbEntity
  8
1
  6
Continuous
 62
     3
100
AcDbLine
 10
11.24951340565899
 20
82.77812808970144
 30
0.0
 11
11.24951340565899
 21
79.27812808970144
 31
0.0
  0
LINE
  5
1E3
330
1F
100
AcDbEntity
  8
1
  6
Continuous
 62
     3
100
AcDbLine
 10
13.10245458212958
 20
82.77812808970144
 30
0.0
 11
11.24951340565899
 21
82.77812808970144
 31
0.0
  0
LINE
  5
1E4
330
1F
100
AcDbEntity
  8
1
  6
Continuous
 62
     3
100
AcDbLine
 10
8.47010164095311
 20
79.27812808970144
 30
0.0
 11
10.3230428174237
 21
79.27812808970144
 31
0.0
  0
LINE
  5
1E5
330
1F
100
AcDbEntity
  8
1
  6
Continuous
 62
     3
100
AcDbLine
 10
8.47010164095311
 20
82.77812808970144
 30
0.0
 11
8.47010164095311
 21
79.27812808970144
 31
0.0
  0
LINE
  5
1E6
330
1F
100
AcDbEntity
  8
1
  6
Continuous
 62
     3
100
AcDbLine
 10
4.20833693507076
 20
82.66146142303478
 30
0.0
 11
3.74510164095311
 21
82.77812808970144
 31
0.0
  0
LINE
  5
1E7
330
1F
100
AcDbEntity
  8
1
  6
Continuous
 62
     3
100
AcDbLine
 10
4.48627811154134
 20
82.5447947563681
 30
0.0
 11
4.20833693507076
 21
82.66146142303478
 31
0.0
  0
LINE
  5
1E8
330
1F
100
AcDbEntity
  8
1
  6
Continuous
 62
     3
100
AcDbLine
 10
4.57892517036487
 20
82.31146142303477
 30
0.0
 11
4.48627811154134
 21
82.5447947563681
 31
0.0
  0
LINE
  5
1E9
330
1F
100
AcDbEntity
  8
1
  6
Continuous
 62
     3
100
AcDbLine
 10
4.6715722291884
 20
81.96146142303478
 30
0.0
 11
4.57892517036487
 21
82.31146142303477
 31
0.0
  0
LINE
  5
1EA
330
1F
100
AcDbEntity
  8
1
  6
Continuous
 62
     3
100
AcDbLine
 10
4.57892517036487
 20
81.61146142303477
 30
0.0
 11
4.6715722291884
 21
81.96146142303478
 31
0.0
  0
LINE
  5
1EB
330
1F
100
AcDbEntity
  8
1
  6
Continuous
 62
     3
100
AcDbLine
 10
4.30098399389428
 20
81.26146142303477
 30
0.0
 11
4.57892517036487
 21
81.61146142303477
 31
0.0
  0
LINE
  5
1EC
330
1F
100
AcDbEntity
  8
1
  6
Continuous
 62
     3
100
AcDbLine
 10
3.93039575860017
 20
81.1447947563681
 30
0.0
 11
4.30098399389428
 21
81.26146142303477
 31
0.0
  0
LINE
  5
1ED
330
1F
100
AcDbEntity
  8
1
  6
Continuous
 62
     3
100
AcDbLine
 10
3.65245458212958
 20
81.1447947563681
 30
0.0
 11
3.93039575860017
 21
81.1447947563681
 31
0.0
  0
LINE
  5
1EE
330
1F
100
AcDbEntity
  8
1
  6
Continuous
 62
     3
100
AcDbLine
 10
3.28186634683546
 20
81.02812808970144
 30
0.0
 11
3.65245458212958
 21
81.1447947563681
 31
0.0
  0
LINE
  5
1EF
330
1F
100
AcDbEntity
  8
1
  6
Continuous
 62
     3
100
AcDbLine
 10
3.0965722291884
 20
80.91146142303478
 30
0.0
 11
3.28186634683546
 21
81.02812808970144
 31
0.0
  0
LINE
  5
1F0
330
1F
100
AcDbEntity
  8
1
  6
Continuous
 62
     3
100
AcDbLine
 10
2.81863105271781
 20
80.67812808970145
 30
0.0
 11
3.0965722291884
 21
80.91146142303478
 31
0.0
  0
LINE
  5
1F1
330
1F
100
AcDbEntity
  8
1
  6
Continuous
 62
     3
100
AcDbLine
 10
2.72598399389428
 20
80.21146142303478
 30
0.0
 11
2.81863105271781
 21
80.67812808970145
 31
0.0
  0
LINE
  5
1F2
330
1F
100
AcDbEntity
  8
1
  6
Continuous
 62
     3
100
AcDbLine
 10
2.91127811154134
 20
79.62812808970143
 30
0.0
 11
2.72598399389428
 21
80.21146142303478
 31
0.0
  0
LINE
  5
1F3
330
1F
100
AcDbEntity
  8
1
  6
Continuous
 62
     3
100
AcDbLine
 10
3.18921928801193
 20
79.3947947563681
 30
0.0
 11
2.91127811154134
 21
79.62812808970143
 31
0.0
  0
LINE
  5
1F4
330
1F
100
AcDbEntity
  8
1
  6
Continuous
 62
     3
100
AcDbLine
 10
3.74510164095311
 20
79.27812808970144
 30
0.0
 11
3.18921928801193
 21
79.3947947563681
 31
0.0
  0
LINE
  5
1F5
330
1F
100
AcDbEntity
  8
1
  6
Continuous
 62
     3
100
AcDbLine
 10
4.30098399389428
 20
79.3947947563681
 30
0.0
 11
3.74510164095311
 21
79.27812808970144
 31
0.0
  0
LINE
  5
1F6
330
1F
100
AcDbEntity
  8
1
  6
Continuous
 62
     3
100
AcDbLine
 10
4.6715722291884
 20
79.62812808970143
 30
0.0
 11
4.30098399389428
 21
79.3947947563681
 31
0.0
  0
LINE
  5
1F7
330
1F
100
AcDbEntity
  8
1
  6
Continuous
 62
     3
100
AcDbLine
 10
4.85686634683546
 20
80.21146142303478
 30
0.0
 11
4.6715722291884
 21
79.62812808970143
 31
0.0
  0
LINE
  5
1F8
330
1F
100
AcDbEntity
  8
1
  6
Continuous
 62
     3
100
AcDbLine
 10
4.6715722291884
 20
80.67812808970145
 30
0.0
 11
4.85686634683546
 21
80.21146142303478
 31
0.0
  0
LINE
  5
1F9
330
1F
100
AcDbEntity
  8
1
  6
Continuous
 62
     3
100
AcDbLine
 10
4.30098399389428
 20
81.02812808970144
 30
0.0
 11
4.6715722291884
 21
80.67812808970145
 31
0.0
  0
LINE
  5
1FA
330
1F
100
AcDbEntity
  8
1
  6
Continuous
 62
     3
100
AcDbLine
 10
3.93039575860017
 20
81.1447947563681
 30
0.0
 11
4.30098399389428
 21
81.02812808970144
 31
0.0
  0
LINE
  5
1FB
330
1F
100
AcDbEntity
  8
1
  6
Continuous
 62
     3
100
AcDbLine
 10
3.65245458212958
 20
81.1447947563681
 30
0.0
 11
3.93039575860017
 21
81.1447947563681
 31
0.0
  0
LINE
  5
1FC
330
1F
100
AcDbEntity
  8
1
  6
Continuous
 62
     3
100
AcDbLine
 10
3.28186634683546
 20
81.26146142303477
 30
0.0
 11
3.65245458212958
 21
81.1447947563681
 31
0.0
  0
LINE
  5
1FD
330
1F
100
AcDbEntity
  8
1
  6
Continuous
 62
     3
100
AcDbLine
 10
3.00392517036487
 20
81.61146142303477
 30
0.0
 11
3.28186634683546
 21
81.26146142303477
 31
0.0
  0
LINE
  5
1FE
330
1F
100
AcDbEntity
  8
1
  6
Continuous
 62
     3
100
AcDbLine
 10
2.91127811154134
 20
81.96146142303478
 30
0.0
 11
3.00392517036487
 21
81.61146142303477
 31
0.0
  0
LINE
  5
1FF
330
1F
100
AcDbEntity
  8
1
  6
Continuous
 62
     3
100
AcDbLine
 10
3.00392517036487
 20
82.31146142303477
 30
0.0
 11
2.91127811154134
 21
81.96146142303478
 31
0.0
  0
LINE
  5
200
330
1F
100
AcDbEntity
  8
1
  6
Continuous
 62
     3
100
AcDbLine
 10
3.28186634683546
 20
82.66146142303478
 30
0.0
 11
3.00392517036487
 21
82.31146142303477
 31
0.0
  0
LINE
  5
201
330
1F
100
AcDbEntity
  8
1
  6
Continuous
 62
     3
100
AcDbLine
 10
3.74510164095311
 20
82.77812808970144
 30
0.0
 11
3.28186634683546
 21
82.66146142303478
 31
0.0
  0
LINE
  5
202
330
1F
100
AcDbEntity
  8
1
  6
Continuous
 62
     3
100
AcDbLine
 10
1.5215722291884
 20
79.86146142303477
 30
0.0
 11
1.79951340565899
 21
79.27812808970144
 31
0.0
  0
LINE
  5
203
330
1F
100
AcDbEntity
  8
1
  6
Continuous
 62
     3
100
AcDbLine
 10
1.42892517036487
 20
81.02812808970144
 30
0.0
 11
1.5215722291884
 21
79.86146142303477
 31
0.0
  0
LINE
  5
204
330
1F
100
AcDbEntity
  8
1
  6
Continuous
 62
     3
100
AcDbLine
 10
1.5215722291884
 20
82.19479475636811
 30
0.0
 11
1.42892517036487
 21
81.02812808970144
 31
0.0
  0
LINE
  5
205
330
1F
100
AcDbEntity
  8
1
  6
Continuous
 62
     3
100
AcDbLine
 10
1.79951340565899
 20
82.77812808970144
 30
0.0
 11
1.5215722291884
 21
82.19479475636811
 31
0.0
  0
LINE
  5
206
330
1F
100
AcDbEntity
  8
1
  6
Continuous
 62
     4
100
AcDbLine
 10
-12.5630534589469
 20
-45.8611831020343
 30
0.0
 11
-12.5630534589469
 21
-52.8611831020343
 31
0.0
  0
LINE
  5
207
330
1F
100
AcDbEntity
  8
1
  6
Continuous
 62
     4
100
AcDbLine
 10
-5.5630534589469
 20
-52.8611831020343
 30
0.0
 11
-5.5630534589469
 21
-45.8611831020343
 31
0.0
  0
LINE
  5
208
330
1F
100
AcDbEntity
  8
1
  6
Continuous
 62
     4
100
AcDbLine
 10
-33.5630534589469
 20
-45.8611831020343
 30
0.0
 11
-33.5630534589469
 21
-52.8611831020343
 31
0.0
  0
LINE
  5
209
330
1F
100
AcDbEntity
  8
1
  6
Continuous
 62
     4
100
AcDbLine
 10
-5.5630534589469
 20
-45.8611831020343
 30
0.0
 11
-33.5630534589469
 21
-45.8611831020343
 31
0.0
  0
LINE
  5
20A
330
1F
100
AcDbEntity
  8
1
  6
Continuous
 62
     4
100
AcDbLine
 10
-26.5630534589469
 20
-52.8611831020343
 30
0.0
 11
-26.5630534589469
 21
-45.8611831020343
 31
0.0
  0
LINE
  5
20B
330
1F
100
AcDbEntity
  8
1
  6
Continuous
 62
     4
100
AcDbLine
 10
-33.5630534589469
 20
-52.8611831020343
 30
0.0
 11
-5.5630534589469
 21
-52.8611831020343
 31
0.0
  0
LINE
  5
20C
330
1F
100
AcDbEntity
  8
1
  6
Continuous
 62
     4
100
AcDbLine
 10
-30.0630534589469
 20
-51.9861831020343
 30
0.0
 11
-30.0630534589469
 21
-46.7361831020343
 31
0.0
  0
LINE
  5
20D
330
1F
100
AcDbEntity
  8
1
  6
Continuous
 62
     4
100
AcDbLine
 10
-32.6880534589469
 20
-51.9861831020343
 30
0.0
 11
-27.4380534589469
 21
-51.9861831020343
 31
0.0
  0
LINE
  5
20E
330
1F
100
AcDbEntity
  8
1
  6
Continuous
 62
     4
100
AcDbLine
 10
-15.93437698835866
 20
-50.87784976870097
 30
0.0
 11
-16.16599463541749
 21
-50.64451643536764
 31
0.0
  0
LINE
  5
20F
330
1F
100
AcDbEntity
  8
1
  6
Continuous
 62
     4
100
AcDbLine
 10
-15.6255534589469
 20
-51.1111831020343
 30
0.0
 11
-15.93437698835866
 21
-50.87784976870097
 31
0.0
  0
LINE
  5
210
330
1F
100
AcDbEntity
  8
1
  6
Continuous
 62
     4
100
AcDbLine
 10
-15.08511228247631
 20
-51.1111831020343
 30
0.0
 11
-15.6255534589469
 21
-51.1111831020343
 31
0.0
  0
LINE
  5
211
330
1F
100
AcDbEntity
  8
1
  6
Continuous
 62
     4
100
AcDbLine
 10
-14.85349463541749
 20
-50.87784976870097
 30
0.0
 11
-15.08511228247631
 21
-51.1111831020343
 31
0.0
  0
LINE
  5
212
330
1F
100
AcDbEntity
  8
1
  6
Continuous
 62
     4
100
AcDbLine
 10
-14.69908287071161
 20
-50.64451643536764
 30
0.0
 11
-14.85349463541749
 21
-50.87784976870097
 31
0.0
  0
LINE
  5
213
330
1F
100
AcDbEntity
  8
1
  6
Continuous
 62
     4
100
AcDbLine
 10
-14.62187698835866
 20
-50.06118310203431
 30
0.0
 11
-14.69908287071161
 21
-50.64451643536764
 31
0.0
  0
LINE
  5
214
330
1F
100
AcDbEntity
  8
1
  6
Continuous
 62
     4
100
AcDbLine
 10
-14.69908287071161
 20
-49.47784976870097
 30
0.0
 11
-14.62187698835866
 21
-50.06118310203431
 31
0.0
  0
LINE
  5
215
330
1F
100
AcDbEntity
  8
1
  6
Continuous
 62
     4
100
AcDbLine
 10
-14.85349463541749
 20
-49.24451643536764
 30
0.0
 11
-14.69908287071161
 21
-49.47784976870097
 31
0.0
  0
LINE
  5
216
330
1F
100
AcDbEntity
  8
1
  6
Continuous
 62
     4
100
AcDbLine
 10
-15.08511228247631
 20
-49.0111831020343
 30
0.0
 11
-14.85349463541749
 21
-49.24451643536764
 31
0.0
  0
LINE
  5
217
330
1F
100
AcDbEntity
  8
1
  6
Continuous
 62
     4
100
AcDbLine
 10
-15.39393581188808
 20
-48.89451643536764
 30
0.0
 11
-15.08511228247631
 21
-49.0111831020343
 31
0.0
  0
LINE
  5
218
330
1F
100
AcDbEntity
  8
1
  6
Continuous
 62
     4
100
AcDbLine
 10
-15.70275934129984
 20
-49.0111831020343
 30
0.0
 11
-15.39393581188808
 21
-48.89451643536764
 31
0.0
  0
LINE
  5
219
330
1F
100
AcDbEntity
  8
1
  6
Continuous
 62
     4
100
AcDbLine
 10
-16.08878875306455
 20
-49.3611831020343
 30
0.0
 11
-15.70275934129984
 21
-49.0111831020343
 31
0.0
  0
LINE
  5
21A
330
1F
100
AcDbEntity
  8
1
  6
Continuous
 62
     4
100
AcDbLine
 10
-16.0115828707116
 20
-47.6111831020343
 30
0.0
 11
-16.08878875306455
 21
-49.3611831020343
 31
0.0
  0
LINE
  5
21B
330
1F
100
AcDbEntity
  8
1
  6
Continuous
 62
     4
100
AcDbLine
 10
-14.69908287071161
 20
-47.6111831020343
 30
0.0
 11
-16.0115828707116
 21
-47.6111831020343
 31
0.0
  0
LINE
  5
21C
330
1F
100
AcDbEntity
  8
1
  6
Continuous
 62
     4
100
AcDbLine
 10
-17.71011228247631
 20
-50.29451643536763
 30
0.0
 11
-17.71011228247631
 21
-51.1111831020343
 31
0.0
  0
LINE
  5
21D
330
1F
100
AcDbEntity
  8
1
  6
Continuous
 62
     4
100
AcDbLine
 10
-17.55570051777043
 20
-49.24451643536764
 30
0.0
 11
-17.71011228247631
 21
-50.29451643536763
 31
0.0
  0
LINE
  5
21E
330
1F
100
AcDbEntity
  8
1
  6
Continuous
 62
     4
100
AcDbLine
 10
-16.9380534589469
 20
-47.6111831020343
 30
0.0
 11
-17.55570051777043
 21
-49.24451643536764
 31
0.0
  0
LINE
  5
21F
330
1F
100
AcDbEntity
  8
1
  6
Continuous
 62
     4
100
AcDbLine
 10
-18.48217110600572
 20
-47.6111831020343
 30
0.0
 11
-16.9380534589469
 21
-47.6111831020343
 31
0.0
  0
LINE
  5
220
330
1F
100
AcDbEntity
  8
1
  6
Continuous
 62
     4
100
AcDbLine
 10
-19.64025934129984
 20
-47.84451643536764
 30
0.0
 11
-20.10349463541749
 21
-47.6111831020343
 31
0.0
  0
LINE
  5
221
330
1F
100
AcDbEntity
  8
1
  6
Continuous
 62
     4
100
AcDbLine
 10
-19.33143581188807
 20
-48.42784976870097
 30
0.0
 11
-19.64025934129984
 21
-47.84451643536764
 31
0.0
  0
LINE
  5
222
330
1F
100
AcDbEntity
  8
1
  6
Continuous
 62
     4
100
AcDbLine
 10
-19.25422992953513
 20
-49.3611831020343
 30
0.0
 11
-19.33143581188807
 21
-48.42784976870097
 31
0.0
  0
LINE
  5
223
330
1F
100
AcDbEntity
  8
1
  6
Continuous
 62
     4
100
AcDbLine
 10
-19.33143581188807
 20
-50.29451643536763
 30
0.0
 11
-19.25422992953513
 21
-49.3611831020343
 31
0.0
  0
LINE
  5
224
330
1F
100
AcDbEntity
  8
1
  6
Continuous
 62
     4
100
AcDbLine
 10
-19.64025934129984
 20
-50.87784976870097
 30
0.0
 11
-19.33143581188807
 21
-50.29451643536763
 31
0.0
  0
LINE
  5
225
330
1F
100
AcDbEntity
  8
1
  6
Continuous
 62
     4
100
AcDbLine
 10
-20.10349463541749
 20
-51.1111831020343
 30
0.0
 11
-19.64025934129984
 21
-50.87784976870097
 31
0.0
  0
LINE
  5
226
330
1F
100
AcDbEntity
  8
1
  6
Continuous
 62
     4
100
AcDbLine
 10
-20.56672992953513
 20
-50.87784976870097
 30
0.0
 11
-20.10349463541749
 21
-51.1111831020343
 31
0.0
  0
LINE
  5
227
330
1F
100
AcDbEntity
  8
1
  6
Continuous
 62
     4
100
AcDbLine
 10
-20.79834757659395
 20
-50.29451643536763
 30
0.0
 11
-20.56672992953513
 21
-50.87784976870097
 31
0.0
  0
LINE
  5
228
330
1F
100
AcDbEntity
  8
1
  6
Continuous
 62
     4
100
AcDbLine
 10
-20.95275934129984
 20
-49.3611831020343
 30
0.0
 11
-20.79834757659395
 21
-50.29451643536763
 31
0.0
  0
LINE
  5
229
330
1F
100
AcDbEntity
  8
1
  6
Continuous
 62
     4
100
AcDbLine
 10
-20.79834757659395
 20
-48.42784976870097
 30
0.0
 11
-20.95275934129984
 21
-49.3611831020343
 31
0.0
  0
LINE
  5
22A
330
1F
100
AcDbEntity
  8
1
  6
Continuous
 62
     4
100
AcDbLine
 10
-20.56672992953513
 20
-47.84451643536764
 30
0.0
 11
-20.79834757659395
 21
-48.42784976870097
 31
0.0
  0
LINE
  5
22B
330
1F
100
AcDbEntity
  8
1
  6
Continuous
 62
     4
100
AcDbLine
 10
-20.10349463541749
 20
-47.6111831020343
 30
0.0
 11
-20.56672992953513
 21
-47.84451643536764
 31
0.0
  0
LINE
  5
22C
330
1F
100
AcDbEntity
  8
1
  6
Continuous
 62
     4
100
AcDbLine
 10
-21.95643581188807
 20
-50.7611831020343
 30
0.0
 11
-21.87922992953513
 21
-50.64451643536764
 31
0.0
  0
LINE
  5
22D
330
1F
100
AcDbEntity
  8
1
  6
Continuous
 62
     4
100
AcDbLine
 10
-21.87922992953513
 20
-50.87784976870097
 30
0.0
 11
-21.95643581188807
 21
-50.7611831020343
 31
0.0
  0
LINE
  5
22E
330
1F
100
AcDbEntity
  8
1
  6
Continuous
 62
     4
100
AcDbLine
 10
-21.80202404718219
 20
-50.7611831020343
 30
0.0
 11
-21.87922992953513
 21
-50.87784976870097
 31
0.0
  0
LINE
  5
22F
330
1F
100
AcDbEntity
  8
1
  6
Continuous
 62
     4
100
AcDbLine
 10
-21.87922992953513
 20
-50.64451643536764
 30
0.0
 11
-21.80202404718219
 21
-50.7611831020343
 31
0.0
  0
LINE
  5
230
330
1F
100
AcDbEntity
  8
1
  6
Continuous
 62
     4
100
AcDbLine
 10
-21.95643581188807
 20
-50.64451643536764
 30
0.0
 11
-21.80202404718219
 21
-50.64451643536764
 31
0.0
  0
LINE
  5
231
330
1F
100
AcDbEntity
  8
1
  6
Continuous
 62
     4
100
AcDbLine
 10
-21.95643581188807
 20
-50.87784976870097
 30
0.0
 11
-21.95643581188807
 21
-50.64451643536764
 31
0.0
  0
LINE
  5
232
330
1F
100
AcDbEntity
  8
1
  6
Continuous
 62
     4
100
AcDbLine
 10
-21.80202404718219
 20
-50.87784976870097
 30
0.0
 11
-21.95643581188807
 21
-50.87784976870097
 31
0.0
  0
LINE
  5
233
330
1F
100
AcDbEntity
  8
1
  6
Continuous
 62
     4
100
AcDbLine
 10
-21.80202404718219
 20
-50.64451643536764
 30
0.0
 11
-21.80202404718219
 21
-50.87784976870097
 31
0.0
  0
LINE
  5
234
330
1F
100
AcDbEntity
  8
1
  6
Continuous
 62
     4
100
AcDbLine
 10
-22.03364169424102
 20
-50.7611831020343
 30
0.0
 11
-21.87922992953513
 21
-50.52784976870097
 31
0.0
  0
LINE
  5
235
330
1F
100
AcDbEntity
  8
1
  6
Continuous
 62
     4
100
AcDbLine
 10
-21.87922992953513
 20
-50.99451643536764
 30
0.0
 11
-22.03364169424102
 21
-50.7611831020343
 31
0.0
  0
LINE
  5
236
330
1F
100
AcDbEntity
  8
1
  6
Continuous
 62
     4
100
AcDbLine
 10
-21.72481816482925
 20
-50.7611831020343
 30
0.0
 11
-21.87922992953513
 21
-50.99451643536764
 31
0.0
  0
LINE
  5
237
330
1F
100
AcDbEntity
  8
1
  6
Continuous
 62
     4
100
AcDbLine
 10
-21.87922992953513
 20
-50.52784976870097
 30
0.0
 11
-21.72481816482925
 21
-50.7611831020343
 31
0.0
  0
LINE
  5
238
330
1F
100
AcDbEntity
  8
1
  6
Continuous
 62
     4
100
AcDbLine
 10
-23.19172992953514
 20
-47.84451643536764
 30
0.0
 11
-23.65496522365278
 21
-47.6111831020343
 31
0.0
  0
LINE
  5
239
330
1F
100
AcDbEntity
  8
1
  6
Continuous
 62
     4
100
AcDbLine
 10
-22.88290640012337
 20
-48.42784976870097
 30
0.0
 11
-23.19172992953514
 21
-47.84451643536764
 31
0.0
  0
LINE
  5
23A
330
1F
100
AcDbEntity
  8
1
  6
Continuous
 62
     4
100
AcDbLine
 10
-22.80570051777043
 20
-49.3611831020343
 30
0.0
 11
-22.88290640012337
 21
-48.42784976870097
 31
0.0
  0
LINE
  5
23B
330
1F
100
AcDbEntity
  8
1
  6
Continuous
 62
     4
100
AcDbLine
 10
-22.88290640012337
 20
-50.29451643536763
 30
0.0
 11
-22.80570051777043
 21
-49.3611831020343
 31
0.0
  0
LINE
  5
23C
330
1F
100
AcDbEntity
  8
1
  6
Continuous
 62
     4
100
AcDbLine
 10
-23.19172992953514
 20
-50.87784976870097
 30
0.0
 11
-22.88290640012337
 21
-50.29451643536763
 31
0.0
  0
LINE
  5
23D
330
1F
100
AcDbEntity
  8
1
  6
Continuous
 62
     4
100
AcDbLine
 10
-23.65496522365278
 20
-51.1111831020343
 30
0.0
 11
-23.19172992953514
 21
-50.87784976870097
 31
0.0
  0
LINE
  5
23E
330
1F
100
AcDbEntity
  8
1
  6
Continuous
 62
     4
100
AcDbLine
 10
-24.11820051777043
 20
-50.87784976870097
 30
0.0
 11
-23.65496522365278
 21
-51.1111831020343
 31
0.0
  0
LINE
  5
23F
330
1F
100
AcDbEntity
  8
1
  6
Continuous
 62
     4
100
AcDbLine
 10
-24.34981816482925
 20
-50.29451643536763
 30
0.0
 11
-24.11820051777043
 21
-50.87784976870097
 31
0.0
  0
LINE
  5
240
330
1F
100
AcDbEntity
  8
1
  6
Continuous
 62
     4
100
AcDbLine
 10
-24.50422992953514
 20
-49.3611831020343
 30
0.0
 11
-24.34981816482925
 21
-50.29451643536763
 31
0.0
  0
LINE
  5
241
330
1F
100
AcDbEntity
  8
1
  6
Continuous
 62
     4
100
AcDbLine
 10
-24.34981816482925
 20
-48.42784976870097
 30
0.0
 11
-24.50422992953514
 21
-49.3611831020343
 31
0.0
  0
LINE
  5
242
330
1F
100
AcDbEntity
  8
1
  6
Continuous
 62
     4
100
AcDbLine
 10
-24.11820051777043
 20
-47.84451643536764
 30
0.0
 11
-24.34981816482925
 21
-48.42784976870097
 31
0.0
  0
LINE
  5
243
330
1F
100
AcDbEntity
  8
1
  6
Continuous
 62
     4
100
AcDbLine
 10
-23.65496522365278
 20
-47.6111831020343
 30
0.0
 11
-24.11820051777043
 21
-47.84451643536764
 31
0.0
  0
LINE
  5
244
330
1F
100
AcDbEntity
  8
1
  6
Continuous
 62
     4
100
AcDbLine
 10
-9.88658287071161
 20
-50.17784976870097
 30
0.0
 11
-8.23952404718219
 21
-50.17784976870097
 31
0.0
  0
LINE
  5
245
330
1F
100
AcDbEntity
  8
1
  6
Continuous
 62
     4
100
AcDbLine
 10
-9.0630534589469
 20
-47.6111831020343
 30
0.0
 11
-7.93070051777043
 21
-51.1111831020343
 31
0.0
  0
LINE
  5
246
330
1F
100
AcDbEntity
  8
1
  6
Continuous
 62
     4
100
AcDbLine
 10
-10.19540640012337
 20
-51.1111831020343
 30
0.0
 11
-9.0630534589469
 21
-47.6111831020343
 31
0.0
  0
LINE
  5
247
330
1F
100
AcDbEntity
  8
1
  6
Continuous
 62
     7
100
AcDbLine
 10
148.5406875045884
 20
55.13947236881463
 30
0.0
 11
148.5406875045884
 21
44.22247918593887
 31
0.0
  0
LINE
  5
248
330
1F
100
AcDbEntity
  8
1
  6
Continuous
 62
     7
100
AcDbLine
 10
122.3406875045884
 20
-8.17752081406111
 30
0.0
 11
122.3406875045884
 21
38.22247918593891
 31
0.0
  0
LINE
  5
249
330
1F
100
AcDbEntity
  8
1
  6
Continuous
 62
     7
100
AcDbLine
 10
178.7406875045884
 20
-8.17752081406111
 30
0.0
 11
178.7406875045884
 21
38.2224791859389
 31
0.0
  0
LINE
  5
24A
330
1F
100
AcDbEntity
  8
1
  6
Continuous
 62
     7
100
AcDbLine
 10
127.3406875045884
 20
-13.1775208140611
 30
0.0
 11
173.7406875045884
 21
-13.1775208140611
 31
0.0
  0
LINE
  5
24B
330
1F
100
AcDbEntity
  8
1
  6
Continuous
 62
     7
100
AcDbLine
 10
127.3406875045884
 20
43.2224791859389
 30
0.0
 11
173.7406875045884
 21
43.2224791859389
 31
0.0
  0
LINE
  5
24C
330
1F
100
AcDbEntity
  8
1
  6
Continuous
 62
     1
100
AcDbLine
 10
-136.6797102752448
 20
28.0224791859389
 30
0.0
 11
-136.6797102752448
 21
2.02247918593889
 31
0.0
  0
LINE
  5
24D
330
1F
100
AcDbEntity
  8
1
  6
Continuous
 62
     1
100
AcDbLine
 10
-136.1797102752448
 20
2.02247918593889
 30
0.0
 11
-136.6797102752448
 21
2.02247918593889
 31
0.0
  0
LINE
  5
24E
330
1F
100
AcDbEntity
  8
1
  6
Continuous
 62
     1
100
AcDbLine
 10
-136.6797102752448
 20
28.0224791859389
 30
0.0
 11
-136.1797102752448
 21
28.0224791859389
 31
0.0
  0
LINE
  5
24F
330
1F
100
AcDbEntity
  8
1
  6
Continuous
 62
     7
100
AcDbLine
 10
40.01545194037859
 20
84.78766423551
 30
0.0
 11
40.01545194037859
 21
88.99743120215899
 31
0.0
  0
LINE
  5
250
330
1F
100
AcDbEntity
  8
1
  6
Continuous
 62
     7
100
AcDbLine
 10
39.01545194037859
 20
84.78766423551
 30
0.0
 11
39.01545194037859
 21
88.99743120215899
 31
0.0
  0
LINE
  5
251
330
1F
100
AcDbEntity
  8
1
  6
Continuous
 62
     7
100
AcDbLine
 10
38.01545194037859
 20
84.78766423551
 30
0.0
 11
38.01545194037859
 21
88.99743120215899
 31
0.0
  0
LINE
  5
252
330
1F
100
AcDbEntity
  8
1
  6
Continuous
 62
     7
100
AcDbLine
 10
37.01545194037859
 20
84.78766423551
 30
0.0
 11
37.01545194037859
 21
88.99743120215899
 31
0.0
  0
LINE
  5
253
330
1F
100
AcDbEntity
  8
1
  6
Continuous
 62
     7
100
AcDbLine
 10
36.51545194037859
 20
84.78766423551
 30
0.0
 11
40.51545194037859
 21
84.78766423551
 31
0.0
  0
LINE
  5
254
330
1F
100
AcDbEntity
  8
1
  6
Continuous
 62
     7
100
AcDbLine
 10
40.51545194037859
 20
65.05389229357125
 30
0.0
 11
40.51545194037859
 21
84.78766423551
 31
0.0
  0
LINE
  5
255
330
1F
100
AcDbEntity
  8
1
  6
Continuous
 62
     7
100
AcDbLine
 10
39.51545194037859
 20
65.38948537293271
 30
0.0
 11
39.51545194037859
 21
84.78766423551
 31
0.0
  0
LINE
  5
256
330
1F
100
AcDbEntity
  8
1
  6
Continuous
 62
     7
100
AcDbLine
 10
38.51545194037859
 20
84.78766423551
 30
0.0
 11
38.51545194037859
 21
65.05389229357125
 31
0.0
  0
LINE
  5
257
330
1F
100
AcDbEntity
  8
1
  6
Continuous
 62
     7
100
AcDbLine
 10
37.51545194037859
 20
84.78766423551
 30
0.0
 11
37.51545194037859
 21
64.7182992142098
 31
0.0
  0
LINE
  5
258
330
1F
100
AcDbEntity
  8
1
  6
Continuous
 62
     7
100
AcDbLine
 10
36.51545194037859
 20
65.05389229357125
 30
0.0
 11
36.51545194037859
 21
84.78766423551
 31
0.0
  0
LINE
  5
259
330
1F
100
AcDbEntity
  8
1
  6
Continuous
 62
     7
100
AcDbLine
 10
40.51545194037859
 20
44.22247918593887
 30
0.0
 11
40.51545194037859
 21
63.79581996454409
 31
0.0
  0
LINE
  5
25A
330
1F
100
AcDbEntity
  8
1
  6
Continuous
 62
     7
100
AcDbLine
 10
39.51545194037859
 20
44.22247918593887
 30
0.0
 11
39.51545194037859
 21
64.13141304390555
 31
0.0
  0
LINE
  5
25B
330
1F
100
AcDbEntity
  8
1
  6
Continuous
 62
     7
100
AcDbLine
 10
38.51545194037859
 20
44.22247918593887
 30
0.0
 11
38.51545194037859
 21
63.79581996454409
 31
0.0
  0
LINE
  5
25C
330
1F
100
AcDbEntity
  8
1
  6
Continuous
 62
     7
100
AcDbLine
 10
37.51545194037859
 20
44.22247918593887
 30
0.0
 11
37.51545194037859
 21
63.46022688518263
 31
0.0
  0
LINE
  5
25D
330
1F
100
AcDbEntity
  8
1
  6
Continuous
 62
     7
100
AcDbLine
 10
36.51545194037859
 20
44.22247918593887
 30
0.0
 11
36.51545194037859
 21
63.79581996454409
 31
0.0
  0
LINE
  5
25E
330
1F
100
AcDbEntity
  8
1
  6
Continuous
 62
     7
100
AcDbLine
 10
45.22818351672608
 20
43.72247918593879
 30
0.0
 11
45.22818351672608
 21
43.22247918593882
 31
0.0
  0
LINE
  5
25F
330
1F
100
AcDbEntity
  8
1
  6
Continuous
 62
     7
100
AcDbLine
 10
35.82818351672605
 20
44.22247918593888
 30
0.0
 11
34.12818351672606
 21
44.22247918593888
 31
0.0
  0
LINE
  5
260
330
1F
100
AcDbEntity
  8
1
  6
Continuous
 62
     7
100
AcDbLine
 10
35.82818351672605
 20
44.22247918593888
 30
0.0
 11
44.72818351672608
 21
44.22247918593879
 31
0.0
  0
LINE
  5
261
330
1F
100
AcDbEntity
  8
1
  6
Continuous
 62
     7
100
AcDbLine
 10
33.82818351672605
 20
43.9224791859389
 30
0.0
 11
33.82818351672605
 21
43.22247918593889
 31
0.0
  0
LINE
  5
262
330
1F
100
AcDbEntity
  8
1
  6
DASH_CENTER
 62
     3
100
AcDbLine
 10
-15.3314865491369
 20
15.02247918593889
 30
0.0
 11
53.56913338802921
 21
15.02247918593889
 31
0.0
  0
LINE
  5
263
330
1F
100
AcDbEntity
  8
1
  6
Continuous
 62
     7
100
AcDbLine
 10
2.72818351672585
 20
18.14747918593889
 30
0.0
 11
2.72818351672585
 21
18.19747918593885
 31
0.0
  0
LINE
  5
264
330
1F
100
AcDbEntity
  8
1
  6
Continuous
 62
     7
100
AcDbLine
 10
-12.77181648327416
 20
12.54747918593887
 30
0.0
 11
-12.07181648327412
 21
11.84747918593888
 31
0.0
  0
LINE
  5
265
330
1F
100
AcDbEntity
  8
1
  6
Continuous
 62
     7
100
AcDbLine
 10
-12.77181648327416
 20
12.54747918593887
 30
0.0
 11
-12.77181648327416
 21
17.64747918593889
 31
0.0
  0
LINE
  5
266
330
1F
100
AcDbEntity
  8
1
  6
Continuous
 62
     7
100
AcDbLine
 10
-12.07181648327412
 20
11.84747918593888
 30
0.0
 11
5.62818351672581
 21
11.84747918593888
 31
0.0
  0
LINE
  5
267
330
1F
100
AcDbEntity
  8
1
  6
Continuous
 62
     2
100
AcDbLine
 10
-12.07181648327412
 20
11.84747918593888
 30
0.0
 11
-12.07181648327412
 21
17.64747918593889
 31
0.0
  0
LINE
  5
268
330
1F
100
AcDbEntity
  8
1
  6
Continuous
 62
     7
100
AcDbLine
 10
-12.77181648327416
 20
17.64747918593889
 30
0.0
 11
2.22818351672585
 21
17.64747918593889
 31
0.0
  0
LINE
  5
269
330
1F
100
AcDbEntity
  8
1
  6
Continuous
 62
     7
100
AcDbLine
 10
5.62818351672581
 20
18.19747918593885
 30
0.0
 11
2.72818351672585
 21
18.19747918593885
 31
0.0
  0
LINE
  5
26A
330
1F
100
AcDbEntity
  8
1
  6
Continuous
 62
     7
100
AcDbLine
 10
12.2281835167258
 20
-13.17752081406111
 30
0.0
 11
7.7281835167258
 21
-13.17752081406111
 31
0.0
  0
LINE
  5
26B
330
1F
100
AcDbEntity
  8
1
  6
Continuous
 62
     7
100
AcDbLine
 10
45.7281835167258
 20
-13.17752081406111
 30
0.0
 11
12.2281835167258
 21
-13.17752081406111
 31
0.0
  0
LINE
  5
26C
330
1F
100
AcDbEntity
  8
1
  6
Continuous
 62
     7
100
AcDbLine
 10
12.2281835167258
 20
-5.09955294479451
 30
0.0
 11
45.72818351672584
 21
-5.09955294479477
 31
0.0
  0
LINE
  5
26D
330
1F
100
AcDbEntity
  8
1
  6
Continuous
 62
     7
100
AcDbLine
 10
12.2281835167258
 20
-10.99383076222024
 30
0.0
 11
45.7281835167258
 21
-10.99383076222024
 31
0.0
  0
LINE
  5
26E
330
1F
100
AcDbEntity
  8
1
  6
Continuous
 62
     7
100
AcDbLine
 10
5.92818351672581
 20
-4.02752081406112
 30
0.0
 11
7.2281835167258
 21
-4.02752081406112
 31
0.0
  0
LINE
  5
26F
330
1F
100
AcDbEntity
  8
1
  6
Continuous
 62
     7
100
AcDbLine
 10
5.92818351672581
 20
-4.02752081406112
 30
0.0
 11
5.62818351672581
 21
-3.72752081406111
 31
0.0
  0
LINE
  5
270
330
1F
100
AcDbEntity
  8
1
  6
Continuous
 62
     7
100
AcDbLine
 10
7.7281835167258
 20
-13.17752081406111
 30
0.0
 11
7.2281835167258
 21
-12.67752081406111
 31
0.0
  0
LINE
  5
271
330
1F
100
AcDbEntity
  8
1
  6
Continuous
 62
     7
100
AcDbLine
 10
45.7281835167258
 20
-13.17752081406111
 30
0.0
 11
46.2281835167258
 21
-12.67752081406111
 31
0.0
  0
LINE
  5
272
330
1F
100
AcDbEntity
  8
1
  6
Continuous
 62
     7
100
AcDbLine
 10
45.7281835167258
 20
-1.67752081406113
 30
0.0
 11
12.2281835167258
 21
-1.67752081406113
 31
0.0
  0
LINE
  5
273
330
1F
100
AcDbEntity
  8
1
  6
Continuous
 62
     7
100
AcDbLine
 10
12.2281835167258
 20
-1.67752081406113
 30
0.0
 11
12.2281835167258
 21
-13.17752081406111
 31
0.0
  0
LINE
  5
274
330
1F
100
AcDbEntity
  8
1
  6
DASH_CENTER
 62
     3
100
AcDbLine
 10
6.07351140260092
 20
-8.5475208140611
 30
0.0
 11
13.44518529899149
 21
-8.5475208140611
 31
0.0
  0
LINE
  5
275
330
1F
100
AcDbEntity
  8
1
  6
DASHED
 62
     2
100
AcDbLine
 10
12.2281835167258
 20
-6.2975208140611
 30
0.0
 11
7.2281835167258
 21
-6.2975208140611
 31
0.0
  0
LINE
  5
276
330
1F
100
AcDbEntity
  8
1
  6
DASHED
 62
     2
100
AcDbLine
 10
7.2281835167258
 20
-10.7975208140611
 30
0.0
 11
12.2281835167258
 21
-10.7975208140611
 31
0.0
  0
LINE
  5
277
330
1F
100
AcDbEntity
  8
1
  6
Continuous
 62
     7
100
AcDbLine
 10
7.7281835167258
 20
43.22247918593889
 30
0.0
 11
45.7281835167258
 21
43.22247918593889
 31
0.0
  0
LINE
  5
278
330
1F
100
AcDbEntity
  8
1
  6
Continuous
 62
     7
100
AcDbLine
 10
45.72818351672584
 20
35.14451131667255
 30
0.0
 11
12.2281835167258
 21
35.14451131667229
 31
0.0
  0
LINE
  5
279
330
1F
100
AcDbEntity
  8
1
  6
Continuous
 62
     7
100
AcDbLine
 10
7.2281835167258
 20
34.0724791859389
 30
0.0
 11
5.92818351672581
 21
34.0724791859389
 31
0.0
  0
LINE
  5
27A
330
1F
100
AcDbEntity
  8
1
  6
Continuous
 62
     7
100
AcDbLine
 10
5.62818351672581
 20
33.77247918593889
 30
0.0
 11
5.92818351672581
 21
34.0724791859389
 31
0.0
  0
LINE
  5
27B
330
1F
100
AcDbEntity
  8
1
  6
Continuous
 62
     7
100
AcDbLine
 10
7.2281835167258
 20
42.72247918593889
 30
0.0
 11
7.7281835167258
 21
43.22247918593889
 31
0.0
  0
LINE
  5
27C
330
1F
100
AcDbEntity
  8
1
  6
Continuous
 62
     7
100
AcDbLine
 10
46.2281835167258
 20
42.72247918593889
 30
0.0
 11
45.7281835167258
 21
43.22247918593889
 31
0.0
  0
LINE
  5
27D
330
1F
100
AcDbEntity
  8
1
  6
Continuous
 62
     7
100
AcDbLine
 10
12.2281835167258
 20
41.03878913409802
 30
0.0
 11
45.7281835167258
 21
41.03878913409802
 31
0.0
  0
LINE
  5
27E
330
1F
100
AcDbEntity
  8
1
  6
Continuous
 62
     7
100
AcDbLine
 10
12.2281835167258
 20
31.72247918593891
 30
0.0
 11
45.7281835167258
 21
31.72247918593891
 31
0.0
  0
LINE
  5
27F
330
1F
100
AcDbEntity
  8
1
  6
Continuous
 62
     7
100
AcDbLine
 10
7.2281835167258
 20
42.72247918593889
 30
0.0
 11
7.2281835167258
 21
-12.67752081406111
 31
0.0
  0
LINE
  5
280
330
1F
100
AcDbEntity
  8
1
  6
Continuous
 62
     7
100
AcDbLine
 10
12.2281835167258
 20
43.22247918593889
 30
0.0
 11
12.2281835167258
 21
31.72247918593891
 31
0.0
  0
LINE
  5
281
330
1F
100
AcDbEntity
  8
1
  6
Continuous
 62
     7
100
AcDbLine
 10
5.62818351672581
 20
33.77247918593889
 30
0.0
 11
5.62818351672581
 21
-3.72752081406111
 31
0.0
  0
LINE
  5
282
330
1F
100
AcDbEntity
  8
1
  6
DASH_CENTER
 62
     3
100
AcDbLine
 10
13.44518529899149
 20
38.59247918593888
 30
0.0
 11
6.07351140260092
 21
38.59247918593888
 31
0.0
  0
LINE
  5
283
330
1F
100
AcDbEntity
  8
1
  6
Continuous
 62
     3
100
AcDbLine
 10
7.7281835167258
 20
43.22247918593889
 30
0.0
 11
7.7281835167258
 21
-13.17752081406111
 31
0.0
  0
LINE
  5
284
330
1F
100
AcDbEntity
  8
1
  6
Continuous
 62
     7
100
AcDbLine
 10
46.2281835167258
 20
42.72247918593889
 30
0.0
 11
46.2281835167258
 21
-12.67752081406111
 31
0.0
  0
LINE
  5
285
330
1F
100
AcDbEntity
  8
1
  6
Continuous
 62
     3
100
AcDbLine
 10
45.7281835167258
 20
43.22247918593889
 30
0.0
 11
45.7281835167258
 21
-13.17752081406111
 31
0.0
  0
LINE
  5
286
330
1F
100
AcDbEntity
  8
1
  6
Continuous
 62
     7
100
AcDbLine
 10
33.7281835167258
 20
43.22247918593889
 30
0.0
 11
33.7281835167258
 21
-13.17752081406111
 31
0.0
  0
LINE
  5
287
330
1F
100
AcDbEntity
  8
1
  6
Continuous
 62
     7
100
AcDbLine
 10
16.22818351672582
 20
43.22247918593889
 30
0.0
 11
16.22818351672582
 21
-13.17752081406111
 31
0.0
  0
LINE
  5
288
330
1F
100
AcDbEntity
  8
1
  6
DASHED
 62
     2
100
AcDbLine
 10
7.2281835167258
 20
36.34247918593888
 30
0.0
 11
12.2281835167258
 21
36.34247918593888
 31
0.0
  0
LINE
  5
289
330
1F
100
AcDbEntity
  8
1
  6
DASHED
 62
     2
100
AcDbLine
 10
12.2281835167258
 20
40.84247918593888
 30
0.0
 11
7.2281835167258
 21
40.84247918593888
 31
0.0
  0
LINE
  5
28A
330
1F
100
AcDbEntity
  8
1
  6
Continuous
 62
     7
100
AcDbLine
 10
149.5406875045884
 20
55.1859786683405
 30
0.0
 11
149.5406875045884
 21
44.22247918593887
 31
0.0
  0
LINE
  5
28B
330
1F
100
AcDbEntity
  8
1
  6
Continuous
 62
     7
100
AcDbLine
 10
152.5406875045884
 20
54.30548600306314
 30
0.0
 11
152.5406875045884
 21
44.22247918593887
 31
0.0
  0
LINE
  5
28C
330
1F
100
AcDbEntity
  8
1
  6
Continuous
 62
     7
100
AcDbLine
 10
151.5406875045884
 20
54.25897970353731
 30
0.0
 11
151.5406875045884
 21
44.22247918593887
 31
0.0
  0
LINE
  5
28D
330
1F
100
AcDbEntity
  8
1
  6
Continuous
 62
     7
100
AcDbLine
 10
150.5406875045884
 20
54.72247918593889
 30
0.0
 11
150.5406875045884
 21
44.22247918593885
 31
0.0
  0
LINE
  5
28E
330
1F
100
AcDbEntity
  8
1
  6
DASH_CENTER
 62
     3
100
AcDbLine
 10
117.2906875045884
 20
15.02247918593889
 30
0.0
 11
183.7906875045884
 21
15.02247918593889
 31
0.0
  0
LINE
  5
28F
330
1F
100
AcDbEntity
  8
1
  6
DASH_CENTER
 62
     3
100
AcDbLine
 10
150.5406875045884
 20
48.27247918593886
 30
0.0
 11
150.5406875045884
 21
-18.22752081406111
 31
0.0
  0
LINE
  5
290
330
1F
100
AcDbEntity
  8
1
  6
Continuous
 62
     1
100
AcDbLine
 10
178.7406875045884
 20
28.02247918593889
 30
0.0
 11
179.0406875045884
 21
28.02247918593889
 31
0.0
  0
LINE
  5
291
330
1F
100
AcDbEntity
  8
1
  6
Continuous
 62
     1
100
AcDbLine
 10
179.0406875045884
 20
28.02247918593889
 30
0.0
 11
179.0406875045884
 21
2.02247918593889
 31
0.0
  0
LINE
  5
292
330
1F
100
AcDbEntity
  8
1
  6
Continuous
 62
     1
100
AcDbLine
 10
178.7406875045884
 20
2.02247918593889
 30
0.0
 11
179.0406875045884
 21
2.02247918593889
 31
0.0
  0
LINE
  5
293
330
1F
100
AcDbEntity
  8
1
  6
Continuous
 62
     7
100
AcDbLine
 10
156.0406875045884
 20
44.02247918593885
 30
0.0
 11
156.0406875045884
 21
43.42247918593888
 31
0.0
  0
LINE
  5
294
330
1F
100
AcDbEntity
  8
1
  6
Continuous
 62
     7
100
AcDbLine
 10
145.0406875045883
 20
43.42247918593888
 30
0.0
 11
145.0406875045883
 21
44.02247918593885
 31
0.0
  0
LINE
  5
295
330
1F
100
AcDbEntity
  8
1
  6
Continuous
 62
     7
100
AcDbLine
 10
155.8406875045884
 20
44.22247918593885
 30
0.0
 11
145.2406875045884
 21
44.22247918593885
 31
0.0
  0
LINE
  5
296
330
1F
100
AcDbEntity
  8
1
  6
Continuous
 62
     2
100
AcDbLine
 10
123.0406875045883
 20
-2.30445072100065
 30
0.0
 11
123.0406875045883
 21
32.34940909287855
 31
0.0
  0
LINE
  5
297
330
1F
100
AcDbEntity
  8
1
  6
Continuous
 62
     2
100
AcDbLine
 10
167.8676174115281
 20
-12.47752081406105
 30
0.0
 11
133.2137575976487
 21
-12.47752081406105
 31
0.0
  0
LINE
  5
298
330
1F
100
AcDbEntity
  8
1
  6
Continuous
 62
     2
100
AcDbLine
 10
178.0406875045884
 20
32.34940909287855
 30
0.0
 11
178.0406875045884
 21
-2.30445072100065
 31
0.0
  0
LINE
  5
299
330
1F
100
AcDbEntity
  8
1
  6
Continuous
 62
     2
100
AcDbLine
 10
133.2137575976488
 20
42.52247918593889
 30
0.0
 11
167.8676174115281
 21
42.52247918593889
 31
0.0
  0
LINE
  5
29A
330
1F
100
AcDbEntity
  8
1
  6
DASH_CENTER
 62
     3
100
AcDbLine
 10
167.2206875045885
 20
38.22650416718585
 30
0.0
 11
167.2206875045885
 21
42.05273670458985
 31
0.0
  0
LINE
  5
29B
330
1F
100
AcDbEntity
  8
1
  6
DASH_CENTER
 62
     3
100
AcDbLine
 10
165.2947124858354
 20
40.15247918593889
 30
0.0
 11
169.1209450232394
 21
40.15247918593889
 31
0.0
  0
LINE
  5
29C
330
1F
100
AcDbEntity
  8
1
  6
DASH_CENTER
 62
     3
100
AcDbLine
 10
133.8606875045884
 20
42.05273670458985
 30
0.0
 11
133.8606875045884
 21
38.22650416718585
 31
0.0
  0
LINE
  5
29D
330
1F
100
AcDbEntity
  8
1
  6
DASH_CENTER
 62
     3
100
AcDbLine
 10
131.9604299859374
 20
40.15247918593889
 30
0.0
 11
135.7866625233414
 21
40.15247918593889
 31
0.0
  0
LINE
  5
29E
330
1F
100
AcDbEntity
  8
1
  6
DASH_CENTER
 62
     3
100
AcDbLine
 10
133.8606875045884
 20
-8.18154579530814
 30
0.0
 11
133.8606875045884
 21
-12.00777833271212
 31
0.0
  0
LINE
  5
29F
330
1F
100
AcDbEntity
  8
1
  6
DASH_CENTER
 62
     3
100
AcDbLine
 10
135.7866625233414
 20
-10.10752081406111
 30
0.0
 11
131.9604299859374
 21
-10.10752081406111
 31
0.0
  0
LINE
  5
2A0
330
1F
100
AcDbEntity
  8
1
  6
DASH_CENTER
 62
     3
100
AcDbLine
 10
167.2206875045885
 20
-12.00777833271212
 30
0.0
 11
167.2206875045885
 21
-8.18154579530814
 31
0.0
  0
LINE
  5
2A1
330
1F
100
AcDbEntity
  8
1
  6
DASH_CENTER
 62
     3
100
AcDbLine
 10
169.1209450232394
 20
-10.10752081406111
 30
0.0
 11
165.2947124858354
 21
-10.10752081406111
 31
0.0
  0
LINE
  5
2A2
330
1F
100
AcDbEntity
  8
1
  6
Continuous
 62
     2
100
AcDbLine
 10
178.0406875045884
 20
33.71238287750469
 30
0.0
 11
178.0406875045884
 21
38.22247918593889
 31
0.0
  0
LINE
  5
2A3
330
1F
100
AcDbEntity
  8
1
  6
Continuous
 62
     2
100
AcDbLine
 10
178.0406875045884
 20
-8.17752081406109
 30
0.0
 11
178.0406875045884
 21
-3.82311898791221
 31
0.0
  0
LINE
  5
2A4
330
1F
100
AcDbEntity
  8
1
  6
Continuous
 62
     2
100
AcDbLine
 10
123.0406875045883
 20
-3.66742450562666
 30
0.0
 11
123.0406875045883
 21
-8.17752081406109
 31
0.0
  0
LINE
  5
2A5
330
1F
100
AcDbEntity
  8
1
  6
Continuous
 62
     2
100
AcDbLine
 10
123.0406875045883
 20
38.22247918593889
 30
0.0
 11
123.0406875045883
 21
33.71238287750458
 31
0.0
  0
LINE
  5
2A6
330
1F
100
AcDbEntity
  8
1
  6
Continuous
 62
     2
100
AcDbLine
 10
169.2305911961542
 20
-12.4775208140611
 30
0.0
 11
173.7406875045884
 21
-12.4775208140611
 31
0.0
  0
LINE
  5
2A7
330
1F
100
AcDbEntity
  8
1
  6
Continuous
 62
     2
100
AcDbLine
 10
131.8507838130228
 20
42.52247918593889
 30
0.0
 11
127.3406875045884
 21
42.5224791859389
 31
0.0
  0
LINE
  5
2A8
330
1F
100
AcDbEntity
  8
1
  6
DASH_CENTER
 62
     3
100
AcDbLine
 10
174.1106875045884
 20
34.8424791859389
 30
0.0
 11
174.1106875045884
 21
42.34247918593889
 31
0.0
  0
LINE
  5
2A9
330
1F
100
AcDbEntity
  8
1
  6
DASH_CENTER
 62
     3
100
AcDbLine
 10
177.8606875045884
 20
38.5924791859389
 30
0.0
 11
170.3606875045884
 21
38.5924791859389
 31
0.0
  0
LINE
  5
2AA
330
1F
100
AcDbEntity
  8
1
  6
Continuous
 62
     2
100
AcDbLine
 10
173.7406875045884
 20
42.5224791859389
 30
0.0
 11
169.2305911961541
 21
42.52247918593889
 31
0.0
  0
LINE
  5
2AB
330
1F
100
AcDbEntity
  8
1
  6
DASH_CENTER
 62
     3
100
AcDbLine
 10
174.1106875045884
 20
-12.2975208140611
 30
0.0
 11
174.1106875045884
 21
-4.7975208140611
 31
0.0
  0
LINE
  5
2AC
330
1F
100
AcDbEntity
  8
1
  6
DASH_CENTER
 62
     3
100
AcDbLine
 10
177.8606875045884
 20
-8.5475208140611
 30
0.0
 11
170.3606875045884
 21
-8.5475208140611
 31
0.0
  0
LINE
  5
2AD
330
1F
100
AcDbEntity
  8
1
  6
DASH_CENTER
 62
     3
100
AcDbLine
 10
126.9706875045884
 20
42.34247918593889
 30
0.0
 11
126.9706875045884
 21
34.8424791859389
 31
0.0
  0
LINE
  5
2AE
330
1F
100
AcDbEntity
  8
1
  6
DASH_CENTER
 62
     3
100
AcDbLine
 10
123.2206875045884
 20
38.5924791859389
 30
0.0
 11
130.7206875045884
 21
38.5924791859389
 31
0.0
  0
LINE
  5
2AF
330
1F
100
AcDbEntity
  8
1
  6
DASH_CENTER
 62
     3
100
AcDbLine
 10
126.9706875045884
 20
-4.7975208140611
 30
0.0
 11
126.9706875045884
 21
-12.2975208140611
 31
0.0
  0
LINE
  5
2B0
330
1F
100
AcDbEntity
  8
1
  6
DASH_CENTER
 62
     3
100
AcDbLine
 10
123.2206875045884
 20
-8.5475208140611
 30
0.0
 11
130.7206875045884
 21
-8.5475208140611
 31
0.0
  0
LINE
  5
2B1
330
1F
100
AcDbEntity
  8
1
  6
Continuous
 62
     2
100
AcDbLine
 10
127.3406875045884
 20
-12.4775208140611
 30
0.0
 11
131.6950893307373
 21
-12.4775208140611
 31
0.0
  0
LINE
  5
2B2
330
1F
100
AcDbEntity
  8
1
  6
DASH_CENTER
 62
     3
100
AcDbLine
 10
-107.9797102752448
 20
11.8474791859389
 30
0.0
 11
-107.9797102752448
 21
-18.17752081406111
 31
0.0
  0
LINE
  5
2B3
330
1F
100
AcDbEntity
  8
1
  6
Continuous
 62
     7
100
AcDbLine
 10
-109.9797102752448
 20
55.13947236881463
 30
0.0
 11
-109.9797102752448
 21
44.22247918593887
 31
0.0
  0
LINE
  5
2B4
330
1F
100
AcDbEntity
  8
1
  6
Continuous
 62
     7
100
AcDbLine
 10
-108.9797102752448
 20
55.1859786683405
 30
0.0
 11
-108.9797102752448
 21
44.22247918593887
 31
0.0
  0
LINE
  5
2B5
330
1F
100
AcDbEntity
  8
1
  6
Continuous
 62
     7
100
AcDbLine
 10
-105.9797102752448
 20
54.30548600306314
 30
0.0
 11
-105.9797102752448
 21
44.22247918593887
 31
0.0
  0
LINE
  5
2B6
330
1F
100
AcDbEntity
  8
1
  6
Continuous
 62
     7
100
AcDbLine
 10
-106.9797102752448
 20
54.25897970353731
 30
0.0
 11
-106.9797102752448
 21
44.22247918593887
 31
0.0
  0
LINE
  5
2B7
330
1F
100
AcDbEntity
  8
1
  6
DASH_CENTER
 62
     3
100
AcDbLine
 10
-124.6797102752448
 20
36.87247918593889
 30
0.0
 11
-124.6797102752448
 21
43.37247918593889
 31
0.0
  0
LINE
  5
2B8
330
1F
100
AcDbEntity
  8
1
  6
Continuous
 62
     7
100
AcDbLine
 10
-109.765767385194
 20
17.6474791859389
 30
0.0
 11
-106.1936531652956
 21
17.6474791859389
 31
0.0
  0
LINE
  5
2B9
330
1F
100
AcDbEntity
  8
1
  6
Continuous
 62
     7
100
AcDbLine
 10
-102.4797102752448
 20
44.02247918593887
 30
0.0
 11
-102.4797102752448
 21
43.4224791859389
 31
0.0
  0
LINE
  5
2BA
330
1F
100
AcDbEntity
  8
1
  6
Continuous
 62
     7
100
AcDbLine
 10
-113.4797102752448
 20
43.4224791859389
 30
0.0
 11
-113.4797102752448
 21
44.02247918593887
 31
0.0
  0
LINE
  5
2BB
330
1F
100
AcDbEntity
  8
1
  6
Continuous
 62
     7
100
AcDbLine
 10
-102.6797102752448
 20
44.22247918593887
 30
0.0
 11
-113.2797102752448
 21
44.22247918593887
 31
0.0
  0
LINE
  5
2BC
330
1F
100
AcDbEntity
  8
1
  6
DASH_CENTER
 62
     3
100
AcDbLine
 10
-141.1797102752448
 20
15.0224791859389
 30
0.0
 11
-74.7797102752448
 21
15.02247918593889
 31
0.0
  0
LINE
  5
2BD
330
1F
100
AcDbEntity
  8
1
  6
Continuous
 62
     2
100
AcDbLine
 10
-120.9797102752448
 20
-12.4775208140611
 30
0.0
 11
-94.9797102752448
 21
-12.4775208140611
 31
0.0
  0
LINE
  5
2BE
330
1F
100
AcDbEntity
  8
1
  6
Continuous
 62
     7
100
AcDbLine
 10
-136.1797102752448
 20
-8.17752081406111
 30
0.0
 11
-136.1797102752448
 21
38.22247918593891
 31
0.0
  0
LINE
  5
2BF
330
1F
100
AcDbEntity
  8
1
  6
Continuous
 62
     2
100
AcDbLine
 10
-135.4797102752448
 20
-8.17752081406109
 30
0.0
 11
-135.4797102752448
 21
38.22247918593889
 31
0.0
  0
LINE
  5
2C0
330
1F
100
AcDbEntity
  8
1
  6
Continuous
 62
     2
100
AcDbLine
 10
-131.1797102752448
 20
-12.4775208140611
 30
0.0
 11
-128.3797102752448
 21
-12.4775208140611
 31
0.0
  0
LINE
  5
2C1
330
1F
100
AcDbEntity
  8
1
  6
DASH_CENTER
 62
     3
100
AcDbLine
 10
-124.6797102752448
 20
-6.82752081406109
 30
0.0
 11
-124.6797102752448
 21
-13.32752081406108
 31
0.0
  0
LINE
  5
2C2
330
1F
100
AcDbEntity
  8
1
  6
DASH_CENTER
 62
     3
100
AcDbLine
 10
-127.9297102752448
 20
-10.07752081406109
 30
0.0
 11
-121.4297102752448
 21
-10.07752081406109
 31
0.0
  0
LINE
  5
2C3
330
1F
100
AcDbEntity
  8
1
  6
DASH_CENTER
 62
     3
100
AcDbLine
 10
-135.2997102752448
 20
-8.5475208140611
 30
0.0
 11
-127.7997102752448
 21
-8.5475208140611
 31
0.0
  0
LINE
  5
2C4
330
1F
100
AcDbEntity
  8
1
  6
DASH_CENTER
 62
     3
100
AcDbLine
 10
-131.5497102752448
 20
-4.7975208140611
 30
0.0
 11
-131.5497102752448
 21
-12.2975208140611
 31
0.0
  0
LINE
  5
2C5
330
1F
100
AcDbEntity
  8
1
  6
Continuous
 62
     7
100
AcDbLine
 10
-121.6797102752448
 20
-13.17752081406111
 30
0.0
 11
-121.6797102752448
 21
-10.07752081406109
 31
0.0
  0
LINE
  5
2C6
330
1F
100
AcDbEntity
  8
1
  6
Continuous
 62
     7
100
AcDbLine
 10
-127.6797102752448
 20
-13.17752081406111
 30
0.0
 11
-127.6797102752448
 21
-10.07752081406109
 31
0.0
  0
LINE
  5
2C7
330
1F
100
AcDbEntity
  8
1
  6
Continuous
 62
     7
100
AcDbLine
 10
-131.1797102752448
 20
-13.17752081406111
 30
0.0
 11
-84.7797102752448
 21
-13.17752081406111
 31
0.0
  0
LINE
  5
2C8
330
1F
100
AcDbEntity
  8
1
  6
Continuous
 62
     2
100
AcDbLine
 10
-120.9797102752448
 20
-12.4775208140611
 30
0.0
 11
-120.9797102752448
 21
-10.07752081406109
 31
0.0
  0
LINE
  5
2C9
330
1F
100
AcDbEntity
  8
1
  6
Continuous
 62
     2
100
AcDbLine
 10
-128.3797102752448
 20
-12.4775208140611
 30
0.0
 11
-128.3797102752448
 21
-10.07752081406109
 31
0.0
  0
LINE
  5
2CA
330
1F
100
AcDbEntity
  8
1
  6
Continuous
 62
     2
100
AcDbLine
 10
-120.9797102752448
 20
-12.4775208140611
 30
0.0
 11
-121.6797102752448
 21
-13.17752081406111
 31
0.0
  0
LINE
  5
2CB
330
1F
100
AcDbEntity
  8
1
  6
Continuous
 62
     2
100
AcDbLine
 10
-128.3797102752448
 20
-12.4775208140611
 30
0.0
 11
-127.6797102752448
 21
-13.17752081406111
 31
0.0
  0
LINE
  5
2CC
330
1F
100
AcDbEntity
  8
1
  6
Continuous
 62
     2
100
AcDbLine
 10
-120.9797102752448
 20
42.52247918593889
 30
0.0
 11
-94.9797102752448
 21
42.52247918593889
 31
0.0
  0
LINE
  5
2CD
330
1F
100
AcDbEntity
  8
1
  6
Continuous
 62
     2
100
AcDbLine
 10
-128.3797102752448
 20
42.52247918593889
 30
0.0
 11
-131.1797102752448
 21
42.52247918593891
 31
0.0
  0
LINE
  5
2CE
330
1F
100
AcDbEntity
  8
1
  6
DASH_CENTER
 62
     3
100
AcDbLine
 10
-127.9297102752448
 20
40.12247918593889
 30
0.0
 11
-121.4297102752448
 21
40.12247918593889
 31
0.0
  0
LINE
  5
2CF
330
1F
100
AcDbEntity
  8
1
  6
DASH_CENTER
 62
     3
100
AcDbLine
 10
-135.2997102752448
 20
38.5924791859389
 30
0.0
 11
-127.7997102752448
 21
38.5924791859389
 31
0.0
  0
LINE
  5
2D0
330
1F
100
AcDbEntity
  8
1
  6
DASH_CENTER
 62
     3
100
AcDbLine
 10
-131.5497102752448
 20
42.34247918593889
 30
0.0
 11
-131.5497102752448
 21
34.8424791859389
 31
0.0
  0
LINE
  5
2D1
330
1F
100
AcDbEntity
  8
1
  6
Continuous
 62
     7
100
AcDbLine
 10
-121.6797102752448
 20
40.12247918593889
 30
0.0
 11
-121.6797102752448
 21
43.22247918593888
 31
0.0
  0
LINE
  5
2D2
330
1F
100
AcDbEntity
  8
1
  6
Continuous
 62
     7
100
AcDbLine
 10
-127.6797102752448
 20
40.12247918593889
 30
0.0
 11
-127.6797102752448
 21
43.2224791859389
 31
0.0
  0
LINE
  5
2D3
330
1F
100
AcDbEntity
  8
1
  6
Continuous
 62
     7
100
AcDbLine
 10
-131.1797102752448
 20
43.2224791859389
 30
0.0
 11
-84.7797102752448
 21
43.2224791859389
 31
0.0
  0
LINE
  5
2D4
330
1F
100
AcDbEntity
  8
1
  6
Continuous
 62
     2
100
AcDbLine
 10
-120.9797102752448
 20
40.12247918593889
 30
0.0
 11
-120.9797102752448
 21
42.52247918593889
 31
0.0
  0
LINE
  5
2D5
330
1F
100
AcDbEntity
  8
1
  6
Continuous
 62
     2
100
AcDbLine
 10
-128.3797102752448
 20
40.12247918593889
 30
0.0
 11
-128.3797102752448
 21
42.52247918593889
 31
0.0
  0
LINE
  5
2D6
330
1F
100
AcDbEntity
  8
1
  6
Continuous
 62
     2
100
AcDbLine
 10
-121.6797102752448
 20
43.22247918593888
 30
0.0
 11
-120.9797102752448
 21
42.52247918593889
 31
0.0
  0
LINE
  5
2D7
330
1F
100
AcDbEntity
  8
1
  6
Continuous
 62
     2
100
AcDbLine
 10
-127.6797102752448
 20
43.2224791859389
 30
0.0
 11
-128.3797102752448
 21
42.52247918593889
 31
0.0
  0
LINE
  5
2D8
330
1F
100
AcDbEntity
  8
1
  6
Continuous
 62
     7
100
AcDbLine
 10
-79.7797102752448
 20
-8.17752081406111
 30
0.0
 11
-79.7797102752448
 21
38.22247918593891
 31
0.0
  0
LINE
  5
2D9
330
1F
100
AcDbEntity
  8
1
  6
Continuous
 62
     2
100
AcDbLine
 10
-80.4797102752448
 20
-8.17752081406109
 30
0.0
 11
-80.4797102752448
 21
38.22247918593889
 31
0.0
  0
LINE
  5
2DA
330
1F
100
AcDbEntity
  8
1
  6
Continuous
 62
     2
100
AcDbLine
 10
-87.5797102752448
 20
-12.4775208140611
 30
0.0
 11
-84.7797102752448
 21
-12.4775208140611
 31
0.0
  0
LINE
  5
2DB
330
1F
100
AcDbEntity
  8
1
  6
DASH_CENTER
 62
     3
100
AcDbLine
 10
-91.2797102752448
 20
-13.32752081406108
 30
0.0
 11
-91.2797102752448
 21
-6.82752081406109
 31
0.0
  0
LINE
  5
2DC
330
1F
100
AcDbEntity
  8
1
  6
DASH_CENTER
 62
     3
100
AcDbLine
 10
-88.0297102752448
 20
-10.07752081406109
 30
0.0
 11
-94.5297102752448
 21
-10.07752081406109
 31
0.0
  0
LINE
  5
2DD
330
1F
100
AcDbEntity
  8
1
  6
DASH_CENTER
 62
     3
100
AcDbLine
 10
-80.6597102752448
 20
-8.5475208140611
 30
0.0
 11
-88.1597102752448
 21
-8.5475208140611
 31
0.0
  0
LINE
  5
2DE
330
1F
100
AcDbEntity
  8
1
  6
DASH_CENTER
 62
     3
100
AcDbLine
 10
-84.4097102752448
 20
-12.2975208140611
 30
0.0
 11
-84.4097102752448
 21
-4.7975208140611
 31
0.0
  0
LINE
  5
2DF
330
1F
100
AcDbEntity
  8
1
  6
Continuous
 62
     7
100
AcDbLine
 10
-94.2797102752448
 20
-10.07752081406109
 30
0.0
 11
-94.2797102752448
 21
-13.17752081406111
 31
0.0
  0
LINE
  5
2E0
330
1F
100
AcDbEntity
  8
1
  6
Continuous
 62
     7
100
AcDbLine
 10
-88.2797102752448
 20
-10.07752081406109
 30
0.0
 11
-88.2797102752448
 21
-13.17752081406111
 31
0.0
  0
LINE
  5
2E1
330
1F
100
AcDbEntity
  8
1
  6
Continuous
 62
     2
100
AcDbLine
 10
-94.9797102752448
 20
-10.07752081406109
 30
0.0
 11
-94.9797102752448
 21
-12.4775208140611
 31
0.0
  0
LINE
  5
2E2
330
1F
100
AcDbEntity
  8
1
  6
Continuous
 62
     2
100
AcDbLine
 10
-87.5797102752448
 20
-10.07752081406109
 30
0.0
 11
-87.5797102752448
 21
-12.4775208140611
 31
0.0
  0
LINE
  5
2E3
330
1F
100
AcDbEntity
  8
1
  6
Continuous
 62
     2
100
AcDbLine
 10
-94.2797102752448
 20
-13.17752081406111
 30
0.0
 11
-94.9797102752448
 21
-12.4775208140611
 31
0.0
  0
LINE
  5
2E4
330
1F
100
AcDbEntity
  8
1
  6
Continuous
 62
     2
100
AcDbLine
 10
-88.2797102752448
 20
-13.17752081406111
 30
0.0
 11
-87.5797102752448
 21
-12.4775208140611
 31
0.0
  0
LINE
  5
2E5
330
1F
100
AcDbEntity
  8
1
  6
Continuous
 62
     2
100
AcDbLine
 10
-84.7797102752448
 20
42.52247918593891
 30
0.0
 11
-87.5797102752448
 21
42.52247918593889
 31
0.0
  0
LINE
  5
2E6
330
1F
100
AcDbEntity
  8
1
  6
DASH_CENTER
 62
     3
100
AcDbLine
 10
-91.2797102752448
 20
36.87247918593889
 30
0.0
 11
-91.2797102752448
 21
43.37247918593889
 31
0.0
  0
LINE
  5
2E7
330
1F
100
AcDbEntity
  8
1
  6
DASH_CENTER
 62
     3
100
AcDbLine
 10
-88.0297102752448
 20
40.12247918593889
 30
0.0
 11
-94.5297102752448
 21
40.12247918593889
 31
0.0
  0
LINE
  5
2E8
330
1F
100
AcDbEntity
  8
1
  6
DASH_CENTER
 62
     3
100
AcDbLine
 10
-80.6597102752448
 20
38.5924791859389
 30
0.0
 11
-88.1597102752448
 21
38.5924791859389
 31
0.0
  0
LINE
  5
2E9
330
1F
100
AcDbEntity
  8
1
  6
DASH_CENTER
 62
     3
100
AcDbLine
 10
-84.4097102752448
 20
34.8424791859389
 30
0.0
 11
-84.4097102752448
 21
42.34247918593889
 31
0.0
  0
LINE
  5
2EA
330
1F
100
AcDbEntity
  8
1
  6
DASH_CENTER
 62
     3
100
AcDbLine
 10
-107.9797102752448
 20
44.72247918593888
 30
0.0
 11
-107.9797102752448
 21
11.8474791859389
 31
0.0
  0
LINE
  5
2EB
330
1F
100
AcDbEntity
  8
1
  6
Continuous
 62
     7
100
AcDbLine
 10
-94.2797102752448
 20
43.2224791859389
 30
0.0
 11
-94.2797102752448
 21
40.12247918593889
 31
0.0
  0
LINE
  5
2EC
330
1F
100
AcDbEntity
  8
1
  6
Continuous
 62
     7
100
AcDbLine
 10
-88.2797102752448
 20
43.2224791859389
 30
0.0
 11
-88.2797102752448
 21
40.12247918593889
 31
0.0
  0
LINE
  5
2ED
330
1F
100
AcDbEntity
  8
1
  6
Continuous
 62
     2
100
AcDbLine
 10
-94.9797102752448
 20
42.52247918593889
 30
0.0
 11
-94.9797102752448
 21
40.12247918593889
 31
0.0
  0
LINE
  5
2EE
330
1F
100
AcDbEntity
  8
1
  6
Continuous
 62
     2
100
AcDbLine
 10
-87.5797102752448
 20
42.52247918593889
 30
0.0
 11
-87.5797102752448
 21
40.12247918593889
 31
0.0
  0
LINE
  5
2EF
330
1F
100
AcDbEntity
  8
1
  6
Continuous
 62
     2
100
AcDbLine
 10
-94.9797102752448
 20
42.52247918593889
 30
0.0
 11
-94.2797102752448
 21
43.2224791859389
 31
0.0
  0
LINE
  5
2F0
330
1F
100
AcDbEntity
  8
1
  6
Continuous
 62
     2
100
AcDbLine
 10
-87.5797102752448
 20
42.52247918593889
 30
0.0
 11
-88.2797102752448
 21
43.2224791859389
 31
0.0
  0
LINE
  5
2F1
330
1F
100
AcDbEntity
  8
1
  6
Continuous
 62
     7
100
AcDbLine
 10
-126.1325341260896
 20
-10.45075379547542
 30
0.0
 11
-125.3699196254481
 21
-10.46406528109932
 31
0.0
  0
LINE
  5
2F2
330
1F
100
AcDbEntity
  8
1
  6
Continuous
 62
     7
100
AcDbLine
 10
-125.3699196254481
 20
-10.46406528109932
 30
0.0
 11
-125.1598041701903
 21
-10.55761470900675
 31
0.0
  0
LINE
  5
2F3
330
1F
100
AcDbEntity
  8
1
  6
Continuous
 62
     7
100
AcDbLine
 10
-125.066254742283
 20
-10.76773016426454
 30
0.0
 11
-125.052943256659
 21
-11.53034466490604
 31
0.0
  0
LINE
  5
2F4
330
1F
100
AcDbEntity
  8
1
  6
Continuous
 62
     7
100
AcDbLine
 10
-125.1598041701903
 20
-10.55761470900675
 30
0.0
 11
-125.066254742283
 21
-10.76773016426454
 31
0.0
  0
LINE
  5
2F5
330
1F
100
AcDbEntity
  8
1
  6
Continuous
 62
     7
100
AcDbLine
 10
-124.3064772938305
 20
-11.53034466490604
 30
0.0
 11
-124.2931658082065
 21
-10.76773016426454
 31
0.0
  0
LINE
  5
2F6
330
1F
100
AcDbEntity
  8
1
  6
Continuous
 62
     7
100
AcDbLine
 10
-124.2931658082065
 20
-10.76773016426454
 30
0.0
 11
-124.1996163802991
 21
-10.55761470900675
 31
0.0
  0
LINE
  5
2F7
330
1F
100
AcDbEntity
  8
1
  6
Continuous
 62
     7
100
AcDbLine
 10
-123.9895009250413
 20
-10.46406528109931
 30
0.0
 11
-123.2268864243999
 21
-10.45075379547542
 31
0.0
  0
LINE
  5
2F8
330
1F
100
AcDbEntity
  8
1
  6
Continuous
 62
     7
100
AcDbLine
 10
-124.1996163802991
 20
-10.55761470900675
 30
0.0
 11
-123.9895009250413
 21
-10.46406528109931
 31
0.0
  0
LINE
  5
2F9
330
1F
100
AcDbEntity
  8
1
  6
Continuous
 62
     7
100
AcDbLine
 10
-123.2268864243999
 20
-9.7042878326468
 30
0.0
 11
-123.9895009250413
 21
-9.6909763470229
 31
0.0
  0
LINE
  5
2FA
330
1F
100
AcDbEntity
  8
1
  6
Continuous
 62
     7
100
AcDbLine
 10
-123.9895009250413
 20
-9.6909763470229
 30
0.0
 11
-124.1996163802991
 21
-9.59742691911547
 31
0.0
  0
LINE
  5
2FB
330
1F
100
AcDbEntity
  8
1
  6
Continuous
 62
     7
100
AcDbLine
 10
-124.2931658082065
 20
-9.38731146385768
 30
0.0
 11
-124.3064772938305
 21
-8.62469696321618
 31
0.0
  0
LINE
  5
2FC
330
1F
100
AcDbEntity
  8
1
  6
Continuous
 62
     7
100
AcDbLine
 10
-124.1996163802991
 20
-9.59742691911547
 30
0.0
 11
-124.2931658082065
 21
-9.38731146385768
 31
0.0
  0
LINE
  5
2FD
330
1F
100
AcDbEntity
  8
1
  6
Continuous
 62
     7
100
AcDbLine
 10
-125.052943256659
 20
-8.62469696321617
 30
0.0
 11
-125.066254742283
 21
-9.38731146385767
 31
0.0
  0
LINE
  5
2FE
330
1F
100
AcDbEntity
  8
1
  6
Continuous
 62
     7
100
AcDbLine
 10
-125.066254742283
 20
-9.38731146385767
 30
0.0
 11
-125.1598041701905
 21
-9.59742691911546
 31
0.0
  0
LINE
  5
2FF
330
1F
100
AcDbEntity
  8
1
  6
Continuous
 62
     7
100
AcDbLine
 10
-125.3699196254481
 20
-9.6909763470229
 30
0.0
 11
-126.1325341260896
 21
-9.70428783264678
 31
0.0
  0
LINE
  5
300
330
1F
100
AcDbEntity
  8
1
  6
Continuous
 62
     7
100
AcDbLine
 10
-125.1598041701905
 20
-9.59742691911546
 30
0.0
 11
-125.3699196254481
 21
-9.6909763470229
 31
0.0
  0
LINE
  5
301
330
1F
100
AcDbEntity
  8
1
  6
Continuous
 62
     7
100
AcDbLine
 10
-90.5895009250414
 20
-10.46406528109932
 30
0.0
 11
-89.8268864243999
 21
-10.45075379547542
 31
0.0
  0
LINE
  5
302
330
1F
100
AcDbEntity
  8
1
  6
Continuous
 62
     7
100
AcDbLine
 10
-90.7996163802992
 20
-10.55761470900675
 30
0.0
 11
-90.5895009250414
 21
-10.46406528109932
 31
0.0
  0
LINE
  5
303
330
1F
100
AcDbEntity
  8
1
  6
Continuous
 62
     7
100
AcDbLine
 10
-90.9064772938305
 20
-11.53034466490604
 30
0.0
 11
-90.8931658082066
 21
-10.76773016426454
 31
0.0
  0
LINE
  5
304
330
1F
100
AcDbEntity
  8
1
  6
Continuous
 62
     7
100
AcDbLine
 10
-90.8931658082066
 20
-10.76773016426454
 30
0.0
 11
-90.7996163802992
 21
-10.55761470900675
 31
0.0
  0
LINE
  5
305
330
1F
100
AcDbEntity
  8
1
  6
Continuous
 62
     7
100
AcDbLine
 10
-91.666254742283
 20
-10.76773016426454
 30
0.0
 11
-91.6529432566591
 21
-11.53034466490604
 31
0.0
  0
LINE
  5
306
330
1F
100
AcDbEntity
  8
1
  6
Continuous
 62
     7
100
AcDbLine
 10
-91.7598041701904
 20
-10.55761470900675
 30
0.0
 11
-91.666254742283
 21
-10.76773016426454
 31
0.0
  0
LINE
  5
307
330
1F
100
AcDbEntity
  8
1
  6
Continuous
 62
     7
100
AcDbLine
 10
-92.7325341260897
 20
-10.45075379547542
 30
0.0
 11
-91.9699196254482
 21
-10.46406528109931
 31
0.0
  0
LINE
  5
308
330
1F
100
AcDbEntity
  8
1
  6
Continuous
 62
     7
100
AcDbLine
 10
-91.9699196254482
 20
-10.46406528109931
 30
0.0
 11
-91.7598041701904
 21
-10.55761470900675
 31
0.0
  0
LINE
  5
309
330
1F
100
AcDbEntity
  8
1
  6
Continuous
 62
     7
100
AcDbLine
 10
-91.9699196254482
 20
-9.6909763470229
 30
0.0
 11
-92.7325341260897
 21
-9.7042878326468
 31
0.0
  0
LINE
  5
30A
330
1F
100
AcDbEntity
  8
1
  6
Continuous
 62
     7
100
AcDbLine
 10
-91.7598041701904
 20
-9.59742691911547
 30
0.0
 11
-91.9699196254482
 21
-9.6909763470229
 31
0.0
  0
LINE
  5
30B
330
1F
100
AcDbEntity
  8
1
  6
Continuous
 62
     7
100
AcDbLine
 10
-91.6529432566591
 20
-8.62469696321618
 30
0.0
 11
-91.666254742283
 21
-9.38731146385768
 31
0.0
  0
LINE
  5
30C
330
1F
100
AcDbEntity
  8
1
  6
Continuous
 62
     7
100
AcDbLine
 10
-91.666254742283
 20
-9.38731146385768
 30
0.0
 11
-91.7598041701904
 21
-9.59742691911547
 31
0.0
  0
LINE
  5
30D
330
1F
100
AcDbEntity
  8
1
  6
Continuous
 62
     7
100
AcDbLine
 10
-90.8931658082066
 20
-9.38731146385767
 30
0.0
 11
-90.9064772938305
 21
-8.62469696321617
 31
0.0
  0
LINE
  5
30E
330
1F
100
AcDbEntity
  8
1
  6
Continuous
 62
     7
100
AcDbLine
 10
-90.7996163802991
 20
-9.59742691911546
 30
0.0
 11
-90.8931658082066
 21
-9.38731146385767
 31
0.0
  0
LINE
  5
30F
330
1F
100
AcDbEntity
  8
1
  6
Continuous
 62
     7
100
AcDbLine
 10
-89.8268864243999
 20
-9.70428783264678
 30
0.0
 11
-90.5895009250414
 21
-9.6909763470229
 31
0.0
  0
LINE
  5
310
330
1F
100
AcDbEntity
  8
1
  6
Continuous
 62
     7
100
AcDbLine
 10
-90.5895009250414
 20
-9.6909763470229
 30
0.0
 11
-90.7996163802991
 21
-9.59742691911546
 31
0.0
  0
LINE
  5
311
330
1F
100
AcDbEntity
  8
1
  6
Continuous
 62
     7
100
AcDbLine
 10
-125.3699196254481
 20
40.50902365297711
 30
0.0
 11
-126.1325341260896
 21
40.4957121673532
 31
0.0
  0
LINE
  5
312
330
1F
100
AcDbEntity
  8
1
  6
Continuous
 62
     7
100
AcDbLine
 10
-125.1598041701903
 20
40.60257308088453
 30
0.0
 11
-125.3699196254481
 21
40.50902365297711
 31
0.0
  0
LINE
  5
313
330
1F
100
AcDbEntity
  8
1
  6
Continuous
 62
     7
100
AcDbLine
 10
-125.052943256659
 20
41.57530303678384
 30
0.0
 11
-125.066254742283
 21
40.81268853614232
 31
0.0
  0
LINE
  5
314
330
1F
100
AcDbEntity
  8
1
  6
Continuous
 62
     7
100
AcDbLine
 10
-125.066254742283
 20
40.81268853614232
 30
0.0
 11
-125.1598041701903
 21
40.60257308088453
 31
0.0
  0
LINE
  5
315
330
1F
100
AcDbEntity
  8
1
  6
Continuous
 62
     7
100
AcDbLine
 10
-124.2931658082065
 20
40.81268853614232
 30
0.0
 11
-124.3064772938305
 21
41.57530303678384
 31
0.0
  0
LINE
  5
316
330
1F
100
AcDbEntity
  8
1
  6
Continuous
 62
     7
100
AcDbLine
 10
-124.1996163802991
 20
40.60257308088453
 30
0.0
 11
-124.2931658082065
 21
40.81268853614232
 31
0.0
  0
LINE
  5
317
330
1F
100
AcDbEntity
  8
1
  6
Continuous
 62
     7
100
AcDbLine
 10
-123.2268864243999
 20
40.4957121673532
 30
0.0
 11
-123.9895009250413
 21
40.50902365297711
 31
0.0
  0
LINE
  5
318
330
1F
100
AcDbEntity
  8
1
  6
Continuous
 62
     7
100
AcDbLine
 10
-123.9895009250413
 20
40.50902365297711
 30
0.0
 11
-124.1996163802991
 21
40.60257308088453
 31
0.0
  0
LINE
  5
319
330
1F
100
AcDbEntity
  8
1
  6
Continuous
 62
     7
100
AcDbLine
 10
-123.9895009250413
 20
39.73593471890068
 30
0.0
 11
-123.2268864243999
 21
39.7492462045246
 31
0.0
  0
LINE
  5
31A
330
1F
100
AcDbEntity
  8
1
  6
Continuous
 62
     7
100
AcDbLine
 10
-124.1996163802991
 20
39.64238529099325
 30
0.0
 11
-123.9895009250413
 21
39.73593471890068
 31
0.0
  0
LINE
  5
31B
330
1F
100
AcDbEntity
  8
1
  6
Continuous
 62
     7
100
AcDbLine
 10
-124.3064772938305
 20
38.66965533509396
 30
0.0
 11
-124.2931658082065
 21
39.43226983573546
 31
0.0
  0
LINE
  5
31C
330
1F
100
AcDbEntity
  8
1
  6
Continuous
 62
     7
100
AcDbLine
 10
-124.2931658082065
 20
39.43226983573546
 30
0.0
 11
-124.1996163802991
 21
39.64238529099325
 31
0.0
  0
LINE
  5
31D
330
1F
100
AcDbEntity
  8
1
  6
Continuous
 62
     7
100
AcDbLine
 10
-125.066254742283
 20
39.43226983573545
 30
0.0
 11
-125.052943256659
 21
38.66965533509395
 31
0.0
  0
LINE
  5
31E
330
1F
100
AcDbEntity
  8
1
  6
Continuous
 62
     7
100
AcDbLine
 10
-125.1598041701905
 20
39.64238529099325
 30
0.0
 11
-125.066254742283
 21
39.43226983573545
 31
0.0
  0
LINE
  5
31F
330
1F
100
AcDbEntity
  8
1
  6
Continuous
 62
     7
100
AcDbLine
 10
-126.1325341260896
 20
39.74924620452456
 30
0.0
 11
-125.3699196254481
 21
39.73593471890068
 31
0.0
  0
LINE
  5
320
330
1F
100
AcDbEntity
  8
1
  6
Continuous
 62
     7
100
AcDbLine
 10
-125.3699196254481
 20
39.73593471890068
 30
0.0
 11
-125.1598041701905
 21
39.64238529099325
 31
0.0
  0
LINE
  5
321
330
1F
100
AcDbEntity
  8
1
  6
Continuous
 62
     7
100
AcDbLine
 10
-89.8268864243999
 20
40.4957121673532
 30
0.0
 11
-90.5895009250414
 21
40.50902365297711
 31
0.0
  0
LINE
  5
322
330
1F
100
AcDbEntity
  8
1
  6
Continuous
 62
     7
100
AcDbLine
 10
-90.5895009250414
 20
40.50902365297711
 30
0.0
 11
-90.7996163802992
 21
40.60257308088453
 31
0.0
  0
LINE
  5
323
330
1F
100
AcDbEntity
  8
1
  6
Continuous
 62
     7
100
AcDbLine
 10
-90.8931658082066
 20
40.81268853614232
 30
0.0
 11
-90.9064772938305
 21
41.57530303678384
 31
0.0
  0
LINE
  5
324
330
1F
100
AcDbEntity
  8
1
  6
Continuous
 62
     7
100
AcDbLine
 10
-90.7996163802992
 20
40.60257308088453
 30
0.0
 11
-90.8931658082066
 21
40.81268853614232
 31
0.0
  0
LINE
  5
325
330
1F
100
AcDbEntity
  8
1
  6
Continuous
 62
     7
100
AcDbLine
 10
-91.6529432566591
 20
41.57530303678384
 30
0.0
 11
-91.666254742283
 21
40.81268853614232
 31
0.0
  0
LINE
  5
326
330
1F
100
AcDbEntity
  8
1
  6
Continuous
 62
     7
100
AcDbLine
 10
-91.666254742283
 20
40.81268853614232
 30
0.0
 11
-91.7598041701904
 21
40.60257308088453
 31
0.0
  0
LINE
  5
327
330
1F
100
AcDbEntity
  8
1
  6
Continuous
 62
     7
100
AcDbLine
 10
-91.9699196254482
 20
40.50902365297711
 30
0.0
 11
-92.7325341260897
 21
40.4957121673532
 31
0.0
  0
LINE
  5
328
330
1F
100
AcDbEntity
  8
1
  6
Continuous
 62
     7
100
AcDbLine
 10
-91.7598041701904
 20
40.60257308088453
 30
0.0
 11
-91.9699196254482
 21
40.50902365297711
 31
0.0
  0
LINE
  5
329
330
1F
100
AcDbEntity
  8
1
  6
Continuous
 62
     7
100
AcDbLine
 10
-92.7325341260897
 20
39.7492462045246
 30
0.0
 11
-91.9699196254482
 21
39.73593471890068
 31
0.0
  0
LINE
  5
32A
330
1F
100
AcDbEntity
  8
1
  6
Continuous
 62
     7
100
AcDbLine
 10
-91.9699196254482
 20
39.73593471890068
 30
0.0
 11
-91.7598041701904
 21
39.64238529099325
 31
0.0
  0
LINE
  5
32B
330
1F
100
AcDbEntity
  8
1
  6
Continuous
 62
     7
100
AcDbLine
 10
-91.666254742283
 20
39.43226983573546
 30
0.0
 11
-91.6529432566591
 21
38.66965533509396
 31
0.0
  0
LINE
  5
32C
330
1F
100
AcDbEntity
  8
1
  6
Continuous
 62
     7
100
AcDbLine
 10
-91.7598041701904
 20
39.64238529099325
 30
0.0
 11
-91.666254742283
 21
39.43226983573546
 31
0.0
  0
LINE
  5
32D
330
1F
100
AcDbEntity
  8
1
  6
Continuous
 62
     7
100
AcDbLine
 10
-90.9064772938305
 20
38.66965533509395
 30
0.0
 11
-90.8931658082066
 21
39.43226983573545
 31
0.0
  0
LINE
  5
32E
330
1F
100
AcDbEntity
  8
1
  6
Continuous
 62
     7
100
AcDbLine
 10
-90.8931658082066
 20
39.43226983573545
 30
0.0
 11
-90.7996163802991
 21
39.64238529099325
 31
0.0
  0
LINE
  5
32F
330
1F
100
AcDbEntity
  8
1
  6
Continuous
 62
     7
100
AcDbLine
 10
-90.5895009250414
 20
39.73593471890068
 30
0.0
 11
-89.8268864243999
 21
39.74924620452456
 31
0.0
  0
LINE
  5
330
330
1F
100
AcDbEntity
  8
1
  6
Continuous
 62
     7
100
AcDbLine
 10
-90.7996163802991
 20
39.64238529099325
 30
0.0
 11
-90.5895009250414
 21
39.73593471890068
 31
0.0
  0
LINE
  5
331
330
1F
100
AcDbEntity
  8
1
  6
Continuous
 62
     7
100
AcDbLine
 10
-107.9797102752448
 20
54.72247918593889
 30
0.0
 11
-107.9797102752448
 21
44.22247918593887
 31
0.0
  0
LINE
  5
332
330
1F
100
AcDbEntity
  8
1
  6
Continuous
 62
     3
100
AcDbLine
 10
7.2281835167258
 20
-13.67752081406111
 30
0.0
 11
7.2281835167258
 21
-52.77752081406111
 31
0.0
  0
ARC
  5
333
330
1F
100
AcDbEntity
  8
1
  6
Continuous
 62
     7
100
AcDbCircle
 10
39.51545194037859
 20
63.73178921746922
 30
0.0
 40
1.657696155463496
100
AcDbArc
 50
52.89720752166178
 51
127.1027924783382
  0
ARC
  5
334
330
1F
100
AcDbEntity
  8
1
  6
Continuous
 62
     7
100
AcDbCircle
 10
37.51545194037859
 20
66.37599536967329
 30
0.0
 40
1.657696155463501
100
AcDbArc
 50
-127.1027924783381
 51
-52.89720752166193
  0
ARC
  5
335
330
1F
100
AcDbEntity
  8
1
  6
Continuous
 62
     7
100
AcDbCircle
 10
39.51545194037859
 20
62.47371688844206
 30
0.0
 40
1.65769615546349
100
AcDbArc
 50
52.89720752166163
 51
127.1027924783384
  0
ARC
  5
336
330
1F
100
AcDbEntity
  8
1
  6
Continuous
 62
     7
100
AcDbCircle
 10
37.51545194037859
 20
65.11792304064612
 30
0.0
 40
1.657696155463496
100
AcDbArc
 50
-127.1027924783382
 51
-52.89720752166178
  0
ARC
  5
337
330
1F
100
AcDbEntity
  8
1
  6
Continuous
 62
     7
100
AcDbCircle
 10
149.1406875045885
 20
53.01247918593889
 30
0.0
 40
2.209999999999927
100
AcDbArc
 50
50.69235188389545
 51
105.7531410389593
  0
ARC
  5
338
330
1F
100
AcDbEntity
  8
1
  6
Continuous
 62
     7
100
AcDbCircle
 10
151.9406875045884
 20
56.43247918593892
 30
0.0
 40
2.210000000000026
100
AcDbArc
 50
-129.3076481161063
 51
-74.24685896104388
  0
ARC
  5
339
330
1F
100
AcDbEntity
  8
1
  6
Continuous
 62
     2
100
AcDbCircle
 10
150.5406875045884
 20
15.02247918593889
 30
0.0
 40
32.54999999999995
100
AcDbArc
 50
-126.4202741719197
 51
-122.4979304563301
  0
ARC
  5
33A
330
1F
100
AcDbEntity
  8
1
  6
Continuous
 62
     2
100
AcDbCircle
 10
150.5406875045884
 20
15.02247918593889
 30
0.0
 40
32.54999999999997
100
AcDbArc
 50
122.49793045633
 51
126.4202741719197
  0
ARC
  5
33B
330
1F
100
AcDbEntity
  8
1
  6
Continuous
 62
     2
100
AcDbCircle
 10
127.0293870301357
 20
-8.48882128851386
 30
0.0
 40
4.699999999999998
100
AcDbArc
 50
-29.20594231323641
 51
119.2059423132372
  0
ARC
  5
33C
330
1F
100
AcDbEntity
  8
1
  6
Continuous
 62
     2
100
AcDbCircle
 10
150.5406875045884
 20
15.02247918593889
 30
0.0
 40
32.54999999999991
100
AcDbArc
 50
-147.50206954367
 51
-143.5797258280804
  0
ARC
  5
33D
330
1F
100
AcDbEntity
  8
1
  6
Continuous
 62
     2
100
AcDbCircle
 10
150.5406875045884
 20
15.02247918593889
 30
0.0
 40
32.54999999999995
100
AcDbArc
 50
143.5797258280801
 51
147.5020695436698
  0
ARC
  5
33E
330
1F
100
AcDbEntity
  8
1
  6
Continuous
 62
     2
100
AcDbCircle
 10
127.0293870301357
 20
38.53377966039159
 30
0.0
 40
4.69999999999999
100
AcDbArc
 50
-119.2059423132382
 51
29.20594231323749
  0
ARC
  5
33F
330
1F
100
AcDbEntity
  8
1
  6
Continuous
 62
     7
100
AcDbCircle
 10
150.5406875045884
 20
15.02247918593889
 30
0.0
 40
33.24999999999994
100
AcDbArc
 50
-147.5020695436698
 51
-143.5797258280802
  0
ARC
  5
340
330
1F
100
AcDbEntity
  8
1
  6
Continuous
 62
     7
100
AcDbCircle
 10
150.5406875045884
 20
15.02247918593889
 30
0.0
 40
33.24999999999999
100
AcDbArc
 50
-126.4202741719197
 51
-122.4979304563299
  0
ARC
  5
341
330
1F
100
AcDbEntity
  8
1
  6
Continuous
 62
     7
100
AcDbCircle
 10
150.5406875045884
 20
15.02247918593889
 30
0.0
 40
33.25
100
AcDbArc
 50
143.5797258280803
 51
147.50206954367
  0
ARC
  5
342
330
1F
100
AcDbEntity
  8
1
  6
Continuous
 62
     7
100
AcDbCircle
 10
127.0293870301357
 20
-8.48882128851386
 30
0.0
 40
3.999999999999959
100
AcDbArc
 50
-29.2059423132373
 51
119.2059423132396
  0
ARC
  5
343
330
1F
100
AcDbEntity
  8
1
  6
Continuous
 62
     7
100
AcDbCircle
 10
127.0293870301357
 20
38.53377966039159
 30
0.0
 40
4.000000000000052
100
AcDbArc
 50
-119.2059423132389
 51
29.20594231323799
  0
ARC
  5
344
330
1F
100
AcDbEntity
  8
1
  6
Continuous
 62
     7
100
AcDbCircle
 10
150.5406875045884
 20
15.02247918593889
 30
0.0
 40
33.24999999999995
100
AcDbArc
 50
122.4979304563299
 51
126.4202741719197
  0
ARC
  5
345
330
1F
100
AcDbEntity
  8
1
  6
Continuous
 62
     2
100
AcDbCircle
 10
150.5406875045884
 20
15.02247918593889
 30
0.0
 40
32.54999999999993
100
AcDbArc
 50
-57.50206954366972
 51
-53.57972582808026
  0
ARC
  5
346
330
1F
100
AcDbEntity
  8
1
  6
Continuous
 62
     2
100
AcDbCircle
 10
150.5406875045884
 20
15.02247918593889
 30
0.0
 40
32.54999999999996
100
AcDbArc
 50
53.57972582808025
 51
57.50206954366982
  0
ARC
  5
347
330
1F
100
AcDbEntity
  8
1
  6
Continuous
 62
     2
100
AcDbCircle
 10
174.0519879790411
 20
-8.48882128851386
 30
0.0
 40
4.70000000000014
100
AcDbArc
 50
60.79405768676264
 51
-150.7940576867627
  0
ARC
  5
348
330
1F
100
AcDbEntity
  8
1
  6
Continuous
 62
     2
100
AcDbCircle
 10
150.5406875045884
 20
15.02247918593889
 30
0.0
 40
32.54999999999995
100
AcDbArc
 50
-36.42027417191952
 51
-32.49793045633001
  0
ARC
  5
349
330
1F
100
AcDbEntity
  8
1
  6
Continuous
 62
     2
100
AcDbCircle
 10
150.5406875045884
 20
15.02247918593889
 30
0.0
 40
32.54999999999999
100
AcDbArc
 50
32.49793045633017
 51
36.42027417191976
  0
ARC
  5
34A
330
1F
100
AcDbEntity
  8
1
  6
Continuous
 62
     2
100
AcDbCircle
 10
174.0519879790411
 20
38.53377966039159
 30
0.0
 40
4.699999999999924
100
AcDbArc
 50
150.7940576867617
 51
-60.79405768676168
  0
ARC
  5
34B
330
1F
100
AcDbEntity
  8
1
  6
Continuous
 62
     7
100
AcDbCircle
 10
150.5406875045884
 20
15.02247918593889
 30
0.0
 40
33.25000000000003
100
AcDbArc
 50
-36.42027417191973
 51
-32.49793045633015
  0
ARC
  5
34C
330
1F
100
AcDbEntity
  8
1
  6
Continuous
 62
     7
100
AcDbCircle
 10
150.5406875045884
 20
15.02247918593889
 30
0.0
 40
33.25000000000001
100
AcDbArc
 50
-57.50206954367008
 51
-53.57972582808032
  0
ARC
  5
34D
330
1F
100
AcDbEntity
  8
1
  6
Continuous
 62
     7
100
AcDbCircle
 10
150.5406875045884
 20
15.02247918593889
 30
0.0
 40
33.25
100
AcDbArc
 50
32.49793045632998
 51
36.42027417191972
  0
ARC
  5
34E
330
1F
100
AcDbEntity
  8
1
  6
Continuous
 62
     7
100
AcDbCircle
 10
174.0519879790411
 20
-8.48882128851386
 30
0.0
 40
3.999999999999912
100
AcDbArc
 50
60.79405768676142
 51
-150.7940576867625
  0
ARC
  5
34F
330
1F
100
AcDbEntity
  8
1
  6
Continuous
 62
     7
100
AcDbCircle
 10
174.0519879790411
 20
38.53377966039159
 30
0.0
 40
3.999999999999961
100
AcDbArc
 50
150.7940576867618
 51
-60.79405768676221
  0
ARC
  5
350
330
1F
100
AcDbEntity
  8
1
  6
Continuous
 62
     7
100
AcDbCircle
 10
150.5406875045884
 20
15.02247918593889
 30
0.0
 40
33.24999999999996
100
AcDbArc
 50
53.57972582808027
 51
57.5020695436699
  0
ARC
  5
351
330
1F
100
AcDbEntity
  8
1
  6
Continuous
 62
     7
100
AcDbCircle
 10
-107.9797102752448
 20
15.02247918593889
 30
0.0
 40
19.05000000000002
100
AcDbArc
 50
74.23775677323643
 51
55.86392200490529
  0
ARC
  5
352
330
1F
100
AcDbEntity
  8
1
  6
Continuous
 62
     2
100
AcDbCircle
 10
-107.9797102752448
 20
15.02247918593889
 30
0.0
 40
17.24999999999998
100
AcDbArc
 50
74.29574218930873
 51
51.16347163849363
  0
ARC
  5
353
330
1F
100
AcDbEntity
  8
1
  6
Continuous
 62
     7
100
AcDbCircle
 10
-109.3797102752447
 20
53.01247918593889
 30
0.0
 40
2.209999999999936
100
AcDbArc
 50
50.69235188389516
 51
105.7531410389589
  0
ARC
  5
354
330
1F
100
AcDbEntity
  8
1
  6
Continuous
 62
     7
100
AcDbCircle
 10
-106.5797102752448
 20
56.43247918593892
 30
0.0
 40
2.210000000000017
100
AcDbArc
 50
-129.307648116106
 51
-74.24685896104353
  0
ARC
  5
355
330
1F
100
AcDbEntity
  8
1
  6
Continuous
 62
     7
100
AcDbCircle
 10
-124.6797102752448
 20
-10.07752081406111
 30
0.0
 40
3.0
100
AcDbArc
 50
0.00000000000037
 51
179.9999999999996
  0
ARC
  5
356
330
1F
100
AcDbEntity
  8
1
  6
Continuous
 62
     2
100
AcDbCircle
 10
-124.6797102752448
 20
-10.07752081406111
 30
0.0
 40
3.700000000000003
100
AcDbArc
 50
0.0000000000003
 51
179.9999999999997
  0
ARC
  5
357
330
1F
100
AcDbEntity
  8
1
  6
Continuous
 62
     7
100
AcDbCircle
 10
-124.6797102752448
 20
40.12247918593889
 30
0.0
 40
3.0
100
AcDbArc
 50
180.0
 51
0.0
  0
ARC
  5
358
330
1F
100
AcDbEntity
  8
1
  6
Continuous
 62
     2
100
AcDbCircle
 10
-124.6797102752448
 20
40.12247918593889
 30
0.0
 40
3.700000000000003
100
AcDbArc
 50
180.0
 51
0.0
  0
ARC
  5
359
330
1F
100
AcDbEntity
  8
1
  6
Continuous
 62
     7
100
AcDbCircle
 10
-91.2797102752448
 20
-10.07752081406111
 30
0.0
 40
3.0
100
AcDbArc
 50
0.00000000000037
 51
179.9999999999996
  0
ARC
  5
35A
330
1F
100
AcDbEntity
  8
1
  6
Continuous
 62
     2
100
AcDbCircle
 10
-91.2797102752448
 20
-10.07752081406111
 30
0.0
 40
3.699999999999989
100
AcDbArc
 50
0.0000000000003
 51
179.9999999999997
  0
ARC
  5
35B
330
1F
100
AcDbEntity
  8
1
  6
Continuous
 62
     7
100
AcDbCircle
 10
-91.2797102752448
 20
40.12247918593889
 30
0.0
 40
3.0
100
AcDbArc
 50
180.0
 51
0.0
  0
ARC
  5
35C
330
1F
100
AcDbEntity
  8
1
  6
Continuous
 62
     2
100
AcDbCircle
 10
-91.2797102752448
 20
40.12247918593889
 30
0.0
 40
3.700000000000003
100
AcDbArc
 50
180.0
 51
0.0
  0
ARC
  5
35D
330
1F
100
AcDbEntity
  8
1
  6
Continuous
 62
     7
100
AcDbCircle
 10
-124.6797102752448
 20
-10.07752081406111
 30
0.0
 40
1.499999999999643
100
AcDbArc
 50
165.5921855646375
 51
-165.5921855646383
  0
ARC
  5
35E
330
1F
100
AcDbEntity
  8
1
  6
Continuous
 62
     7
100
AcDbCircle
 10
-124.6797102752448
 20
-10.07752081406111
 30
0.0
 40
1.499999999999743
100
AcDbArc
 50
-104.4078144353565
 51
-75.59218556463982
  0
ARC
  5
35F
330
1F
100
AcDbEntity
  8
1
  6
Continuous
 62
     7
100
AcDbCircle
 10
-124.6797102752448
 20
-10.07752081406111
 30
0.0
 40
1.499999999999747
100
AcDbArc
 50
-14.4078144353606
 51
14.40781443536066
  0
ARC
  5
360
330
1F
100
AcDbEntity
  8
1
  6
Continuous
 62
     7
100
AcDbCircle
 10
-124.6797102752448
 20
-10.07752081406111
 30
0.0
 40
1.49999999999977
100
AcDbArc
 50
75.59218556463985
 51
104.4078144353564
  0
ARC
  5
361
330
1F
100
AcDbEntity
  8
1
  6
Continuous
 62
     7
100
AcDbCircle
 10
-91.2797102752448
 20
-10.07752081406111
 30
0.0
 40
1.499999999999733
100
AcDbArc
 50
-14.40781443536073
 51
14.40781443536159
  0
ARC
  5
362
330
1F
100
AcDbEntity
  8
1
  6
Continuous
 62
     7
100
AcDbCircle
 10
-91.2797102752448
 20
-10.07752081406111
 30
0.0
 40
1.499999999999768
100
AcDbArc
 50
-104.4078144353602
 51
-75.59218556464036
  0
ARC
  5
363
330
1F
100
AcDbEntity
  8
1
  6
Continuous
 62
     7
100
AcDbCircle
 10
-91.2797102752448
 20
-10.07752081406111
 30
0.0
 40
1.499999999999748
100
AcDbArc
 50
165.5921855646394
 51
-165.5921855646394
  0
ARC
  5
364
330
1F
100
AcDbEntity
  8
1
  6
Continuous
 62
     7
100
AcDbCircle
 10
-91.2797102752448
 20
-10.07752081406111
 30
0.0
 40
1.499999999999773
100
AcDbArc
 50
75.59218556464043
 51
104.4078144353602
  0
ARC
  5
365
330
1F
100
AcDbEntity
  8
1
  6
Continuous
 62
     7
100
AcDbCircle
 10
-124.6797102752448
 20
40.12247918593889
 30
0.0
 40
1.499999999999636
100
AcDbArc
 50
165.5921855646385
 51
-165.5921855646375
  0
ARC
  5
366
330
1F
100
AcDbEntity
  8
1
  6
Continuous
 62
     7
100
AcDbCircle
 10
-124.6797102752448
 20
40.12247918593889
 30
0.0
 40
1.499999999999787
100
AcDbArc
 50
75.59218556464
 51
104.4078144353563
  0
ARC
  5
367
330
1F
100
AcDbEntity
  8
1
  6
Continuous
 62
     7
100
AcDbCircle
 10
-124.6797102752448
 20
40.12247918593889
 30
0.0
 40
1.499999999999742
100
AcDbArc
 50
-14.40781443535987
 51
14.4078144353604
  0
ARC
  5
368
330
1F
100
AcDbEntity
  8
1
  6
Continuous
 62
     7
100
AcDbCircle
 10
-124.6797102752448
 20
40.12247918593889
 30
0.0
 40
1.499999999999756
100
AcDbArc
 50
-104.4078144353564
 51
-75.59218556463988
  0
ARC
  5
369
330
1F
100
AcDbEntity
  8
1
  6
Continuous
 62
     7
100
AcDbCircle
 10
-91.2797102752448
 20
40.12247918593889
 30
0.0
 40
1.499999999999739
100
AcDbArc
 50
-14.40781443536159
 51
14.40781443536053
  0
ARC
  5
36A
330
1F
100
AcDbEntity
  8
1
  6
Continuous
 62
     7
100
AcDbCircle
 10
-91.2797102752448
 20
40.12247918593889
 30
0.0
 40
1.499999999999784
100
AcDbArc
 50
75.59218556464053
 51
104.40781443536
  0
ARC
  5
36B
330
1F
100
AcDbEntity
  8
1
  6
Continuous
 62
     7
100
AcDbCircle
 10
-91.2797102752448
 20
40.12247918593889
 30
0.0
 40
1.499999999999746
100
AcDbArc
 50
165.5921855646396
 51
-165.5921855646401
  0
ARC
  5
36C
330
1F
100
AcDbEntity
  8
1
  6
Continuous
 62
     7
100
AcDbCircle
 10
-91.2797102752448
 20
40.12247918593889
 30
0.0
 40
1.499999999999773
100
AcDbArc
 50
-104.4078144353601
 51
-75.59218556464047
  0
CIRCLE
  5
36D
330
1F
100
AcDbEntity
  8
1
  6
Continuous
 62
     7
100
AcDbCircle
 10
150.5406875045884
 20
15.02247918593889
 30
0.0
 40
3.174999999999958
  0
CIRCLE
  5
36E
330
1F
100
AcDbEntity
  8
1
  6
Continuous
 62
     7
100
AcDbCircle
 10
-107.9797102752448
 20
15.02247918593889
 30
0.0
 40
3.174999999999997
  0
CIRCLE
  5
36F
330
1F
100
AcDbEntity
  8
1
  6
Continuous
 62
     7
100
AcDbCircle
 10
174.1106875045884
 20
-8.5475208140611
 30
0.0
 40
2.250000000000059
  0
CIRCLE
  5
370
330
1F
100
AcDbEntity
  8
1
  6
Continuous
 62
     7
100
AcDbCircle
 10
126.9706875045884
 20
-8.5475208140611
 30
0.0
 40
2.250000000000099
  0
CIRCLE
  5
371
330
1F
100
AcDbEntity
  8
1
  6
Continuous
 62
     7
100
AcDbCircle
 10
126.9706875045884
 20
38.5924791859389
 30
0.0
 40
2.250000000000043
  0
CIRCLE
  5
372
330
1F
100
AcDbEntity
  8
1
  6
Continuous
 62
     7
100
AcDbCircle
 10
174.1106875045884
 20
38.5924791859389
 30
0.0
 40
2.25
  0
CIRCLE
  5
373
330
1F
100
AcDbEntity
  8
1
  6
Continuous
 62
     2
100
AcDbCircle
 10
150.5406875045884
 20
15.02247918593889
 30
0.0
 40
2.474999999999909
  0
CIRCLE
  5
374
330
1F
100
AcDbEntity
  8
1
  6
Continuous
 62
     7
100
AcDbCircle
 10
150.5406875045884
 20
15.02247918593889
 30
0.0
 40
4.75
  0
CIRCLE
  5
375
330
1F
100
AcDbEntity
  8
1
  6
Continuous
 62
     7
100
AcDbCircle
 10
-84.4097102752448
 20
-8.5475208140611
 30
0.0
 40
2.249999999999989
  0
CIRCLE
  5
376
330
1F
100
AcDbEntity
  8
1
  6
Continuous
 62
     7
100
AcDbCircle
 10
-131.5497102752448
 20
-8.54752081406111
 30
0.0
 40
2.25
  0
CIRCLE
  5
377
330
1F
100
AcDbEntity
  8
1
  6
Continuous
 62
     7
100
AcDbCircle
 10
-131.5497102752448
 20
38.59247918593888
 30
0.0
 40
2.25
  0
CIRCLE
  5
378
330
1F
100
AcDbEntity
  8
1
  6
Continuous
 62
     7
100
AcDbCircle
 10
-84.4097102752448
 20
38.5924791859389
 30
0.0
 40
2.25
  0
CIRCLE
  5
379
330
1F
100
AcDbEntity
  8
1
  6
Continuous
 62
     2
100
AcDbCircle
 10
-107.9797102752448
 20
15.02247918593889
 30
0.0
 40
2.475000000000009
  0
CIRCLE
  5
37A
330
1F
100
AcDbEntity
  8
1
  6
Continuous
 62
     7
100
AcDbCircle
 10
-107.9797102752448
 20
15.02247918593889
 30
0.0
 40
4.5
  0
CIRCLE
  5
37B
330
1F
100
AcDbEntity
  8
1
  6
Continuous
 62
     7
100
AcDbCircle
 10
-124.6797102752448
 20
-10.07752081406111
 30
0.0
 40
2.800000000000097
  0
CIRCLE
  5
37C
330
1F
100
AcDbEntity
  8
1
  6
Continuous
 62
     7
100
AcDbCircle
 10
-91.2797102752448
 20
-10.07752081406111
 30
0.0
 40
2.800000000000011
  0
CIRCLE
  5
37D
330
1F
100
AcDbEntity
  8
1
  6
Continuous
 62
     7
100
AcDbCircle
 10
-124.6797102752448
 20
40.12247918593889
 30
0.0
 40
2.800000000000097
  0
CIRCLE
  5
37E
330
1F
100
AcDbEntity
  8
1
  6
Continuous
 62
     7
100
AcDbCircle
 10
-91.2797102752448
 20
40.12247918593889
 30
0.0
 40
2.800000000000011
  0
ARC
  5
37F
330
1F
100
AcDbEntity
  8
1
  6
Continuous
 62
     7
100
AcDbCircle
 10
44.72818351672608
 20
43.72247918593879
 30
0.0
 40
0.5
100
AcDbArc
 50
0.0
 51
90.0
  0
ARC
  5
380
330
1F
100
AcDbEntity
  8
1
  6
Continuous
 62
     7
100
AcDbCircle
 10
34.12818351672605
 20
43.9224791859389
 30
0.0
 40
0.2999999999999829
100
AcDbArc
 50
89.99999999999729
 51
180.0
  0
ARC
  5
381
330
1F
100
AcDbEntity
  8
1
  6
Continuous
 62
     7
100
AcDbCircle
 10
2.22818351672585
 20
18.14747918593889
 30
0.0
 40
0.5
100
AcDbArc
 50
-90.0000000000002
 51
0.0
  0
ARC
  5
382
330
1F
100
AcDbEntity
  8
1
  6
Continuous
 62
     7
100
AcDbCircle
 10
155.8406875045884
 20
43.42247918593888
 30
0.0
 40
0.2000000000000028
100
AcDbArc
 50
-90.0
 51
0.0
  0
ARC
  5
383
330
1F
100
AcDbEntity
  8
1
  6
Continuous
 62
     7
100
AcDbCircle
 10
155.8406875045884
 20
44.02247918593885
 30
0.0
 40
0.1999999999999886
100
AcDbArc
 50
0.0
 51
90.0
  0
ARC
  5
384
330
1F
100
AcDbEntity
  8
1
  6
Continuous
 62
     7
100
AcDbCircle
 10
145.2406875045884
 20
43.42247918593888
 30
0.0
 40
0.2000000000001023
100
AcDbArc
 50
180.0
 51
-90.0
  0
ARC
  5
385
330
1F
100
AcDbEntity
  8
1
  6
Continuous
 62
     7
100
AcDbCircle
 10
145.2406875045884
 20
44.02247918593885
 30
0.0
 40
0.2000000000000028
100
AcDbArc
 50
90.0
 51
180.0
  0
ARC
  5
386
330
1F
100
AcDbEntity
  8
1
  6
Continuous
 62
     2
100
AcDbCircle
 10
133.2137575976488
 20
-12.17752081406116
 30
0.0
 40
0.2999999999998644
100
AcDbArc
 50
-122.4979304563505
 51
-90.00000000001629
  0
ARC
  5
387
330
1F
100
AcDbEntity
  8
1
  6
Continuous
 62
     2
100
AcDbCircle
 10
131.3937444062353
 20
-10.92857223762445
 30
0.0
 40
0.3000000000001063
100
AcDbArc
 50
150.7940576867317
 51
-126.4202741719422
  0
ARC
  5
388
330
1F
100
AcDbEntity
  8
1
  6
Continuous
 62
     2
100
AcDbCircle
 10
124.5896360810252
 20
-4.12446391241434
 30
0.0
 40
0.299999999999897
100
AcDbArc
 50
-143.5797258281042
 51
-60.79405768675286
  0
ARC
  5
389
330
1F
100
AcDbEntity
  8
1
  6
Continuous
 62
     2
100
AcDbCircle
 10
123.3406875045884
 20
-2.30445072100076
 30
0.0
 40
0.3000000000000966
100
AcDbArc
 50
179.9999999999785
 51
-147.5020695436741
  0
ARC
  5
38A
330
1F
100
AcDbEntity
  8
1
  6
Continuous
 62
     2
100
AcDbCircle
 10
123.3406875045884
 20
32.34940909287855
 30
0.0
 40
0.2999999999999762
100
AcDbArc
 50
147.5020695436583
 51
180.0
  0
ARC
  5
38B
330
1F
100
AcDbEntity
  8
1
  6
Continuous
 62
     2
100
AcDbCircle
 10
124.5896360810252
 20
34.16942228429207
 30
0.0
 40
0.2999999999999918
100
AcDbArc
 50
60.79405768676808
 51
143.5797258280704
  0
ARC
  5
38C
330
1F
100
AcDbEntity
  8
1
  6
Continuous
 62
     2
100
AcDbCircle
 10
131.3937444062352
 20
40.97353060950206
 30
0.0
 40
0.300000000000016
100
AcDbArc
 50
126.420274171906
 51
-150.794057686757
  0
ARC
  5
38D
330
1F
100
AcDbEntity
  8
1
  6
Continuous
 62
     2
100
AcDbCircle
 10
133.2137575976487
 20
42.22247918593888
 30
0.0
 40
0.3000000000000114
100
AcDbArc
 50
89.99999999998371
 51
122.4979304563188
  0
ARC
  5
38E
330
1F
100
AcDbEntity
  8
1
  6
Continuous
 62
     7
100
AcDbCircle
 10
123.3406875045884
 20
-2.30445072100076
 30
0.0
 40
1.0
100
AcDbArc
 50
180.0
 51
-147.5020695436667
  0
ARC
  5
38F
330
1F
100
AcDbEntity
  8
1
  6
Continuous
 62
     7
100
AcDbCircle
 10
133.2137575976488
 20
-12.17752081406116
 30
0.0
 40
0.9999999999999913
100
AcDbArc
 50
-122.4979304563279
 51
-89.99999999999349
  0
ARC
  5
390
330
1F
100
AcDbEntity
  8
1
  6
Continuous
 62
     7
100
AcDbCircle
 10
124.5896360810252
 20
-4.12446391241434
 30
0.0
 40
1.000000000000045
100
AcDbArc
 50
-143.5797258280837
 51
-60.79405768676957
  0
ARC
  5
391
330
1F
100
AcDbEntity
  8
1
  6
Continuous
 62
     7
100
AcDbCircle
 10
131.3937444062353
 20
-10.92857223762445
 30
0.0
 40
1.000000000000146
100
AcDbArc
 50
150.7940576867576
 51
-126.4202741719244
  0
ARC
  5
392
330
1F
100
AcDbEntity
  8
1
  6
Continuous
 62
     7
100
AcDbCircle
 10
123.3406875045884
 20
32.34940909287855
 30
0.0
 40
0.9999999999999996
100
AcDbArc
 50
147.5020695436729
 51
180.0
  0
ARC
  5
393
330
1F
100
AcDbEntity
  8
1
  6
Continuous
 62
     7
100
AcDbCircle
 10
124.5896360810252
 20
34.16942228429207
 30
0.0
 40
0.9999999999999294
100
AcDbArc
 50
60.79405768676639
 51
143.5797258280814
  0
ARC
  5
394
330
1F
100
AcDbEntity
  8
1
  6
Continuous
 62
     7
100
AcDbCircle
 10
131.3937444062352
 20
40.97353060950206
 30
0.0
 40
1.000000000000012
100
AcDbArc
 50
126.4202741719152
 51
-150.7940576867628
  0
ARC
  5
395
330
1F
100
AcDbEntity
  8
1
  6
Continuous
 62
     7
100
AcDbCircle
 10
133.2137575976487
 20
42.22247918593888
 30
0.0
 40
1.000000000000007
100
AcDbArc
 50
89.9999999999886
 51
122.4979304563238
  0
ARC
  5
396
330
1F
100
AcDbEntity
  8
1
  6
Continuous
 62
     2
100
AcDbCircle
 10
167.867617411528
 20
-12.17752081406116
 30
0.0
 40
0.2999999999998906
100
AcDbArc
 50
-89.9999999999783
 51
-57.50206954363114
  0
ARC
  5
397
330
1F
100
AcDbEntity
  8
1
  6
Continuous
 62
     2
100
AcDbCircle
 10
169.6876306029415
 20
-10.92857223762445
 30
0.0
 40
0.2999999999999505
100
AcDbArc
 50
-53.57972582805779
 51
29.20594231325768
  0
ARC
  5
398
330
1F
100
AcDbEntity
  8
1
  6
Continuous
 62
     2
100
AcDbCircle
 10
176.4917389281516
 20
-4.12446391241434
 30
0.0
 40
0.2999999999998491
100
AcDbArc
 50
-119.2059423132471
 51
-36.42027417188451
  0
ARC
  5
399
330
1F
100
AcDbEntity
  8
1
  6
Continuous
 62
     2
100
AcDbCircle
 10
177.7406875045884
 20
-2.30445072100076
 30
0.0
 40
0.2999999999999232
100
AcDbArc
 50
-32.49793045632589
 51
0.00000000002154
  0
ARC
  5
39A
330
1F
100
AcDbEntity
  8
1
  6
Continuous
 62
     2
100
AcDbCircle
 10
177.7406875045884
 20
32.34940909287855
 30
0.0
 40
0.2999999999999829
100
AcDbArc
 50
0.0
 51
32.49793045634176
  0
ARC
  5
39B
330
1F
100
AcDbEntity
  8
1
  6
Continuous
 62
     2
100
AcDbCircle
 10
176.4917389281516
 20
34.16942228429207
 30
0.0
 40
0.3000000000001078
100
AcDbArc
 50
36.42027417191836
 51
119.2059423132319
  0
ARC
  5
39C
330
1F
100
AcDbEntity
  8
1
  6
Continuous
 62
     2
100
AcDbCircle
 10
169.6876306029416
 20
40.97353060950206
 30
0.0
 40
0.3000000000000262
100
AcDbArc
 50
-29.20594231322979
 51
53.57972582808962
  0
ARC
  5
39D
330
1F
100
AcDbEntity
  8
1
  6
Continuous
 62
     2
100
AcDbCircle
 10
167.8676174115281
 20
42.22247918593888
 30
0.0
 40
0.3000000000000126
100
AcDbArc
 50
57.5020695436675
 51
90.0
  0
ARC
  5
39E
330
1F
100
AcDbEntity
  8
1
  6
Continuous
 62
     7
100
AcDbCircle
 10
177.7406875045884
 20
-2.30445072100076
 30
0.0
 40
0.9999999999999505
100
AcDbArc
 50
-32.49793045633334
 51
0.0
  0
ARC
  5
39F
330
1F
100
AcDbEntity
  8
1
  6
Continuous
 62
     7
100
AcDbCircle
 10
167.867617411528
 20
-12.17752081406116
 30
0.0
 40
0.9999999999999911
100
AcDbArc
 50
-90.0
 51
-57.50206954367071
  0
ARC
  5
3A0
330
1F
100
AcDbEntity
  8
1
  6
Continuous
 62
     7
100
AcDbCircle
 10
176.4917389281516
 20
-4.12446391241434
 30
0.0
 40
1.000000000000077
100
AcDbArc
 50
-119.2059423132354
 51
-36.42027417191584
  0
ARC
  5
3A1
330
1F
100
AcDbEntity
  8
1
  6
Continuous
 62
     7
100
AcDbCircle
 10
169.6876306029415
 20
-10.92857223762445
 30
0.0
 40
0.9999999999999853
100
AcDbArc
 50
-53.5797258280756
 51
29.20594231324242
  0
ARC
  5
3A2
330
1F
100
AcDbEntity
  8
1
  6
Continuous
 62
     7
100
AcDbCircle
 10
177.7406875045884
 20
32.34940909287855
 30
0.0
 40
1.0
100
AcDbArc
 50
0.0
 51
32.49793045632758
  0
ARC
  5
3A3
330
1F
100
AcDbEntity
  8
1
  6
Continuous
 62
     7
100
AcDbCircle
 10
176.4917389281516
 20
34.16942228429207
 30
0.0
 40
1.000000000000086
100
AcDbArc
 50
36.42027417191814
 51
119.2059423132386
  0
ARC
  5
3A4
330
1F
100
AcDbEntity
  8
1
  6
Continuous
 62
     7
100
AcDbCircle
 10
169.6876306029416
 20
40.97353060950206
 30
0.0
 40
0.9999999999999888
100
AcDbArc
 50
-29.20594231323637
 51
53.57972582808353
  0
ARC
  5
3A5
330
1F
100
AcDbEntity
  8
1
  6
Continuous
 62
     7
100
AcDbCircle
 10
167.8676174115281
 20
42.22247918593888
 30
0.0
 40
0.9999999999999913
100
AcDbArc
 50
57.50206954367209
 51
90.0
  0
ARC
  5
3A6
330
1F
100
AcDbEntity
  8
1
  6
Continuous
 62
     7
100
AcDbCircle
 10
173.7406875045884
 20
38.2224791859389
 30
0.0
 40
5.0
100
AcDbArc
 50
0.0
 51
90.0
  0
ARC
  5
3A7
330
1F
100
AcDbEntity
  8
1
  6
Continuous
 62
     2
100
AcDbCircle
 10
173.7406875045884
 20
38.2224791859389
 30
0.0
 40
4.299999999999983
100
AcDbArc
 50
-0.00000000000019
 51
90.0
  0
ARC
  5
3A8
330
1F
100
AcDbEntity
  8
1
  6
Continuous
 62
     7
100
AcDbCircle
 10
173.7406875045884
 20
-8.17752081406111
 30
0.0
 40
4.999999999999989
100
AcDbArc
 50
-90.0
 51
0.0
  0
ARC
  5
3A9
330
1F
100
AcDbEntity
  8
1
  6
Continuous
 62
     2
100
AcDbCircle
 10
173.7406875045884
 20
-8.17752081406111
 30
0.0
 40
4.299999999999988
100
AcDbArc
 50
-90.0
 51
0.00000000000028
  0
ARC
  5
3AA
330
1F
100
AcDbEntity
  8
1
  6
Continuous
 62
     7
100
AcDbCircle
 10
127.3406875045884
 20
38.22247918593891
 30
0.0
 40
4.999999999999993
100
AcDbArc
 50
90.0
 51
180.0
  0
ARC
  5
3AB
330
1F
100
AcDbEntity
  8
1
  6
Continuous
 62
     2
100
AcDbCircle
 10
127.3406875045884
 20
38.22247918593891
 30
0.0
 40
4.29999999999999
100
AcDbArc
 50
90.0
 51
-179.9999999999997
  0
ARC
  5
3AC
330
1F
100
AcDbEntity
  8
1
  6
Continuous
 62
     7
100
AcDbCircle
 10
127.3406875045884
 20
-8.17752081406111
 30
0.0
 40
5.0
100
AcDbArc
 50
180.0
 51
-90.0
  0
ARC
  5
3AD
330
1F
100
AcDbEntity
  8
1
  6
Continuous
 62
     2
100
AcDbCircle
 10
127.3406875045884
 20
-8.17752081406111
 30
0.0
 40
4.300000000000097
100
AcDbArc
 50
179.9999999999997
 51
-90.0
  0
ARC
  5
3AE
330
1F
100
AcDbEntity
  8
1
  6
Continuous
 62
     7
100
AcDbCircle
 10
-102.6797102752448
 20
43.4224791859389
 30
0.0
 40
0.1999999999999957
100
AcDbArc
 50
-90.0
 51
0.0
  0
ARC
  5
3AF
330
1F
100
AcDbEntity
  8
1
  6
Continuous
 62
     7
100
AcDbCircle
 10
-102.6797102752448
 20
44.02247918593887
 30
0.0
 40
0.2000000000000028
100
AcDbArc
 50
0.0
 51
90.0
  0
ARC
  5
3B0
330
1F
100
AcDbEntity
  8
1
  6
Continuous
 62
     7
100
AcDbCircle
 10
-113.2797102752448
 20
43.4224791859389
 30
0.0
 40
0.2000000000000028
100
AcDbArc
 50
180.0
 51
-90.0
  0
ARC
  5
3B1
330
1F
100
AcDbEntity
  8
1
  6
Continuous
 62
     7
100
AcDbCircle
 10
-113.2797102752448
 20
44.02247918593887
 30
0.0
 40
0.2000000000000028
100
AcDbArc
 50
90.0
 51
180.0
  0
ARC
  5
3B2
330
1F
100
AcDbEntity
  8
1
  6
Continuous
 62
     2
100
AcDbCircle
 10
-131.1797102752448
 20
-8.17752081406111
 30
0.0
 40
4.300000000000011
100
AcDbArc
 50
179.9999999999998
 51
-90.0
  0
ARC
  5
3B3
330
1F
100
AcDbEntity
  8
1
  6
Continuous
 62
     7
100
AcDbCircle
 10
-131.1797102752448
 20
-8.17752081406111
 30
0.0
 40
5.0
100
AcDbArc
 50
180.0
 51
-90.0
  0
ARC
  5
3B4
330
1F
100
AcDbEntity
  8
1
  6
Continuous
 62
     2
100
AcDbCircle
 10
-131.1797102752448
 20
38.2224791859389
 30
0.0
 40
4.300000000000011
100
AcDbArc
 50
90.0
 51
-179.9999999999998
  0
ARC
  5
3B5
330
1F
100
AcDbEntity
  8
1
  6
Continuous
 62
     7
100
AcDbCircle
 10
-131.1797102752448
 20
38.2224791859389
 30
0.0
 40
5.0
100
AcDbArc
 50
90.0
 51
179.9999999999999
  0
ARC
  5
3B6
330
1F
100
AcDbEntity
  8
1
  6
Continuous
 62
     2
100
AcDbCircle
 10
-84.7797102752448
 20
-8.17752081406111
 30
0.0
 40
4.299999999999992
100
AcDbArc
 50
-90.0
 51
0.00000000000024
  0
ARC
  5
3B7
330
1F
100
AcDbEntity
  8
1
  6
Continuous
 62
     7
100
AcDbCircle
 10
-84.7797102752448
 20
-8.17752081406111
 30
0.0
 40
5.000000000000002
100
AcDbArc
 50
-90.0
 51
0.0
  0
ARC
  5
3B8
330
1F
100
AcDbEntity
  8
1
  6
Continuous
 62
     2
100
AcDbCircle
 10
-84.7797102752448
 20
38.2224791859389
 30
0.0
 40
4.299999999999997
100
AcDbArc
 50
-0.00000000000019
 51
90.0
  0
ARC
  5
3B9
330
1F
100
AcDbEntity
  8
1
  6
Continuous
 62
     7
100
AcDbCircle
 10
-84.7797102752448
 20
38.2224791859389
 30
0.0
 40
5.0
100
AcDbArc
 50
0.00000000000008
 51
90.0
  0
SOLID
  5
3BA
330
1F
100
AcDbEntity
  8
1
 62
     4
100
AcDbTrace
 10
-22.3104648836704
 20
9.22065735324595
 30
0.0
 11
-20.45495478925832
 21
11.84565735324595
 31
0.0
 12
-24.16597497808247
 22
11.84565735324595
 32
0.0
 13
-24.16597497808247
 23
11.84565735324595
 33
0.0
  0
LEADER
  5
3BB
330
1F
100
AcDbEntity
  8
1
  6
Continuous
 62
     4
100
AcDbLeader
  3
Standard
 71
     0
 76
     2
 10
-22.3104648836704
 20
11.84565735324595
 30
0.0
 10
-22.3104648836704
 20
-12.34424585290914
 30
0.0
  0
SOLID
  5
3BC
330
1F
100
AcDbEntity
  8
1
 62
     4
100
AcDbTrace
 10
-30.66621997063748
 20
22.02195757450517
 30
0.0
 11
-29.74465248752571
 21
22.02195757450517
 31
0.0
 12
-30.2054362290816
 22
18.52195757450517
 32
0.0
 13
-30.2054362290816
 23
18.52195757450517
 33
0.0
  0
LEADER
  5
3BD
330
1F
100
AcDbEntity
  8
1
  6
Continuous
 62
     4
100
AcDbLeader
  3
Standard
 71
     0
 76
     3
 10
-30.2054362290816
 20
18.52195757450517
 30
0.0
 10
-30.2054362290816
 20
49.27001154440659
 30
0.0
 10
-22.5753635772912
 20
49.27001154440659
 30
0.0
  0
SOLID
  5
3BE
330
1F
100
AcDbEntity
  8
1
 62
     4
100
AcDbTrace
 10
-43.99532806837889
 20
37.69126670561679
 30
0.0
 11
-43.07376058526712
 21
37.69126670561679
 31
0.0
 12
-43.534544326823
 22
34.19126670561679
 32
0.0
 13
-43.534544326823
 23
34.19126670561679
 33
0.0
  0
LEADER
  5
3BF
330
1F
100
AcDbEntity
  8
1
  6
Continuous
 62
     4
100
AcDbLeader
  3
Standard
 71
     0
 76
     3
 10
-43.534544326823
 20
34.19126670561679
 30
0.0
 10
-43.534544326823
 20
67.53564296066529
 30
0.0
 10
-35.5169138581964
 20
67.53564296066529
 30
0.0
  0
SOLID
  5
3C0
330
1F
100
AcDbEntity
  8
1
 62
     2
100
AcDbTrace
 10
-81.43690692585909
 20
43.50676028491912
 30
0.0
 11
-80.6685928848933
 21
42.99785935115717
 31
0.0
 12
-82.9854930856722
 22
40.33434754977297
 32
0.0
 13
-82.9854930856722
 23
40.33434754977297
 33
0.0
  0
LEADER
  5
3C1
330
1F
100
AcDbEntity
  8
1
  6
Continuous
 62
     2
100
AcDbLeader
  3
Standard
 71
     0
 76
     3
 10
-82.9854930856722
 20
40.33434754977297
 30
0.0
 10
-77.0847502121182
 20
49.24300403103819
 30
0.0
 10
-72.0847502121182
 20
49.24300403103819
 30
0.0
  0
SOLID
  5
3C2
330
1F
100
AcDbEntity
  8
1
 62
     2
100
AcDbTrace
 10
33.59937367677073
 20
73.24646787902994
 30
0.0
 11
34.30022896924687
 21
73.84487282965881
 31
0.0
 12
36.22246975541596
 22
70.88390811921893
 32
0.0
 13
36.22246975541596
 23
70.88390811921893
 33
0.0
  0
LEADER
  5
3C3
330
1F
100
AcDbEntity
  8
1
  6
Continuous
 62
     2
100
AcDbLeader
  3
Standard
 71
     0
 76
     3
 10
36.22246975541596
 20
70.88390811921893
 30
0.0
 10
24.31757650380385
 20
84.82698702086823
 30
0.0
 10
19.31757650380385
 20
84.82698702086823
 30
0.0
  0
SOLID
  5
3C4
330
1F
100
AcDbEntity
  8
1
 62
     2
100
AcDbTrace
 10
-0.64065452519185
 20
19.22024171169521
 30
0.0
 11
-0.16464007693791
 21
20.00935315565129
 31
0.0
 12
2.59430094684908
 22
17.80695308215251
 32
0.0
 13
2.59430094684908
 23
17.80695308215251
 33
0.0
  0
LEADER
  5
3C5
330
1F
100
AcDbEntity
  8
1
  6
Continuous
 62
     2
100
AcDbLeader
  3
Standard
 71
     0
 76
     3
 10
2.59430094684908
 20
17.80695308215251
 30
0.0
 10
-3.45468577773965
 20
21.45587377675692
 30
0.0
 10
-8.45468577773965
 20
21.45587377675692
 30
0.0
  0
SOLID
  5
3C6
330
1F
100
AcDbEntity
  8
1
 62
     3
100
AcDbTrace
 10
-139.6892294872228
 20
25.86095771916348
 30
0.0
 11
-139.1090849674455
 21
26.57700168576148
 31
0.0
 12
-136.6797102752448
 22
24.015662141426
 32
0.0
 13
-136.6797102752448
 23
24.015662141426
 33
0.0
  0
LEADER
  5
3C7
330
1F
100
AcDbEntity
  8
1
  6
Continuous
 62
     3
100
AcDbLeader
  3
Standard
 71
     0
 76
     3
 10
-136.6797102752448
 20
24.015662141426
 30
0.0
 10
-150.357851079631
 20
35.0978006672312
 30
0.0
 10
-155.357851079631
 20
35.0978006672312
 30
0.0
  0
SOLID
  5
3C8
330
1F
100
AcDbEntity
  8
1
 62
     4
100
AcDbTrace
 10
3.7281835167258
 20
-49.82196684359019
 30
0.0
 11
3.7281835167258
 21
-48.90039936047842
 31
0.0
 12
7.2281835167258
 22
-49.3611831020343
 32
0.0
 13
7.2281835167258
 23
-49.3611831020343
 33
0.0
  0
LEADER
  5
3C9
330
1F
100
AcDbEntity
  8
1
  6
Continuous
 62
     4
100
AcDbLeader
  3
Standard
 71
     0
 76
     2
 10
7.2281835167258
 20
-49.3611831020343
 30
0.0
 10
-5.5630534589469
 20
-49.3611831020343
 30
0.0
  0
DIMENSION
  5
3D5
330
1F
100
AcDbEntity
  8
1
100
AcDbDimension
  2
*D1
 10
-43.46615141952471
 20
34.0724791859389
 30
0.0
 11
-47.21615141952471
 21
15.02247918593889
 31
0.0
 70
    32
  1
<>
 71
     5
 42
-1.0
 53
90.0
  3
ME10_DIM_10
100
AcDbAlignedDimension
 13
5.92818351672581
 23
-4.02752081406112
 33
0.0
 14
5.92818351672581
 24
34.0724791859389
 34
0.0
 50
90.0
100
AcDbRotatedDimension
  0
DIMENSION
  5
3E1
330
1F
100
AcDbEntity
  8
1
100
AcDbDimension
  2
*D2
 10
69.2654519403786
 20
43.22247918593889
 30
0.0
 11
65.5154519403786
 21
66.10995519404894
 31
0.0
 70
    32
  1
300
 71
     5
 42
-1.0
 53
90.0
  3
ME10_DIM_11
100
AcDbAlignedDimension
 13
40.01545194037859
 23
88.99743120215899
 33
0.0
 14
45.7281835167258
 24
43.22247918593889
 34
0.0
 50
90.0
100
AcDbRotatedDimension
  0
DIMENSION
  5
3EF
330
1F
100
AcDbEntity
  8
1
100
AcDbDimension
  2
*D3
 10
-96.7444126746071
 20
17.64747918593889
 30
0.0
 11
-100.4944126746071
 21
28.81272041830379
 31
0.0
 70
    32
  1
<>
 71
     5
 42
-1.0
 53
90.0
  3
ME10_DIM_12
100
AcDbAlignedDimension
 13
-107.9797102752448
 23
11.8474791859389
 33
0.0
 14
-106.1936531652956
 24
17.6474791859389
 34
0.0
 50
90.0
100
AcDbRotatedDimension
  0
DIMENSION
  5
3FC
330
1F
100
AcDbEntity
  8
1
100
AcDbDimension
  2
*D4
 10
59.26545194037859
 20
88.99743120215899
 30
0.0
 11
55.51545194037859
 21
74.7353958994527
 31
0.0
 70
    32
  1
5~10
 71
     5
 42
-1.0
 53
90.0
  3
ME10_DIM_13
100
AcDbAlignedDimension
 13
40.51545194037859
 23
84.78766423551
 33
0.0
 14
40.01545194037859
 24
88.99743120215899
 34
0.0
 50
90.0
100
AcDbRotatedDimension
  0
DIMENSION
  5
40E
330
1F
100
AcDbEntity
  8
1
100
AcDbDimension
  2
*D5
 10
7.2281835167258
 20
-28.1874880200168
 30
0.0
 11
16.52189709283181
 21
-24.4374880200168
 31
0.0
 70
    32
  1
<>
 71
     5
 42
-1.0
 53
0.00013888888889
  3
ME10_DIM_14
100
AcDbAlignedDimension
 13
12.2281835167258
 23
-13.17752081406111
 33
0.0
 14
7.2281835167258
 24
-12.67752081406111
 34
0.0
100
AcDbRotatedDimension
  0
DIMENSION
  5
41B
330
1F
100
AcDbEntity
  8
1
100
AcDbDimension
  2
*D7
 10
5.62818351672581
 20
-28.1874880200168
 30
0.0
 11
-1.9796479725257
 21
-24.4374880200168
 31
0.0
 70
    32
  1
<>
 71
     5
 42
-1.0
 53
0.00013888888889
  3
ME10_DIM_15
100
AcDbAlignedDimension
 13
7.2281835167258
 23
-12.67752081406111
 33
0.0
 14
5.62818351672581
 24
-3.72752081406111
 34
0.0
100
AcDbRotatedDimension
  0
DIMENSION
  5
426
330
1F
100
AcDbEntity
  8
1
100
AcDbDimension
  2
*D8
 10
7.2281835167258
 20
-38.2676401590737
 30
0.0
 11
26.7281835167258
 21
-34.5176401590737
 31
0.0
 70
    32
  1
39
 71
     5
 42
-1.0
 53
0.00013888888889
  3
ME10_DIM_16
100
AcDbAlignedDimension
 13
46.2281835167258
 23
-12.67752081406111
 33
0.0
 14
7.2281835167258
 24
-12.67752081406111
 34
0.0
100
AcDbRotatedDimension
  0
DIMENSION
  5
431
330
1F
100
AcDbEntity
  8
1
100
AcDbDimension
  2
*D9
 10
-131.5497102752448
 20
-28.2239585296426
 30
0.0
 11
-107.9797102752448
 21
-24.4739585296426
 31
0.0
 70
    32
  1
<>
 71
     5
 42
-1.0
 53
0.00013888888889
  3
ME10_DIM_17
100
AcDbAlignedDimension
 13
-84.4097102752448
 23
-12.2975208140611
 33
0.0
 14
-131.5497102752448
 24
-12.2975208140611
 34
0.0
100
AcDbRotatedDimension
  0
DIMENSION
  5
43C
330
1F
100
AcDbEntity
  8
1
100
AcDbDimension
  2
*D10
 10
-136.1797102752448
 20
-38.2097117973963
 30
0.0
 11
-107.9797102752448
 21
-34.4597117973963
 31
0.0
 70
    32
  1
<>
 71
     5
 42
-1.0
 53
0.00013888888889
  3
ME10_DIM_18
100
AcDbAlignedDimension
 13
-79.7797102752448
 23
-8.17752081406111
 33
0.0
 14
-136.1797102752448
 24
-8.17752081406111
 34
0.0
100
AcDbRotatedDimension
  0
DIMENSION
  5
447
330
1F
100
AcDbEntity
  8
1
100
AcDbDimension
  2
*D11
 10
-12.77181648327416
 20
-38.2676401590737
 30
0.0
 11
-2.77181648327418
 21
-34.5176401590737
 31
0.0
 70
    32
  1
<>
 71
     5
 42
-1.0
 53
0.00013888888889
  3
ME10_DIM_19
100
AcDbAlignedDimension
 13
7.2281835167258
 23
-12.67752081406111
 33
0.0
 14
-12.77181648327416
 24
12.54747918593887
 34
0.0
100
AcDbRotatedDimension
  0
DIMENSION
  5
454
330
1F
100
AcDbEntity
  8
1
100
AcDbDimension
  2
*D12
 10
-30.22727353463679
 20
11.84747918593888
 30
0.0
 11
-35.28977353463679
 21
15.02247918593886
 31
0.0
 70
    32
  1
<>
 71
     5
 42
-1.0
 53
90.0
  3
ME10_DIM_20
100
AcDbAlignedDimension
 13
2.72818351672585
 23
18.19747918593885
 33
0.0
 14
-12.07181648327412
 24
11.84747918593888
 34
0.0
 50
90.0
100
AcDbRotatedDimension
  0
DIMENSION
  5
45F
330
1F
100
AcDbEntity
  8
1
100
AcDbDimension
  2
*D13
 10
-12.77181648327416
 20
27.1710522505757
 30
0.0
 11
-5.27181648327416
 21
30.9210522505757
 31
0.0
 70
    32
  1
<>
 71
     5
 42
-1.0
 53
0.00013888888889
  3
ME10_DIM_21
100
AcDbAlignedDimension
 13
2.22818351672585
 23
17.64747918593889
 33
0.0
 14
-12.77181648327416
 24
17.64747918593889
 34
0.0
100
AcDbRotatedDimension
  0
ENDSEC
  0
SECTION
  2
OBJECTS
  0
DICTIONARY
  5
C
330
0
100
AcDbDictionary
281
     1
  3
ACAD_GROUP
350
D
  3
ACAD_LAYOUT
350
1A
  3
ACAD_MLINESTYLE
350
17
  3
ACAD_PLOTSETTINGS
350
19
  3
ACAD_PLOTSTYLENAME
350
E
  0
DICTIONARY
  5
D
102
{ACAD_REACTORS
330
C
102
}
330
C
100
AcDbDictionary
281
     1
  0
DICTIONARY
  5
1A
102
{ACAD_REACTORS
330
C
102
}
330
C
100
AcDbDictionary
281
     1
  3
Layout1
350
1E
  3
Layout2
350
26
  3
Model
350
22
  0
DICTIONARY
  5
17
102
{ACAD_REACTORS
330
C
102
}
330
C
100
AcDbDictionary
281
     1
  3
Standard
350
18
  0
DICTIONARY
  5
19
102
{ACAD_REACTORS
330
C
102
}
330
C
100
AcDbDictionary
281
     1
  0
ACDBDICTIONARYWDFLT
  5
E
102
{ACAD_REACTORS
330
C
102
}
330
C
100
AcDbDictionary
281
     1
  3
Normal
350
F
100
AcDbDictionaryWithDefault
340
F
  0
LAYOUT
  5
1E
102
{ACAD_REACTORS
330
1A
102
}
330
1A
100
AcDbPlotSettings
  1

  2

  4

  6

 40
0.0
 41
0.0
 42
0.0
 43
0.0
 44
0.0
 45
0.0
 46
0.0
 47
0.0
 48
0.0
 49
0.0
140
0.0
141
0.0
142
1.0
143
1.0
 70
   688
 72
     0
 73
     0
 74
     5
  7

 75
    16
147
1.0
148
0.0
149
0.0
100
AcDbLayout
  1
Layout1
 70
     1
 71
     1
 10
0.0
 20
0.0
 11
0.0
 21
0.0
 12
0.0
 22
0.0
 32
0.0
 14
0.0
 24
0.0
 34
0.0
 15
0.0
 25
0.0
 35
0.0
146
0.0
 13
0.0
 23
0.0
 33
0.0
 16
1.0
 26
0.0
 36
0.0
 17
0.0
 27
1.0
 37
0.0
 76
     0
330
1B
  0
LAYOUT
  5
26
102
{ACAD_REACTORS
330
1A
102
}
330
1A
100
AcDbPlotSettings
  1

  2

  4

  6

 40
0.0
 41
0.0
 42
0.0
 43
0.0
 44
0.0
 45
0.0
 46
0.0
 47
0.0
 48
0.0
 49
0.0
140
0.0
141
0.0
142
1.0
143
1.0
 70
   688
 72
     0
 73
     0
 74
     5
  7

 75
    16
147
1.0
148
0.0
149
0.0
100
AcDbLayout
  1
Layout2
 70
     1
 71
     2
 10
0.0
 20
0.0
 11
0.0
 21
0.0
 12
0.0
 22
0.0
 32
0.0
 14
0.0
 24
0.0
 34
0.0
 15
0.0
 25
0.0
 35
0.0
146
0.0
 13
0.0
 23
0.0
 33
0.0
 16
1.0
 26
0.0
 36
0.0
 17
0.0
 27
1.0
 37
0.0
 76
     0
330
23
  0
LAYOUT
  5
22
102
{ACAD_REACTORS
330
1A
102
}
330
1A
100
AcDbPlotSettings
  1

  2

  4

  6

 40
0.0
 41
0.0
 42
0.0
 43
0.0
 44
0.0
 45
0.0
 46
0.0
 47
0.0
 48
0.0
 49
0.0
140
0.0
141
0.0
142
1.0
143
1.0
 70
  1712
 72
     0
 73
     0
 74
     0
  7

 75
     0
147
1.0
148
0.0
149
0.0
100
AcDbLayout
  1
Model
 70
     1
 71
     0
 10
0.0
 20
0.0
 11
0.0
 21
0.0
 12
0.0
 22
0.0
 32
0.0
 14
-181.577258841388
 24
-52.8611831020343
 34
0.0
 15
183.7906875045884
 25
97.38676004043012
 35
0.0
146
0.0
 13
0.0
 23
0.0
 33
0.0
 16
1.0
 26
0.0
 36
0.0
 17
0.0
 27
1.0
 37
0.0
 76
     0
330
1F
  0
MLINESTYLE
  5
18
102
{ACAD_REACTORS
330
17
102
}
330
17
100
AcDbMlineStyle
  2
Standard
 70
     0
  3

 62
   256
 51
90.0
 52
90.0
 71
     2
 49
0.5
 62
   256
  6
BYLAYER
 49
-0.5
 62
   256
  6
BYLAYER
  0
ACDBPLACEHOLDER
  5
F
102
{ACAD_REACTORS
330
E
102
}
330
E
  0
ENDSEC
  0
EOF
