  0
SECTION
  2
HEADER
  9
$ACADVER
  1
AC1015
  9
$ACADMAINTVER
 70
     6
  9
$DWGCODEPAGE
  3
DOS932
  9
$INSBASE
 10
0.0
 20
0.0
 30
0.0
  9
$EXTMIN
 10
-91.99543978109674
 20
-120.2054711972681
 30
0.0
  9
$EXTMAX
 10
254.8077520249507
 20
45.91030134374829
 30
0.0
  9
$LIMMIN
 10
0.0
 20
0.0
  9
$LIMMAX
 10
12.0
 20
9.0
  9
$ORTHOMODE
 70
     0
  9
$REGENMODE
 70
     1
  9
$FILLMODE
 70
     1
  9
$QTEXTMODE
 70
     0
  9
$MIRRTEXT
 70
     1
  9
$LTSCALE
 40
1.0
  9
$ATTMODE
 70
     1
  9
$TEXTSIZE
 40
0.2
  9
$TRACEWID
 40
0.05
  9
$TEXTSTYLE
  7
Standard
  9
$CLAYER
  8
0
  9
$CELTYPE
  6
ByLayer
  9
$CECOLOR
 62
   256
  9
$CELTSCALE
 40
1.0
  9
$DISPSILH
 70
     0
  9
$DIMSCALE
 40
1.0
  9
$DIMASZ
 40
0.18
  9
$DIMEXO
 40
0.0625
  9
$DIMDLI
 40
0.38
  9
$DIMRND
 40
0.0
  9
$DIMDLE
 40
0.0
  9
$DIMEXE
 40
0.18
  9
$DIMTP
 40
0.0
  9
$DIMTM
 40
0.0
  9
$DIMTXT
 40
0.18
  9
$DIMCEN
 40
0.09
  9
$DIMTSZ
 40
0.0
  9
$DIMTOL
 70
     0
  9
$DIMLIM
 70
     0
  9
$DIMTIH
 70
     1
  9
$DIMTOH
 70
     1
  9
$DIMSE1
 70
     0
  9
$DIMSE2
 70
     0
  9
$DIMTAD
 70
     0
  9
$DIMZIN
 70
     0
  9
$DIMBLK
  1

  9
$DIMASO
 70
     1
  9
$DIMSHO
 70
     1
  9
$DIMPOST
  1

  9
$DIMAPOST
  1

  9
$DIMALT
 70
     0
  9
$DIMALTD
 70
     2
  9
$DIMALTF
 40
25.4
  9
$DIMLFAC
 40
1.0
  9
$DIMTOFL
 70
     0
  9
$DIMTVP
 40
0.0
  9
$DIMTIX
 70
     0
  9
$DIMSOXD
 70
     0
  9
$DIMSAH
 70
     0
  9
$DIMBLK1
  1

  9
$DIMBLK2
  1

  9
$DIMSTYLE
  2
Standard
  9
$DIMCLRD
 70
     0
  9
$DIMCLRE
 70
     0
  9
$DIMCLRT
 70
     0
  9
$DIMTFAC
 40
1.0
  9
$DIMGAP
 40
0.09
  9
$DIMJUST
 70
     0
  9
$DIMSD1
 70
     0
  9
$DIMSD2
 70
     0
  9
$DIMTOLJ
 70
     1
  9
$DIMTZIN
 70
     0
  9
$DIMALTZ
 70
     0
  9
$DIMALTTZ
 70
     0
  9
$DIMUPT
 70
     0
  9
$DIMDEC
 70
     4
  9
$DIMTDEC
 70
     4
  9
$DIMALTU
 70
     2
  9
$DIMALTTD
 70
     2
  9
$DIMTXSTY
  7
Standard
  9
$DIMAUNIT
 70
     0
  9
$DIMADEC
 70
     0
  9
$DIMALTRND
 40
0.0
  9
$DIMAZIN
 70
     0
  9
$DIMDSEP
 70
    46
  9
$DIMATFIT
 70
     3
  9
$DIMFRAC
 70
     0
  9
$DIMLDRBLK
  1

  9
$DIMLUNIT
 70
     2
  9
$DIMLWD
 70
    -2
  9
$DIMLWE
 70
    -2
  9
$DIMTMOVE
 70
     0
  9
$LUNITS
 70
     2
  9
$LUPREC
 70
     4
  9
$SKETCHINC
 40
0.1
  9
$FILLETRAD
 40
0.5
  9
$AUNITS
 70
     0
  9
$AUPREC
 70
     0
  9
$MENU
  1
.
  9
$ELEVATION
 40
0.0
  9
$PELEVATION
 40
0.0
  9
$THICKNESS
 40
0.0
  9
$LIMCHECK
 70
     0
  9
$CHAMFERA
 40
0.5
  9
$CHAMFERB
 40
0.5
  9
$CHAMFERC
 40
1.0
  9
$CHAMFERD
 40
0.0
  9
$SKPOLY
 70
     0
  9
$TDCREATE
 40
2454823.548052118
  9
$TDUCREATE
 40
2454823.173052118
  9
$TDUPDATE
 40
2454823.54805213
  9
$TDUUPDATE
 40
2454823.17305213
  9
$TDINDWG
 40
0.0000000116
  9
$TDUSRTIMER
 40
0.0000000116
  9
$USRTIMER
 70
     1
  9
$ANGBASE
 50
0.0
  9
$ANGDIR
 70
     0
  9
$PDMODE
 70
     0
  9
$PDSIZE
 40
0.0
  9
$PLINEWID
 40
0.0
  9
$SPLFRAME
 70
     0
  9
$SPLINETYPE
 70
     6
  9
$SPLINESEGS
 70
     8
  9
$HANDSEED
  5
415
  9
$SURFTAB1
 70
     6
  9
$SURFTAB2
 70
     6
  9
$SURFTYPE
 70
     6
  9
$SURFU
 70
     6
  9
$SURFV
 70
     6
  9
$UCSBASE
  2

  9
$UCSNAME
  2

  9
$UCSORG
 10
0.0
 20
0.0
 30
0.0
  9
$UCSXDIR
 10
1.0
 20
0.0
 30
0.0
  9
$UCSYDIR
 10
0.0
 20
1.0
 30
0.0
  9
$UCSORTHOREF
  2

  9
$UCSORTHOVIEW
 70
     0
  9
$UCSORGTOP
 10
0.0
 20
0.0
 30
0.0
  9
$UCSORGBOTTOM
 10
0.0
 20
0.0
 30
0.0
  9
$UCSORGLEFT
 10
0.0
 20
0.0
 30
0.0
  9
$UCSORGRIGHT
 10
0.0
 20
0.0
 30
0.0
  9
$UCSORGFRONT
 10
0.0
 20
0.0
 30
0.0
  9
$UCSORGBACK
 10
0.0
 20
0.0
 30
0.0
  9
$PUCSBASE
  2

  9
$PUCSNAME
  2

  9
$PUCSORG
 10
0.0
 20
0.0
 30
0.0
  9
$PUCSXDIR
 10
1.0
 20
0.0
 30
0.0
  9
$PUCSYDIR
 10
0.0
 20
1.0
 30
0.0
  9
$PUCSORTHOREF
  2

  9
$PUCSORTHOVIEW
 70
     0
  9
$PUCSORGTOP
 10
0.0
 20
0.0
 30
0.0
  9
$PUCSORGBOTTOM
 10
0.0
 20
0.0
 30
0.0
  9
$PUCSORGLEFT
 10
0.0
 20
0.0
 30
0.0
  9
$PUCSORGRIGHT
 10
0.0
 20
0.0
 30
0.0
  9
$PUCSORGFRONT
 10
0.0
 20
0.0
 30
0.0
  9
$PUCSORGBACK
 10
0.0
 20
0.0
 30
0.0
  9
$USERI1
 70
     0
  9
$USERI2
 70
     0
  9
$USERI3
 70
     0
  9
$USERI4
 70
     0
  9
$USERI5
 70
     0
  9
$USERR1
 40
14.5
  9
$USERR2
 40
0.0
  9
$USERR3
 40
0.0
  9
$USERR4
 40
0.0
  9
$USERR5
 40
0.0
  9
$WORLDVIEW
 70
     1
  9
$SHADEDGE
 70
     3
  9
$SHADEDIF
 70
    70
  9
$TILEMODE
 70
     1
  9
$MAXACTVP
 70
    64
  9
$PINSBASE
 10
0.0
 20
0.0
 30
0.0
  9
$PLIMCHECK
 70
     0
  9
$PEXTMIN
 10
1.00000000000000E+20
 20
1.00000000000000E+20
 30
1.00000000000000E+20
  9
$PEXTMAX
 10
-1.00000000000000E+20
 20
-1.00000000000000E+20
 30
-1.00000000000000E+20
  9
$PLIMMIN
 10
0.0
 20
0.0
  9
$PLIMMAX
 10
12.0
 20
9.0
  9
$UNITMODE
 70
     0
  9
$VISRETAIN
 70
     1
  9
$PLINEGEN
 70
     0
  9
$PSLTSCALE
 70
     1
  9
$TREEDEPTH
 70
  3020
  9
$CMLSTYLE
  2
Standard
  9
$CMLJUST
 70
     0
  9
$CMLSCALE
 40
1.0
  9
$PROXYGRAPHICS
 70
     1
  9
$MEASUREMENT
 70
     1
  9
$CELWEIGHT
370
    -1
  9
$ENDCAPS
280
     0
  9
$JOINSTYLE
280
     0
  9
$LWDISPLAY
290
     0
  9
$INSUNITS
 70
     1
  9
$HYPERLINKBASE
  1

  9
$STYLESHEET
  1

  9
$XEDIT
290
     1
  9
$CEPSNTYPE
380
     0
  9
$PSTYLEMODE
290
     1
  9
$FINGERPRINTGUID
  2
{3E601E22-AEBC-4F6F-B97B-EAF6DA8B9406}
  9
$VERSIONGUID
  2
{FAEB1C32-E019-11D5-929B-00C0DF256EC4}
  9
$EXTNAMES
290
     1
  9
$PSVPSCALE
 40
0.0
  9
$OLESTARTUP
290
     0
  0
ENDSEC
  0
SECTION
  2
CLASSES
  0
CLASS
  1
ACDBDICTIONARYWDFLT
  2
AcDbDictionaryWithDefault
  3
ObjectDBX Classes
 90
        0
280
     0
281
     0
  0
CLASS
  1

  2
exOdDbCircle
  3

 90
        0
280
     0
281
     1
  0
CLASS
  1

  2
exOdDbSpline
  3

 90
        0
280
     0
281
     1
  0
CLASS
  1
ACDBPLACEHOLDER
  2
AcDbPlaceHolder
  3
ObjectDBX Classes
 90
        0
280
     0
281
     0
  0
CLASS
  1
LAYOUT
  2
AcDbLayout
  3
ObjectDBX Classes
 90
        0
280
     0
281
     0
  0
ENDSEC
  0
SECTION
  2
TABLES
  0
TABLE
  2
VPORT
  5
8
330
0
100
AcDbSymbolTable
 70
     1
  0
VPORT
  5
29
330
8
100
AcDbSymbolTableRecord
100
AcDbViewportTableRecord
  2
*Active
 70
     0
 10
0.0
 20
0.0
 11
1.0
 21
1.0
 12
81.40615612192698
 22
-37.1475849267599
 13
0.0
 23
0.0
 14
0.5
 24
0.5
 15
0.5
 25
0.5
 16
0.0
 26
0.0
 36
1.0
 17
0.0
 27
0.0
 37
0.0
 40
238.0287088050422
 41
1.60267857142857
 42
50.0
 43
0.0
 44
0.0
 50
0.0
 51
0.0
 71
     0
 72
   100
 73
     1
 74
     3
 75
     0
 76
     0
 77
     0
 78
     0
281
     0
 65
     1
110
0.0
120
0.0
130
0.0
111
1.0
121
0.0
131
0.0
112
0.0
122
1.0
132
0.0
 79
     0
146
0.0
  0
ENDTAB
  0
TABLE
  2
LTYPE
  5
5
330
0
100
AcDbSymbolTable
 70
     8
  0
LTYPE
  5
14
330
5
100
AcDbSymbolTableRecord
100
AcDbLinetypeTableRecord
  2
ByBlock
 70
     0
  3

 72
    65
 73
     0
 40
0.0
  0
LTYPE
  5
15
330
5
100
AcDbSymbolTableRecord
100
AcDbLinetypeTableRecord
  2
ByLayer
 70
     0
  3

 72
    65
 73
     0
 40
0.0
  0
LTYPE
  5
16
330
5
100
AcDbSymbolTableRecord
100
AcDbLinetypeTableRecord
  2
Continuous
 70
     0
  3
Solid line
 72
    65
 73
     0
 40
0.0
  0
LTYPE
  5
2A
330
5
100
AcDbSymbolTableRecord
100
AcDbLinetypeTableRecord
  2
DASHED
 70
     0
  3
Dashed
 72
    65
 73
     2
 40
15.0
 49
7.0
 74
     0
 49
-8.0
 74
     0
  0
LTYPE
  5
2B
330
5
100
AcDbSymbolTableRecord
100
AcDbLinetypeTableRecord
  2
DOTTED
 70
     0
  3
Dotted
 72
    65
 73
     2
 40
1.0
 49
0.0
 74
     0
 49
-1.0
 74
     0
  0
LTYPE
  5
2C
330
5
100
AcDbSymbolTableRecord
100
AcDbLinetypeTableRecord
  2
DOT_CENTER
 70
     0
  3
Dot_Center
 72
    65
 73
     4
 40
14.0
 49
12.0
 74
     0
 49
-1.0
 74
     0
 49
0.0
 74
     0
 49
-1.0
 74
     0
  0
LTYPE
  5
2D
330
5
100
AcDbSymbolTableRecord
100
AcDbLinetypeTableRecord
  2
LONG_DASHED
 70
     0
  3
Long_Dashed
 72
    65
 73
     2
 40
15.0
 49
10.0
 74
     0
 49
-5.0
 74
     0
  0
LTYPE
  5
2E
330
5
100
AcDbSymbolTableRecord
100
AcDbLinetypeTableRecord
  2
DASH_CENTER
 70
     0
  3
Dash_Center
 72
    65
 73
     4
 40
14.0
 49
11.0
 74
     0
 49
-1.0
 74
     0
 49
1.0
 74
     0
 49
-1.0
 74
     0
  0
LTYPE
  5
2F
330
5
100
AcDbSymbolTableRecord
100
AcDbLinetypeTableRecord
  2
PHANTOM
 70
     0
  3
Phantom
 72
    65
 73
     6
 40
13.0
 49
10.0
 74
     0
 49
-1.0
 74
     0
 49
0.0
 74
     0
 49
-1.0
 74
     0
 49
0.0
 74
     0
 49
-1.0
 74
     0
  0
LTYPE
  5
30
330
5
100
AcDbSymbolTableRecord
100
AcDbLinetypeTableRecord
  2
CENTER_DASH_DASH
 70
     0
  3
Center_Dash_Dash
 72
    65
 73
     6
 40
14.0
 49
9.0
 74
     0
 49
-1.0
 74
     0
 49
1.0
 74
     0
 49
-1.0
 74
     0
 49
1.0
 74
     0
 49
-1.0
 74
     0
  0
ENDTAB
  0
TABLE
  2
LAYER
  5
2
330
0
100
AcDbSymbolTable
 70
     2
  0
LAYER
  5
10
330
2
100
AcDbSymbolTableRecord
100
AcDbLayerTableRecord
  2
0
 70
     0
 62
     7
  6
Continuous
370
    -3
390
F
  0
LAYER
  5
31
330
2
100
AcDbSymbolTableRecord
100
AcDbLayerTableRecord
  2
1
 70
     0
 62
     7
  6
Continuous
370
    -3
390
F
  0
ENDTAB
  0
TABLE
  2
STYLE
  5
3
330
0
100
AcDbSymbolTable
 70
     3
  0
STYLE
  5
11
330
3
100
AcDbSymbolTableRecord
100
AcDbTextStyleTableRecord
  2
Standard
 70
     0
 40
0.0
 41
1.0
 50
0.0
 71
     0
 42
0.2
  3
txt
  4

  0
STYLE
  5
36D
330
3
100
AcDbSymbolTableRecord
100
AcDbTextStyleTableRecord
  2
CONVERTER_11
 70
     0
 40
0.0
 41
0.95
 50
0.0
 71
     0
 42
0.2
  3
txt.shx
  4

  0
STYLE
  5
388
330
3
100
AcDbSymbolTableRecord
100
AcDbTextStyleTableRecord
  2
CONVERTER_12
 70
     0
 40
0.0
 41
0.89
 50
0.0
 71
     0
 42
0.2
  3
msmincho.ttc
  4

1001
ACAD
1000
MS Mincho
1071
    32785
  0
ENDTAB
  0
TABLE
  2
VIEW
  5
6
330
0
100
AcDbSymbolTable
 70
     0
  0
ENDTAB
  0
TABLE
  2
UCS
  5
7
330
0
100
AcDbSymbolTable
 70
     0
  0
ENDTAB
  0
TABLE
  2
APPID
  5
9
330
0
100
AcDbSymbolTable
 70
     1
  0
APPID
  5
12
330
9
100
AcDbSymbolTableRecord
100
AcDbRegAppTableRecord
  2
ACAD
 70
     0
  0
ENDTAB
  0
TABLE
  2
DIMSTYLE
  5
A
330
0
100
AcDbSymbolTable
 70
    15
100
AcDbDimStyleTable
  0
DIMSTYLE
105
27
330
A
100
AcDbSymbolTableRecord
100
AcDbDimStyleTableRecord
  2
Standard
 70
     0
340
11
  0
DIMSTYLE
105
371
102
{ACAD_REACTORS
330
372
102
}
330
A
100
AcDbSymbolTableRecord
100
AcDbDimStyleTableRecord
  2
ME10_DIM_10
 70
     0
 41
3.5
 42
1.0
 44
1.5
 47
0.5
 48
0.5
 71
     1
 73
     0
 74
     0
 77
     1
 78
     8
140
3.5
146
0.7
147
2.0
172
     1
173
     1
176
     2
177
     2
178
     2
272
     1
340
36D
  0
DIMSTYLE
105
37E
102
{ACAD_REACTORS
330
37F
102
}
330
A
100
AcDbSymbolTableRecord
100
AcDbDimStyleTableRecord
  2
ME10_DIM_11
 70
     0
 41
3.5
 42
1.0
 44
1.5
 47
0.2
 48
0.2
 71
     1
 73
     0
 74
     0
 77
     1
 78
     8
140
3.5
146
0.7
147
2.0
172
     1
173
     1
176
     2
177
     2
178
     2
272
     1
340
36D
  0
DIMSTYLE
105
38C
102
{ACAD_REACTORS
330
38D
102
}
330
A
100
AcDbSymbolTableRecord
100
AcDbDimStyleTableRecord
  2
ME10_DIM_12
 70
     0
  3
φ<>
 41
3.5
 42
1.0
 44
1.5
 48
0.013
 71
     1
 73
     0
 74
     0
 77
     1
 78
     8
140
3.5
146
0.7
147
2.0
172
     1
173
     1
176
     2
177
     2
178
     2
272
     0
340
388
  0
DIMSTYLE
105
397
102
{ACAD_REACTORS
330
398
102
}
330
A
100
AcDbSymbolTableRecord
100
AcDbDimStyleTableRecord
  2
ME10_DIM_13
 70
     0
 41
3.5
 42
1.0
 44
1.5
 47
1.0
 48
1.0
 71
     1
 73
     0
 74
     0
 77
     1
 78
     8
140
3.5
146
0.7
147
2.0
172
     1
173
     1
176
     2
177
     2
178
     2
272
     0
340
36D
  0
DIMSTYLE
105
3A4
102
{ACAD_REACTORS
330
3A5
102
}
330
A
100
AcDbSymbolTableRecord
100
AcDbDimStyleTableRecord
  2
ME10_DIM_14
 70
     0
 41
3.5
 42
1.0
 44
1.5
 73
     0
 74
     0
 77
     1
 78
     8
140
3.5
147
2.0
172
     1
173
     1
176
     2
177
     2
178
     3
340
36D
  0
DIMSTYLE
105
3AF
102
{ACAD_REACTORS
330
3B0
102
}
330
A
100
AcDbSymbolTableRecord
100
AcDbDimStyleTableRecord
  2
ME10_DIM_15
 70
     0
 41
3.5
 42
1.0
 44
1.5
 73
     0
 74
     0
 77
     1
 78
     8
140
3.5
147
2.0
172
     1
173
     1
176
     2
177
     2
178
     3
340
36D
  0
DIMSTYLE
105
3BA
102
{ACAD_REACTORS
330
3BB
102
}
330
A
100
AcDbSymbolTableRecord
100
AcDbDimStyleTableRecord
  2
ME10_DIM_16
 70
     0
 41
3.5
 42
1.0
 44
1.5
 47
0.25
 48
0.25
 71
     1
 73
     0
 74
     0
 77
     1
 78
     8
140
3.5
146
0.7
147
2.0
172
     1
173
     1
176
     2
177
     2
178
     2
272
     2
340
36D
  0
DIMSTYLE
105
3C5
102
{ACAD_REACTORS
330
3C6
102
}
330
A
100
AcDbSymbolTableRecord
100
AcDbDimStyleTableRecord
  2
ME10_DIM_17
 70
     0
 41
3.5
 42
1.0
 44
1.5
 47
0.2
 48
0.2
 71
     1
 73
     0
 74
     0
 77
     1
 78
     8
140
3.5
146
0.7
147
2.0
172
     1
173
     1
176
     2
177
     2
178
     2
272
     1
340
36D
  0
DIMSTYLE
105
3D0
102
{ACAD_REACTORS
330
3D1
102
}
330
A
100
AcDbSymbolTableRecord
100
AcDbDimStyleTableRecord
  2
ME10_DIM_18
 70
     0
 41
3.5
 42
1.0
 44
1.5
 47
0.2
 48
0.2
 71
     1
 73
     0
 74
     0
 77
     1
 78
     8
140
3.5
146
0.7
147
2.0
172
     1
173
     1
176
     2
177
     2
178
     2
272
     1
340
36D
  0
DIMSTYLE
105
3DB
102
{ACAD_REACTORS
330
3DC
102
}
330
A
100
AcDbSymbolTableRecord
100
AcDbDimStyleTableRecord
  2
ME10_DIM_19
 70
     0
 41
3.5
 42
1.0
 44
1.5
 47
0.25
 48
0.25
 71
     1
 73
     0
 74
     0
 77
     1
 78
     8
140
3.5
146
0.7
147
2.0
172
     1
173
     1
176
     2
177
     2
178
     2
272
     2
340
36D
  0
DIMSTYLE
105
3E8
102
{ACAD_REACTORS
330
3E9
102
}
330
A
100
AcDbSymbolTableRecord
100
AcDbDimStyleTableRecord
  2
ME10_DIM_20
 70
     0
 41
3.5
 42
1.0
 44
1.5
 73
     0
 74
     0
 77
     1
 78
     8
140
3.5
147
2.0
172
     1
173
     1
176
     2
177
     2
178
     3
340
36D
  0
DIMSTYLE
105
3F5
102
{ACAD_REACTORS
330
3F6
102
}
330
A
100
AcDbSymbolTableRecord
100
AcDbDimStyleTableRecord
  2
ME10_DIM_21
 70
     0
 41
3.5
 42
1.0
 44
1.5
 47
0.2
 48
0.2
 71
     1
 73
     0
 74
     0
 77
     1
 78
     8
140
3.5
146
0.7
147
2.0
172
     1
173
     1
176
     2
177
     2
178
     2
272
     1
340
36D
  0
DIMSTYLE
105
400
102
{ACAD_REACTORS
330
401
102
}
330
A
100
AcDbSymbolTableRecord
100
AcDbDimStyleTableRecord
  2
ME10_DIM_22
 70
     0
 41
3.5
 42
1.0
 44
1.5
 47
0.5
 48
0.5
 71
     1
 73
     0
 74
     0
 77
     1
 78
     8
140
3.5
146
0.7
147
2.0
172
     1
173
     1
176
     2
177
     2
178
     2
272
     1
340
36D
  0
DIMSTYLE
105
40B
102
{ACAD_REACTORS
330
40C
102
}
330
A
100
AcDbSymbolTableRecord
100
AcDbDimStyleTableRecord
  2
ME10_DIM_23
 70
     0
  3
φ<>
 41
3.5
 42
1.0
 44
1.5
 48
0.025
 71
     1
 73
     0
 74
     0
 77
     1
 78
     8
140
3.5
146
0.7
147
2.0
172
     1
173
     1
176
     2
177
     2
178
     2
272
     0
340
388
  0
ENDTAB
  0
TABLE
  2
BLOCK_RECORD
  5
1
330
0
100
AcDbSymbolTable
 70
    16
  0
BLOCK_RECORD
  5
1F
330
1
100
AcDbSymbolTableRecord
100
AcDbBlockTableRecord
  2
*Model_Space
340
22
  0
BLOCK_RECORD
  5
1B
330
1
100
AcDbSymbolTableRecord
100
AcDbBlockTableRecord
  2
*Paper_Space
340
1E
  0
BLOCK_RECORD
  5
23
330
1
100
AcDbSymbolTableRecord
100
AcDbBlockTableRecord
  2
*Paper_Space0
340
26
  0
BLOCK_RECORD
  5
367
330
1
100
AcDbSymbolTableRecord
100
AcDbBlockTableRecord
  2
*D1
340
0
  0
BLOCK_RECORD
  5
373
330
1
100
AcDbSymbolTableRecord
100
AcDbBlockTableRecord
  2
*D2
340
0
  0
BLOCK_RECORD
  5
380
330
1
100
AcDbSymbolTableRecord
100
AcDbBlockTableRecord
  2
*D3
340
0
  0
BLOCK_RECORD
  5
38E
330
1
100
AcDbSymbolTableRecord
100
AcDbBlockTableRecord
  2
*D4
340
0
  0
BLOCK_RECORD
  5
399
330
1
100
AcDbSymbolTableRecord
100
AcDbBlockTableRecord
  2
*D5
340
0
  0
BLOCK_RECORD
  5
3A6
330
1
100
AcDbSymbolTableRecord
100
AcDbBlockTableRecord
  2
*D6
340
0
  0
BLOCK_RECORD
  5
3B1
330
1
100
AcDbSymbolTableRecord
100
AcDbBlockTableRecord
  2
*D7
340
0
  0
BLOCK_RECORD
  5
3BC
330
1
100
AcDbSymbolTableRecord
100
AcDbBlockTableRecord
  2
*D8
340
0
  0
BLOCK_RECORD
  5
3C7
330
1
100
AcDbSymbolTableRecord
100
AcDbBlockTableRecord
  2
*D9
340
0
  0
BLOCK_RECORD
  5
3D2
330
1
100
AcDbSymbolTableRecord
100
AcDbBlockTableRecord
  2
*D10
340
0
  0
BLOCK_RECORD
  5
3DD
330
1
100
AcDbSymbolTableRecord
100
AcDbBlockTableRecord
  2
*D11
340
0
  0
BLOCK_RECORD
  5
3EA
330
1
100
AcDbSymbolTableRecord
100
AcDbBlockTableRecord
  2
*D12
340
0
  0
BLOCK_RECORD
  5
3F7
330
1
100
AcDbSymbolTableRecord
100
AcDbBlockTableRecord
  2
*D13
340
0
  0
BLOCK_RECORD
  5
402
330
1
100
AcDbSymbolTableRecord
100
AcDbBlockTableRecord
  2
*D14
340
0
  0
BLOCK_RECORD
  5
40D
330
1
100
AcDbSymbolTableRecord
100
AcDbBlockTableRecord
  2
*D15
340
0
102
{BLKREFS
331
414
102
}
  0
ENDTAB
  0
ENDSEC
  0
SECTION
  2
BLOCKS
  0
BLOCK
  5
20
330
1F
100
AcDbEntity
  8
0
100
AcDbBlockBegin
  2
*Model_Space
 70
     0
 71
     0
 10
0.0
 20
0.0
 30
0.0
  3
*Model_Space
  1

  0
ENDBLK
  5
21
330
1F
100
AcDbEntity
  8
0
100
AcDbBlockEnd
  0
BLOCK
  5
1C
330
1B
100
AcDbEntity
 67
     1
  8
0
100
AcDbBlockBegin
  2
*Paper_Space
 70
     0
 71
     0
 10
0.0
 20
0.0
 30
0.0
  3
*Paper_Space
  1

  0
ENDBLK
  5
1D
330
1B
100
AcDbEntity
 67
     1
  8
0
100
AcDbBlockEnd
  0
BLOCK
  5
24
330
23
100
AcDbEntity
  8
0
100
AcDbBlockBegin
  2
*Paper_Space0
 70
     0
 71
     0
 10
0.0
 20
0.0
 30
0.0
  3
*Paper_Space0
  1

  0
ENDBLK
  5
25
330
23
100
AcDbEntity
  8
0
100
AcDbBlockEnd
  0
BLOCK
  5
36F
330
367
100
AcDbEntity
  8
0
100
AcDbBlockBegin
  2
*D1
 70
     1
 71
     0
 10
0.0
 20
0.0
 30
0.0
  3
*D1
  1

  0
LINE
  5
368
330
367
100
AcDbEntity
  8
1
  6
Continuous
 62
     2
100
AcDbLine
 10
50.84556401715788
 20
-33.68930642665021
 30
0.0
 11
65.84556401715788
 21
-33.68930642665021
 31
0.0
  0
LINE
  5
369
330
367
100
AcDbEntity
  8
1
  6
Continuous
 62
     2
100
AcDbLine
 10
65.84556401715788
 20
-44.8540195041474
 30
0.0
 11
65.84556401715788
 21
-32.18930642665021
 31
0.0
  0
LINE
  5
36A
330
367
100
AcDbEntity
  8
1
  6
Continuous
 62
     2
100
AcDbLine
 10
50.84556401715788
 20
-44.15401950414742
 30
0.0
 11
50.84556401715788
 21
-32.18930642665021
 31
0.0
  0
SOLID
  5
36B
330
367
100
AcDbEntity
  8
1
 62
     2
100
AcDbTrace
 10
54.34556401715788
 20
-33.22852268509432
 30
0.0
 11
54.34556401715788
 21
-34.15009016820609
 31
0.0
 12
50.84556401715788
 22
-33.68930642665021
 32
0.0
 13
50.84556401715788
 23
-33.68930642665021
 33
0.0
  0
SOLID
  5
36C
330
367
100
AcDbEntity
  8
1
 62
     2
100
AcDbTrace
 10
62.34556401715788
 20
-34.15009016820609
 30
0.0
 11
62.34556401715788
 21
-33.22852268509432
 31
0.0
 12
65.84556401715788
 22
-33.68930642665021
 32
0.0
 13
65.84556401715788
 23
-33.68930642665021
 33
0.0
  0
MTEXT
  5
36E
330
367
100
AcDbEntity
  8
1
 62
     2
100
AcDbMText
 10
51.91894637009906
 20
-31.6893064266502
 30
0.0
 40
3.5
 41
0.0
 71
     7
 72
     1
  1
\C2;15\C2;\H2.45;{\Fgdt;`}0.5
  7
CONVERTER_11
 11
0.9999999999970621
 21
2.424068405545307E-6
 31
0.0
 73
     1
 44
0.60024009603842
  0
ENDBLK
  5
370
330
367
100
AcDbEntity
  8
0
100
AcDbBlockEnd
  0
BLOCK
  5
37C
330
373
100
AcDbEntity
  8
0
100
AcDbBlockBegin
  2
*D2
 70
     1
 71
     0
 10
0.0
 20
0.0
 30
0.0
  3
*D2
  1

  0
LINE
  5
374
330
373
100
AcDbEntity
  8
1
  6
Continuous
 62
     2
100
AcDbLine
 10
-42.24543978109674
 20
-34.0191989533753
 30
0.0
 11
-35.24543978109674
 21
-34.0191989533753
 31
0.0
  0
LINE
  5
375
330
373
100
AcDbEntity
  8
1
  6
Continuous
 62
     2
100
AcDbLine
 10
-46.74543978109674
 20
-34.0191989533753
 30
0.0
 11
-53.74543978109674
 21
-34.0191989533753
 31
0.0
  0
LINE
  5
376
330
373
100
AcDbEntity
  8
1
  6
Continuous
 62
     2
100
AcDbLine
 10
-46.74543978109674
 20
-34.0191989533753
 30
0.0
 11
-42.24543978109674
 21
-34.0191989533753
 31
0.0
  0
LINE
  5
377
330
373
100
AcDbEntity
  8
1
  6
Continuous
 62
     2
100
AcDbLine
 10
-42.24543978109674
 20
-44.8540195041474
 30
0.0
 11
-42.24543978109674
 21
-32.5191989533753
 31
0.0
  0
LINE
  5
378
330
373
100
AcDbEntity
  8
1
  6
Continuous
 62
     2
100
AcDbLine
 10
-46.74543978109674
 20
-46.3540195041474
 30
0.0
 11
-46.74543978109674
 21
-32.5191989533753
 31
0.0
  0
SOLID
  5
379
330
373
100
AcDbEntity
  8
1
 62
     2
100
AcDbTrace
 10
-50.24543978109674
 20
-34.47998269493119
 30
0.0
 11
-50.24543978109674
 21
-33.55841521181942
 31
0.0
 12
-46.74543978109674
 22
-34.0191989533753
 32
0.0
 13
-46.74543978109674
 23
-34.0191989533753
 33
0.0
  0
SOLID
  5
37A
330
373
100
AcDbEntity
  8
1
 62
     2
100
AcDbTrace
 10
-38.74543978109674
 20
-33.55841521181942
 30
0.0
 11
-38.74543978109674
 21
-34.47998269493119
 31
0.0
 12
-42.24543978109674
 22
-34.0191989533753
 32
0.0
 13
-42.24543978109674
 23
-34.0191989533753
 33
0.0
  0
MTEXT
  5
37B
330
373
100
AcDbEntity
  8
1
 62
     2
100
AcDbMText
 10
-47.96252409272714
 20
-32.0191989533753
 30
0.0
 40
3.5
 41
0.0
 71
     7
 72
     1
  1
\C2;4.5\C2;\H2.45;{\Fgdt;`}0.2
  7
CONVERTER_11
 11
0.9999999999970621
 21
2.424068405545307E-6
 31
0.0
 73
     1
 44
0.60024009603842
  0
ENDBLK
  5
37D
330
373
100
AcDbEntity
  8
0
100
AcDbBlockEnd
  0
BLOCK
  5
38A
330
380
100
AcDbEntity
  8
0
100
AcDbBlockBegin
  2
*D3
 70
     1
 71
     0
 10
0.0
 20
0.0
 30
0.0
  3
*D3
  1

  0
LINE
  5
381
330
380
100
AcDbEntity
  8
1
  6
Continuous
 62
     2
100
AcDbLine
 10
17.37575427104916
 20
-44.85401950414741
 30
0.0
 11
17.37575427104916
 21
-37.85401950414741
 31
0.0
  0
LINE
  5
382
330
380
100
AcDbEntity
  8
1
  6
Continuous
 62
     2
100
AcDbLine
 10
17.37575427104916
 20
-49.8540195041474
 30
0.0
 11
17.37575427104916
 21
-56.8540195041474
 31
0.0
  0
LINE
  5
383
330
380
100
AcDbEntity
  8
1
  6
Continuous
 62
     2
100
AcDbLine
 10
17.37575427104916
 20
-49.8540195041474
 30
0.0
 11
17.37575427104916
 21
-44.85401950414741
 31
0.0
  0
LINE
  5
384
330
380
100
AcDbEntity
  8
1
  6
Continuous
 62
     2
100
AcDbLine
 10
50.14556401715787
 20
-44.85401950414741
 30
0.0
 11
15.87575427104916
 21
-44.85401950414741
 31
0.0
  0
LINE
  5
385
330
380
100
AcDbEntity
  8
1
  6
Continuous
 62
     2
100
AcDbLine
 10
50.14556401715787
 20
-49.8540195041474
 30
0.0
 11
15.87575427104916
 21
-49.8540195041474
 31
0.0
  0
SOLID
  5
386
330
380
100
AcDbEntity
  8
1
 62
     2
100
AcDbTrace
 10
16.91497052949327
 20
-41.35401950414741
 30
0.0
 11
17.83653801260505
 21
-41.35401950414741
 31
0.0
 12
17.37575427104916
 22
-44.85401950414741
 32
0.0
 13
17.37575427104916
 23
-44.85401950414741
 33
0.0
  0
SOLID
  5
387
330
380
100
AcDbEntity
  8
1
 62
     2
100
AcDbTrace
 10
17.83653801260504
 20
-53.3540195041474
 30
0.0
 11
16.91497052949327
 21
-53.3540195041474
 31
0.0
 12
17.37575427104916
 22
-49.8540195041474
 32
0.0
 13
17.37575427104916
 23
-49.8540195041474
 33
0.0
  0
MTEXT
  5
389
330
380
100
AcDbEntity
  8
1
 62
     2
100
AcDbMText
 10
14.06325427104916
 20
-58.55390512506244
 30
0.0
 40
3.5
 41
0.0
 71
     7
 72
     1
  1
\C2;φ\C2;\C2;5\C2;\H2.45;\S 0^ -0.013;
  7
CONVERTER_12
 11
0.0
 21
1.0
 31
0.0
 73
     1
 44
0.60024009603842
  0
ENDBLK
  5
38B
330
380
100
AcDbEntity
  8
0
100
AcDbBlockEnd
  0
BLOCK
  5
395
330
38E
100
AcDbEntity
  8
0
100
AcDbBlockBegin
  2
*D4
 70
     1
 71
     0
 10
0.0
 20
0.0
 30
0.0
  3
*D4
  1

  0
LINE
  5
38F
330
38E
100
AcDbEntity
  8
1
  6
Continuous
 62
     2
100
AcDbLine
 10
70.84556401715786
 20
-97.4017393453905
 30
0.0
 11
117.8455640171578
 21
-97.4017393453905
 31
0.0
  0
LINE
  5
390
330
38E
100
AcDbEntity
  8
1
  6
Continuous
 62
     2
100
AcDbLine
 10
70.84556401715786
 20
-68.8540195041474
 30
0.0
 11
70.84556401715786
 21
-98.9017393453905
 31
0.0
  0
LINE
  5
391
330
38E
100
AcDbEntity
  8
1
  6
Continuous
 62
     2
100
AcDbLine
 10
117.8455640171578
 20
-68.8540195041474
 30
0.0
 11
117.8455640171578
 21
-98.9017393453905
 31
0.0
  0
SOLID
  5
392
330
38E
100
AcDbEntity
  8
1
 62
     2
100
AcDbTrace
 10
74.34556401715786
 20
-96.94095560383461
 30
0.0
 11
74.34556401715786
 21
-97.86252308694638
 31
0.0
 12
70.84556401715786
 22
-97.4017393453905
 32
0.0
 13
70.84556401715786
 23
-97.4017393453905
 33
0.0
  0
SOLID
  5
393
330
38E
100
AcDbEntity
  8
1
 62
     2
100
AcDbTrace
 10
114.3455640171578
 20
-97.86252308694638
 30
0.0
 11
114.3455640171578
 21
-96.94095560383461
 31
0.0
 12
117.8455640171578
 22
-97.4017393453905
 32
0.0
 13
117.8455640171578
 23
-97.4017393453905
 33
0.0
  0
MTEXT
  5
394
330
38E
100
AcDbEntity
  8
1
 62
     2
100
AcDbMText
 10
89.4733581348049
 20
-95.4017393453905
 30
0.0
 40
3.5
 41
0.0
 71
     7
 72
     1
  1
\C2;47\C2;\H2.45;{\Fgdt;`}1
  7
CONVERTER_11
 11
0.9999999999970621
 21
2.424068405545307E-6
 31
0.0
 73
     1
 44
0.60024009603842
  0
ENDBLK
  5
396
330
38E
100
AcDbEntity
  8
0
100
AcDbBlockEnd
  0
BLOCK
  5
3A2
330
399
100
AcDbEntity
  8
0
100
AcDbBlockBegin
  2
*D5
 70
     1
 71
     0
 10
0.0
 20
0.0
 30
0.0
  3
*D5
  1

  0
LINE
  5
39A
330
399
100
AcDbEntity
  8
1
  6
Continuous
 62
     2
100
AcDbLine
 10
135.0955640171578
 20
42.8367362876015
 30
0.0
 11
135.0955640171578
 21
35.8367362876015
 31
0.0
  0
LINE
  5
39B
330
399
100
AcDbEntity
  8
1
  6
Continuous
 62
     2
100
AcDbLine
 10
135.0955640171578
 20
35.8367362876015
 30
0.0
 11
135.0955640171578
 21
31.5020239383464
 31
0.0
  0
LINE
  5
39C
330
399
100
AcDbEntity
  8
1
  6
Continuous
 62
     2
100
AcDbLine
 10
135.0955640171578
 20
31.5020239383464
 30
0.0
 11
135.0955640171578
 21
13.82687981965973
 31
0.0
  0
LINE
  5
39D
330
399
100
AcDbEntity
  8
1
  6
Continuous
 62
     2
100
AcDbLine
 10
117.3455640171578
 20
31.5020239383464
 30
0.0
 11
136.5955640171578
 21
31.5020239383464
 31
0.0
  0
LINE
  5
39E
330
399
100
AcDbEntity
  8
1
  6
Continuous
 62
     2
100
AcDbLine
 10
116.7080640171579
 20
35.8367362876015
 30
0.0
 11
136.5955640171578
 21
35.8367362876015
 31
0.0
  0
SOLID
  5
39F
330
399
100
AcDbEntity
  8
1
 62
     2
100
AcDbTrace
 10
134.6347802756019
 20
39.3367362876015
 30
0.0
 11
135.5563477587137
 21
39.3367362876015
 31
0.0
 12
135.0955640171578
 22
35.8367362876015
 32
0.0
 13
135.0955640171578
 23
35.8367362876015
 33
0.0
  0
SOLID
  5
3A0
330
399
100
AcDbEntity
  8
1
 62
     2
100
AcDbTrace
 10
135.5563477587137
 20
28.0020239383464
 30
0.0
 11
134.6347802756019
 21
28.0020239383464
 31
0.0
 12
135.0955640171578
 22
31.5020239383464
 32
0.0
 13
135.0955640171578
 23
31.5020239383464
 33
0.0
  0
MTEXT
  5
3A1
330
399
100
AcDbEntity
  8
1
 62
     3
100
AcDbMText
 10
133.0955640171578
 20
13.82687981965973
 30
0.0
 40
3.5
 41
0.0
 71
     7
 72
     1
  1
5~10
  7
CONVERTER_11
 11
0.0
 21
1.0
 31
0.0
 73
     1
 44
0.60024009603842
  0
ENDBLK
  5
3A3
330
399
100
AcDbEntity
  8
0
100
AcDbBlockEnd
  0
BLOCK
  5
3AD
330
3A6
100
AcDbEntity
  8
0
100
AcDbBlockBegin
  2
*D6
 70
     1
 71
     0
 10
0.0
 20
0.0
 30
0.0
  3
*D6
  1

  0
LINE
  5
3A7
330
3A6
100
AcDbEntity
  8
1
  6
Continuous
 62
     2
100
AcDbLine
 10
145.0955640171578
 20
35.8367362876015
 30
0.0
 11
145.0955640171578
 21
-26.3540195041474
 31
0.0
  0
LINE
  5
3A8
330
3A6
100
AcDbEntity
  8
1
  6
Continuous
 62
     2
100
AcDbLine
 10
118.3455640171578
 20
-26.3540195041474
 30
0.0
 11
146.5955640171578
 21
-26.3540195041474
 31
0.0
  0
LINE
  5
3A9
330
3A6
100
AcDbEntity
  8
1
  6
Continuous
 62
     2
100
AcDbLine
 10
116.7080640171579
 20
35.8367362876015
 30
0.0
 11
146.5955640171578
 21
35.8367362876015
 31
0.0
  0
SOLID
  5
3AA
330
3A6
100
AcDbEntity
  8
1
 62
     2
100
AcDbTrace
 10
145.5563477587137
 20
32.3367362876015
 30
0.0
 11
144.6347802756019
 21
32.3367362876015
 31
0.0
 12
145.0955640171578
 22
35.8367362876015
 32
0.0
 13
145.0955640171578
 23
35.8367362876015
 33
0.0
  0
SOLID
  5
3AB
330
3A6
100
AcDbEntity
  8
1
 62
     2
100
AcDbTrace
 10
144.6347802756019
 20
-22.8540195041474
 30
0.0
 11
145.5563477587137
 21
-22.8540195041474
 31
0.0
 12
145.0955640171578
 22
-26.3540195041474
 32
0.0
 13
145.0955640171578
 23
-26.3540195041474
 33
0.0
  0
MTEXT
  5
3AC
330
3A6
100
AcDbEntity
  8
1
 62
     3
100
AcDbMText
 10
143.0955640171578
 20
-4.52334749062589
 30
0.0
 40
3.5
 41
0.0
 71
     7
 72
     1
  1
300MIN.
  7
CONVERTER_11
 11
0.0
 21
1.0
 31
0.0
 73
     1
 44
0.60024009603842
  0
ENDBLK
  5
3AE
330
3A6
100
AcDbEntity
  8
0
100
AcDbBlockEnd
  0
BLOCK
  5
3B8
330
3B1
100
AcDbEntity
  8
0
100
AcDbBlockBegin
  2
*D7
 70
     1
 71
     0
 10
0.0
 20
0.0
 30
0.0
  3
*D7
  1

  0
LINE
  5
3B2
330
3B1
100
AcDbEntity
  8
1
  6
Continuous
 62
     2
100
AcDbLine
 10
-86.49543978109674
 20
-26.3540195041474
 30
0.0
 11
-86.49543978109674
 21
-68.3540195041474
 31
0.0
  0
LINE
  5
3B3
330
3B1
100
AcDbEntity
  8
1
  6
Continuous
 62
     2
100
AcDbLine
 10
-60.57514949785264
 20
-68.3540195041474
 30
0.0
 11
-87.99543978109674
 21
-68.3540195041474
 31
0.0
  0
LINE
  5
3B4
330
3B1
100
AcDbEntity
  8
1
  6
Continuous
 62
     2
100
AcDbLine
 10
-60.57514949785264
 20
-26.3540195041474
 30
0.0
 11
-87.99543978109674
 21
-26.3540195041474
 31
0.0
  0
SOLID
  5
3B5
330
3B1
100
AcDbEntity
  8
1
 62
     2
100
AcDbTrace
 10
-86.03465603954085
 20
-29.8540195041474
 30
0.0
 11
-86.95622352265262
 21
-29.8540195041474
 31
0.0
 12
-86.49543978109674
 22
-26.3540195041474
 32
0.0
 13
-86.49543978109674
 23
-26.3540195041474
 33
0.0
  0
SOLID
  5
3B6
330
3B1
100
AcDbEntity
  8
1
 62
     2
100
AcDbTrace
 10
-86.95622352265262
 20
-64.8540195041474
 30
0.0
 11
-86.03465603954085
 21
-64.8540195041474
 31
0.0
 12
-86.49543978109674
 22
-68.3540195041474
 32
0.0
 13
-86.49543978109674
 23
-68.3540195041474
 33
0.0
  0
MTEXT
  5
3B7
330
3B1
100
AcDbEntity
  8
1
 62
     2
100
AcDbMText
 10
-88.49543978109674
 20
-55.49975479826504
 30
0.0
 40
3.5
 41
0.0
 71
     7
 72
     1
  1
\C2;42\C2;\H2.45;{\Fgdt;`}0.25
  7
CONVERTER_11
 11
0.0
 21
1.0
 31
0.0
 73
     1
 44
0.60024009603842
  0
ENDBLK
  5
3B9
330
3B1
100
AcDbEntity
  8
0
100
AcDbBlockEnd
  0
BLOCK
  5
3C3
330
3BC
100
AcDbEntity
  8
0
100
AcDbBlockBegin
  2
*D8
 70
     1
 71
     0
 10
0.0
 20
0.0
 30
0.0
  3
*D8
  1

  0
LINE
  5
3BD
330
3BC
100
AcDbEntity
  8
1
  6
Continuous
 62
     2
100
AcDbLine
 10
-76.49543978109674
 20
-31.8540195041474
 30
0.0
 11
-76.49543978109674
 21
-62.8540195041474
 31
0.0
  0
LINE
  5
3BE
330
3BC
100
AcDbEntity
  8
1
  6
Continuous
 62
     2
100
AcDbLine
 10
-63.14543978109675
 20
-62.8540195041474
 30
0.0
 11
-77.99543978109674
 21
-62.8540195041474
 31
0.0
  0
LINE
  5
3BF
330
3BC
100
AcDbEntity
  8
1
  6
Continuous
 62
     2
100
AcDbLine
 10
-63.14543978109675
 20
-31.8540195041474
 30
0.0
 11
-77.99543978109674
 21
-31.8540195041474
 31
0.0
  0
SOLID
  5
3C0
330
3BC
100
AcDbEntity
  8
1
 62
     2
100
AcDbTrace
 10
-76.03465603954085
 20
-35.3540195041474
 30
0.0
 11
-76.95622352265262
 21
-35.3540195041474
 31
0.0
 12
-76.49543978109674
 22
-31.8540195041474
 32
0.0
 13
-76.49543978109674
 23
-31.8540195041474
 33
0.0
  0
SOLID
  5
3C1
330
3BC
100
AcDbEntity
  8
1
 62
     2
100
AcDbTrace
 10
-76.95622352265262
 20
-59.3540195041474
 30
0.0
 11
-76.03465603954085
 21
-59.3540195041474
 31
0.0
 12
-76.49543978109674
 22
-62.8540195041474
 32
0.0
 13
-76.49543978109674
 23
-62.8540195041474
 33
0.0
  0
MTEXT
  5
3C2
330
3BC
100
AcDbEntity
  8
1
 62
     2
100
AcDbMText
 10
-78.49543978109674
 20
-53.69828421002975
 30
0.0
 40
3.5
 41
0.0
 71
     7
 72
     1
  1
\C2;31\C2;\H2.45;{\Fgdt;`}0.2
  7
CONVERTER_11
 11
0.0
 21
1.0
 31
0.0
 73
     1
 44
0.60024009603842
  0
ENDBLK
  5
3C4
330
3BC
100
AcDbEntity
  8
0
100
AcDbBlockEnd
  0
BLOCK
  5
3CE
330
3C7
100
AcDbEntity
  8
0
100
AcDbBlockBegin
  2
*D9
 70
     1
 71
     0
 10
0.0
 20
0.0
 30
0.0
  3
*D9
  1

  0
LINE
  5
3C8
330
3C7
100
AcDbEntity
  8
1
  6
Continuous
 62
     2
100
AcDbLine
 10
-59.74543978109674
 20
-87.1040195041474
 30
0.0
 11
-28.74543978109674
 21
-87.1040195041474
 31
0.0
  0
LINE
  5
3C9
330
3C7
100
AcDbEntity
  8
1
  6
Continuous
 62
     2
100
AcDbLine
 10
-28.74543978109674
 20
-66.25401950414741
 30
0.0
 11
-28.74543978109674
 21
-88.6040195041474
 31
0.0
  0
LINE
  5
3CA
330
3C7
100
AcDbEntity
  8
1
  6
Continuous
 62
     2
100
AcDbLine
 10
-59.74543978109674
 20
-66.25401950414741
 30
0.0
 11
-59.74543978109674
 21
-88.6040195041474
 31
0.0
  0
SOLID
  5
3CB
330
3C7
100
AcDbEntity
  8
1
 62
     2
100
AcDbTrace
 10
-56.24543978109674
 20
-86.64323576259152
 30
0.0
 11
-56.24543978109674
 21
-87.56480324570329
 31
0.0
 12
-59.74543978109674
 22
-87.1040195041474
 32
0.0
 13
-59.74543978109674
 23
-87.1040195041474
 33
0.0
  0
SOLID
  5
3CC
330
3C7
100
AcDbEntity
  8
1
 62
     2
100
AcDbTrace
 10
-32.24543978109674
 20
-87.56480324570329
 30
0.0
 11
-32.24543978109674
 21
-86.64323576259152
 31
0.0
 12
-28.74543978109674
 22
-87.1040195041474
 32
0.0
 13
-28.74543978109674
 23
-87.1040195041474
 33
0.0
  0
MTEXT
  5
3CD
330
3C7
100
AcDbEntity
  8
1
 62
     2
100
AcDbMText
 10
-50.58970448697909
 20
-85.1040195041474
 30
0.0
 40
3.5
 41
0.0
 71
     7
 72
     1
  1
\C2;31\C2;\H2.45;{\Fgdt;`}0.2
  7
CONVERTER_11
 11
0.9999999999970621
 21
2.424068405545307E-6
 31
0.0
 73
     1
 44
0.60024009603842
  0
ENDBLK
  5
3CF
330
3C7
100
AcDbEntity
  8
0
100
AcDbBlockEnd
  0
BLOCK
  5
3D9
330
3D2
100
AcDbEntity
  8
0
100
AcDbBlockBegin
  2
*D10
 70
     1
 71
     0
 10
0.0
 20
0.0
 30
0.0
  3
*D10
  1

  0
LINE
  5
3D3
330
3D2
100
AcDbEntity
  8
1
  6
Continuous
 62
     2
100
AcDbLine
 10
-65.24543978109674
 20
-97.1040195041474
 30
0.0
 11
-23.24543978109674
 21
-97.1040195041474
 31
0.0
  0
LINE
  5
3D4
330
3D2
100
AcDbEntity
  8
1
  6
Continuous
 62
     2
100
AcDbLine
 10
-23.24543978109674
 20
-63.68372922090328
 30
0.0
 11
-23.24543978109674
 21
-98.6040195041474
 31
0.0
  0
LINE
  5
3D5
330
3D2
100
AcDbEntity
  8
1
  6
Continuous
 62
     2
100
AcDbLine
 10
-65.24543978109674
 20
-63.68372922090328
 30
0.0
 11
-65.24543978109674
 21
-98.6040195041474
 31
0.0
  0
SOLID
  5
3D6
330
3D2
100
AcDbEntity
  8
1
 62
     2
100
AcDbTrace
 10
-61.74543978109674
 20
-96.64323576259152
 30
0.0
 11
-61.74543978109674
 21
-97.56480324570329
 31
0.0
 12
-65.24543978109674
 22
-97.1040195041474
 32
0.0
 13
-65.24543978109674
 23
-97.1040195041474
 33
0.0
  0
SOLID
  5
3D7
330
3D2
100
AcDbEntity
  8
1
 62
     2
100
AcDbTrace
 10
-26.74543978109674
 20
-97.56480324570329
 30
0.0
 11
-26.74543978109674
 21
-96.64323576259152
 31
0.0
 12
-23.24543978109674
 22
-97.1040195041474
 32
0.0
 13
-23.24543978109674
 23
-97.1040195041474
 33
0.0
  0
MTEXT
  5
3D8
330
3D2
100
AcDbEntity
  8
1
 62
     2
100
AcDbMText
 10
-52.39117507521439
 20
-95.1040195041474
 30
0.0
 40
3.5
 41
0.0
 71
     7
 72
     1
  1
\C2;42\C2;\H2.45;{\Fgdt;`}0.25
  7
CONVERTER_11
 11
0.9999999999970621
 21
2.424068405545307E-6
 31
0.0
 73
     1
 44
0.60024009603842
  0
ENDBLK
  5
3DA
330
3D2
100
AcDbEntity
  8
0
100
AcDbBlockEnd
  0
BLOCK
  5
3E6
330
3DD
100
AcDbEntity
  8
0
100
AcDbBlockBegin
  2
*D11
 70
     1
 71
     0
 10
0.0
 20
0.0
 30
0.0
  3
*D11
  1

  0
LINE
  5
3DE
330
3DD
100
AcDbEntity
  8
1
  6
Continuous
 62
     2
100
AcDbLine
 10
75.14556401715787
 20
-14.8602817659602
 30
0.0
 11
82.14556401715787
 21
-14.8602817659602
 31
0.0
  0
LINE
  5
3DF
330
3DD
100
AcDbEntity
  8
1
  6
Continuous
 62
     2
100
AcDbLine
 10
70.84556401715787
 20
-14.8602817659602
 30
0.0
 11
63.84556401715787
 21
-14.8602817659602
 31
0.0
  0
LINE
  5
3E0
330
3DD
100
AcDbEntity
  8
1
  6
Continuous
 62
     2
100
AcDbLine
 10
70.84556401715787
 20
-14.8602817659602
 30
0.0
 11
75.14556401715787
 21
-14.8602817659602
 31
0.0
  0
LINE
  5
3E1
330
3DD
100
AcDbEntity
  8
1
  6
Continuous
 62
     2
100
AcDbLine
 10
75.14556401715787
 20
-29.8540195041474
 30
0.0
 11
75.14556401715787
 21
-13.3602817659602
 31
0.0
  0
LINE
  5
3E2
330
3DD
100
AcDbEntity
  8
1
  6
Continuous
 62
     2
100
AcDbLine
 10
70.84556401715787
 20
-25.8540195041474
 30
0.0
 11
70.84556401715787
 21
-13.3602817659602
 31
0.0
  0
SOLID
  5
3E3
330
3DD
100
AcDbEntity
  8
1
 62
     2
100
AcDbTrace
 10
67.34556401715787
 20
-15.32106550751609
 30
0.0
 11
67.34556401715787
 21
-14.39949802440431
 31
0.0
 12
70.84556401715787
 22
-14.8602817659602
 32
0.0
 13
70.84556401715787
 23
-14.8602817659602
 33
0.0
  0
SOLID
  5
3E4
330
3DD
100
AcDbEntity
  8
1
 62
     2
100
AcDbTrace
 10
78.64556401715787
 20
-14.39949802440431
 30
0.0
 11
78.64556401715787
 21
-15.32106550751609
 31
0.0
 12
75.14556401715787
 22
-14.8602817659602
 32
0.0
 13
75.14556401715787
 23
-14.8602817659602
 33
0.0
  0
MTEXT
  5
3E5
330
3DD
100
AcDbEntity
  8
1
 62
     3
100
AcDbMText
 10
65.80683322026277
 20
-12.8602817659602
 30
0.0
 40
3.5
 41
0.0
 71
     7
 72
     1
  1
4-4.5MIN.
  7
CONVERTER_11
 11
0.9999999999970621
 21
2.424068405545307E-6
 31
0.0
 73
     1
 44
0.60024009603842
  0
ENDBLK
  5
3E7
330
3DD
100
AcDbEntity
  8
0
100
AcDbBlockEnd
  0
BLOCK
  5
3F3
330
3EA
100
AcDbEntity
  8
0
100
AcDbBlockBegin
  2
*D12
 70
     1
 71
     0
 10
0.0
 20
0.0
 30
0.0
  3
*D12
  1

  0
LINE
  5
3EB
330
3EA
100
AcDbEntity
  8
1
  6
Continuous
 62
     2
100
AcDbLine
 10
54.35621949502513
 20
-87.31848230598669
 30
0.0
 11
68.84556401715786
 21
-87.31848230598669
 31
0.0
  0
LINE
  5
3EC
330
3EA
100
AcDbEntity
  8
1
  6
Continuous
 62
     2
100
AcDbLine
 10
68.84556401715786
 20
-87.31848230598669
 30
0.0
 11
70.84556401715786
 21
-87.31848230598669
 31
0.0
  0
LINE
  5
3ED
330
3EA
100
AcDbEntity
  8
1
  6
Continuous
 62
     2
100
AcDbLine
 10
70.84556401715786
 20
-87.31848230598669
 30
0.0
 11
77.84556401715786
 21
-87.31848230598669
 31
0.0
  0
LINE
  5
3EE
330
3EA
100
AcDbEntity
  8
1
  6
Continuous
 62
     2
100
AcDbLine
 10
70.84556401715786
 20
-68.85401950414739
 30
0.0
 11
70.84556401715786
 21
-88.81848230598669
 31
0.0
  0
LINE
  5
3EF
330
3EA
100
AcDbEntity
  8
1
  6
Continuous
 62
     2
100
AcDbLine
 10
68.84556401715786
 20
-59.15401950414739
 30
0.0
 11
68.84556401715786
 21
-88.81848230598669
 31
0.0
  0
SOLID
  5
3F0
330
3EA
100
AcDbEntity
  8
1
 62
     2
100
AcDbTrace
 10
65.34556401715786
 20
-87.77926604754258
 30
0.0
 11
65.34556401715786
 21
-86.8576985644308
 31
0.0
 12
68.84556401715786
 22
-87.31848230598669
 32
0.0
 13
68.84556401715786
 23
-87.31848230598669
 33
0.0
  0
SOLID
  5
3F1
330
3EA
100
AcDbEntity
  8
1
 62
     2
100
AcDbTrace
 10
74.34556401715786
 20
-86.8576985644308
 30
0.0
 11
74.34556401715786
 21
-87.77926604754258
 31
0.0
 12
70.84556401715786
 22
-87.31848230598669
 32
0.0
 13
70.84556401715786
 23
-87.31848230598669
 33
0.0
  0
MTEXT
  5
3F2
330
3EA
100
AcDbEntity
  8
1
 62
     2
100
AcDbMText
 10
54.35621949502513
 20
-85.31848230598669
 30
0.0
 40
3.5
 41
0.0
 71
     7
 72
     1
  1
\C2;2\C2;\H2.45;{\Fgdt;`}0.2
  7
CONVERTER_11
 11
0.9999999999970621
 21
2.424068405545307E-6
 31
0.0
 73
     1
 44
0.60024009603842
  0
ENDBLK
  5
3F4
330
3EA
100
AcDbEntity
  8
0
100
AcDbBlockEnd
  0
BLOCK
  5
3FE
330
3F7
100
AcDbEntity
  8
0
100
AcDbBlockBegin
  2
*D13
 70
     1
 71
     0
 10
0.0
 20
0.0
 30
0.0
  3
*D13
  1

  0
LINE
  5
3F8
330
3F7
100
AcDbEntity
  8
1
  6
Continuous
 62
     2
100
AcDbLine
 10
50.84556401715787
 20
-97.4310817556456
 30
0.0
 11
70.84556401715787
 21
-97.4310817556456
 31
0.0
  0
LINE
  5
3F9
330
3F7
100
AcDbEntity
  8
1
  6
Continuous
 62
     2
100
AcDbLine
 10
70.84556401715787
 20
-68.8540195041474
 30
0.0
 11
70.84556401715787
 21
-98.9310817556456
 31
0.0
  0
LINE
  5
3FA
330
3F7
100
AcDbEntity
  8
1
  6
Continuous
 62
     2
100
AcDbLine
 10
50.84556401715787
 20
-50.55401950414739
 30
0.0
 11
50.84556401715787
 21
-98.9310817556456
 31
0.0
  0
SOLID
  5
3FB
330
3F7
100
AcDbEntity
  8
1
 62
     2
100
AcDbTrace
 10
54.34556401715787
 20
-96.9702980140897
 30
0.0
 11
54.34556401715787
 21
-97.89186549720148
 31
0.0
 12
50.84556401715787
 22
-97.4310817556456
 32
0.0
 13
50.84556401715787
 23
-97.4310817556456
 33
0.0
  0
SOLID
  5
3FC
330
3F7
100
AcDbEntity
  8
1
 62
     2
100
AcDbTrace
 10
67.34556401715787
 20
-97.89186549720148
 30
0.0
 11
67.34556401715787
 21
-96.9702980140897
 31
0.0
 12
70.84556401715787
 22
-97.4310817556456
 32
0.0
 13
70.84556401715787
 23
-97.4310817556456
 33
0.0
  0
MTEXT
  5
3FD
330
3F7
100
AcDbEntity
  8
1
 62
     2
100
AcDbMText
 10
53.95571107598139
 20
-95.4310817556456
 30
0.0
 40
3.5
 41
0.0
 71
     7
 72
     1
  1
\C2;20\C2;\H2.45;{\Fgdt;`}0.5
  7
CONVERTER_11
 11
0.9999999999970621
 21
2.424068405545307E-6
 31
0.0
 73
     1
 44
0.60024009603842
  0
ENDBLK
  5
3FF
330
3F7
100
AcDbEntity
  8
0
100
AcDbBlockEnd
  0
BLOCK
  5
409
330
402
100
AcDbEntity
  8
0
100
AcDbBlockBegin
  2
*D14
 70
     1
 71
     0
 10
0.0
 20
0.0
 30
0.0
  3
*D14
  1

  0
LINE
  5
403
330
402
100
AcDbEntity
  8
1
  6
Continuous
 62
     2
100
AcDbLine
 10
4.45838692218076
 20
-58.3540195041474
 30
0.0
 11
4.45838692218076
 21
-36.3540195041474
 31
0.0
  0
LINE
  5
404
330
402
100
AcDbEntity
  8
1
  6
Continuous
 62
     2
100
AcDbLine
 10
68.04556401715787
 20
-36.3540195041474
 30
0.0
 11
2.95838692218076
 21
-36.3540195041474
 31
0.0
  0
LINE
  5
405
330
402
100
AcDbEntity
  8
1
  6
Continuous
 62
     2
100
AcDbLine
 10
68.04556401715787
 20
-58.3540195041474
 30
0.0
 11
2.95838692218076
 21
-58.3540195041474
 31
0.0
  0
SOLID
  5
406
330
402
100
AcDbEntity
  8
1
 62
     2
100
AcDbTrace
 10
4.91917066373665
 20
-39.8540195041474
 30
0.0
 11
3.99760318062488
 21
-39.8540195041474
 31
0.0
 12
4.45838692218076
 22
-36.3540195041474
 32
0.0
 13
4.45838692218076
 23
-36.3540195041474
 33
0.0
  0
SOLID
  5
407
330
402
100
AcDbEntity
  8
1
 62
     2
100
AcDbTrace
 10
3.99760318062488
 20
-54.8540195041474
 30
0.0
 11
4.91917066373665
 21
-54.8540195041474
 31
0.0
 12
4.45838692218076
 22
-58.3540195041474
 32
0.0
 13
4.45838692218076
 23
-58.3540195041474
 33
0.0
  0
MTEXT
  5
408
330
402
100
AcDbEntity
  8
1
 62
     2
100
AcDbMText
 10
1.14588692218076
 20
-60.48405218388596
 30
0.0
 40
3.5
 41
0.0
 71
     7
 72
     1
  1
\C2;φ\C2;\C2;22\C2;\H2.45;\S 0^ -0.025;
  7
CONVERTER_12
 11
0.0
 21
1.0
 31
0.0
 73
     1
 44
0.60024009603842
  0
ENDBLK
  5
40A
330
402
100
AcDbEntity
  8
0
100
AcDbBlockEnd
  0
BLOCK
  5
412
330
40D
100
AcDbEntity
  8
0
100
AcDbBlockBegin
  2
*D15
 70
     1
 71
     0
 10
0.0
 20
0.0
 30
0.0
  3
*D15
  1

  0
LINE
  5
40E
330
40D
100
AcDbEntity
  8
1
  6
Continuous
 62
     2
100
AcDbLine
 10
-34.28996722331959
 20
-71.37252416516544
 30
0.0
 11
-56.72807088013789
 21
-17.23850951764497
 31
0.0
  0
LINE
  5
40F
330
40D
100
AcDbEntity
  8
1
  6
Continuous
 62
     2
100
AcDbLine
 10
-56.72807088013789
 20
-17.23850951764497
 30
0.0
 11
-71.06712316771959
 21
-17.23850951764497
 31
0.0
  0
SOLID
  5
410
330
40D
100
AcDbEntity
  8
1
 62
     2
100
AcDbTrace
 10
-36.05579377703118
 20
-68.31569930287954
 30
0.0
 11
-35.20446020439415
 21
-67.96282854179265
 31
0.0
 12
-34.28996722331959
 22
-71.37252416516544
 32
0.0
 13
-34.28996722331959
 23
-71.37252416516544
 33
0.0
  0
MTEXT
  5
411
330
40D
100
AcDbEntity
  8
1
 62
     2
100
AcDbMText
 10
-72.82101205659161
 20
-15.23852343179762
 30
0.0
 40
3.5
 41
0.0
 71
     7
 72
     1
  1
\C2;φ\C2;52
  7
CONVERTER_12
 11
0.9999999999970621
 21
2.424068405545307E-6
 31
0.0
 73
     1
 44
0.60024009603842
  0
ENDBLK
  5
413
330
40D
100
AcDbEntity
  8
0
100
AcDbBlockEnd
  0
ENDSEC
  0
SECTION
  2
ENTITIES
  0
LINE
  5
32
330
1F
100
AcDbEntity
  8
1
  6
Continuous
 62
     2
100
AcDbLine
 10
253.1606932014213
 20
-23.43134515919303
 30
0.0
 11
254.6430461425977
 21
-23.43134515919303
 31
0.0
  0
LINE
  5
33
330
1F
100
AcDbEntity
  8
1
  6
Continuous
 62
     2
100
AcDbLine
 10
253.1606932014213
 20
-25.2980118258597
 30
0.0
 11
254.8077520249507
 21
-25.2980118258597
 31
0.0
  0
LINE
  5
34
330
1F
100
AcDbEntity
  8
1
  6
Continuous
 62
     2
100
AcDbLine
 10
253.1606932014213
 20
-21.7980118258597
 30
0.0
 11
253.1606932014213
 21
-25.2980118258597
 31
0.0
  0
LINE
  5
35
330
1F
100
AcDbEntity
  8
1
  6
Continuous
 62
     2
100
AcDbLine
 10
254.8077520249507
 20
-21.7980118258597
 30
0.0
 11
253.1606932014213
 21
-21.7980118258597
 31
0.0
  0
LINE
  5
36
330
1F
100
AcDbEntity
  8
1
  6
Continuous
 62
     2
100
AcDbLine
 10
251.4312814367154
 20
-21.7980118258597
 30
0.0
 11
251.4312814367154
 21
-25.2980118258597
 31
0.0
  0
LINE
  5
37
330
1F
100
AcDbEntity
  8
1
  6
Continuous
 62
     2
100
AcDbLine
 10
250.5253990837742
 20
-21.7980118258597
 30
0.0
 11
252.3371637896565
 21
-21.7980118258597
 31
0.0
  0
LINE
  5
38
330
1F
100
AcDbEntity
  8
1
  6
Continuous
 62
     2
100
AcDbLine
 10
248.1371637896565
 20
-24.36467849252637
 30
0.0
 11
249.4548108484801
 21
-24.36467849252637
 31
0.0
  0
LINE
  5
39
330
1F
100
AcDbEntity
  8
1
  6
Continuous
 62
     2
100
AcDbLine
 10
248.7959873190683
 20
-21.7980118258597
 30
0.0
 11
249.7018696720095
 21
-25.2980118258597
 31
0.0
  0
LINE
  5
3A
330
1F
100
AcDbEntity
  8
1
  6
Continuous
 62
     2
100
AcDbLine
 10
247.8901049661271
 20
-25.2980118258597
 30
0.0
 11
248.7959873190683
 21
-21.7980118258597
 31
0.0
  0
LINE
  5
3B
330
1F
100
AcDbEntity
  8
1
  6
Continuous
 62
     2
100
AcDbLine
 10
245.419516730833
 20
-25.2980118258597
 30
0.0
 11
247.0665755543624
 21
-25.2980118258597
 31
0.0
  0
LINE
  5
3C
330
1F
100
AcDbEntity
  8
1
  6
Continuous
 62
     2
100
AcDbLine
 10
245.419516730833
 20
-21.7980118258597
 30
0.0
 11
245.419516730833
 21
-25.2980118258597
 31
0.0
  0
LINE
  5
3D
330
1F
100
AcDbEntity
  8
1
  6
Continuous
 62
     2
100
AcDbLine
 10
244.019516730833
 20
-23.5480118258597
 30
0.0
 11
242.9489284955389
 21
-23.5480118258597
 31
0.0
  0
LINE
  5
3E
330
1F
100
AcDbEntity
  8
1
  6
Continuous
 62
     2
100
AcDbLine
 10
244.3489284955389
 20
-23.31467849252637
 30
0.0
 11
244.019516730833
 21
-23.5480118258597
 31
0.0
  0
LINE
  5
3F
330
1F
100
AcDbEntity
  8
1
  6
Continuous
 62
     2
100
AcDbLine
 10
244.5136343778918
 20
-23.08134515919304
 30
0.0
 11
244.3489284955389
 21
-23.31467849252637
 31
0.0
  0
LINE
  5
40
330
1F
100
AcDbEntity
  8
1
  6
Continuous
 62
     2
100
AcDbLine
 10
244.5959873190683
 20
-22.61467849252637
 30
0.0
 11
244.5136343778918
 21
-23.08134515919304
 31
0.0
  0
LINE
  5
41
330
1F
100
AcDbEntity
  8
1
  6
Continuous
 62
     2
100
AcDbLine
 10
244.5136343778918
 20
-22.38134515919303
 30
0.0
 11
244.5959873190683
 21
-22.61467849252637
 31
0.0
  0
LINE
  5
42
330
1F
100
AcDbEntity
  8
1
  6
Continuous
 62
     2
100
AcDbLine
 10
244.3489284955389
 20
-22.03134515919303
 30
0.0
 11
244.5136343778918
 21
-22.38134515919303
 31
0.0
  0
LINE
  5
43
330
1F
100
AcDbEntity
  8
1
  6
Continuous
 62
     2
100
AcDbLine
 10
244.019516730833
 20
-21.7980118258597
 30
0.0
 11
244.3489284955389
 21
-22.03134515919303
 31
0.0
  0
LINE
  5
44
330
1F
100
AcDbEntity
  8
1
  6
Continuous
 62
     2
100
AcDbLine
 10
242.9489284955389
 20
-21.7980118258597
 30
0.0
 11
244.019516730833
 21
-21.7980118258597
 31
0.0
  0
LINE
  5
45
330
1F
100
AcDbEntity
  8
1
  6
Continuous
 62
     2
100
AcDbLine
 10
242.9489284955389
 20
-25.2980118258597
 30
0.0
 11
242.9489284955389
 21
-21.7980118258597
 31
0.0
  0
LINE
  5
46
330
1F
100
AcDbEntity
  8
1
  6
Continuous
 62
     2
100
AcDbLine
 10
238.0901049661271
 20
-23.43134515919303
 30
0.0
 11
239.5724579073036
 21
-23.43134515919303
 31
0.0
  0
LINE
  5
47
330
1F
100
AcDbEntity
  8
1
  6
Continuous
 62
     2
100
AcDbLine
 10
238.0901049661271
 20
-25.2980118258597
 30
0.0
 11
239.7371637896565
 21
-25.2980118258597
 31
0.0
  0
LINE
  5
48
330
1F
100
AcDbEntity
  8
1
  6
Continuous
 62
     2
100
AcDbLine
 10
238.0901049661271
 20
-21.7980118258597
 30
0.0
 11
238.0901049661271
 21
-25.2980118258597
 31
0.0
  0
LINE
  5
49
330
1F
100
AcDbEntity
  8
1
  6
Continuous
 62
     2
100
AcDbLine
 10
239.7371637896565
 20
-21.7980118258597
 30
0.0
 11
238.0901049661271
 21
-21.7980118258597
 31
0.0
  0
LINE
  5
4A
330
1F
100
AcDbEntity
  8
1
  6
Continuous
 62
     2
100
AcDbLine
 10
237.2665755543624
 20
-21.7980118258597
 30
0.0
 11
237.2665755543624
 21
-25.2980118258597
 31
0.0
  0
LINE
  5
4B
330
1F
100
AcDbEntity
  8
1
  6
Continuous
 62
     2
100
AcDbLine
 10
236.1959873190683
 20
-25.18134515919303
 30
0.0
 11
237.2665755543624
 21
-21.7980118258597
 31
0.0
  0
LINE
  5
4C
330
1F
100
AcDbEntity
  8
1
  6
Continuous
 62
     2
100
AcDbLine
 10
235.1253990837742
 20
-21.7980118258597
 30
0.0
 11
236.1959873190683
 21
-25.18134515919303
 31
0.0
  0
LINE
  5
4D
330
1F
100
AcDbEntity
  8
1
  6
Continuous
 62
     2
100
AcDbLine
 10
235.1253990837742
 20
-25.2980118258597
 30
0.0
 11
235.1253990837742
 21
-21.7980118258597
 31
0.0
  0
LINE
  5
4E
330
1F
100
AcDbEntity
  8
1
  6
Continuous
 62
     2
100
AcDbLine
 10
232.7371637896565
 20
-24.36467849252637
 30
0.0
 11
234.0548108484801
 21
-24.36467849252637
 31
0.0
  0
LINE
  5
4F
330
1F
100
AcDbEntity
  8
1
  6
Continuous
 62
     2
100
AcDbLine
 10
233.3959873190683
 20
-21.7980118258597
 30
0.0
 11
234.3018696720095
 21
-25.2980118258597
 31
0.0
  0
LINE
  5
50
330
1F
100
AcDbEntity
  8
1
  6
Continuous
 62
     2
100
AcDbLine
 10
232.4901049661271
 20
-25.2980118258597
 30
0.0
 11
233.3959873190683
 21
-21.7980118258597
 31
0.0
  0
LINE
  5
51
330
1F
100
AcDbEntity
  8
1
  6
Continuous
 62
     2
100
AcDbLine
 10
231.6665755543624
 20
-25.2980118258597
 30
0.0
 11
231.6665755543624
 21
-21.7980118258597
 31
0.0
  0
LINE
  5
52
330
1F
100
AcDbEntity
  8
1
  6
Continuous
 62
     2
100
AcDbLine
 10
230.019516730833
 20
-21.7980118258597
 30
0.0
 11
231.6665755543624
 21
-25.2980118258597
 31
0.0
  0
LINE
  5
53
330
1F
100
AcDbEntity
  8
1
  6
Continuous
 62
     2
100
AcDbLine
 10
230.019516730833
 20
-25.2980118258597
 30
0.0
 11
230.019516730833
 21
-21.7980118258597
 31
0.0
  0
LINE
  5
54
330
1F
100
AcDbEntity
  8
1
  6
Continuous
 62
     4
100
AcDbLine
 10
39.83362106929549
 20
-15.77748493944467
 30
0.0
 11
39.52479753988372
 21
-15.54415160611133
 31
0.0
  0
LINE
  5
55
330
1F
100
AcDbEntity
  8
1
  6
Continuous
 62
     4
100
AcDbLine
 10
40.24538577517784
 20
-16.010818272778
 30
0.0
 11
39.83362106929549
 21
-15.77748493944467
 31
0.0
  0
LINE
  5
56
330
1F
100
AcDbEntity
  8
1
  6
Continuous
 62
     4
100
AcDbLine
 10
40.96597401047195
 20
-16.010818272778
 30
0.0
 11
40.24538577517784
 21
-16.010818272778
 31
0.0
  0
LINE
  5
57
330
1F
100
AcDbEntity
  8
1
  6
Continuous
 62
     4
100
AcDbLine
 10
41.27479753988372
 20
-15.77748493944467
 30
0.0
 11
40.96597401047195
 21
-16.010818272778
 31
0.0
  0
LINE
  5
58
330
1F
100
AcDbEntity
  8
1
  6
Continuous
 62
     4
100
AcDbLine
 10
41.4806798928249
 20
-15.54415160611133
 30
0.0
 11
41.27479753988372
 21
-15.77748493944467
 31
0.0
  0
LINE
  5
59
330
1F
100
AcDbEntity
  8
1
  6
Continuous
 62
     4
100
AcDbLine
 10
41.58362106929549
 20
-14.960818272778
 30
0.0
 11
41.4806798928249
 21
-15.54415160611133
 31
0.0
  0
LINE
  5
5A
330
1F
100
AcDbEntity
  8
1
  6
Continuous
 62
     4
100
AcDbLine
 10
41.4806798928249
 20
-14.37748493944467
 30
0.0
 11
41.58362106929549
 21
-14.960818272778
 31
0.0
  0
LINE
  5
5B
330
1F
100
AcDbEntity
  8
1
  6
Continuous
 62
     4
100
AcDbLine
 10
41.27479753988372
 20
-14.14415160611133
 30
0.0
 11
41.4806798928249
 21
-14.37748493944467
 31
0.0
  0
LINE
  5
5C
330
1F
100
AcDbEntity
  8
1
  6
Continuous
 62
     4
100
AcDbLine
 10
40.96597401047195
 20
-13.910818272778
 30
0.0
 11
41.27479753988372
 21
-14.14415160611133
 31
0.0
  0
LINE
  5
5D
330
1F
100
AcDbEntity
  8
1
  6
Continuous
 62
     4
100
AcDbLine
 10
40.55420930458961
 20
-13.79415160611133
 30
0.0
 11
40.96597401047195
 21
-13.910818272778
 31
0.0
  0
LINE
  5
5E
330
1F
100
AcDbEntity
  8
1
  6
Continuous
 62
     4
100
AcDbLine
 10
40.14244459870725
 20
-13.910818272778
 30
0.0
 11
40.55420930458961
 21
-13.79415160611133
 31
0.0
  0
LINE
  5
5F
330
1F
100
AcDbEntity
  8
1
  6
Continuous
 62
     4
100
AcDbLine
 10
39.62773871635431
 20
-14.260818272778
 30
0.0
 11
40.14244459870725
 21
-13.910818272778
 31
0.0
  0
LINE
  5
60
330
1F
100
AcDbEntity
  8
1
  6
Continuous
 62
     4
100
AcDbLine
 10
39.7306798928249
 20
-12.510818272778
 30
0.0
 11
39.62773871635431
 21
-14.260818272778
 31
0.0
  0
LINE
  5
61
330
1F
100
AcDbEntity
  8
1
  6
Continuous
 62
     4
100
AcDbLine
 10
41.4806798928249
 20
-12.510818272778
 30
0.0
 11
39.7306798928249
 21
-12.510818272778
 31
0.0
  0
LINE
  5
62
330
1F
100
AcDbEntity
  8
1
  6
Continuous
 62
     4
100
AcDbLine
 10
37.9806798928249
 20
-12.74415160611133
 30
0.0
 11
37.36303283400137
 21
-12.510818272778
 31
0.0
  0
LINE
  5
63
330
1F
100
AcDbEntity
  8
1
  6
Continuous
 62
     4
100
AcDbLine
 10
38.39244459870725
 20
-13.32748493944467
 30
0.0
 11
37.9806798928249
 21
-12.74415160611133
 31
0.0
  0
LINE
  5
64
330
1F
100
AcDbEntity
  8
1
  6
Continuous
 62
     4
100
AcDbLine
 10
38.49538577517784
 20
-14.260818272778
 30
0.0
 11
38.39244459870725
 21
-13.32748493944467
 31
0.0
  0
LINE
  5
65
330
1F
100
AcDbEntity
  8
1
  6
Continuous
 62
     4
100
AcDbLine
 10
38.39244459870725
 20
-15.19415160611133
 30
0.0
 11
38.49538577517784
 21
-14.260818272778
 31
0.0
  0
LINE
  5
66
330
1F
100
AcDbEntity
  8
1
  6
Continuous
 62
     4
100
AcDbLine
 10
37.9806798928249
 20
-15.77748493944467
 30
0.0
 11
38.39244459870725
 21
-15.19415160611133
 31
0.0
  0
LINE
  5
67
330
1F
100
AcDbEntity
  8
1
  6
Continuous
 62
     4
100
AcDbLine
 10
37.36303283400137
 20
-16.010818272778
 30
0.0
 11
37.9806798928249
 21
-15.77748493944467
 31
0.0
  0
LINE
  5
68
330
1F
100
AcDbEntity
  8
1
  6
Continuous
 62
     4
100
AcDbLine
 10
36.74538577517784
 20
-15.77748493944467
 30
0.0
 11
37.36303283400137
 21
-16.010818272778
 31
0.0
  0
LINE
  5
69
330
1F
100
AcDbEntity
  8
1
  6
Continuous
 62
     4
100
AcDbLine
 10
36.43656224576607
 20
-15.19415160611133
 30
0.0
 11
36.74538577517784
 21
-15.77748493944467
 31
0.0
  0
LINE
  5
6A
330
1F
100
AcDbEntity
  8
1
  6
Continuous
 62
     4
100
AcDbLine
 10
36.2306798928249
 20
-14.260818272778
 30
0.0
 11
36.43656224576607
 21
-15.19415160611133
 31
0.0
  0
LINE
  5
6B
330
1F
100
AcDbEntity
  8
1
  6
Continuous
 62
     4
100
AcDbLine
 10
36.43656224576607
 20
-13.32748493944467
 30
0.0
 11
36.2306798928249
 21
-14.260818272778
 31
0.0
  0
LINE
  5
6C
330
1F
100
AcDbEntity
  8
1
  6
Continuous
 62
     4
100
AcDbLine
 10
36.74538577517784
 20
-12.74415160611133
 30
0.0
 11
36.43656224576607
 21
-13.32748493944467
 31
0.0
  0
LINE
  5
6D
330
1F
100
AcDbEntity
  8
1
  6
Continuous
 62
     4
100
AcDbLine
 10
37.36303283400137
 20
-12.510818272778
 30
0.0
 11
36.74538577517784
 21
-12.74415160611133
 31
0.0
  0
LINE
  5
6E
330
1F
100
AcDbEntity
  8
1
  6
Continuous
 62
     4
100
AcDbLine
 10
34.89244459870725
 20
-15.660818272778
 30
0.0
 11
34.99538577517784
 21
-15.54415160611133
 31
0.0
  0
LINE
  5
6F
330
1F
100
AcDbEntity
  8
1
  6
Continuous
 62
     4
100
AcDbLine
 10
34.99538577517784
 20
-15.77748493944467
 30
0.0
 11
34.89244459870725
 21
-15.660818272778
 31
0.0
  0
LINE
  5
70
330
1F
100
AcDbEntity
  8
1
  6
Continuous
 62
     4
100
AcDbLine
 10
35.09832695164843
 20
-15.660818272778
 30
0.0
 11
34.99538577517784
 21
-15.77748493944467
 31
0.0
  0
LINE
  5
71
330
1F
100
AcDbEntity
  8
1
  6
Continuous
 62
     4
100
AcDbLine
 10
34.99538577517784
 20
-15.54415160611133
 30
0.0
 11
35.09832695164843
 21
-15.660818272778
 31
0.0
  0
LINE
  5
72
330
1F
100
AcDbEntity
  8
1
  6
Continuous
 62
     4
100
AcDbLine
 10
34.89244459870725
 20
-15.54415160611133
 30
0.0
 11
35.09832695164843
 21
-15.54415160611133
 31
0.0
  0
LINE
  5
73
330
1F
100
AcDbEntity
  8
1
  6
Continuous
 62
     4
100
AcDbLine
 10
34.89244459870725
 20
-15.77748493944467
 30
0.0
 11
34.89244459870725
 21
-15.54415160611133
 31
0.0
  0
LINE
  5
74
330
1F
100
AcDbEntity
  8
1
  6
Continuous
 62
     4
100
AcDbLine
 10
35.09832695164843
 20
-15.77748493944467
 30
0.0
 11
34.89244459870725
 21
-15.77748493944467
 31
0.0
  0
LINE
  5
75
330
1F
100
AcDbEntity
  8
1
  6
Continuous
 62
     4
100
AcDbLine
 10
35.09832695164843
 20
-15.54415160611133
 30
0.0
 11
35.09832695164843
 21
-15.77748493944467
 31
0.0
  0
LINE
  5
76
330
1F
100
AcDbEntity
  8
1
  6
Continuous
 62
     4
100
AcDbLine
 10
34.78950342223666
 20
-15.660818272778
 30
0.0
 11
34.99538577517784
 21
-15.42748493944467
 31
0.0
  0
LINE
  5
77
330
1F
100
AcDbEntity
  8
1
  6
Continuous
 62
     4
100
AcDbLine
 10
34.99538577517784
 20
-15.89415160611133
 30
0.0
 11
34.78950342223666
 21
-15.660818272778
 31
0.0
  0
LINE
  5
78
330
1F
100
AcDbEntity
  8
1
  6
Continuous
 62
     4
100
AcDbLine
 10
35.20126812811902
 20
-15.660818272778
 30
0.0
 11
34.99538577517784
 21
-15.89415160611133
 31
0.0
  0
LINE
  5
79
330
1F
100
AcDbEntity
  8
1
  6
Continuous
 62
     4
100
AcDbLine
 10
34.99538577517784
 20
-15.42748493944467
 30
0.0
 11
35.20126812811902
 21
-15.660818272778
 31
0.0
  0
LINE
  5
7A
330
1F
100
AcDbEntity
  8
1
  6
Continuous
 62
     4
100
AcDbLine
 10
33.24538577517784
 20
-12.74415160611133
 30
0.0
 11
32.62773871635431
 21
-12.510818272778
 31
0.0
  0
LINE
  5
7B
330
1F
100
AcDbEntity
  8
1
  6
Continuous
 62
     4
100
AcDbLine
 10
33.65715048106019
 20
-13.32748493944467
 30
0.0
 11
33.24538577517784
 21
-12.74415160611133
 31
0.0
  0
LINE
  5
7C
330
1F
100
AcDbEntity
  8
1
  6
Continuous
 62
     4
100
AcDbLine
 10
33.76009165753078
 20
-14.260818272778
 30
0.0
 11
33.65715048106019
 21
-13.32748493944467
 31
0.0
  0
LINE
  5
7D
330
1F
100
AcDbEntity
  8
1
  6
Continuous
 62
     4
100
AcDbLine
 10
33.65715048106019
 20
-15.19415160611133
 30
0.0
 11
33.76009165753078
 21
-14.260818272778
 31
0.0
  0
LINE
  5
7E
330
1F
100
AcDbEntity
  8
1
  6
Continuous
 62
     4
100
AcDbLine
 10
33.24538577517784
 20
-15.77748493944467
 30
0.0
 11
33.65715048106019
 21
-15.19415160611133
 31
0.0
  0
LINE
  5
7F
330
1F
100
AcDbEntity
  8
1
  6
Continuous
 62
     4
100
AcDbLine
 10
32.62773871635431
 20
-16.010818272778
 30
0.0
 11
33.24538577517784
 21
-15.77748493944467
 31
0.0
  0
LINE
  5
80
330
1F
100
AcDbEntity
  8
1
  6
Continuous
 62
     4
100
AcDbLine
 10
32.01009165753078
 20
-15.77748493944467
 30
0.0
 11
32.62773871635431
 21
-16.010818272778
 31
0.0
  0
LINE
  5
81
330
1F
100
AcDbEntity
  8
1
  6
Continuous
 62
     4
100
AcDbLine
 10
31.70126812811902
 20
-15.19415160611133
 30
0.0
 11
32.01009165753078
 21
-15.77748493944467
 31
0.0
  0
LINE
  5
82
330
1F
100
AcDbEntity
  8
1
  6
Continuous
 62
     4
100
AcDbLine
 10
31.49538577517784
 20
-14.260818272778
 30
0.0
 11
31.70126812811902
 21
-15.19415160611133
 31
0.0
  0
LINE
  5
83
330
1F
100
AcDbEntity
  8
1
  6
Continuous
 62
     4
100
AcDbLine
 10
31.70126812811902
 20
-13.32748493944467
 30
0.0
 11
31.49538577517784
 21
-14.260818272778
 31
0.0
  0
LINE
  5
84
330
1F
100
AcDbEntity
  8
1
  6
Continuous
 62
     4
100
AcDbLine
 10
32.01009165753078
 20
-12.74415160611133
 30
0.0
 11
31.70126812811902
 21
-13.32748493944467
 31
0.0
  0
LINE
  5
85
330
1F
100
AcDbEntity
  8
1
  6
Continuous
 62
     4
100
AcDbLine
 10
32.62773871635431
 20
-12.510818272778
 30
0.0
 11
32.01009165753078
 21
-12.74415160611133
 31
0.0
  0
LINE
  5
86
330
1F
100
AcDbEntity
  8
1
  6
Continuous
 62
     4
100
AcDbLine
 10
43.53950342223666
 20
-17.760818272778
 30
0.0
 11
43.53950342223666
 21
-10.760818272778
 31
0.0
  0
LINE
  5
87
330
1F
100
AcDbEntity
  8
1
  6
Continuous
 62
     4
100
AcDbLine
 10
22.53950342223666
 20
-10.760818272778
 30
0.0
 11
22.53950342223666
 21
-17.760818272778
 31
0.0
  0
LINE
  5
88
330
1F
100
AcDbEntity
  8
1
  6
Continuous
 62
     4
100
AcDbLine
 10
43.53950342223666
 20
-10.760818272778
 30
0.0
 11
22.53950342223666
 21
-10.760818272778
 31
0.0
  0
LINE
  5
89
330
1F
100
AcDbEntity
  8
1
  6
Continuous
 62
     4
100
AcDbLine
 10
29.53950342223666
 20
-17.760818272778
 30
0.0
 11
29.53950342223666
 21
-10.760818272778
 31
0.0
  0
LINE
  5
8A
330
1F
100
AcDbEntity
  8
1
  6
Continuous
 62
     4
100
AcDbLine
 10
22.53950342223666
 20
-17.760818272778
 30
0.0
 11
43.53950342223666
 21
-17.760818272778
 31
0.0
  0
LINE
  5
8B
330
1F
100
AcDbEntity
  8
1
  6
Continuous
 62
     4
100
AcDbLine
 10
26.73950342223666
 20
-13.560818272778
 30
0.0
 11
23.41450342223666
 21
-16.885818272778
 31
0.0
  0
LINE
  5
8C
330
1F
100
AcDbEntity
  8
1
  6
Continuous
 62
     4
100
AcDbLine
 10
28.66450342223666
 20
-11.635818272778
 30
0.0
 11
26.03950342223666
 21
-12.860818272778
 31
0.0
  0
LINE
  5
8D
330
1F
100
AcDbEntity
  8
1
  6
Continuous
 62
     4
100
AcDbLine
 10
27.43950342223666
 20
-14.260818272778
 30
0.0
 11
28.66450342223666
 21
-11.635818272778
 31
0.0
  0
LINE
  5
8E
330
1F
100
AcDbEntity
  8
1
  6
Continuous
 62
     4
100
AcDbLine
 10
26.03950342223666
 20
-12.860818272778
 30
0.0
 11
27.43950342223666
 21
-14.260818272778
 31
0.0
  0
LINE
  5
8F
330
1F
100
AcDbEntity
  8
1
  6
Continuous
 62
     2
100
AcDbLine
 10
64.49257078504351
 20
-6.94883805404941
 30
0.0
 11
64.18374725563174
 21
-6.71550472071607
 31
0.0
  0
LINE
  5
90
330
1F
100
AcDbEntity
  8
1
  6
Continuous
 62
     2
100
AcDbLine
 10
64.90433549092586
 20
-7.18217138738274
 30
0.0
 11
64.49257078504351
 21
-6.94883805404941
 31
0.0
  0
LINE
  5
91
330
1F
100
AcDbEntity
  8
1
  6
Continuous
 62
     2
100
AcDbLine
 10
65.62492372621998
 20
-7.18217138738274
 30
0.0
 11
64.90433549092586
 21
-7.18217138738274
 31
0.0
  0
LINE
  5
92
330
1F
100
AcDbEntity
  8
1
  6
Continuous
 62
     2
100
AcDbLine
 10
65.93374725563174
 20
-6.94883805404941
 30
0.0
 11
65.62492372621998
 21
-7.18217138738274
 31
0.0
  0
LINE
  5
93
330
1F
100
AcDbEntity
  8
1
  6
Continuous
 62
     2
100
AcDbLine
 10
66.13962960857292
 20
-6.71550472071607
 30
0.0
 11
65.93374725563174
 21
-6.94883805404941
 31
0.0
  0
LINE
  5
94
330
1F
100
AcDbEntity
  8
1
  6
Continuous
 62
     2
100
AcDbLine
 10
66.24257078504351
 20
-6.13217138738274
 30
0.0
 11
66.13962960857292
 21
-6.71550472071607
 31
0.0
  0
LINE
  5
95
330
1F
100
AcDbEntity
  8
1
  6
Continuous
 62
     2
100
AcDbLine
 10
66.13962960857292
 20
-5.54883805404941
 30
0.0
 11
66.24257078504351
 21
-6.13217138738274
 31
0.0
  0
LINE
  5
96
330
1F
100
AcDbEntity
  8
1
  6
Continuous
 62
     2
100
AcDbLine
 10
65.93374725563174
 20
-5.31550472071607
 30
0.0
 11
66.13962960857292
 21
-5.54883805404941
 31
0.0
  0
LINE
  5
97
330
1F
100
AcDbEntity
  8
1
  6
Continuous
 62
     2
100
AcDbLine
 10
65.62492372621998
 20
-5.08217138738274
 30
0.0
 11
65.93374725563174
 21
-5.31550472071607
 31
0.0
  0
LINE
  5
98
330
1F
100
AcDbEntity
  8
1
  6
Continuous
 62
     2
100
AcDbLine
 10
65.21315902033763
 20
-4.96550472071607
 30
0.0
 11
65.62492372621998
 21
-5.08217138738274
 31
0.0
  0
LINE
  5
99
330
1F
100
AcDbEntity
  8
1
  6
Continuous
 62
     2
100
AcDbLine
 10
64.80139431445528
 20
-5.08217138738274
 30
0.0
 11
65.21315902033763
 21
-4.96550472071607
 31
0.0
  0
LINE
  5
9A
330
1F
100
AcDbEntity
  8
1
  6
Continuous
 62
     2
100
AcDbLine
 10
64.28668843210234
 20
-5.43217138738274
 30
0.0
 11
64.80139431445528
 21
-5.08217138738274
 31
0.0
  0
LINE
  5
9B
330
1F
100
AcDbEntity
  8
1
  6
Continuous
 62
     2
100
AcDbLine
 10
64.38962960857292
 20
-3.68217138738274
 30
0.0
 11
64.28668843210234
 21
-5.43217138738274
 31
0.0
  0
LINE
  5
9C
330
1F
100
AcDbEntity
  8
1
  6
Continuous
 62
     2
100
AcDbLine
 10
66.13962960857292
 20
-3.68217138738274
 30
0.0
 11
64.38962960857292
 21
-3.68217138738274
 31
0.0
  0
LINE
  5
9D
330
1F
100
AcDbEntity
  8
1
  6
Continuous
 62
     2
100
AcDbLine
 10
62.8455119615141
 20
-6.83217138738274
 30
0.0
 11
62.94845313798469
 21
-6.71550472071607
 31
0.0
  0
LINE
  5
9E
330
1F
100
AcDbEntity
  8
1
  6
Continuous
 62
     2
100
AcDbLine
 10
62.94845313798469
 20
-6.94883805404941
 30
0.0
 11
62.8455119615141
 21
-6.83217138738274
 31
0.0
  0
LINE
  5
9F
330
1F
100
AcDbEntity
  8
1
  6
Continuous
 62
     2
100
AcDbLine
 10
63.05139431445528
 20
-6.83217138738274
 30
0.0
 11
62.94845313798469
 21
-6.94883805404941
 31
0.0
  0
LINE
  5
A0
330
1F
100
AcDbEntity
  8
1
  6
Continuous
 62
     2
100
AcDbLine
 10
62.94845313798469
 20
-6.71550472071607
 30
0.0
 11
63.05139431445528
 21
-6.83217138738274
 31
0.0
  0
LINE
  5
A1
330
1F
100
AcDbEntity
  8
1
  6
Continuous
 62
     2
100
AcDbLine
 10
62.8455119615141
 20
-6.71550472071607
 30
0.0
 11
63.05139431445528
 21
-6.71550472071607
 31
0.0
  0
LINE
  5
A2
330
1F
100
AcDbEntity
  8
1
  6
Continuous
 62
     2
100
AcDbLine
 10
62.8455119615141
 20
-6.94883805404941
 30
0.0
 11
62.8455119615141
 21
-6.71550472071607
 31
0.0
  0
LINE
  5
A3
330
1F
100
AcDbEntity
  8
1
  6
Continuous
 62
     2
100
AcDbLine
 10
63.05139431445528
 20
-6.94883805404941
 30
0.0
 11
62.8455119615141
 21
-6.94883805404941
 31
0.0
  0
LINE
  5
A4
330
1F
100
AcDbEntity
  8
1
  6
Continuous
 62
     2
100
AcDbLine
 10
63.05139431445528
 20
-6.71550472071607
 30
0.0
 11
63.05139431445528
 21
-6.94883805404941
 31
0.0
  0
LINE
  5
A5
330
1F
100
AcDbEntity
  8
1
  6
Continuous
 62
     2
100
AcDbLine
 10
62.74257078504351
 20
-6.83217138738274
 30
0.0
 11
62.94845313798469
 21
-6.59883805404941
 31
0.0
  0
LINE
  5
A6
330
1F
100
AcDbEntity
  8
1
  6
Continuous
 62
     2
100
AcDbLine
 10
62.94845313798469
 20
-7.06550472071607
 30
0.0
 11
62.74257078504351
 21
-6.83217138738274
 31
0.0
  0
LINE
  5
A7
330
1F
100
AcDbEntity
  8
1
  6
Continuous
 62
     2
100
AcDbLine
 10
63.15433549092587
 20
-6.83217138738274
 30
0.0
 11
62.94845313798469
 21
-7.06550472071607
 31
0.0
  0
LINE
  5
A8
330
1F
100
AcDbEntity
  8
1
  6
Continuous
 62
     2
100
AcDbLine
 10
62.94845313798469
 20
-6.59883805404941
 30
0.0
 11
63.15433549092587
 21
-6.83217138738274
 31
0.0
  0
LINE
  5
A9
330
1F
100
AcDbEntity
  8
1
  6
Continuous
 62
     2
100
AcDbLine
 10
61.19845313798469
 20
-3.91550472071607
 30
0.0
 11
60.58080607916116
 21
-3.68217138738274
 31
0.0
  0
LINE
  5
AA
330
1F
100
AcDbEntity
  8
1
  6
Continuous
 62
     2
100
AcDbLine
 10
61.61021784386705
 20
-4.49883805404941
 30
0.0
 11
61.19845313798469
 21
-3.91550472071607
 31
0.0
  0
LINE
  5
AB
330
1F
100
AcDbEntity
  8
1
  6
Continuous
 62
     2
100
AcDbLine
 10
61.71315902033764
 20
-5.43217138738274
 30
0.0
 11
61.61021784386705
 21
-4.49883805404941
 31
0.0
  0
LINE
  5
AC
330
1F
100
AcDbEntity
  8
1
  6
Continuous
 62
     2
100
AcDbLine
 10
61.61021784386705
 20
-6.36550472071607
 30
0.0
 11
61.71315902033764
 21
-5.43217138738274
 31
0.0
  0
LINE
  5
AD
330
1F
100
AcDbEntity
  8
1
  6
Continuous
 62
     2
100
AcDbLine
 10
61.19845313798469
 20
-6.94883805404941
 30
0.0
 11
61.61021784386705
 21
-6.36550472071607
 31
0.0
  0
LINE
  5
AE
330
1F
100
AcDbEntity
  8
1
  6
Continuous
 62
     2
100
AcDbLine
 10
60.58080607916116
 20
-7.18217138738274
 30
0.0
 11
61.19845313798469
 21
-6.94883805404941
 31
0.0
  0
LINE
  5
AF
330
1F
100
AcDbEntity
  8
1
  6
Continuous
 62
     2
100
AcDbLine
 10
59.96315902033764
 20
-6.94883805404941
 30
0.0
 11
60.58080607916116
 21
-7.18217138738274
 31
0.0
  0
LINE
  5
B0
330
1F
100
AcDbEntity
  8
1
  6
Continuous
 62
     2
100
AcDbLine
 10
59.65433549092587
 20
-6.36550472071607
 30
0.0
 11
59.96315902033764
 21
-6.94883805404941
 31
0.0
  0
LINE
  5
B1
330
1F
100
AcDbEntity
  8
1
  6
Continuous
 62
     2
100
AcDbLine
 10
59.44845313798469
 20
-5.43217138738274
 30
0.0
 11
59.65433549092587
 21
-6.36550472071607
 31
0.0
  0
LINE
  5
B2
330
1F
100
AcDbEntity
  8
1
  6
Continuous
 62
     2
100
AcDbLine
 10
59.65433549092587
 20
-4.49883805404941
 30
0.0
 11
59.44845313798469
 21
-5.43217138738274
 31
0.0
  0
LINE
  5
B3
330
1F
100
AcDbEntity
  8
1
  6
Continuous
 62
     2
100
AcDbLine
 10
59.96315902033764
 20
-3.91550472071607
 30
0.0
 11
59.65433549092587
 21
-4.49883805404941
 31
0.0
  0
LINE
  5
B4
330
1F
100
AcDbEntity
  8
1
  6
Continuous
 62
     2
100
AcDbLine
 10
60.58080607916116
 20
-3.68217138738274
 30
0.0
 11
59.96315902033764
 21
-3.91550472071607
 31
0.0
  0
LINE
  5
B5
330
1F
100
AcDbEntity
  8
1
  6
Continuous
 62
     2
100
AcDbLine
 10
56.7719825497494
 20
-5.78217138738274
 30
0.0
 11
58.41904137327881
 21
-5.78217138738274
 31
0.0
  0
LINE
  5
B6
330
1F
100
AcDbEntity
  8
1
  6
Continuous
 62
     2
100
AcDbLine
 10
56.7719825497494
 20
-4.96550472071607
 30
0.0
 11
58.41904137327881
 21
-4.96550472071607
 31
0.0
  0
LINE
  5
B7
330
1F
100
AcDbEntity
  8
1
  6
Continuous
 62
     2
100
AcDbLine
 10
55.0219825497494
 20
-5.43217138738274
 30
0.0
 11
53.68374725563175
 21
-5.43217138738274
 31
0.0
  0
LINE
  5
B8
330
1F
100
AcDbEntity
  8
1
  6
Continuous
 62
     2
100
AcDbLine
 10
55.43374725563175
 20
-5.19883805404941
 30
0.0
 11
55.0219825497494
 21
-5.43217138738274
 31
0.0
  0
LINE
  5
B9
330
1F
100
AcDbEntity
  8
1
  6
Continuous
 62
     2
100
AcDbLine
 10
55.63962960857293
 20
-4.96550472071607
 30
0.0
 11
55.43374725563175
 21
-5.19883805404941
 31
0.0
  0
LINE
  5
BA
330
1F
100
AcDbEntity
  8
1
  6
Continuous
 62
     2
100
AcDbLine
 10
55.74257078504352
 20
-4.49883805404941
 30
0.0
 11
55.63962960857293
 21
-4.96550472071607
 31
0.0
  0
LINE
  5
BB
330
1F
100
AcDbEntity
  8
1
  6
Continuous
 62
     2
100
AcDbLine
 10
55.63962960857293
 20
-4.26550472071607
 30
0.0
 11
55.74257078504352
 21
-4.49883805404941
 31
0.0
  0
LINE
  5
BC
330
1F
100
AcDbEntity
  8
1
  6
Continuous
 62
     2
100
AcDbLine
 10
55.43374725563175
 20
-3.91550472071607
 30
0.0
 11
55.63962960857293
 21
-4.26550472071607
 31
0.0
  0
LINE
  5
BD
330
1F
100
AcDbEntity
  8
1
  6
Continuous
 62
     2
100
AcDbLine
 10
55.0219825497494
 20
-3.68217138738274
 30
0.0
 11
55.43374725563175
 21
-3.91550472071607
 31
0.0
  0
LINE
  5
BE
330
1F
100
AcDbEntity
  8
1
  6
Continuous
 62
     2
100
AcDbLine
 10
53.68374725563175
 20
-3.68217138738274
 30
0.0
 11
55.0219825497494
 21
-3.68217138738274
 31
0.0
  0
LINE
  5
BF
330
1F
100
AcDbEntity
  8
1
  6
Continuous
 62
     2
100
AcDbLine
 10
53.68374725563175
 20
-7.18217138738274
 30
0.0
 11
53.68374725563175
 21
-3.68217138738274
 31
0.0
  0
LINE
  5
C0
330
1F
100
AcDbEntity
  8
1
  6
Continuous
 62
     2
100
AcDbLine
 10
49.0727707851914
 20
-6.86762884432206
 30
0.0
 11
48.86688843225023
 21
-6.63429551098873
 31
0.0
  0
LINE
  5
C1
330
1F
100
AcDbEntity
  8
1
  6
Continuous
 62
     2
100
AcDbLine
 10
49.48453549107376
 20
-7.10096217765539
 30
0.0
 11
49.0727707851914
 21
-6.86762884432206
 31
0.0
  0
LINE
  5
C2
330
1F
100
AcDbEntity
  8
1
  6
Continuous
 62
     2
100
AcDbLine
 10
49.9992413734267
 20
-7.21762884432206
 30
0.0
 11
49.48453549107376
 21
-7.10096217765539
 31
0.0
  0
LINE
  5
C3
330
1F
100
AcDbEntity
  8
1
  6
Continuous
 62
     2
100
AcDbLine
 10
50.61688843225023
 20
-7.10096217765539
 30
0.0
 11
49.9992413734267
 21
-7.21762884432206
 31
0.0
  0
LINE
  5
C4
330
1F
100
AcDbEntity
  8
1
  6
Continuous
 62
     2
100
AcDbLine
 10
50.925711961662
 20
-6.86762884432206
 30
0.0
 11
50.61688843225023
 21
-7.10096217765539
 31
0.0
  0
LINE
  5
C5
330
1F
100
AcDbEntity
  8
1
  6
Continuous
 62
     2
100
AcDbLine
 10
51.13159431460317
 20
-6.28429551098873
 30
0.0
 11
50.925711961662
 21
-6.86762884432206
 31
0.0
  0
LINE
  5
C6
330
1F
100
AcDbEntity
  8
1
  6
Continuous
 62
     2
100
AcDbLine
 10
50.925711961662
 20
-5.70096217765539
 30
0.0
 11
51.13159431460317
 21
-6.28429551098873
 31
0.0
  0
LINE
  5
C7
330
1F
100
AcDbEntity
  8
1
  6
Continuous
 62
     2
100
AcDbLine
 10
50.41100607930905
 20
-5.35096217765539
 30
0.0
 11
50.925711961662
 21
-5.70096217765539
 31
0.0
  0
LINE
  5
C8
330
1F
100
AcDbEntity
  8
1
  6
Continuous
 62
     2
100
AcDbLine
 10
49.89630019695611
 20
-5.35096217765539
 30
0.0
 11
50.41100607930905
 21
-5.35096217765539
 31
0.0
  0
LINE
  5
C9
330
1F
100
AcDbEntity
  8
1
  6
Continuous
 62
     2
100
AcDbLine
 10
50.41100607930905
 20
-5.35096217765539
 30
0.0
 11
49.89630019695611
 21
-5.35096217765539
 31
0.0
  0
LINE
  5
CA
330
1F
100
AcDbEntity
  8
1
  6
Continuous
 62
     2
100
AcDbLine
 10
50.8227707851914
 20
-5.11762884432206
 30
0.0
 11
50.41100607930905
 21
-5.35096217765539
 31
0.0
  0
LINE
  5
CB
330
1F
100
AcDbEntity
  8
1
  6
Continuous
 62
     2
100
AcDbLine
 10
51.02865313813258
 20
-4.65096217765539
 30
0.0
 11
50.8227707851914
 21
-5.11762884432206
 31
0.0
  0
LINE
  5
CC
330
1F
100
AcDbEntity
  8
1
  6
Continuous
 62
     2
100
AcDbLine
 10
50.925711961662
 20
-4.30096217765539
 30
0.0
 11
51.02865313813258
 21
-4.65096217765539
 31
0.0
  0
LINE
  5
CD
330
1F
100
AcDbEntity
  8
1
  6
Continuous
 62
     2
100
AcDbLine
 10
50.61688843225023
 20
-3.83429551098873
 30
0.0
 11
50.925711961662
 21
-4.30096217765539
 31
0.0
  0
LINE
  5
CE
330
1F
100
AcDbEntity
  8
1
  6
Continuous
 62
     2
100
AcDbLine
 10
49.9992413734267
 20
-3.71762884432206
 30
0.0
 11
50.61688843225023
 21
-3.83429551098873
 31
0.0
  0
LINE
  5
CF
330
1F
100
AcDbEntity
  8
1
  6
Continuous
 62
     2
100
AcDbLine
 10
49.38159431460317
 20
-3.83429551098873
 30
0.0
 11
49.9992413734267
 21
-3.71762884432206
 31
0.0
  0
LINE
  5
D0
330
1F
100
AcDbEntity
  8
1
  6
Continuous
 62
     2
100
AcDbLine
 10
48.96982960872082
 20
-4.30096217765539
 30
0.0
 11
49.38159431460317
 21
-3.83429551098873
 31
0.0
  0
LINE
  5
D1
330
1F
100
AcDbEntity
  8
1
  6
Continuous
 62
     2
100
AcDbLine
 10
47.83747666754434
 20
-3.71762884432206
 30
0.0
 11
47.83747666754434
 21
-7.21762884432206
 31
0.0
  0
LINE
  5
D2
330
1F
100
AcDbEntity
  8
1
  6
Continuous
 62
     2
100
AcDbLine
 10
46.49924137342669
 20
-7.10096217765539
 30
0.0
 11
47.83747666754434
 21
-3.71762884432206
 31
0.0
  0
LINE
  5
D3
330
1F
100
AcDbEntity
  8
1
  6
Continuous
 62
     2
100
AcDbLine
 10
45.16100607930905
 20
-3.71762884432206
 30
0.0
 11
46.49924137342669
 21
-7.10096217765539
 31
0.0
  0
LINE
  5
D4
330
1F
100
AcDbEntity
  8
1
  6
Continuous
 62
     2
100
AcDbLine
 10
45.16100607930905
 20
-7.21762884432206
 30
0.0
 11
45.16100607930905
 21
-3.71762884432206
 31
0.0
  0
LINE
  5
D5
330
1F
100
AcDbEntity
  8
1
  6
Continuous
 62
     2
100
AcDbLine
 10
42.27865313813258
 20
-5.46762884432206
 30
0.0
 11
44.13159431460317
 21
-5.46762884432206
 31
0.0
  0
LINE
  5
D6
330
1F
100
AcDbEntity
  8
1
  6
Continuous
 62
     2
100
AcDbLine
 10
40.63159431460317
 20
-7.21762884432206
 30
0.0
 11
40.63159431460317
 21
-5.58429551098873
 31
0.0
  0
LINE
  5
D7
330
1F
100
AcDbEntity
  8
1
  6
Continuous
 62
     2
100
AcDbLine
 10
38.77865313813258
 20
-6.40096217765539
 30
0.0
 11
41.2492413734267
 21
-6.40096217765539
 31
0.0
  0
LINE
  5
D8
330
1F
100
AcDbEntity
  8
1
  6
Continuous
 62
     2
100
AcDbLine
 10
40.63159431460317
 20
-3.71762884432206
 30
0.0
 11
38.77865313813258
 21
-6.40096217765539
 31
0.0
  0
LINE
  5
D9
330
1F
100
AcDbEntity
  8
1
  6
Continuous
 62
     2
100
AcDbLine
 10
41.18937433059305
 20
-66.39345876514665
 30
0.0
 11
40.88055080118128
 21
-66.16012543181331
 31
0.0
  0
LINE
  5
DA
330
1F
100
AcDbEntity
  8
1
  6
Continuous
 62
     2
100
AcDbLine
 10
41.6011390364754
 20
-66.62679209847998
 30
0.0
 11
41.18937433059305
 21
-66.39345876514665
 31
0.0
  0
LINE
  5
DB
330
1F
100
AcDbEntity
  8
1
  6
Continuous
 62
     2
100
AcDbLine
 10
42.32172727176951
 20
-66.62679209847998
 30
0.0
 11
41.6011390364754
 21
-66.62679209847998
 31
0.0
  0
LINE
  5
DC
330
1F
100
AcDbEntity
  8
1
  6
Continuous
 62
     2
100
AcDbLine
 10
42.63055080118128
 20
-66.39345876514665
 30
0.0
 11
42.32172727176951
 21
-66.62679209847998
 31
0.0
  0
LINE
  5
DD
330
1F
100
AcDbEntity
  8
1
  6
Continuous
 62
     2
100
AcDbLine
 10
42.83643315412245
 20
-66.16012543181331
 30
0.0
 11
42.63055080118128
 21
-66.39345876514665
 31
0.0
  0
LINE
  5
DE
330
1F
100
AcDbEntity
  8
1
  6
Continuous
 62
     2
100
AcDbLine
 10
42.93937433059305
 20
-65.57679209847998
 30
0.0
 11
42.83643315412245
 21
-66.16012543181331
 31
0.0
  0
LINE
  5
DF
330
1F
100
AcDbEntity
  8
1
  6
Continuous
 62
     2
100
AcDbLine
 10
42.83643315412245
 20
-64.99345876514664
 30
0.0
 11
42.93937433059305
 21
-65.57679209847998
 31
0.0
  0
LINE
  5
E0
330
1F
100
AcDbEntity
  8
1
  6
Continuous
 62
     2
100
AcDbLine
 10
42.63055080118128
 20
-64.76012543181332
 30
0.0
 11
42.83643315412245
 21
-64.99345876514664
 31
0.0
  0
LINE
  5
E1
330
1F
100
AcDbEntity
  8
1
  6
Continuous
 62
     2
100
AcDbLine
 10
42.32172727176951
 20
-64.52679209847999
 30
0.0
 11
42.63055080118128
 21
-64.76012543181332
 31
0.0
  0
LINE
  5
E2
330
1F
100
AcDbEntity
  8
1
  6
Continuous
 62
     2
100
AcDbLine
 10
41.90996256588716
 20
-64.41012543181331
 30
0.0
 11
42.32172727176951
 21
-64.52679209847999
 31
0.0
  0
LINE
  5
E3
330
1F
100
AcDbEntity
  8
1
  6
Continuous
 62
     2
100
AcDbLine
 10
41.49819786000481
 20
-64.52679209847999
 30
0.0
 11
41.90996256588716
 21
-64.41012543181331
 31
0.0
  0
LINE
  5
E4
330
1F
100
AcDbEntity
  8
1
  6
Continuous
 62
     2
100
AcDbLine
 10
40.98349197765187
 20
-64.87679209847998
 30
0.0
 11
41.49819786000481
 21
-64.52679209847999
 31
0.0
  0
LINE
  5
E5
330
1F
100
AcDbEntity
  8
1
  6
Continuous
 62
     2
100
AcDbLine
 10
41.08643315412245
 20
-63.12679209847998
 30
0.0
 11
40.98349197765187
 21
-64.87679209847998
 31
0.0
  0
LINE
  5
E6
330
1F
100
AcDbEntity
  8
1
  6
Continuous
 62
     2
100
AcDbLine
 10
42.83643315412245
 20
-63.12679209847998
 30
0.0
 11
41.08643315412245
 21
-63.12679209847998
 31
0.0
  0
LINE
  5
E7
330
1F
100
AcDbEntity
  8
1
  6
Continuous
 62
     2
100
AcDbLine
 10
39.54231550706363
 20
-66.27679209847999
 30
0.0
 11
39.64525668353421
 21
-66.16012543181331
 31
0.0
  0
LINE
  5
E8
330
1F
100
AcDbEntity
  8
1
  6
Continuous
 62
     2
100
AcDbLine
 10
39.64525668353421
 20
-66.39345876514665
 30
0.0
 11
39.54231550706363
 21
-66.27679209847999
 31
0.0
  0
LINE
  5
E9
330
1F
100
AcDbEntity
  8
1
  6
Continuous
 62
     2
100
AcDbLine
 10
39.74819786000481
 20
-66.27679209847999
 30
0.0
 11
39.64525668353421
 21
-66.39345876514665
 31
0.0
  0
LINE
  5
EA
330
1F
100
AcDbEntity
  8
1
  6
Continuous
 62
     2
100
AcDbLine
 10
39.64525668353421
 20
-66.16012543181331
 30
0.0
 11
39.74819786000481
 21
-66.27679209847999
 31
0.0
  0
LINE
  5
EB
330
1F
100
AcDbEntity
  8
1
  6
Continuous
 62
     2
100
AcDbLine
 10
39.54231550706363
 20
-66.16012543181331
 30
0.0
 11
39.74819786000481
 21
-66.16012543181331
 31
0.0
  0
LINE
  5
EC
330
1F
100
AcDbEntity
  8
1
  6
Continuous
 62
     2
100
AcDbLine
 10
39.54231550706363
 20
-66.39345876514665
 30
0.0
 11
39.54231550706363
 21
-66.16012543181331
 31
0.0
  0
LINE
  5
ED
330
1F
100
AcDbEntity
  8
1
  6
Continuous
 62
     2
100
AcDbLine
 10
39.74819786000481
 20
-66.39345876514665
 30
0.0
 11
39.54231550706363
 21
-66.39345876514665
 31
0.0
  0
LINE
  5
EE
330
1F
100
AcDbEntity
  8
1
  6
Continuous
 62
     2
100
AcDbLine
 10
39.74819786000481
 20
-66.16012543181331
 30
0.0
 11
39.74819786000481
 21
-66.39345876514665
 31
0.0
  0
LINE
  5
EF
330
1F
100
AcDbEntity
  8
1
  6
Continuous
 62
     2
100
AcDbLine
 10
39.43937433059304
 20
-66.27679209847999
 30
0.0
 11
39.64525668353421
 21
-66.04345876514665
 31
0.0
  0
LINE
  5
F0
330
1F
100
AcDbEntity
  8
1
  6
Continuous
 62
     2
100
AcDbLine
 10
39.64525668353421
 20
-66.51012543181332
 30
0.0
 11
39.43937433059304
 21
-66.27679209847999
 31
0.0
  0
LINE
  5
F1
330
1F
100
AcDbEntity
  8
1
  6
Continuous
 62
     2
100
AcDbLine
 10
39.8511390364754
 20
-66.27679209847999
 30
0.0
 11
39.64525668353421
 21
-66.51012543181332
 31
0.0
  0
LINE
  5
F2
330
1F
100
AcDbEntity
  8
1
  6
Continuous
 62
     2
100
AcDbLine
 10
39.64525668353421
 20
-66.04345876514665
 30
0.0
 11
39.8511390364754
 21
-66.27679209847999
 31
0.0
  0
LINE
  5
F3
330
1F
100
AcDbEntity
  8
1
  6
Continuous
 62
     2
100
AcDbLine
 10
37.89525668353421
 20
-63.36012543181332
 30
0.0
 11
37.27760962471069
 21
-63.12679209847998
 31
0.0
  0
LINE
  5
F4
330
1F
100
AcDbEntity
  8
1
  6
Continuous
 62
     2
100
AcDbLine
 10
38.30702138941657
 20
-63.94345876514664
 30
0.0
 11
37.89525668353421
 21
-63.36012543181332
 31
0.0
  0
LINE
  5
F5
330
1F
100
AcDbEntity
  8
1
  6
Continuous
 62
     2
100
AcDbLine
 10
38.40996256588716
 20
-64.87679209847998
 30
0.0
 11
38.30702138941657
 21
-63.94345876514664
 31
0.0
  0
LINE
  5
F6
330
1F
100
AcDbEntity
  8
1
  6
Continuous
 62
     2
100
AcDbLine
 10
38.30702138941657
 20
-65.81012543181332
 30
0.0
 11
38.40996256588716
 21
-64.87679209847998
 31
0.0
  0
LINE
  5
F7
330
1F
100
AcDbEntity
  8
1
  6
Continuous
 62
     2
100
AcDbLine
 10
37.89525668353421
 20
-66.39345876514665
 30
0.0
 11
38.30702138941657
 21
-65.81012543181332
 31
0.0
  0
LINE
  5
F8
330
1F
100
AcDbEntity
  8
1
  6
Continuous
 62
     2
100
AcDbLine
 10
37.27760962471069
 20
-66.62679209847998
 30
0.0
 11
37.89525668353421
 21
-66.39345876514665
 31
0.0
  0
LINE
  5
F9
330
1F
100
AcDbEntity
  8
1
  6
Continuous
 62
     2
100
AcDbLine
 10
36.65996256588716
 20
-66.39345876514665
 30
0.0
 11
37.27760962471069
 21
-66.62679209847998
 31
0.0
  0
LINE
  5
FA
330
1F
100
AcDbEntity
  8
1
  6
Continuous
 62
     2
100
AcDbLine
 10
36.35113903647539
 20
-65.81012543181332
 30
0.0
 11
36.65996256588716
 21
-66.39345876514665
 31
0.0
  0
LINE
  5
FB
330
1F
100
AcDbEntity
  8
1
  6
Continuous
 62
     2
100
AcDbLine
 10
36.14525668353421
 20
-64.87679209847998
 30
0.0
 11
36.35113903647539
 21
-65.81012543181332
 31
0.0
  0
LINE
  5
FC
330
1F
100
AcDbEntity
  8
1
  6
Continuous
 62
     2
100
AcDbLine
 10
36.35113903647539
 20
-63.94345876514664
 30
0.0
 11
36.14525668353421
 21
-64.87679209847998
 31
0.0
  0
LINE
  5
FD
330
1F
100
AcDbEntity
  8
1
  6
Continuous
 62
     2
100
AcDbLine
 10
36.65996256588716
 20
-63.36012543181332
 30
0.0
 11
36.35113903647539
 21
-63.94345876514664
 31
0.0
  0
LINE
  5
FE
330
1F
100
AcDbEntity
  8
1
  6
Continuous
 62
     2
100
AcDbLine
 10
37.27760962471069
 20
-63.12679209847998
 30
0.0
 11
36.65996256588716
 21
-63.36012543181332
 31
0.0
  0
LINE
  5
FF
330
1F
100
AcDbEntity
  8
1
  6
Continuous
 62
     2
100
AcDbLine
 10
34.90996256588716
 20
-66.16012543181331
 30
0.0
 11
35.11584491882834
 21
-65.81012543181332
 31
0.0
  0
LINE
  5
100
330
1F
100
AcDbEntity
  8
1
  6
Continuous
 62
     2
100
AcDbLine
 10
34.49819786000481
 20
-66.51012543181332
 30
0.0
 11
34.90996256588716
 21
-66.16012543181331
 31
0.0
  0
LINE
  5
101
330
1F
100
AcDbEntity
  8
1
  6
Continuous
 62
     2
100
AcDbLine
 10
33.98349197765187
 20
-66.62679209847998
 30
0.0
 11
34.49819786000481
 21
-66.51012543181332
 31
0.0
  0
LINE
  5
102
330
1F
100
AcDbEntity
  8
1
  6
Continuous
 62
     2
100
AcDbLine
 10
33.36584491882834
 20
-66.39345876514665
 30
0.0
 11
33.98349197765187
 21
-66.62679209847998
 31
0.0
  0
LINE
  5
103
330
1F
100
AcDbEntity
  8
1
  6
Continuous
 62
     2
100
AcDbLine
 10
33.05702138941657
 20
-65.69345876514664
 30
0.0
 11
33.36584491882834
 21
-66.39345876514665
 31
0.0
  0
LINE
  5
104
330
1F
100
AcDbEntity
  8
1
  6
Continuous
 62
     2
100
AcDbLine
 10
32.95408021294598
 20
-64.87679209847998
 30
0.0
 11
33.05702138941657
 21
-65.69345876514664
 31
0.0
  0
LINE
  5
105
330
1F
100
AcDbEntity
  8
1
  6
Continuous
 62
     2
100
AcDbLine
 10
33.05702138941657
 20
-64.06012543181332
 30
0.0
 11
32.95408021294598
 21
-64.87679209847998
 31
0.0
  0
LINE
  5
106
330
1F
100
AcDbEntity
  8
1
  6
Continuous
 62
     2
100
AcDbLine
 10
33.36584491882834
 20
-63.47679209847998
 30
0.0
 11
33.05702138941657
 21
-64.06012543181332
 31
0.0
  0
LINE
  5
107
330
1F
100
AcDbEntity
  8
1
  6
Continuous
 62
     2
100
AcDbLine
 10
33.98349197765187
 20
-63.12679209847998
 30
0.0
 11
33.36584491882834
 21
-63.47679209847998
 31
0.0
  0
LINE
  5
108
330
1F
100
AcDbEntity
  8
1
  6
Continuous
 62
     2
100
AcDbLine
 10
34.49819786000481
 20
-63.24345876514665
 30
0.0
 11
33.98349197765187
 21
-63.12679209847998
 31
0.0
  0
LINE
  5
109
330
1F
100
AcDbEntity
  8
1
  6
Continuous
 62
     2
100
AcDbLine
 10
34.80702138941657
 20
-63.47679209847998
 30
0.0
 11
34.49819786000481
 21
-63.24345876514665
 31
0.0
  0
LINE
  5
10A
330
1F
100
AcDbEntity
  8
1
  6
Continuous
 62
     2
100
AcDbLine
 10
35.11584491882834
 20
-63.82679209847998
 30
0.0
 11
34.80702138941657
 21
-63.47679209847998
 31
0.0
  0
LINE
  5
10B
330
1F
100
AcDbEntity
  8
1
  6
Continuous
 62
     4
100
AcDbLine
 10
20.11595070130905
 20
-63.35552749421331
 30
0.0
 11
20.11595070130905
 21
-70.3555274942133
 31
0.0
  0
LINE
  5
10C
330
1F
100
AcDbEntity
  8
1
  6
Continuous
 62
     4
100
AcDbLine
 10
27.11595070130905
 20
-63.35552749421331
 30
0.0
 11
20.11595070130905
 21
-63.35552749421331
 31
0.0
  0
LINE
  5
10D
330
1F
100
AcDbEntity
  8
1
  6
Continuous
 62
     4
100
AcDbLine
 10
27.11595070130905
 20
-70.3555274942133
 30
0.0
 11
27.11595070130905
 21
-63.35552749421331
 31
0.0
  0
LINE
  5
10E
330
1F
100
AcDbEntity
  8
1
  6
Continuous
 62
     4
100
AcDbLine
 10
20.11595070130905
 20
-70.3555274942133
 30
0.0
 11
27.11595070130905
 21
-70.3555274942133
 31
0.0
  0
LINE
  5
10F
330
1F
100
AcDbEntity
  8
1
  6
Continuous
 62
     4
100
AcDbLine
 10
22.79242128954434
 20
-67.67219416087997
 30
0.0
 11
24.43948011307376
 21
-67.67219416087997
 31
0.0
  0
LINE
  5
110
330
1F
100
AcDbEntity
  8
1
  6
Continuous
 62
     4
100
AcDbLine
 10
23.61595070130905
 20
-65.1055274942133
 30
0.0
 11
24.74830364248552
 21
-68.6055274942133
 31
0.0
  0
LINE
  5
111
330
1F
100
AcDbEntity
  8
1
  6
Continuous
 62
     4
100
AcDbLine
 10
22.48359776013258
 20
-68.6055274942133
 30
0.0
 11
23.61595070130905
 21
-65.1055274942133
 31
0.0
  0
LINE
  5
112
330
1F
100
AcDbEntity
  8
1
  6
Continuous
 62
     4
100
AcDbLine
 10
25.50901149777456
 20
10.1209904497221
 30
0.0
 11
25.50901149777456
 21
3.1209904497221
 31
0.0
  0
LINE
  5
113
330
1F
100
AcDbEntity
  8
1
  6
Continuous
 62
     4
100
AcDbLine
 10
32.50901149777456
 20
3.1209904497221
 30
0.0
 11
32.50901149777456
 21
10.1209904497221
 31
0.0
  0
LINE
  5
114
330
1F
100
AcDbEntity
  8
1
  6
Continuous
 62
     4
100
AcDbLine
 10
4.50901149777456
 20
10.1209904497221
 30
0.0
 11
4.50901149777456
 21
3.1209904497221
 31
0.0
  0
LINE
  5
115
330
1F
100
AcDbEntity
  8
1
  6
Continuous
 62
     4
100
AcDbLine
 10
32.50901149777456
 20
10.1209904497221
 30
0.0
 11
4.50901149777456
 21
10.1209904497221
 31
0.0
  0
LINE
  5
116
330
1F
100
AcDbEntity
  8
1
  6
Continuous
 62
     4
100
AcDbLine
 10
11.50901149777456
 20
3.1209904497221
 30
0.0
 11
11.50901149777456
 21
10.1209904497221
 31
0.0
  0
LINE
  5
117
330
1F
100
AcDbEntity
  8
1
  6
Continuous
 62
     4
100
AcDbLine
 10
4.50901149777456
 20
3.1209904497221
 30
0.0
 11
32.50901149777456
 21
3.1209904497221
 31
0.0
  0
LINE
  5
118
330
1F
100
AcDbEntity
  8
1
  6
Continuous
 62
     4
100
AcDbLine
 10
5.55901149777456
 20
7.67099044972209
 30
0.0
 11
5.38401149777456
 21
6.9709904497221
 31
0.0
  0
LINE
  5
119
330
1F
100
AcDbEntity
  8
1
  6
Continuous
 62
     4
100
AcDbLine
 10
5.90901149777456
 20
8.1959904497221
 30
0.0
 11
5.55901149777456
 21
7.67099044972209
 31
0.0
  0
LINE
  5
11A
330
1F
100
AcDbEntity
  8
1
  6
Continuous
 62
     4
100
AcDbLine
 10
6.43401149777456
 20
8.72099044972209
 30
0.0
 11
5.90901149777456
 21
8.1959904497221
 31
0.0
  0
LINE
  5
11B
330
1F
100
AcDbEntity
  8
1
  6
Continuous
 62
     4
100
AcDbLine
 10
6.95901149777456
 20
9.0709904497221
 30
0.0
 11
6.43401149777456
 21
8.72099044972209
 31
0.0
  0
LINE
  5
11C
330
1F
100
AcDbEntity
  8
1
  6
Continuous
 62
     4
100
AcDbLine
 10
7.65901149777456
 20
9.2459904497221
 30
0.0
 11
6.95901149777456
 21
9.0709904497221
 31
0.0
  0
LINE
  5
11D
330
1F
100
AcDbEntity
  8
1
  6
Continuous
 62
     4
100
AcDbLine
 10
8.35901149777456
 20
9.2459904497221
 30
0.0
 11
7.65901149777456
 21
9.2459904497221
 31
0.0
  0
LINE
  5
11E
330
1F
100
AcDbEntity
  8
1
  6
Continuous
 62
     4
100
AcDbLine
 10
9.05901149777456
 20
9.0709904497221
 30
0.0
 11
8.35901149777456
 21
9.2459904497221
 31
0.0
  0
LINE
  5
11F
330
1F
100
AcDbEntity
  8
1
  6
Continuous
 62
     4
100
AcDbLine
 10
9.58401149777456
 20
8.72099044972209
 30
0.0
 11
9.05901149777456
 21
9.0709904497221
 31
0.0
  0
LINE
  5
120
330
1F
100
AcDbEntity
  8
1
  6
Continuous
 62
     4
100
AcDbLine
 10
10.10901149777456
 20
8.1959904497221
 30
0.0
 11
9.58401149777456
 21
8.72099044972209
 31
0.0
  0
LINE
  5
121
330
1F
100
AcDbEntity
  8
1
  6
Continuous
 62
     4
100
AcDbLine
 10
10.45901149777456
 20
7.67099044972209
 30
0.0
 11
10.10901149777456
 21
8.1959904497221
 31
0.0
  0
LINE
  5
122
330
1F
100
AcDbEntity
  8
1
  6
Continuous
 62
     4
100
AcDbLine
 10
10.63401149777456
 20
6.9709904497221
 30
0.0
 11
10.45901149777456
 21
7.67099044972209
 31
0.0
  0
LINE
  5
123
330
1F
100
AcDbEntity
  8
1
  6
Continuous
 62
     4
100
AcDbLine
 10
10.63401149777456
 20
6.2709904497221
 30
0.0
 11
10.63401149777456
 21
6.9709904497221
 31
0.0
  0
LINE
  5
124
330
1F
100
AcDbEntity
  8
1
  6
Continuous
 62
     4
100
AcDbLine
 10
10.45901149777456
 20
5.57099044972209
 30
0.0
 11
10.63401149777456
 21
6.2709904497221
 31
0.0
  0
LINE
  5
125
330
1F
100
AcDbEntity
  8
1
  6
Continuous
 62
     4
100
AcDbLine
 10
10.10901149777456
 20
5.0459904497221
 30
0.0
 11
10.45901149777456
 21
5.57099044972209
 31
0.0
  0
LINE
  5
126
330
1F
100
AcDbEntity
  8
1
  6
Continuous
 62
     4
100
AcDbLine
 10
9.58401149777456
 20
4.5209904497221
 30
0.0
 11
10.10901149777456
 21
5.0459904497221
 31
0.0
  0
LINE
  5
127
330
1F
100
AcDbEntity
  8
1
  6
Continuous
 62
     4
100
AcDbLine
 10
9.05901149777456
 20
4.17099044972209
 30
0.0
 11
9.58401149777456
 21
4.5209904497221
 31
0.0
  0
LINE
  5
128
330
1F
100
AcDbEntity
  8
1
  6
Continuous
 62
     4
100
AcDbLine
 10
8.35901149777456
 20
3.9959904497221
 30
0.0
 11
9.05901149777456
 21
4.17099044972209
 31
0.0
  0
LINE
  5
129
330
1F
100
AcDbEntity
  8
1
  6
Continuous
 62
     4
100
AcDbLine
 10
7.65901149777456
 20
3.9959904497221
 30
0.0
 11
8.35901149777456
 21
3.9959904497221
 31
0.0
  0
LINE
  5
12A
330
1F
100
AcDbEntity
  8
1
  6
Continuous
 62
     4
100
AcDbLine
 10
6.95901149777456
 20
4.17099044972209
 30
0.0
 11
7.65901149777456
 21
3.9959904497221
 31
0.0
  0
LINE
  5
12B
330
1F
100
AcDbEntity
  8
1
  6
Continuous
 62
     4
100
AcDbLine
 10
6.43401149777456
 20
4.5209904497221
 30
0.0
 11
6.95901149777456
 21
4.17099044972209
 31
0.0
  0
LINE
  5
12C
330
1F
100
AcDbEntity
  8
1
  6
Continuous
 62
     4
100
AcDbLine
 10
5.90901149777456
 20
5.0459904497221
 30
0.0
 11
6.43401149777456
 21
4.5209904497221
 31
0.0
  0
LINE
  5
12D
330
1F
100
AcDbEntity
  8
1
  6
Continuous
 62
     4
100
AcDbLine
 10
5.55901149777456
 20
5.57099044972209
 30
0.0
 11
5.90901149777456
 21
5.0459904497221
 31
0.0
  0
LINE
  5
12E
330
1F
100
AcDbEntity
  8
1
  6
Continuous
 62
     4
100
AcDbLine
 10
5.38401149777456
 20
6.2709904497221
 30
0.0
 11
5.55901149777456
 21
5.57099044972209
 31
0.0
  0
LINE
  5
12F
330
1F
100
AcDbEntity
  8
1
  6
Continuous
 62
     4
100
AcDbLine
 10
5.38401149777456
 20
6.9709904497221
 30
0.0
 11
5.38401149777456
 21
6.2709904497221
 31
0.0
  0
LINE
  5
130
330
1F
100
AcDbEntity
  8
1
  6
Continuous
 62
     4
100
AcDbLine
 10
6.60901149777456
 20
7.67099044972209
 30
0.0
 11
6.25901149777456
 21
6.9709904497221
 31
0.0
  0
LINE
  5
131
330
1F
100
AcDbEntity
  8
1
  6
Continuous
 62
     4
100
AcDbLine
 10
6.95901149777456
 20
8.0209904497221
 30
0.0
 11
6.60901149777456
 21
7.67099044972209
 31
0.0
  0
LINE
  5
132
330
1F
100
AcDbEntity
  8
1
  6
Continuous
 62
     4
100
AcDbLine
 10
7.65901149777456
 20
8.3709904497221
 30
0.0
 11
6.95901149777456
 21
8.0209904497221
 31
0.0
  0
LINE
  5
133
330
1F
100
AcDbEntity
  8
1
  6
Continuous
 62
     4
100
AcDbLine
 10
8.35901149777456
 20
8.3709904497221
 30
0.0
 11
7.65901149777456
 21
8.3709904497221
 31
0.0
  0
LINE
  5
134
330
1F
100
AcDbEntity
  8
1
  6
Continuous
 62
     4
100
AcDbLine
 10
9.05901149777456
 20
8.0209904497221
 30
0.0
 11
8.35901149777456
 21
8.3709904497221
 31
0.0
  0
LINE
  5
135
330
1F
100
AcDbEntity
  8
1
  6
Continuous
 62
     4
100
AcDbLine
 10
9.40901149777456
 20
7.67099044972209
 30
0.0
 11
9.05901149777456
 21
8.0209904497221
 31
0.0
  0
LINE
  5
136
330
1F
100
AcDbEntity
  8
1
  6
Continuous
 62
     4
100
AcDbLine
 10
9.75901149777456
 20
6.9709904497221
 30
0.0
 11
9.40901149777456
 21
7.67099044972209
 31
0.0
  0
LINE
  5
137
330
1F
100
AcDbEntity
  8
1
  6
Continuous
 62
     4
100
AcDbLine
 10
9.75901149777456
 20
6.2709904497221
 30
0.0
 11
9.75901149777456
 21
6.9709904497221
 31
0.0
  0
LINE
  5
138
330
1F
100
AcDbEntity
  8
1
  6
Continuous
 62
     4
100
AcDbLine
 10
9.40901149777456
 20
5.57099044972209
 30
0.0
 11
9.75901149777456
 21
6.2709904497221
 31
0.0
  0
LINE
  5
139
330
1F
100
AcDbEntity
  8
1
  6
Continuous
 62
     4
100
AcDbLine
 10
9.05901149777456
 20
5.22099044972209
 30
0.0
 11
9.40901149777456
 21
5.57099044972209
 31
0.0
  0
LINE
  5
13A
330
1F
100
AcDbEntity
  8
1
  6
Continuous
 62
     4
100
AcDbLine
 10
8.35901149777456
 20
4.8709904497221
 30
0.0
 11
9.05901149777456
 21
5.22099044972209
 31
0.0
  0
LINE
  5
13B
330
1F
100
AcDbEntity
  8
1
  6
Continuous
 62
     4
100
AcDbLine
 10
7.65901149777456
 20
4.8709904497221
 30
0.0
 11
8.35901149777456
 21
4.8709904497221
 31
0.0
  0
LINE
  5
13C
330
1F
100
AcDbEntity
  8
1
  6
Continuous
 62
     4
100
AcDbLine
 10
6.95901149777456
 20
5.22099044972209
 30
0.0
 11
7.65901149777456
 21
4.8709904497221
 31
0.0
  0
LINE
  5
13D
330
1F
100
AcDbEntity
  8
1
  6
Continuous
 62
     4
100
AcDbLine
 10
6.60901149777456
 20
5.57099044972209
 30
0.0
 11
6.95901149777456
 21
5.22099044972209
 31
0.0
  0
LINE
  5
13E
330
1F
100
AcDbEntity
  8
1
  6
Continuous
 62
     4
100
AcDbLine
 10
6.25901149777456
 20
6.2709904497221
 30
0.0
 11
6.60901149777456
 21
5.57099044972209
 31
0.0
  0
LINE
  5
13F
330
1F
100
AcDbEntity
  8
1
  6
Continuous
 62
     4
100
AcDbLine
 10
6.25901149777456
 20
6.9709904497221
 30
0.0
 11
6.25901149777456
 21
6.2709904497221
 31
0.0
  0
LINE
  5
140
330
1F
100
AcDbEntity
  8
1
  6
Continuous
 62
     4
100
AcDbLine
 10
23.45018796836279
 20
5.10432378305543
 30
0.0
 11
23.21857032130397
 21
5.33765711638877
 31
0.0
  0
LINE
  5
141
330
1F
100
AcDbEntity
  8
1
  6
Continuous
 62
     4
100
AcDbLine
 10
23.75901149777456
 20
4.8709904497221
 30
0.0
 11
23.45018796836279
 21
5.10432378305543
 31
0.0
  0
LINE
  5
142
330
1F
100
AcDbEntity
  8
1
  6
Continuous
 62
     4
100
AcDbLine
 10
24.29945267424515
 20
4.8709904497221
 30
0.0
 11
23.75901149777456
 21
4.8709904497221
 31
0.0
  0
LINE
  5
143
330
1F
100
AcDbEntity
  8
1
  6
Continuous
 62
     4
100
AcDbLine
 10
24.53107032130397
 20
5.10432378305543
 30
0.0
 11
24.29945267424515
 21
4.8709904497221
 31
0.0
  0
LINE
  5
144
330
1F
100
AcDbEntity
  8
1
  6
Continuous
 62
     4
100
AcDbLine
 10
24.68548208600986
 20
5.33765711638877
 30
0.0
 11
24.53107032130397
 21
5.10432378305543
 31
0.0
  0
LINE
  5
145
330
1F
100
AcDbEntity
  8
1
  6
Continuous
 62
     4
100
AcDbLine
 10
24.76268796836279
 20
5.9209904497221
 30
0.0
 11
24.68548208600986
 21
5.33765711638877
 31
0.0
  0
LINE
  5
146
330
1F
100
AcDbEntity
  8
1
  6
Continuous
 62
     4
100
AcDbLine
 10
24.68548208600986
 20
6.50432378305544
 30
0.0
 11
24.76268796836279
 21
5.9209904497221
 31
0.0
  0
LINE
  5
147
330
1F
100
AcDbEntity
  8
1
  6
Continuous
 62
     4
100
AcDbLine
 10
24.53107032130397
 20
6.73765711638877
 30
0.0
 11
24.68548208600986
 21
6.50432378305544
 31
0.0
  0
LINE
  5
148
330
1F
100
AcDbEntity
  8
1
  6
Continuous
 62
     4
100
AcDbLine
 10
24.29945267424515
 20
6.9709904497221
 30
0.0
 11
24.53107032130397
 21
6.73765711638877
 31
0.0
  0
LINE
  5
149
330
1F
100
AcDbEntity
  8
1
  6
Continuous
 62
     4
100
AcDbLine
 10
23.99062914483339
 20
7.08765711638877
 30
0.0
 11
24.29945267424515
 21
6.9709904497221
 31
0.0
  0
LINE
  5
14A
330
1F
100
AcDbEntity
  8
1
  6
Continuous
 62
     4
100
AcDbLine
 10
23.68180561542162
 20
6.9709904497221
 30
0.0
 11
23.99062914483339
 21
7.08765711638877
 31
0.0
  0
LINE
  5
14B
330
1F
100
AcDbEntity
  8
1
  6
Continuous
 62
     4
100
AcDbLine
 10
23.29577620365691
 20
6.6209904497221
 30
0.0
 11
23.68180561542162
 21
6.9709904497221
 31
0.0
  0
LINE
  5
14C
330
1F
100
AcDbEntity
  8
1
  6
Continuous
 62
     4
100
AcDbLine
 10
23.37298208600986
 20
8.3709904497221
 30
0.0
 11
23.29577620365691
 21
6.6209904497221
 31
0.0
  0
LINE
  5
14D
330
1F
100
AcDbEntity
  8
1
  6
Continuous
 62
     4
100
AcDbLine
 10
24.68548208600986
 20
8.3709904497221
 30
0.0
 11
23.37298208600986
 21
8.3709904497221
 31
0.0
  0
LINE
  5
14E
330
1F
100
AcDbEntity
  8
1
  6
Continuous
 62
     4
100
AcDbLine
 10
21.67445267424515
 20
5.68765711638877
 30
0.0
 11
21.67445267424515
 21
4.8709904497221
 31
0.0
  0
LINE
  5
14F
330
1F
100
AcDbEntity
  8
1
  6
Continuous
 62
     4
100
AcDbLine
 10
21.82886443895103
 20
6.73765711638877
 30
0.0
 11
21.67445267424515
 21
5.68765711638877
 31
0.0
  0
LINE
  5
150
330
1F
100
AcDbEntity
  8
1
  6
Continuous
 62
     4
100
AcDbLine
 10
22.44651149777456
 20
8.3709904497221
 30
0.0
 11
21.82886443895103
 21
6.73765711638877
 31
0.0
  0
LINE
  5
151
330
1F
100
AcDbEntity
  8
1
  6
Continuous
 62
     4
100
AcDbLine
 10
20.90239385071574
 20
8.3709904497221
 30
0.0
 11
22.44651149777456
 21
8.3709904497221
 31
0.0
  0
LINE
  5
152
330
1F
100
AcDbEntity
  8
1
  6
Continuous
 62
     4
100
AcDbLine
 10
19.74430561542162
 20
8.13765711638877
 30
0.0
 11
19.28107032130397
 21
8.3709904497221
 31
0.0
  0
LINE
  5
153
330
1F
100
AcDbEntity
  8
1
  6
Continuous
 62
     4
100
AcDbLine
 10
20.05312914483339
 20
7.55432378305543
 30
0.0
 11
19.74430561542162
 21
8.13765711638877
 31
0.0
  0
LINE
  5
154
330
1F
100
AcDbEntity
  8
1
  6
Continuous
 62
     4
100
AcDbLine
 10
20.13033502718633
 20
6.6209904497221
 30
0.0
 11
20.05312914483339
 21
7.55432378305543
 31
0.0
  0
LINE
  5
155
330
1F
100
AcDbEntity
  8
1
  6
Continuous
 62
     4
100
AcDbLine
 10
20.05312914483339
 20
5.68765711638877
 30
0.0
 11
20.13033502718633
 21
6.6209904497221
 31
0.0
  0
LINE
  5
156
330
1F
100
AcDbEntity
  8
1
  6
Continuous
 62
     4
100
AcDbLine
 10
19.74430561542162
 20
5.10432378305543
 30
0.0
 11
20.05312914483339
 21
5.68765711638877
 31
0.0
  0
LINE
  5
157
330
1F
100
AcDbEntity
  8
1
  6
Continuous
 62
     4
100
AcDbLine
 10
19.28107032130397
 20
4.8709904497221
 30
0.0
 11
19.74430561542162
 21
5.10432378305543
 31
0.0
  0
LINE
  5
158
330
1F
100
AcDbEntity
  8
1
  6
Continuous
 62
     4
100
AcDbLine
 10
18.81783502718633
 20
5.10432378305543
 30
0.0
 11
19.28107032130397
 21
4.8709904497221
 31
0.0
  0
LINE
  5
159
330
1F
100
AcDbEntity
  8
1
  6
Continuous
 62
     4
100
AcDbLine
 10
18.5862173801275
 20
5.68765711638877
 30
0.0
 11
18.81783502718633
 21
5.10432378305543
 31
0.0
  0
LINE
  5
15A
330
1F
100
AcDbEntity
  8
1
  6
Continuous
 62
     4
100
AcDbLine
 10
18.43180561542162
 20
6.6209904497221
 30
0.0
 11
18.5862173801275
 21
5.68765711638877
 31
0.0
  0
LINE
  5
15B
330
1F
100
AcDbEntity
  8
1
  6
Continuous
 62
     4
100
AcDbLine
 10
18.5862173801275
 20
7.55432378305543
 30
0.0
 11
18.43180561542162
 21
6.6209904497221
 31
0.0
  0
LINE
  5
15C
330
1F
100
AcDbEntity
  8
1
  6
Continuous
 62
     4
100
AcDbLine
 10
18.81783502718633
 20
8.13765711638877
 30
0.0
 11
18.5862173801275
 21
7.55432378305543
 31
0.0
  0
LINE
  5
15D
330
1F
100
AcDbEntity
  8
1
  6
Continuous
 62
     4
100
AcDbLine
 10
19.28107032130397
 20
8.3709904497221
 30
0.0
 11
18.81783502718633
 21
8.13765711638877
 31
0.0
  0
LINE
  5
15E
330
1F
100
AcDbEntity
  8
1
  6
Continuous
 62
     4
100
AcDbLine
 10
17.42812914483339
 20
5.2209904497221
 30
0.0
 11
17.50533502718633
 21
5.33765711638877
 31
0.0
  0
LINE
  5
15F
330
1F
100
AcDbEntity
  8
1
  6
Continuous
 62
     4
100
AcDbLine
 10
17.50533502718633
 20
5.10432378305543
 30
0.0
 11
17.42812914483339
 21
5.2209904497221
 31
0.0
  0
LINE
  5
160
330
1F
100
AcDbEntity
  8
1
  6
Continuous
 62
     4
100
AcDbLine
 10
17.58254090953927
 20
5.2209904497221
 30
0.0
 11
17.50533502718633
 21
5.10432378305543
 31
0.0
  0
LINE
  5
161
330
1F
100
AcDbEntity
  8
1
  6
Continuous
 62
     4
100
AcDbLine
 10
17.50533502718633
 20
5.33765711638877
 30
0.0
 11
17.58254090953927
 21
5.2209904497221
 31
0.0
  0
LINE
  5
162
330
1F
100
AcDbEntity
  8
1
  6
Continuous
 62
     4
100
AcDbLine
 10
17.42812914483339
 20
5.33765711638877
 30
0.0
 11
17.58254090953927
 21
5.33765711638877
 31
0.0
  0
LINE
  5
163
330
1F
100
AcDbEntity
  8
1
  6
Continuous
 62
     4
100
AcDbLine
 10
17.42812914483339
 20
5.10432378305543
 30
0.0
 11
17.42812914483339
 21
5.33765711638877
 31
0.0
  0
LINE
  5
164
330
1F
100
AcDbEntity
  8
1
  6
Continuous
 62
     4
100
AcDbLine
 10
17.58254090953927
 20
5.10432378305543
 30
0.0
 11
17.42812914483339
 21
5.10432378305543
 31
0.0
  0
LINE
  5
165
330
1F
100
AcDbEntity
  8
1
  6
Continuous
 62
     4
100
AcDbLine
 10
17.58254090953927
 20
5.33765711638877
 30
0.0
 11
17.58254090953927
 21
5.10432378305543
 31
0.0
  0
LINE
  5
166
330
1F
100
AcDbEntity
  8
1
  6
Continuous
 62
     4
100
AcDbLine
 10
17.35092326248044
 20
5.2209904497221
 30
0.0
 11
17.50533502718633
 21
5.45432378305543
 31
0.0
  0
LINE
  5
167
330
1F
100
AcDbEntity
  8
1
  6
Continuous
 62
     4
100
AcDbLine
 10
17.50533502718633
 20
4.98765711638877
 30
0.0
 11
17.35092326248044
 21
5.2209904497221
 31
0.0
  0
LINE
  5
168
330
1F
100
AcDbEntity
  8
1
  6
Continuous
 62
     4
100
AcDbLine
 10
17.65974679189221
 20
5.2209904497221
 30
0.0
 11
17.50533502718633
 21
4.98765711638877
 31
0.0
  0
LINE
  5
169
330
1F
100
AcDbEntity
  8
1
  6
Continuous
 62
     4
100
AcDbLine
 10
17.50533502718633
 20
5.45432378305543
 30
0.0
 11
17.65974679189221
 21
5.2209904497221
 31
0.0
  0
LINE
  5
16A
330
1F
100
AcDbEntity
  8
1
  6
Continuous
 62
     4
100
AcDbLine
 10
16.19283502718633
 20
8.13765711638877
 30
0.0
 11
15.72959973306868
 21
8.3709904497221
 31
0.0
  0
LINE
  5
16B
330
1F
100
AcDbEntity
  8
1
  6
Continuous
 62
     4
100
AcDbLine
 10
16.50165855659809
 20
7.55432378305543
 30
0.0
 11
16.19283502718633
 21
8.13765711638877
 31
0.0
  0
LINE
  5
16C
330
1F
100
AcDbEntity
  8
1
  6
Continuous
 62
     4
100
AcDbLine
 10
16.57886443895103
 20
6.6209904497221
 30
0.0
 11
16.50165855659809
 21
7.55432378305543
 31
0.0
  0
LINE
  5
16D
330
1F
100
AcDbEntity
  8
1
  6
Continuous
 62
     4
100
AcDbLine
 10
16.50165855659809
 20
5.68765711638877
 30
0.0
 11
16.57886443895103
 21
6.6209904497221
 31
0.0
  0
LINE
  5
16E
330
1F
100
AcDbEntity
  8
1
  6
Continuous
 62
     4
100
AcDbLine
 10
16.19283502718633
 20
5.10432378305543
 30
0.0
 11
16.50165855659809
 21
5.68765711638877
 31
0.0
  0
LINE
  5
16F
330
1F
100
AcDbEntity
  8
1
  6
Continuous
 62
     4
100
AcDbLine
 10
15.72959973306868
 20
4.8709904497221
 30
0.0
 11
16.19283502718633
 21
5.10432378305543
 31
0.0
  0
LINE
  5
170
330
1F
100
AcDbEntity
  8
1
  6
Continuous
 62
     4
100
AcDbLine
 10
15.26636443895103
 20
5.10432378305543
 30
0.0
 11
15.72959973306868
 21
4.8709904497221
 31
0.0
  0
LINE
  5
171
330
1F
100
AcDbEntity
  8
1
  6
Continuous
 62
     4
100
AcDbLine
 10
15.03474679189221
 20
5.68765711638877
 30
0.0
 11
15.26636443895103
 21
5.10432378305543
 31
0.0
  0
LINE
  5
172
330
1F
100
AcDbEntity
  8
1
  6
Continuous
 62
     4
100
AcDbLine
 10
14.88033502718633
 20
6.6209904497221
 30
0.0
 11
15.03474679189221
 21
5.68765711638877
 31
0.0
  0
LINE
  5
173
330
1F
100
AcDbEntity
  8
1
  6
Continuous
 62
     4
100
AcDbLine
 10
15.03474679189221
 20
7.55432378305543
 30
0.0
 11
14.88033502718633
 21
6.6209904497221
 31
0.0
  0
LINE
  5
174
330
1F
100
AcDbEntity
  8
1
  6
Continuous
 62
     4
100
AcDbLine
 10
15.26636443895103
 20
8.13765711638877
 30
0.0
 11
15.03474679189221
 21
7.55432378305543
 31
0.0
  0
LINE
  5
175
330
1F
100
AcDbEntity
  8
1
  6
Continuous
 62
     4
100
AcDbLine
 10
15.72959973306868
 20
8.3709904497221
 30
0.0
 11
15.26636443895103
 21
8.13765711638877
 31
0.0
  0
LINE
  5
176
330
1F
100
AcDbEntity
  8
1
  6
Continuous
 62
     4
100
AcDbLine
 10
13.78658502718633
 20
7.2772404497221
 30
0.0
 11
13.56783502718633
 21
7.3866154497221
 31
0.0
  0
LINE
  5
177
330
1F
100
AcDbEntity
  8
1
  6
Continuous
 62
     4
100
AcDbLine
 10
13.93241836051966
 20
6.8397404497221
 30
0.0
 11
13.78658502718633
 21
7.2772404497221
 31
0.0
  0
LINE
  5
178
330
1F
100
AcDbEntity
  8
1
  6
Continuous
 62
     4
100
AcDbLine
 10
13.93241836051966
 20
6.4022404497221
 30
0.0
 11
13.93241836051966
 21
6.8397404497221
 31
0.0
  0
LINE
  5
179
330
1F
100
AcDbEntity
  8
1
  6
Continuous
 62
     4
100
AcDbLine
 10
13.71366836051966
 20
5.8553654497221
 30
0.0
 11
13.93241836051966
 21
6.4022404497221
 31
0.0
  0
LINE
  5
17A
330
1F
100
AcDbEntity
  8
1
  6
Continuous
 62
     4
100
AcDbLine
 10
13.42200169385299
 20
5.6366154497221
 30
0.0
 11
13.71366836051966
 21
5.8553654497221
 31
0.0
  0
LINE
  5
17B
330
1F
100
AcDbEntity
  8
1
  6
Continuous
 62
     4
100
AcDbLine
 10
13.13033502718633
 20
5.6366154497221
 30
0.0
 11
13.42200169385299
 21
5.6366154497221
 31
0.0
  0
LINE
  5
17C
330
1F
100
AcDbEntity
  8
1
  6
Continuous
 62
     4
100
AcDbLine
 10
12.91158502718633
 20
5.7459904497221
 30
0.0
 11
13.13033502718633
 21
5.6366154497221
 31
0.0
  0
LINE
  5
17D
330
1F
100
AcDbEntity
  8
1
  6
Continuous
 62
     4
100
AcDbLine
 10
12.76575169385299
 20
6.1834904497221
 30
0.0
 11
12.91158502718633
 21
5.7459904497221
 31
0.0
  0
LINE
  5
17E
330
1F
100
AcDbEntity
  8
1
  6
Continuous
 62
     4
100
AcDbLine
 10
12.76575169385299
 20
6.6209904497221
 30
0.0
 11
12.76575169385299
 21
6.1834904497221
 31
0.0
  0
LINE
  5
17F
330
1F
100
AcDbEntity
  8
1
  6
Continuous
 62
     4
100
AcDbLine
 10
12.98450169385299
 20
7.1678654497221
 30
0.0
 11
12.76575169385299
 21
6.6209904497221
 31
0.0
  0
LINE
  5
180
330
1F
100
AcDbEntity
  8
1
  6
Continuous
 62
     4
100
AcDbLine
 10
13.27616836051966
 20
7.3866154497221
 30
0.0
 11
12.98450169385299
 21
7.1678654497221
 31
0.0
  0
LINE
  5
181
330
1F
100
AcDbEntity
  8
1
  6
Continuous
 62
     4
100
AcDbLine
 10
13.56783502718633
 20
7.3866154497221
 30
0.0
 11
13.27616836051966
 21
7.3866154497221
 31
0.0
  0
LINE
  5
182
330
1F
100
AcDbEntity
  8
1
  6
Continuous
 62
     4
100
AcDbLine
 10
12.98450169385299
 20
4.8709904497221
 30
0.0
 11
13.71366836051966
 21
8.2616154497221
 31
0.0
  0
LINE
  5
183
330
1F
100
AcDbEntity
  8
1
  6
Continuous
 62
     4
100
AcDbLine
 10
28.18548208600983
 20
5.80432378305543
 30
0.0
 11
29.83254090953925
 21
5.80432378305543
 31
0.0
  0
LINE
  5
184
330
1F
100
AcDbEntity
  8
1
  6
Continuous
 62
     4
100
AcDbLine
 10
29.00901149777454
 20
8.3709904497221
 30
0.0
 11
30.14136443895101
 21
4.8709904497221
 31
0.0
  0
LINE
  5
185
330
1F
100
AcDbEntity
  8
1
  6
Continuous
 62
     4
100
AcDbLine
 10
27.87665855659807
 20
4.8709904497221
 30
0.0
 11
29.00901149777454
 21
8.3709904497221
 31
0.0
  0
LINE
  5
186
330
1F
100
AcDbEntity
  8
1
  6
Continuous
 62
     2
100
AcDbLine
 10
91.8545681984648
 20
44.16030134374829
 30
0.0
 11
91.64868584552363
 21
43.46030134374828
 31
0.0
  0
LINE
  5
187
330
1F
100
AcDbEntity
  8
1
  6
Continuous
 62
     2
100
AcDbLine
 10
92.16339172787657
 20
44.51030134374829
 30
0.0
 11
91.8545681984648
 21
44.16030134374829
 31
0.0
  0
LINE
  5
188
330
1F
100
AcDbEntity
  8
1
  6
Continuous
 62
     2
100
AcDbLine
 10
92.57515643375892
 20
44.62696801041496
 30
0.0
 11
92.16339172787657
 21
44.51030134374829
 31
0.0
  0
LINE
  5
189
330
1F
100
AcDbEntity
  8
1
  6
Continuous
 62
     2
100
AcDbLine
 10
92.98692113964128
 20
44.51030134374829
 30
0.0
 11
92.57515643375892
 21
44.62696801041496
 31
0.0
  0
LINE
  5
18A
330
1F
100
AcDbEntity
  8
1
  6
Continuous
 62
     2
100
AcDbLine
 10
93.39868584552363
 20
44.16030134374829
 30
0.0
 11
92.98692113964128
 21
44.51030134374829
 31
0.0
  0
LINE
  5
18B
330
1F
100
AcDbEntity
  8
1
  6
Continuous
 62
     2
100
AcDbLine
 10
93.50162702199422
 20
43.92696801041495
 30
0.0
 11
93.39868584552363
 21
44.16030134374829
 31
0.0
  0
LINE
  5
18C
330
1F
100
AcDbEntity
  8
1
  6
Continuous
 62
     2
100
AcDbLine
 10
93.6045681984648
 20
43.46030134374828
 30
0.0
 11
93.50162702199422
 21
43.92696801041495
 31
0.0
  0
LINE
  5
18D
330
1F
100
AcDbEntity
  8
1
  6
Continuous
 62
     2
100
AcDbLine
 10
93.39868584552363
 20
42.87696801041496
 30
0.0
 11
93.6045681984648
 21
43.46030134374828
 31
0.0
  0
LINE
  5
18E
330
1F
100
AcDbEntity
  8
1
  6
Continuous
 62
     2
100
AcDbLine
 10
93.08986231611186
 20
42.52696801041495
 30
0.0
 11
93.39868584552363
 21
42.87696801041496
 31
0.0
  0
LINE
  5
18F
330
1F
100
AcDbEntity
  8
1
  6
Continuous
 62
     2
100
AcDbLine
 10
92.57515643375892
 20
42.41030134374829
 30
0.0
 11
93.08986231611186
 21
42.52696801041495
 31
0.0
  0
LINE
  5
190
330
1F
100
AcDbEntity
  8
1
  6
Continuous
 62
     2
100
AcDbLine
 10
91.9575093749354
 20
42.64363467708162
 30
0.0
 11
92.57515643375892
 21
42.41030134374829
 31
0.0
  0
LINE
  5
191
330
1F
100
AcDbEntity
  8
1
  6
Continuous
 62
     2
100
AcDbLine
 10
91.75162702199422
 20
42.99363467708162
 30
0.0
 11
91.9575093749354
 21
42.64363467708162
 31
0.0
  0
LINE
  5
192
330
1F
100
AcDbEntity
  8
1
  6
Continuous
 62
     2
100
AcDbLine
 10
91.64868584552363
 20
43.46030134374828
 30
0.0
 11
91.75162702199422
 21
42.99363467708162
 31
0.0
  0
LINE
  5
193
330
1F
100
AcDbEntity
  8
1
  6
Continuous
 62
     2
100
AcDbLine
 10
91.64868584552363
 20
44.86030134374829
 30
0.0
 11
91.64868584552363
 21
43.46030134374828
 31
0.0
  0
LINE
  5
194
330
1F
100
AcDbEntity
  8
1
  6
Continuous
 62
     2
100
AcDbLine
 10
91.75162702199422
 20
45.32696801041495
 30
0.0
 11
91.64868584552363
 21
44.86030134374829
 31
0.0
  0
LINE
  5
195
330
1F
100
AcDbEntity
  8
1
  6
Continuous
 62
     2
100
AcDbLine
 10
92.06045055140598
 20
45.67696801041495
 30
0.0
 11
91.75162702199422
 21
45.32696801041495
 31
0.0
  0
LINE
  5
196
330
1F
100
AcDbEntity
  8
1
  6
Continuous
 62
     2
100
AcDbLine
 10
92.26633290434717
 20
45.79363467708162
 30
0.0
 11
92.06045055140598
 21
45.67696801041495
 31
0.0
  0
LINE
  5
197
330
1F
100
AcDbEntity
  8
1
  6
Continuous
 62
     2
100
AcDbLine
 10
92.57515643375892
 20
45.91030134374829
 30
0.0
 11
92.26633290434717
 21
45.79363467708162
 31
0.0
  0
LINE
  5
198
330
1F
100
AcDbEntity
  8
1
  6
Continuous
 62
     2
100
AcDbLine
 10
92.98692113964128
 20
45.79363467708162
 30
0.0
 11
92.57515643375892
 21
45.91030134374829
 31
0.0
  0
LINE
  5
199
330
1F
100
AcDbEntity
  8
1
  6
Continuous
 62
     2
100
AcDbLine
 10
93.29574466905304
 20
45.67696801041495
 30
0.0
 11
92.98692113964128
 21
45.79363467708162
 31
0.0
  0
LINE
  5
19A
330
1F
100
AcDbEntity
  8
1
  6
Continuous
 62
     2
100
AcDbLine
 10
93.6045681984648
 20
45.32696801041495
 30
0.0
 11
93.29574466905304
 21
45.67696801041495
 31
0.0
  0
LINE
  5
19B
330
1F
100
AcDbEntity
  8
1
  6
Continuous
 62
     2
100
AcDbLine
 10
88.3545681984648
 20
42.41030134374829
 30
0.0
 11
90.61927408081775
 21
42.41030134374829
 31
0.0
  0
LINE
  5
19C
330
1F
100
AcDbEntity
  8
1
  6
Continuous
 62
     2
100
AcDbLine
 10
88.56045055140598
 20
42.99363467708162
 30
0.0
 11
88.3545681984648
 21
42.41030134374829
 31
0.0
  0
LINE
  5
19D
330
1F
100
AcDbEntity
  8
1
  6
Continuous
 62
     2
100
AcDbLine
 10
88.76633290434715
 20
43.34363467708162
 30
0.0
 11
88.56045055140598
 21
42.99363467708162
 31
0.0
  0
LINE
  5
19E
330
1F
100
AcDbEntity
  8
1
  6
Continuous
 62
     2
100
AcDbLine
 10
89.17809761022951
 20
43.69363467708162
 30
0.0
 11
88.76633290434715
 21
43.34363467708162
 31
0.0
  0
LINE
  5
19F
330
1F
100
AcDbEntity
  8
1
  6
Continuous
 62
     2
100
AcDbLine
 10
89.58986231611186
 20
43.92696801041495
 30
0.0
 11
89.17809761022951
 21
43.69363467708162
 31
0.0
  0
LINE
  5
1A0
330
1F
100
AcDbEntity
  8
1
  6
Continuous
 62
     2
100
AcDbLine
 10
90.1045681984648
 20
44.27696801041495
 30
0.0
 11
89.58986231611186
 21
43.92696801041495
 31
0.0
  0
LINE
  5
1A1
330
1F
100
AcDbEntity
  8
1
  6
Continuous
 62
     2
100
AcDbLine
 10
90.41339172787657
 20
44.74363467708162
 30
0.0
 11
90.1045681984648
 21
44.27696801041495
 31
0.0
  0
LINE
  5
1A2
330
1F
100
AcDbEntity
  8
1
  6
Continuous
 62
     2
100
AcDbLine
 10
90.51633290434715
 20
45.21030134374828
 30
0.0
 11
90.41339172787657
 21
44.74363467708162
 31
0.0
  0
LINE
  5
1A3
330
1F
100
AcDbEntity
  8
1
  6
Continuous
 62
     2
100
AcDbLine
 10
90.1045681984648
 20
45.67696801041495
 30
0.0
 11
90.51633290434715
 21
45.21030134374828
 31
0.0
  0
LINE
  5
1A4
330
1F
100
AcDbEntity
  8
1
  6
Continuous
 62
     2
100
AcDbLine
 10
89.48692113964127
 20
45.91030134374829
 30
0.0
 11
90.1045681984648
 21
45.67696801041495
 31
0.0
  0
LINE
  5
1A5
330
1F
100
AcDbEntity
  8
1
  6
Continuous
 62
     2
100
AcDbLine
 10
88.86927408081775
 20
45.67696801041495
 30
0.0
 11
89.48692113964127
 21
45.91030134374829
 31
0.0
  0
LINE
  5
1A6
330
1F
100
AcDbEntity
  8
1
  6
Continuous
 62
     2
100
AcDbLine
 10
88.4575093749354
 20
45.21030134374828
 30
0.0
 11
88.86927408081775
 21
45.67696801041495
 31
0.0
  0
LINE
  5
1A7
330
1F
100
AcDbEntity
  8
1
  6
Continuous
 62
     2
100
AcDbLine
 10
87.32515643375892
 20
44.04363467708162
 30
0.0
 11
86.39868584552363
 21
44.04363467708162
 31
0.0
  0
LINE
  5
1A8
330
1F
100
AcDbEntity
  8
1
  6
Continuous
 62
     2
100
AcDbLine
 10
87.32515643375892
 20
43.34363467708162
 30
0.0
 11
87.32515643375892
 21
44.04363467708162
 31
0.0
  0
LINE
  5
1A9
330
1F
100
AcDbEntity
  8
1
  6
Continuous
 62
     2
100
AcDbLine
 10
87.22221525728833
 20
42.99363467708162
 30
0.0
 11
87.32515643375892
 21
43.34363467708162
 31
0.0
  0
LINE
  5
1AA
330
1F
100
AcDbEntity
  8
1
  6
Continuous
 62
     2
100
AcDbLine
 10
87.01633290434715
 20
42.76030134374829
 30
0.0
 11
87.22221525728833
 21
42.99363467708162
 31
0.0
  0
LINE
  5
1AB
330
1F
100
AcDbEntity
  8
1
  6
Continuous
 62
     2
100
AcDbLine
 10
86.70750937493538
 20
42.52696801041495
 30
0.0
 11
87.01633290434715
 21
42.76030134374829
 31
0.0
  0
LINE
  5
1AC
330
1F
100
AcDbEntity
  8
1
  6
Continuous
 62
     2
100
AcDbLine
 10
86.19280349258244
 20
42.41030134374829
 30
0.0
 11
86.70750937493538
 21
42.52696801041495
 31
0.0
  0
LINE
  5
1AD
330
1F
100
AcDbEntity
  8
1
  6
Continuous
 62
     2
100
AcDbLine
 10
85.67809761022951
 20
42.52696801041495
 30
0.0
 11
86.19280349258244
 21
42.41030134374829
 31
0.0
  0
LINE
  5
1AE
330
1F
100
AcDbEntity
  8
1
  6
Continuous
 62
     2
100
AcDbLine
 10
85.36927408081775
 20
42.99363467708162
 30
0.0
 11
85.67809761022951
 21
42.52696801041495
 31
0.0
  0
LINE
  5
1AF
330
1F
100
AcDbEntity
  8
1
  6
Continuous
 62
     2
100
AcDbLine
 10
85.26633290434715
 20
43.22696801041496
 30
0.0
 11
85.36927408081775
 21
42.99363467708162
 31
0.0
  0
LINE
  5
1B0
330
1F
100
AcDbEntity
  8
1
  6
Continuous
 62
     2
100
AcDbLine
 10
85.06045055140598
 20
44.16030134374829
 30
0.0
 11
85.26633290434715
 21
43.22696801041496
 31
0.0
  0
LINE
  5
1B1
330
1F
100
AcDbEntity
  8
1
  6
Continuous
 62
     2
100
AcDbLine
 10
85.16339172787657
 20
44.62696801041496
 30
0.0
 11
85.06045055140598
 21
44.16030134374829
 31
0.0
  0
LINE
  5
1B2
330
1F
100
AcDbEntity
  8
1
  6
Continuous
 62
     2
100
AcDbLine
 10
85.36927408081775
 20
45.32696801041495
 30
0.0
 11
85.16339172787657
 21
44.62696801041496
 31
0.0
  0
LINE
  5
1B3
330
1F
100
AcDbEntity
  8
1
  6
Continuous
 62
     2
100
AcDbLine
 10
85.47221525728833
 20
45.56030134374829
 30
0.0
 11
85.36927408081775
 21
45.32696801041495
 31
0.0
  0
LINE
  5
1B4
330
1F
100
AcDbEntity
  8
1
  6
Continuous
 62
     2
100
AcDbLine
 10
85.7810387867001
 20
45.79363467708162
 30
0.0
 11
85.47221525728833
 21
45.56030134374829
 31
0.0
  0
LINE
  5
1B5
330
1F
100
AcDbEntity
  8
1
  6
Continuous
 62
     2
100
AcDbLine
 10
86.19280349258244
 20
45.91030134374829
 30
0.0
 11
85.7810387867001
 21
45.79363467708162
 31
0.0
  0
LINE
  5
1B6
330
1F
100
AcDbEntity
  8
1
  6
Continuous
 62
     2
100
AcDbLine
 10
86.70750937493538
 20
45.79363467708162
 30
0.0
 11
86.19280349258244
 21
45.91030134374829
 31
0.0
  0
LINE
  5
1B7
330
1F
100
AcDbEntity
  8
1
  6
Continuous
 62
     2
100
AcDbLine
 10
86.91339172787657
 20
45.67696801041495
 30
0.0
 11
86.70750937493538
 21
45.79363467708162
 31
0.0
  0
LINE
  5
1B8
330
1F
100
AcDbEntity
  8
1
  6
Continuous
 62
     2
100
AcDbLine
 10
87.11927408081775
 20
45.44363467708162
 30
0.0
 11
86.91339172787657
 21
45.67696801041495
 31
0.0
  0
LINE
  5
1B9
330
1F
100
AcDbEntity
  8
1
  6
Continuous
 62
     2
100
AcDbLine
 10
87.32515643375892
 20
45.09363467708162
 30
0.0
 11
87.11927408081775
 21
45.44363467708162
 31
0.0
  0
LINE
  5
1BA
330
1F
100
AcDbEntity
  8
1
  6
Continuous
 62
     2
100
AcDbLine
 10
83.31045055140599
 20
42.41030134374829
 30
0.0
 11
84.03103878670011
 21
45.91030134374829
 31
0.0
  0
LINE
  5
1BB
330
1F
100
AcDbEntity
  8
1
  6
Continuous
 62
     2
100
AcDbLine
 10
82.48692113964128
 20
45.79363467708162
 30
0.0
 11
83.31045055140599
 21
42.41030134374829
 31
0.0
  0
LINE
  5
1BC
330
1F
100
AcDbEntity
  8
1
  6
Continuous
 62
     2
100
AcDbLine
 10
81.76633290434717
 20
42.41030134374829
 30
0.0
 11
82.48692113964128
 21
45.79363467708162
 31
0.0
  0
LINE
  5
1BD
330
1F
100
AcDbEntity
  8
1
  6
Continuous
 62
     2
100
AcDbLine
 10
80.94280349258246
 20
45.91030134374829
 30
0.0
 11
81.76633290434717
 21
42.41030134374829
 31
0.0
  0
LINE
  5
1BE
330
1F
100
AcDbEntity
  8
1
  6
Continuous
 62
     2
100
AcDbLine
 10
77.9575093749354
 20
43.34363467708162
 30
0.0
 11
79.6045681984648
 21
43.34363467708162
 31
0.0
  0
LINE
  5
1BF
330
1F
100
AcDbEntity
  8
1
  6
Continuous
 62
     2
100
AcDbLine
 10
78.7810387867001
 20
45.91030134374829
 30
0.0
 11
79.91339172787657
 21
42.41030134374829
 31
0.0
  0
LINE
  5
1C0
330
1F
100
AcDbEntity
  8
1
  6
Continuous
 62
     2
100
AcDbLine
 10
77.64868584552363
 20
42.41030134374829
 30
0.0
 11
78.7810387867001
 21
45.91030134374829
 31
0.0
  0
LINE
  5
1C1
330
1F
100
AcDbEntity
  8
1
  6
Continuous
 62
     2
100
AcDbLine
 10
95.64510303114136
 20
40.35696357256887
 30
0.0
 11
95.02745597231782
 21
40.5902969059022
 31
0.0
  0
LINE
  5
1C2
330
1F
100
AcDbEntity
  8
1
  6
Continuous
 62
     2
100
AcDbLine
 10
96.05686773702371
 20
39.77363023923553
 30
0.0
 11
95.64510303114136
 21
40.35696357256887
 31
0.0
  0
LINE
  5
1C3
330
1F
100
AcDbEntity
  8
1
  6
Continuous
 62
     2
100
AcDbLine
 10
96.1598089134943
 20
38.8402969059022
 30
0.0
 11
96.05686773702371
 21
39.77363023923553
 31
0.0
  0
LINE
  5
1C4
330
1F
100
AcDbEntity
  8
1
  6
Continuous
 62
     2
100
AcDbLine
 10
96.05686773702371
 20
37.90696357256887
 30
0.0
 11
96.1598089134943
 21
38.8402969059022
 31
0.0
  0
LINE
  5
1C5
330
1F
100
AcDbEntity
  8
1
  6
Continuous
 62
     2
100
AcDbLine
 10
95.64510303114136
 20
37.32363023923553
 30
0.0
 11
96.05686773702371
 21
37.90696357256887
 31
0.0
  0
LINE
  5
1C6
330
1F
100
AcDbEntity
  8
1
  6
Continuous
 62
     2
100
AcDbLine
 10
95.02745597231782
 20
37.0902969059022
 30
0.0
 11
95.64510303114136
 21
37.32363023923553
 31
0.0
  0
LINE
  5
1C7
330
1F
100
AcDbEntity
  8
1
  6
Continuous
 62
     2
100
AcDbLine
 10
94.4098089134943
 20
37.32363023923553
 30
0.0
 11
95.02745597231782
 21
37.0902969059022
 31
0.0
  0
LINE
  5
1C8
330
1F
100
AcDbEntity
  8
1
  6
Continuous
 62
     2
100
AcDbLine
 10
94.10098538408253
 20
37.90696357256887
 30
0.0
 11
94.4098089134943
 21
37.32363023923553
 31
0.0
  0
LINE
  5
1C9
330
1F
100
AcDbEntity
  8
1
  6
Continuous
 62
     2
100
AcDbLine
 10
93.89510303114136
 20
38.8402969059022
 30
0.0
 11
94.10098538408253
 21
37.90696357256887
 31
0.0
  0
LINE
  5
1CA
330
1F
100
AcDbEntity
  8
1
  6
Continuous
 62
     2
100
AcDbLine
 10
94.10098538408253
 20
39.77363023923553
 30
0.0
 11
93.89510303114136
 21
38.8402969059022
 31
0.0
  0
LINE
  5
1CB
330
1F
100
AcDbEntity
  8
1
  6
Continuous
 62
     2
100
AcDbLine
 10
94.4098089134943
 20
40.35696357256887
 30
0.0
 11
94.10098538408253
 21
39.77363023923553
 31
0.0
  0
LINE
  5
1CC
330
1F
100
AcDbEntity
  8
1
  6
Continuous
 62
     2
100
AcDbLine
 10
95.02745597231782
 20
40.5902969059022
 30
0.0
 11
94.4098089134943
 21
40.35696357256887
 31
0.0
  0
LINE
  5
1CD
330
1F
100
AcDbEntity
  8
1
  6
Continuous
 62
     2
100
AcDbLine
 10
90.80686773702372
 20
37.4402969059022
 30
0.0
 11
90.60098538408255
 21
37.67363023923554
 31
0.0
  0
LINE
  5
1CE
330
1F
100
AcDbEntity
  8
1
  6
Continuous
 62
     2
100
AcDbLine
 10
91.21863244290608
 20
37.20696357256887
 30
0.0
 11
90.80686773702372
 21
37.4402969059022
 31
0.0
  0
LINE
  5
1CF
330
1F
100
AcDbEntity
  8
1
  6
Continuous
 62
     2
100
AcDbLine
 10
91.73333832525901
 20
37.0902969059022
 30
0.0
 11
91.21863244290608
 21
37.20696357256887
 31
0.0
  0
LINE
  5
1D0
330
1F
100
AcDbEntity
  8
1
  6
Continuous
 62
     2
100
AcDbLine
 10
92.35098538408255
 20
37.20696357256887
 30
0.0
 11
91.73333832525901
 21
37.0902969059022
 31
0.0
  0
LINE
  5
1D1
330
1F
100
AcDbEntity
  8
1
  6
Continuous
 62
     2
100
AcDbLine
 10
92.65980891349432
 20
37.4402969059022
 30
0.0
 11
92.35098538408255
 21
37.20696357256887
 31
0.0
  0
LINE
  5
1D2
330
1F
100
AcDbEntity
  8
1
  6
Continuous
 62
     2
100
AcDbLine
 10
92.86569126643549
 20
38.02363023923553
 30
0.0
 11
92.65980891349432
 21
37.4402969059022
 31
0.0
  0
LINE
  5
1D3
330
1F
100
AcDbEntity
  8
1
  6
Continuous
 62
     2
100
AcDbLine
 10
92.65980891349432
 20
38.60696357256887
 30
0.0
 11
92.86569126643549
 21
38.02363023923553
 31
0.0
  0
LINE
  5
1D4
330
1F
100
AcDbEntity
  8
1
  6
Continuous
 62
     2
100
AcDbLine
 10
92.14510303114137
 20
38.95696357256887
 30
0.0
 11
92.65980891349432
 21
38.60696357256887
 31
0.0
  0
LINE
  5
1D5
330
1F
100
AcDbEntity
  8
1
  6
Continuous
 62
     2
100
AcDbLine
 10
91.63039714878843
 20
38.95696357256887
 30
0.0
 11
92.14510303114137
 21
38.95696357256887
 31
0.0
  0
LINE
  5
1D6
330
1F
100
AcDbEntity
  8
1
  6
Continuous
 62
     2
100
AcDbLine
 10
92.14510303114137
 20
38.95696357256887
 30
0.0
 11
91.63039714878843
 21
38.95696357256887
 31
0.0
  0
LINE
  5
1D7
330
1F
100
AcDbEntity
  8
1
  6
Continuous
 62
     2
100
AcDbLine
 10
92.55686773702372
 20
39.1902969059022
 30
0.0
 11
92.14510303114137
 21
38.95696357256887
 31
0.0
  0
LINE
  5
1D8
330
1F
100
AcDbEntity
  8
1
  6
Continuous
 62
     2
100
AcDbLine
 10
92.7627500899649
 20
39.65696357256887
 30
0.0
 11
92.55686773702372
 21
39.1902969059022
 31
0.0
  0
LINE
  5
1D9
330
1F
100
AcDbEntity
  8
1
  6
Continuous
 62
     2
100
AcDbLine
 10
92.65980891349432
 20
40.00696357256886
 30
0.0
 11
92.7627500899649
 21
39.65696357256887
 31
0.0
  0
LINE
  5
1DA
330
1F
100
AcDbEntity
  8
1
  6
Continuous
 62
     2
100
AcDbLine
 10
92.35098538408255
 20
40.47363023923553
 30
0.0
 11
92.65980891349432
 21
40.00696357256886
 31
0.0
  0
LINE
  5
1DB
330
1F
100
AcDbEntity
  8
1
  6
Continuous
 62
     2
100
AcDbLine
 10
91.73333832525901
 20
40.5902969059022
 30
0.0
 11
92.35098538408255
 21
40.47363023923553
 31
0.0
  0
LINE
  5
1DC
330
1F
100
AcDbEntity
  8
1
  6
Continuous
 62
     2
100
AcDbLine
 10
91.11569126643549
 20
40.47363023923553
 30
0.0
 11
91.73333832525901
 21
40.5902969059022
 31
0.0
  0
LINE
  5
1DD
330
1F
100
AcDbEntity
  8
1
  6
Continuous
 62
     2
100
AcDbLine
 10
90.70392656055314
 20
40.00696357256886
 30
0.0
 11
91.11569126643549
 21
40.47363023923553
 31
0.0
  0
LINE
  5
1DE
330
1F
100
AcDbEntity
  8
1
  6
Continuous
 62
     2
100
AcDbLine
 10
88.95392656055314
 20
37.0902969059022
 30
0.0
 11
88.95392656055314
 21
38.72363023923553
 31
0.0
  0
LINE
  5
1DF
330
1F
100
AcDbEntity
  8
1
  6
Continuous
 62
     2
100
AcDbLine
 10
87.10098538408255
 20
37.90696357256887
 30
0.0
 11
89.57157361937666
 21
37.90696357256887
 31
0.0
  0
LINE
  5
1E0
330
1F
100
AcDbEntity
  8
1
  6
Continuous
 62
     2
100
AcDbLine
 10
88.95392656055314
 20
40.5902969059022
 30
0.0
 11
87.10098538408255
 21
37.90696357256887
 31
0.0
  0
LINE
  5
1E1
330
1F
100
AcDbEntity
  8
1
  6
Continuous
 62
     2
100
AcDbLine
 10
85.55686773702372
 20
40.5902969059022
 30
0.0
 11
85.55686773702372
 21
37.0902969059022
 31
0.0
  0
LINE
  5
1E2
330
1F
100
AcDbEntity
  8
1
  6
Continuous
 62
     2
100
AcDbLine
 10
85.04216185467078
 20
40.2402969059022
 30
0.0
 11
85.55686773702372
 21
40.5902969059022
 31
0.0
  0
LINE
  5
1E3
330
1F
100
AcDbEntity
  8
1
  6
Continuous
 62
     2
100
AcDbLine
 10
81.43922067820019
 20
37.0902969059022
 30
0.0
 11
83.49804420761195
 21
37.0902969059022
 31
0.0
  0
LINE
  5
1E4
330
1F
100
AcDbEntity
  8
1
  6
Continuous
 62
     2
100
AcDbLine
 10
81.43922067820019
 20
40.5902969059022
 30
0.0
 11
81.43922067820019
 21
37.0902969059022
 31
0.0
  0
LINE
  5
1E5
330
1F
100
AcDbEntity
  8
1
  6
Continuous
 62
     2
100
AcDbLine
 10
80.4098089134943
 20
37.7902969059022
 30
0.0
 11
80.4098089134943
 21
40.5902969059022
 31
0.0
  0
LINE
  5
1E6
330
1F
100
AcDbEntity
  8
1
  6
Continuous
 62
     2
100
AcDbLine
 10
80.20392656055313
 20
37.4402969059022
 30
0.0
 11
80.4098089134943
 21
37.7902969059022
 31
0.0
  0
LINE
  5
1E7
330
1F
100
AcDbEntity
  8
1
  6
Continuous
 62
     2
100
AcDbLine
 10
79.89510303114136
 20
37.20696357256887
 30
0.0
 11
80.20392656055313
 21
37.4402969059022
 31
0.0
  0
LINE
  5
1E8
330
1F
100
AcDbEntity
  8
1
  6
Continuous
 62
     2
100
AcDbLine
 10
79.38039714878842
 20
37.0902969059022
 30
0.0
 11
79.89510303114136
 21
37.20696357256887
 31
0.0
  0
LINE
  5
1E9
330
1F
100
AcDbEntity
  8
1
  6
Continuous
 62
     2
100
AcDbLine
 10
78.96863244290607
 20
37.20696357256887
 30
0.0
 11
79.38039714878842
 21
37.0902969059022
 31
0.0
  0
LINE
  5
1EA
330
1F
100
AcDbEntity
  8
1
  6
Continuous
 62
     2
100
AcDbLine
 10
78.55686773702372
 20
37.4402969059022
 30
0.0
 11
78.96863244290607
 21
37.20696357256887
 31
0.0
  0
LINE
  5
1EB
330
1F
100
AcDbEntity
  8
1
  6
Continuous
 62
     2
100
AcDbLine
 10
78.45392656055313
 20
37.7902969059022
 30
0.0
 11
78.55686773702372
 21
37.4402969059022
 31
0.0
  0
LINE
  5
1EC
330
1F
100
AcDbEntity
  8
1
  6
Continuous
 62
     2
100
AcDbLine
 10
78.45392656055313
 20
40.5902969059022
 30
0.0
 11
78.45392656055313
 21
37.7902969059022
 31
0.0
  0
LINE
  5
1ED
330
1F
100
AcDbEntity
  8
1
  6
Continuous
 62
     4
100
AcDbLine
 10
63.80642396970784
 20
-113.2054711972681
 30
0.0
 11
63.80642396970784
 21
-120.2054711972681
 31
0.0
  0
LINE
  5
1EE
330
1F
100
AcDbEntity
  8
1
  6
Continuous
 62
     4
100
AcDbLine
 10
70.80642396970785
 20
-120.2054711972681
 30
0.0
 11
70.80642396970785
 21
-113.2054711972681
 31
0.0
  0
LINE
  5
1EF
330
1F
100
AcDbEntity
  8
1
  6
Continuous
 62
     4
100
AcDbLine
 10
42.80642396970784
 20
-113.2054711972681
 30
0.0
 11
42.80642396970784
 21
-120.2054711972681
 31
0.0
  0
LINE
  5
1F0
330
1F
100
AcDbEntity
  8
1
  6
Continuous
 62
     4
100
AcDbLine
 10
70.80642396970785
 20
-113.2054711972681
 30
0.0
 11
42.80642396970784
 21
-113.2054711972681
 31
0.0
  0
LINE
  5
1F1
330
1F
100
AcDbEntity
  8
1
  6
Continuous
 62
     4
100
AcDbLine
 10
49.80642396970784
 20
-120.2054711972681
 30
0.0
 11
49.80642396970784
 21
-113.2054711972681
 31
0.0
  0
LINE
  5
1F2
330
1F
100
AcDbEntity
  8
1
  6
Continuous
 62
     4
100
AcDbLine
 10
42.80642396970784
 20
-120.2054711972681
 30
0.0
 11
70.80642396970785
 21
-120.2054711972681
 31
0.0
  0
LINE
  5
1F3
330
1F
100
AcDbEntity
  8
1
  6
Continuous
 62
     4
100
AcDbLine
 10
46.30642396970784
 20
-119.3304711972681
 30
0.0
 11
46.30642396970784
 21
-114.0804711972681
 31
0.0
  0
LINE
  5
1F4
330
1F
100
AcDbEntity
  8
1
  6
Continuous
 62
     4
100
AcDbLine
 10
43.68142396970784
 20
-119.3304711972681
 30
0.0
 11
48.93142396970784
 21
-119.3304711972681
 31
0.0
  0
LINE
  5
1F5
330
1F
100
AcDbEntity
  8
1
  6
Continuous
 62
     4
100
AcDbLine
 10
60.67701220500198
 20
-118.2221378639348
 30
0.0
 11
60.42995338147257
 21
-117.9888045306014
 31
0.0
  0
LINE
  5
1F6
330
1F
100
AcDbEntity
  8
1
  6
Continuous
 62
     4
100
AcDbLine
 10
61.00642396970786
 20
-118.4554711972681
 30
0.0
 11
60.67701220500198
 21
-118.2221378639348
 31
0.0
  0
LINE
  5
1F7
330
1F
100
AcDbEntity
  8
1
  6
Continuous
 62
     4
100
AcDbLine
 10
61.58289455794316
 20
-118.4554711972681
 30
0.0
 11
61.00642396970786
 21
-118.4554711972681
 31
0.0
  0
LINE
  5
1F8
330
1F
100
AcDbEntity
  8
1
  6
Continuous
 62
     4
100
AcDbLine
 10
61.82995338147256
 20
-118.2221378639348
 30
0.0
 11
61.58289455794316
 21
-118.4554711972681
 31
0.0
  0
LINE
  5
1F9
330
1F
100
AcDbEntity
  8
1
  6
Continuous
 62
     4
100
AcDbLine
 10
61.9946592638255
 20
-117.9888045306014
 30
0.0
 11
61.82995338147256
 21
-118.2221378639348
 31
0.0
  0
LINE
  5
1FA
330
1F
100
AcDbEntity
  8
1
  6
Continuous
 62
     4
100
AcDbLine
 10
62.07701220500198
 20
-117.4054711972681
 30
0.0
 11
61.9946592638255
 21
-117.9888045306014
 31
0.0
  0
LINE
  5
1FB
330
1F
100
AcDbEntity
  8
1
  6
Continuous
 62
     4
100
AcDbLine
 10
61.9946592638255
 20
-116.8221378639348
 30
0.0
 11
62.07701220500198
 21
-117.4054711972681
 31
0.0
  0
LINE
  5
1FC
330
1F
100
AcDbEntity
  8
1
  6
Continuous
 62
     4
100
AcDbLine
 10
61.82995338147256
 20
-116.5888045306014
 30
0.0
 11
61.9946592638255
 21
-116.8221378639348
 31
0.0
  0
LINE
  5
1FD
330
1F
100
AcDbEntity
  8
1
  6
Continuous
 62
     4
100
AcDbLine
 10
61.58289455794316
 20
-116.3554711972681
 30
0.0
 11
61.82995338147256
 21
-116.5888045306014
 31
0.0
  0
LINE
  5
1FE
330
1F
100
AcDbEntity
  8
1
  6
Continuous
 62
     4
100
AcDbLine
 10
61.25348279323727
 20
-116.2388045306014
 30
0.0
 11
61.58289455794316
 21
-116.3554711972681
 31
0.0
  0
LINE
  5
1FF
330
1F
100
AcDbEntity
  8
1
  6
Continuous
 62
     4
100
AcDbLine
 10
60.92407102853139
 20
-116.3554711972681
 30
0.0
 11
61.25348279323727
 21
-116.2388045306014
 31
0.0
  0
LINE
  5
200
330
1F
100
AcDbEntity
  8
1
  6
Continuous
 62
     4
100
AcDbLine
 10
60.51230632264904
 20
-116.7054711972681
 30
0.0
 11
60.92407102853139
 21
-116.3554711972681
 31
0.0
  0
LINE
  5
201
330
1F
100
AcDbEntity
  8
1
  6
Continuous
 62
     4
100
AcDbLine
 10
60.59465926382551
 20
-114.9554711972681
 30
0.0
 11
60.51230632264904
 21
-116.7054711972681
 31
0.0
  0
LINE
  5
202
330
1F
100
AcDbEntity
  8
1
  6
Continuous
 62
     4
100
AcDbLine
 10
61.9946592638255
 20
-114.9554711972681
 30
0.0
 11
60.59465926382551
 21
-114.9554711972681
 31
0.0
  0
LINE
  5
203
330
1F
100
AcDbEntity
  8
1
  6
Continuous
 62
     4
100
AcDbLine
 10
58.78289455794315
 20
-117.6388045306014
 30
0.0
 11
58.78289455794315
 21
-118.4554711972681
 31
0.0
  0
LINE
  5
204
330
1F
100
AcDbEntity
  8
1
  6
Continuous
 62
     4
100
AcDbLine
 10
58.9476004402961
 20
-116.5888045306014
 30
0.0
 11
58.78289455794315
 21
-117.6388045306014
 31
0.0
  0
LINE
  5
205
330
1F
100
AcDbEntity
  8
1
  6
Continuous
 62
     4
100
AcDbLine
 10
59.60642396970786
 20
-114.9554711972681
 30
0.0
 11
58.9476004402961
 21
-116.5888045306014
 31
0.0
  0
LINE
  5
206
330
1F
100
AcDbEntity
  8
1
  6
Continuous
 62
     4
100
AcDbLine
 10
57.95936514617845
 20
-114.9554711972681
 30
0.0
 11
59.60642396970786
 21
-114.9554711972681
 31
0.0
  0
LINE
  5
207
330
1F
100
AcDbEntity
  8
1
  6
Continuous
 62
     4
100
AcDbLine
 10
56.72407102853138
 20
-115.1888045306014
 30
0.0
 11
56.22995338147256
 21
-114.9554711972681
 31
0.0
  0
LINE
  5
208
330
1F
100
AcDbEntity
  8
1
  6
Continuous
 62
     4
100
AcDbLine
 10
57.05348279323727
 20
-115.7721378639348
 30
0.0
 11
56.72407102853138
 21
-115.1888045306014
 31
0.0
  0
LINE
  5
209
330
1F
100
AcDbEntity
  8
1
  6
Continuous
 62
     4
100
AcDbLine
 10
57.13583573441374
 20
-116.7054711972681
 30
0.0
 11
57.05348279323727
 21
-115.7721378639348
 31
0.0
  0
LINE
  5
20A
330
1F
100
AcDbEntity
  8
1
  6
Continuous
 62
     4
100
AcDbLine
 10
57.05348279323727
 20
-117.6388045306014
 30
0.0
 11
57.13583573441374
 21
-116.7054711972681
 31
0.0
  0
LINE
  5
20B
330
1F
100
AcDbEntity
  8
1
  6
Continuous
 62
     4
100
AcDbLine
 10
56.72407102853138
 20
-118.2221378639348
 30
0.0
 11
57.05348279323727
 21
-117.6388045306014
 31
0.0
  0
LINE
  5
20C
330
1F
100
AcDbEntity
  8
1
  6
Continuous
 62
     4
100
AcDbLine
 10
56.22995338147256
 20
-118.4554711972681
 30
0.0
 11
56.72407102853138
 21
-118.2221378639348
 31
0.0
  0
LINE
  5
20D
330
1F
100
AcDbEntity
  8
1
  6
Continuous
 62
     4
100
AcDbLine
 10
55.73583573441374
 20
-118.2221378639348
 30
0.0
 11
56.22995338147256
 21
-118.4554711972681
 31
0.0
  0
LINE
  5
20E
330
1F
100
AcDbEntity
  8
1
  6
Continuous
 62
     4
100
AcDbLine
 10
55.48877691088433
 20
-117.6388045306014
 30
0.0
 11
55.73583573441374
 21
-118.2221378639348
 31
0.0
  0
LINE
  5
20F
330
1F
100
AcDbEntity
  8
1
  6
Continuous
 62
     4
100
AcDbLine
 10
55.32407102853139
 20
-116.7054711972681
 30
0.0
 11
55.48877691088433
 21
-117.6388045306014
 31
0.0
  0
LINE
  5
210
330
1F
100
AcDbEntity
  8
1
  6
Continuous
 62
     4
100
AcDbLine
 10
55.48877691088433
 20
-115.7721378639348
 30
0.0
 11
55.32407102853139
 21
-116.7054711972681
 31
0.0
  0
LINE
  5
211
330
1F
100
AcDbEntity
  8
1
  6
Continuous
 62
     4
100
AcDbLine
 10
55.73583573441374
 20
-115.1888045306014
 30
0.0
 11
55.48877691088433
 21
-115.7721378639348
 31
0.0
  0
LINE
  5
212
330
1F
100
AcDbEntity
  8
1
  6
Continuous
 62
     4
100
AcDbLine
 10
56.22995338147256
 20
-114.9554711972681
 30
0.0
 11
55.73583573441374
 21
-115.1888045306014
 31
0.0
  0
LINE
  5
213
330
1F
100
AcDbEntity
  8
1
  6
Continuous
 62
     4
100
AcDbLine
 10
54.25348279323728
 20
-118.1054711972681
 30
0.0
 11
54.33583573441374
 21
-117.9888045306014
 31
0.0
  0
LINE
  5
214
330
1F
100
AcDbEntity
  8
1
  6
Continuous
 62
     4
100
AcDbLine
 10
54.33583573441374
 20
-118.2221378639348
 30
0.0
 11
54.25348279323728
 21
-118.1054711972681
 31
0.0
  0
LINE
  5
215
330
1F
100
AcDbEntity
  8
1
  6
Continuous
 62
     4
100
AcDbLine
 10
54.41818867559022
 20
-118.1054711972681
 30
0.0
 11
54.33583573441374
 21
-118.2221378639348
 31
0.0
  0
LINE
  5
216
330
1F
100
AcDbEntity
  8
1
  6
Continuous
 62
     4
100
AcDbLine
 10
54.33583573441374
 20
-117.9888045306014
 30
0.0
 11
54.41818867559022
 21
-118.1054711972681
 31
0.0
  0
LINE
  5
217
330
1F
100
AcDbEntity
  8
1
  6
Continuous
 62
     4
100
AcDbLine
 10
54.25348279323728
 20
-117.9888045306014
 30
0.0
 11
54.41818867559022
 21
-117.9888045306014
 31
0.0
  0
LINE
  5
218
330
1F
100
AcDbEntity
  8
1
  6
Continuous
 62
     4
100
AcDbLine
 10
54.25348279323728
 20
-118.2221378639348
 30
0.0
 11
54.25348279323728
 21
-117.9888045306014
 31
0.0
  0
LINE
  5
219
330
1F
100
AcDbEntity
  8
1
  6
Continuous
 62
     4
100
AcDbLine
 10
54.41818867559022
 20
-118.2221378639348
 30
0.0
 11
54.25348279323728
 21
-118.2221378639348
 31
0.0
  0
LINE
  5
21A
330
1F
100
AcDbEntity
  8
1
  6
Continuous
 62
     4
100
AcDbLine
 10
54.41818867559022
 20
-117.9888045306014
 30
0.0
 11
54.41818867559022
 21
-118.2221378639348
 31
0.0
  0
LINE
  5
21B
330
1F
100
AcDbEntity
  8
1
  6
Continuous
 62
     4
100
AcDbLine
 10
54.1711298520608
 20
-118.1054711972681
 30
0.0
 11
54.33583573441374
 21
-117.8721378639348
 31
0.0
  0
LINE
  5
21C
330
1F
100
AcDbEntity
  8
1
  6
Continuous
 62
     4
100
AcDbLine
 10
54.33583573441374
 20
-118.3388045306014
 30
0.0
 11
54.1711298520608
 21
-118.1054711972681
 31
0.0
  0
LINE
  5
21D
330
1F
100
AcDbEntity
  8
1
  6
Continuous
 62
     4
100
AcDbLine
 10
54.50054161676668
 20
-118.1054711972681
 30
0.0
 11
54.33583573441374
 21
-118.3388045306014
 31
0.0
  0
LINE
  5
21E
330
1F
100
AcDbEntity
  8
1
  6
Continuous
 62
     4
100
AcDbLine
 10
54.33583573441374
 20
-117.8721378639348
 30
0.0
 11
54.50054161676668
 21
-118.1054711972681
 31
0.0
  0
LINE
  5
21F
330
1F
100
AcDbEntity
  8
1
  6
Continuous
 62
     4
100
AcDbLine
 10
52.93583573441374
 20
-115.1888045306014
 30
0.0
 11
52.44171808735491
 21
-114.9554711972681
 31
0.0
  0
LINE
  5
220
330
1F
100
AcDbEntity
  8
1
  6
Continuous
 62
     4
100
AcDbLine
 10
53.26524749911962
 20
-115.7721378639348
 30
0.0
 11
52.93583573441374
 21
-115.1888045306014
 31
0.0
  0
LINE
  5
221
330
1F
100
AcDbEntity
  8
1
  6
Continuous
 62
     4
100
AcDbLine
 10
53.34760044029609
 20
-116.7054711972681
 30
0.0
 11
53.26524749911962
 21
-115.7721378639348
 31
0.0
  0
LINE
  5
222
330
1F
100
AcDbEntity
  8
1
  6
Continuous
 62
     4
100
AcDbLine
 10
53.26524749911962
 20
-117.6388045306014
 30
0.0
 11
53.34760044029609
 21
-116.7054711972681
 31
0.0
  0
LINE
  5
223
330
1F
100
AcDbEntity
  8
1
  6
Continuous
 62
     4
100
AcDbLine
 10
52.93583573441374
 20
-118.2221378639348
 30
0.0
 11
53.26524749911962
 21
-117.6388045306014
 31
0.0
  0
LINE
  5
224
330
1F
100
AcDbEntity
  8
1
  6
Continuous
 62
     4
100
AcDbLine
 10
52.44171808735491
 20
-118.4554711972681
 30
0.0
 11
52.93583573441374
 21
-118.2221378639348
 31
0.0
  0
LINE
  5
225
330
1F
100
AcDbEntity
  8
1
  6
Continuous
 62
     4
100
AcDbLine
 10
51.94760044029609
 20
-118.2221378639348
 30
0.0
 11
52.44171808735491
 21
-118.4554711972681
 31
0.0
  0
LINE
  5
226
330
1F
100
AcDbEntity
  8
1
  6
Continuous
 62
     4
100
AcDbLine
 10
51.70054161676668
 20
-117.6388045306014
 30
0.0
 11
51.94760044029609
 21
-118.2221378639348
 31
0.0
  0
LINE
  5
227
330
1F
100
AcDbEntity
  8
1
  6
Continuous
 62
     4
100
AcDbLine
 10
51.53583573441374
 20
-116.7054711972681
 30
0.0
 11
51.70054161676668
 21
-117.6388045306014
 31
0.0
  0
LINE
  5
228
330
1F
100
AcDbEntity
  8
1
  6
Continuous
 62
     4
100
AcDbLine
 10
51.70054161676668
 20
-115.7721378639348
 30
0.0
 11
51.53583573441374
 21
-116.7054711972681
 31
0.0
  0
LINE
  5
229
330
1F
100
AcDbEntity
  8
1
  6
Continuous
 62
     4
100
AcDbLine
 10
51.94760044029609
 20
-115.1888045306014
 30
0.0
 11
51.70054161676668
 21
-115.7721378639348
 31
0.0
  0
LINE
  5
22A
330
1F
100
AcDbEntity
  8
1
  6
Continuous
 62
     4
100
AcDbLine
 10
52.44171808735491
 20
-114.9554711972681
 30
0.0
 11
51.94760044029609
 21
-115.1888045306014
 31
0.0
  0
LINE
  5
22B
330
1F
100
AcDbEntity
  8
1
  6
Continuous
 62
     4
100
AcDbLine
 10
66.48289455794315
 20
-117.5221378639348
 30
0.0
 11
68.12995338147256
 21
-117.5221378639348
 31
0.0
  0
LINE
  5
22C
330
1F
100
AcDbEntity
  8
1
  6
Continuous
 62
     4
100
AcDbLine
 10
67.30642396970785
 20
-114.9554711972681
 30
0.0
 11
68.43877691088433
 21
-118.4554711972681
 31
0.0
  0
LINE
  5
22D
330
1F
100
AcDbEntity
  8
1
  6
Continuous
 62
     4
100
AcDbLine
 10
66.17407102853139
 20
-118.4554711972681
 30
0.0
 11
67.30642396970785
 21
-114.9554711972681
 31
0.0
  0
LINE
  5
22E
330
1F
100
AcDbEntity
  8
1
  6
Continuous
 62
     2
100
AcDbLine
 10
70.81275673003407
 20
-98.2512757990343
 30
0.0
 11
70.81275673003407
 21
-119.990033890961
 31
0.0
  0
LINE
  5
22F
330
1F
100
AcDbEntity
  8
1
  6
Continuous
 62
     7
100
AcDbLine
 10
50.84556401715788
 20
-48.8540195041474
 30
0.0
 11
65.84556401715787
 21
-45.8540195041474
 31
0.0
  0
LINE
  5
230
330
1F
100
AcDbEntity
  8
1
  6
Continuous
 62
     7
100
AcDbLine
 10
50.84556401715788
 20
-45.8540195041474
 30
0.0
 11
65.84556401715787
 21
-48.8540195041474
 31
0.0
  0
LINE
  5
231
330
1F
100
AcDbEntity
  8
1
  6
Continuous
 62
     3
100
AcDbLine
 10
51.14556401715786
 20
-48.8540195041474
 30
0.0
 11
51.14556401715786
 21
-49.8540195041474
 31
0.0
  0
LINE
  5
232
330
1F
100
AcDbEntity
  8
1
  6
Continuous
 62
     7
100
AcDbLine
 10
65.84556401715787
 20
-48.8540195041474
 30
0.0
 11
50.84556401715788
 21
-48.8540195041474
 31
0.0
  0
LINE
  5
233
330
1F
100
AcDbEntity
  8
1
  6
Continuous
 62
     7
100
AcDbLine
 10
65.84556401715787
 20
-45.8540195041474
 30
0.0
 11
65.84556401715787
 21
-48.8540195041474
 31
0.0
  0
LINE
  5
234
330
1F
100
AcDbEntity
  8
1
  6
Continuous
 62
     7
100
AcDbLine
 10
50.84556401715788
 20
-45.8540195041474
 30
0.0
 11
65.84556401715787
 21
-45.8540195041474
 31
0.0
  0
LINE
  5
235
330
1F
100
AcDbEntity
  8
1
  6
Continuous
 62
     7
100
AcDbLine
 10
51.14556401715786
 20
-44.85401950414741
 30
0.0
 11
50.84556401715788
 21
-45.15401950414742
 31
0.0
  0
LINE
  5
236
330
1F
100
AcDbEntity
  8
1
  6
Continuous
 62
     3
100
AcDbLine
 10
51.14556401715786
 20
-44.85401950414741
 30
0.0
 11
51.14556401715786
 21
-45.8540195041474
 31
0.0
  0
LINE
  5
237
330
1F
100
AcDbEntity
  8
1
  6
Continuous
 62
     7
100
AcDbLine
 10
51.14556401715786
 20
-44.85401950414741
 30
0.0
 11
68.84556401715787
 21
-44.8540195041474
 31
0.0
  0
LINE
  5
238
330
1F
100
AcDbEntity
  8
1
  6
Continuous
 62
     7
100
AcDbLine
 10
50.84556401715788
 20
-45.15401950414742
 30
0.0
 11
50.84556401715788
 21
-49.55401950414739
 31
0.0
  0
LINE
  5
239
330
1F
100
AcDbEntity
  8
1
  6
Continuous
 62
     3
100
AcDbLine
 10
201.8590005519284
 20
-19.0761184862208
 30
0.0
 11
201.8590005519284
 21
-25.6540195041474
 31
0.0
  0
LINE
  5
23A
330
1F
100
AcDbEntity
  8
1
  6
Continuous
 62
     3
100
AcDbLine
 10
200.7090005519284
 20
-18.76278552834206
 30
0.0
 11
200.7090005519284
 21
-25.6540195041474
 31
0.0
  0
LINE
  5
23B
330
1F
100
AcDbEntity
  8
1
  6
Continuous
 62
     3
100
AcDbLine
 10
198.4090005519284
 20
-18.4923483326749
 30
0.0
 11
198.4090005519284
 21
-25.6540195041474
 31
0.0
  0
LINE
  5
23C
330
1F
100
AcDbEntity
  8
1
  6
Continuous
 62
     3
100
AcDbLine
 10
197.2590005519284
 20
-18.9537240070315
 30
0.0
 11
197.2590005519284
 21
-25.6540195041474
 31
0.0
  0
LINE
  5
23D
330
1F
100
AcDbEntity
  8
1
  6
Continuous
 62
     7
100
AcDbLine
 10
203.3590005519284
 20
-25.6540195041474
 30
0.0
 11
195.7590005519284
 21
-25.6540195041474
 31
0.0
  0
LINE
  5
23E
330
1F
100
AcDbEntity
  8
1
  6
Continuous
 62
     7
100
AcDbLine
 10
195.5590005519284
 20
-26.3540195041474
 30
0.0
 11
195.5590005519284
 21
-25.8540195041474
 31
0.0
  0
LINE
  5
23F
330
1F
100
AcDbEntity
  8
1
  6
Continuous
 62
     7
100
AcDbLine
 10
203.5590005519284
 20
-25.8540195041474
 30
0.0
 11
203.5590005519284
 21
-26.3540195041474
 31
0.0
  0
LINE
  5
240
330
1F
100
AcDbEntity
  8
1
  6
DASH_CENTER
 62
     3
100
AcDbLine
 10
199.5590005519284
 20
-17.26816789393229
 30
0.0
 11
199.5590005519284
 21
-25.6540195041474
 31
0.0
  0
LINE
  5
241
330
1F
100
AcDbEntity
  8
1
  6
Continuous
 62
     7
100
AcDbLine
 10
115.7080640171579
 20
35.8367362876015
 30
0.0
 11
115.7080640171579
 21
31.5020239383464
 31
0.0
  0
LINE
  5
242
330
1F
100
AcDbEntity
  8
1
  6
Continuous
 62
     7
100
AcDbLine
 10
114.4330640171578
 20
35.8367362876015
 30
0.0
 11
114.4330640171578
 21
31.5020239383464
 31
0.0
  0
LINE
  5
243
330
1F
100
AcDbEntity
  8
1
  6
Continuous
 62
     7
100
AcDbLine
 10
113.1580640171578
 20
35.8367362876015
 30
0.0
 11
113.1580640171578
 21
31.5020239383464
 31
0.0
  0
LINE
  5
244
330
1F
100
AcDbEntity
  8
1
  6
Continuous
 62
     7
100
AcDbLine
 10
111.8830640171579
 20
35.8367362876015
 30
0.0
 11
111.8830640171579
 21
31.5020239383464
 31
0.0
  0
LINE
  5
245
330
1F
100
AcDbEntity
  8
1
  6
Continuous
 62
     3
100
AcDbLine
 10
115.0705640171579
 20
31.5020239383464
 30
0.0
 11
115.0705640171579
 21
2.9788023828663
 31
0.0
  0
LINE
  5
246
330
1F
100
AcDbEntity
  8
1
  6
Continuous
 62
     3
100
AcDbLine
 10
112.5205640171579
 20
31.5020239383464
 30
0.0
 11
112.5205640171579
 21
4.33023654853323
 31
0.0
  0
LINE
  5
247
330
1F
100
AcDbEntity
  8
1
  6
DOT_CENTER
 62
     3
100
AcDbLine
 10
113.7955640171579
 20
38.1359845467208
 30
0.0
 11
113.7955640171579
 21
-25.6540195041474
 31
0.0
  0
LINE
  5
248
330
1F
100
AcDbEntity
  8
1
  6
Continuous
 62
     3
100
AcDbLine
 10
111.2455640171578
 20
31.5020239383464
 30
0.0
 11
116.3455640171578
 21
31.5020239383464
 31
0.0
  0
LINE
  5
249
330
1F
100
AcDbEntity
  8
1
  6
Continuous
 62
     3
100
AcDbLine
 10
116.3455640171578
 20
31.5020239383464
 30
0.0
 11
116.3455640171578
 21
3.4142363701552
 31
0.0
  0
LINE
  5
24A
330
1F
100
AcDbEntity
  8
1
  6
Continuous
 62
     3
100
AcDbLine
 10
111.2455640171578
 20
31.5020239383464
 30
0.0
 11
111.2455640171578
 21
3.60673706287816
 31
0.0
  0
LINE
  5
24B
330
1F
100
AcDbEntity
  8
1
  6
Continuous
 62
     3
100
AcDbLine
 10
115.0705640171579
 20
1.63310800633879
 30
0.0
 11
115.0705640171579
 21
-25.6540195041474
 31
0.0
  0
LINE
  5
24C
330
1F
100
AcDbEntity
  8
1
  6
Continuous
 62
     3
100
AcDbLine
 10
112.5205640171579
 20
2.98454217200572
 30
0.0
 11
112.5205640171579
 21
-25.6540195041474
 31
0.0
  0
LINE
  5
24D
330
1F
100
AcDbEntity
  8
1
  6
Continuous
 62
     3
100
AcDbLine
 10
116.3455640171578
 20
2.06854199362769
 30
0.0
 11
116.3455640171578
 21
-25.6540195041474
 31
0.0
  0
LINE
  5
24E
330
1F
100
AcDbEntity
  8
1
  6
Continuous
 62
     3
100
AcDbLine
 10
111.2455640171578
 20
2.26104268635065
 30
0.0
 11
111.2455640171578
 21
-25.6540195041474
 31
0.0
  0
LINE
  5
24F
330
1F
100
AcDbEntity
  8
1
  6
Continuous
 62
     7
100
AcDbLine
 10
116.8455640171578
 20
-25.8540195041474
 30
0.0
 11
116.8455640171578
 21
-26.3540195041474
 31
0.0
  0
LINE
  5
250
330
1F
100
AcDbEntity
  8
1
  6
Continuous
 62
     7
100
AcDbLine
 10
110.7455640171578
 20
-25.8540195041474
 30
0.0
 11
110.7455640171578
 21
-26.3540195041474
 31
0.0
  0
LINE
  5
251
330
1F
100
AcDbEntity
  8
1
  6
Continuous
 62
     7
100
AcDbLine
 10
110.9455640171579
 20
-25.6540195041474
 30
0.0
 11
116.6455640171579
 21
-25.6540195041474
 31
0.0
  0
LINE
  5
252
330
1F
100
AcDbEntity
  8
1
  6
Continuous
 62
     3
100
AcDbLine
 10
-42.24543978109674
 20
-45.8540195041474
 30
0.0
 11
-42.24543978109674
 21
-48.8540195041474
 31
0.0
  0
LINE
  5
253
330
1F
100
AcDbEntity
  8
1
  6
DASH_CENTER
 62
     3
100
AcDbLine
 10
-44.24543978109674
 20
-44.8540195041474
 30
0.0
 11
-44.24543978109674
 21
-45.3540195041474
 31
0.0
  0
LINE
  5
254
330
1F
100
AcDbEntity
  8
1
  6
DASH_CENTER
 62
     3
100
AcDbLine
 10
-46.24543978109674
 20
-47.3540195041474
 30
0.0
 11
-18.24543978109674
 21
-47.3540195041474
 31
0.0
  0
LINE
  5
255
330
1F
100
AcDbEntity
  8
1
  6
Continuous
 62
     3
100
AcDbLine
 10
-41.94543978109675
 20
-19.0761184862208
 30
0.0
 11
-41.94543978109675
 21
-25.6540195041474
 31
0.0
  0
LINE
  5
256
330
1F
100
AcDbEntity
  8
1
  6
Continuous
 62
     3
100
AcDbLine
 10
-43.09543978109674
 20
-18.76278552834206
 30
0.0
 11
-43.09543978109674
 21
-25.6540195041474
 31
0.0
  0
LINE
  5
257
330
1F
100
AcDbEntity
  8
1
  6
Continuous
 62
     3
100
AcDbLine
 10
-45.39543978109674
 20
-18.4923483326749
 30
0.0
 11
-45.39543978109674
 21
-25.6540195041474
 31
0.0
  0
LINE
  5
258
330
1F
100
AcDbEntity
  8
1
  6
Continuous
 62
     3
100
AcDbLine
 10
-46.54543978109674
 20
-18.9537240070315
 30
0.0
 11
-46.54543978109674
 21
-25.6540195041474
 31
0.0
  0
LINE
  5
259
330
1F
100
AcDbEntity
  8
1
  6
Continuous
 62
     7
100
AcDbLine
 10
-40.44543978109675
 20
-25.6540195041474
 30
0.0
 11
-48.04543978109673
 21
-25.6540195041474
 31
0.0
  0
LINE
  5
25A
330
1F
100
AcDbEntity
  8
1
  6
Continuous
 62
     7
100
AcDbLine
 10
-48.24543978109674
 20
-26.3540195041474
 30
0.0
 11
-48.24543978109674
 21
-25.8540195041474
 31
0.0
  0
LINE
  5
25B
330
1F
100
AcDbEntity
  8
1
  6
Continuous
 62
     7
100
AcDbLine
 10
-40.24543978109674
 20
-25.8540195041474
 30
0.0
 11
-40.24543978109674
 21
-26.3540195041474
 31
0.0
  0
LINE
  5
25C
330
1F
100
AcDbEntity
  8
1
  6
Continuous
 62
     7
100
AcDbLine
 10
-28.91573006434084
 20
-26.3540195041474
 30
0.0
 11
-59.57514949785264
 21
-26.3540195041474
 31
0.0
  0
LINE
  5
25D
330
1F
100
AcDbEntity
  8
1
  6
Continuous
 62
     7
100
AcDbLine
 10
-23.24543978109674
 20
-32.0243097873915
 30
0.0
 11
-23.24543978109674
 21
-62.68372922090328
 31
0.0
  0
LINE
  5
25E
330
1F
100
AcDbEntity
  8
1
  6
Continuous
 62
     7
100
AcDbLine
 10
-59.57514949785264
 20
-68.3540195041474
 30
0.0
 11
-28.91573006434084
 21
-68.3540195041474
 31
0.0
  0
LINE
  5
25F
330
1F
100
AcDbEntity
  8
1
  6
DASH_CENTER
 62
     3
100
AcDbLine
 10
-31.14543978109673
 20
-31.8540195041474
 30
0.0
 11
-26.34543978109674
 21
-31.8540195041474
 31
0.0
  0
LINE
  5
260
330
1F
100
AcDbEntity
  8
1
  6
DASH_CENTER
 62
     3
100
AcDbLine
 10
-28.74543978109674
 20
-34.25401950414739
 30
0.0
 11
-28.74543978109674
 21
-29.45401950414739
 31
0.0
  0
LINE
  5
261
330
1F
100
AcDbEntity
  8
1
  6
DASH_CENTER
 62
     3
100
AcDbLine
 10
-62.14543978109675
 20
-31.8540195041474
 30
0.0
 11
-57.34543978109672
 21
-31.8540195041474
 31
0.0
  0
LINE
  5
262
330
1F
100
AcDbEntity
  8
1
  6
DASH_CENTER
 62
     3
100
AcDbLine
 10
-59.74543978109674
 20
-34.25401950414739
 30
0.0
 11
-59.74543978109674
 21
-29.45401950414739
 31
0.0
  0
LINE
  5
263
330
1F
100
AcDbEntity
  8
1
  6
DASH_CENTER
 62
     3
100
AcDbLine
 10
-62.14543978109675
 20
-62.8540195041474
 30
0.0
 11
-57.34543978109672
 21
-62.8540195041474
 31
0.0
  0
LINE
  5
264
330
1F
100
AcDbEntity
  8
1
  6
DASH_CENTER
 62
     3
100
AcDbLine
 10
-59.74543978109674
 20
-65.25401950414741
 30
0.0
 11
-59.74543978109674
 21
-60.4540195041474
 31
0.0
  0
LINE
  5
265
330
1F
100
AcDbEntity
  8
1
  6
DASH_CENTER
 62
     3
100
AcDbLine
 10
-31.14543978109673
 20
-62.8540195041474
 30
0.0
 11
-26.34543978109674
 21
-62.8540195041474
 31
0.0
  0
LINE
  5
266
330
1F
100
AcDbEntity
  8
1
  6
DASH_CENTER
 62
     3
100
AcDbLine
 10
-28.74543978109674
 20
-65.25401950414741
 30
0.0
 11
-28.74543978109674
 21
-60.4540195041474
 31
0.0
  0
LINE
  5
267
330
1F
100
AcDbEntity
  8
1
  6
DASH_CENTER
 62
     3
100
AcDbLine
 10
-70.24543978109674
 20
-47.3540195041474
 30
0.0
 11
-46.74543978109674
 21
-47.3540195041474
 31
0.0
  0
LINE
  5
268
330
1F
100
AcDbEntity
  8
1
  6
Continuous
 62
     7
100
AcDbLine
 10
-65.24543978109674
 20
-62.68372922090328
 30
0.0
 11
-65.24543978109674
 21
-32.0243097873915
 31
0.0
  0
LINE
  5
269
330
1F
100
AcDbEntity
  8
1
  6
DASH_CENTER
 62
     3
100
AcDbLine
 10
-44.24543978109674
 20
-17.26816789393229
 30
0.0
 11
-44.24543978109674
 21
-73.495333752334
 31
0.0
  0
LINE
  5
26A
330
1F
100
AcDbEntity
  8
1
  6
Continuous
 62
     7
100
AcDbLine
 10
69.04556401715786
 20
-58.3540195041474
 30
0.0
 11
70.84556401715787
 21
-58.3540195041474
 31
0.0
  0
LINE
  5
26B
330
1F
100
AcDbEntity
  8
1
  6
Continuous
 62
     7
100
AcDbLine
 10
69.04556401715786
 20
-36.3540195041474
 30
0.0
 11
70.84556401715787
 21
-36.3540195041474
 31
0.0
  0
LINE
  5
26C
330
1F
100
AcDbEntity
  8
1
  6
Continuous
 62
     7
100
AcDbLine
 10
114.5455640171579
 20
-68.3540195041474
 30
0.0
 11
115.0455640171579
 21
-67.8540195041474
 31
0.0
  0
LINE
  5
26D
330
1F
100
AcDbEntity
  8
1
  6
Continuous
 62
     7
100
AcDbLine
 10
114.5455640171579
 20
-26.3540195041474
 30
0.0
 11
115.0455640171579
 21
-26.8540195041474
 31
0.0
  0
LINE
  5
26E
330
1F
100
AcDbEntity
  8
1
  6
Continuous
 62
     7
100
AcDbLine
 10
71.34556401715787
 20
-26.3540195041474
 30
0.0
 11
70.84556401715787
 21
-26.8540195041474
 31
0.0
  0
LINE
  5
26F
330
1F
100
AcDbEntity
  8
1
  6
Continuous
 62
     7
100
AcDbLine
 10
71.34556401715787
 20
-68.3540195041474
 30
0.0
 11
70.84556401715787
 21
-67.8540195041474
 31
0.0
  0
LINE
  5
270
330
1F
100
AcDbEntity
  8
1
  6
Continuous
 62
     7
100
AcDbLine
 10
117.3455640171578
 20
-68.3540195041474
 30
0.0
 11
117.8455640171578
 21
-67.8540195041474
 31
0.0
  0
LINE
  5
271
330
1F
100
AcDbEntity
  8
1
  6
Continuous
 62
     7
100
AcDbLine
 10
117.3455640171578
 20
-26.3540195041474
 30
0.0
 11
117.8455640171578
 21
-26.8540195041474
 31
0.0
  0
LINE
  5
272
330
1F
100
AcDbEntity
  8
1
  6
Continuous
 62
     7
100
AcDbLine
 10
68.84556401715787
 20
-49.8540195041474
 30
0.0
 11
51.14556401715786
 21
-49.8540195041474
 31
0.0
  0
LINE
  5
273
330
1F
100
AcDbEntity
  8
1
  6
Continuous
 62
     7
100
AcDbLine
 10
68.84556401715787
 20
-36.55401950414739
 30
0.0
 11
68.84556401715787
 21
-58.15401950414739
 31
0.0
  0
LINE
  5
274
330
1F
100
AcDbEntity
  8
1
  6
Continuous
 62
     7
100
AcDbLine
 10
83.34556401715787
 20
-33.78935953789686
 30
0.0
 11
81.34556401715787
 21
-33.78935953789686
 31
0.0
  0
LINE
  5
275
330
1F
100
AcDbEntity
  8
1
  6
Continuous
 62
     7
100
AcDbLine
 10
105.3455640171578
 20
-33.78935953789686
 30
0.0
 11
107.3455640171578
 21
-33.78935953789686
 31
0.0
  0
LINE
  5
276
330
1F
100
AcDbEntity
  8
1
  6
Continuous
 62
     7
100
AcDbLine
 10
81.34556401715787
 20
-60.91867947039795
 30
0.0
 11
83.34556401715787
 21
-60.91867947039795
 31
0.0
  0
LINE
  5
277
330
1F
100
AcDbEntity
  8
1
  6
Continuous
 62
     7
100
AcDbLine
 10
107.3455640171578
 20
-60.91867947039795
 30
0.0
 11
105.3455640171578
 21
-60.91867947039795
 31
0.0
  0
LINE
  5
278
330
1F
100
AcDbEntity
  8
1
  6
Continuous
 62
     7
100
AcDbLine
 10
71.34556401715787
 20
-68.3540195041474
 30
0.0
 11
117.3455640171578
 21
-68.3540195041474
 31
0.0
  0
LINE
  5
279
330
1F
100
AcDbEntity
  8
1
  6
Continuous
 62
     7
100
AcDbLine
 10
83.34556401715787
 20
-26.3540195041474
 30
0.0
 11
83.34556401715787
 21
-33.78935953789686
 31
0.0
  0
LINE
  5
27A
330
1F
100
AcDbEntity
  8
1
  6
Continuous
 62
     7
100
AcDbLine
 10
70.84556401715787
 20
-62.68372922090328
 30
0.0
 11
83.34556401715787
 21
-62.68372922090328
 31
0.0
  0
LINE
  5
27B
330
1F
100
AcDbEntity
  8
1
  6
Continuous
 62
     7
100
AcDbLine
 10
83.34556401715787
 20
-60.91867947039795
 30
0.0
 11
83.34556401715787
 21
-68.3540195041474
 31
0.0
  0
LINE
  5
27C
330
1F
100
AcDbEntity
  8
1
  6
Continuous
 62
     7
100
AcDbLine
 10
81.34556401715787
 20
-60.41867947039795
 30
0.0
 11
107.3455640171579
 21
-60.41867947039795
 31
0.0
  0
LINE
  5
27D
330
1F
100
AcDbEntity
  8
1
  6
Continuous
 62
     7
100
AcDbLine
 10
81.34556401715787
 20
-60.91867947039795
 30
0.0
 11
81.34556401715787
 21
-33.78935953789686
 31
0.0
  0
LINE
  5
27E
330
1F
100
AcDbEntity
  8
1
  6
Continuous
 62
     7
100
AcDbLine
 10
107.3455640171578
 20
-33.78935953789686
 30
0.0
 11
107.3455640171578
 21
-60.91867947039795
 31
0.0
  0
LINE
  5
27F
330
1F
100
AcDbEntity
  8
1
  6
Continuous
 62
     7
100
AcDbLine
 10
107.3455640171578
 20
-60.91867947039795
 30
0.0
 11
105.3455640171578
 21
-60.91867947039795
 31
0.0
  0
LINE
  5
280
330
1F
100
AcDbEntity
  8
1
  6
Continuous
 62
     7
100
AcDbLine
 10
105.3455640171578
 20
-60.91867947039795
 30
0.0
 11
105.3455640171579
 21
-68.3540195041474
 31
0.0
  0
LINE
  5
281
330
1F
100
AcDbEntity
  8
1
  6
Continuous
 62
     7
100
AcDbLine
 10
107.3455640171578
 20
-34.28935953789686
 30
0.0
 11
81.34556401715787
 21
-34.28935953789686
 31
0.0
  0
LINE
  5
282
330
1F
100
AcDbEntity
  8
1
  6
Continuous
 62
     7
100
AcDbLine
 10
115.0455640171579
 20
-35.05401950414739
 30
0.0
 11
117.8455640171578
 21
-35.6540195041474
 31
0.0
  0
LINE
  5
283
330
1F
100
AcDbEntity
  8
1
  6
Continuous
 62
     7
100
AcDbLine
 10
115.0455640171579
 20
-59.65401950414739
 30
0.0
 11
117.8455640171578
 21
-59.05401950414739
 31
0.0
  0
LINE
  5
284
330
1F
100
AcDbEntity
  8
1
  6
Continuous
 62
     7
100
AcDbLine
 10
117.8455640171578
 20
-26.8540195041474
 30
0.0
 11
117.8455640171578
 21
-67.8540195041474
 31
0.0
  0
LINE
  5
285
330
1F
100
AcDbEntity
  8
1
  6
Continuous
 62
     7
100
AcDbLine
 10
105.3455640171578
 20
-32.0243097873915
 30
0.0
 11
115.0455640171579
 21
-32.0243097873915
 31
0.0
  0
LINE
  5
286
330
1F
100
AcDbEntity
  8
1
  6
Continuous
 62
     7
100
AcDbLine
 10
105.3455640171578
 20
-33.78935953789686
 30
0.0
 11
105.3455640171579
 21
-26.3540195041474
 31
0.0
  0
LINE
  5
287
330
1F
100
AcDbEntity
  8
1
  6
Continuous
 62
     7
100
AcDbLine
 10
105.3455640171578
 20
-62.68372922090328
 30
0.0
 11
115.0455640171579
 21
-62.68372922090328
 31
0.0
  0
LINE
  5
288
330
1F
100
AcDbEntity
  8
1
  6
Continuous
 62
     7
100
AcDbLine
 10
115.0455640171579
 20
-67.8540195041474
 30
0.0
 11
115.0455640171579
 21
-59.65401950414739
 31
0.0
  0
LINE
  5
289
330
1F
100
AcDbEntity
  8
1
  6
Continuous
 62
     7
100
AcDbLine
 10
115.0455640171579
 20
-26.8540195041474
 30
0.0
 11
115.0455640171579
 21
-35.05401950414739
 31
0.0
  0
LINE
  5
28A
330
1F
100
AcDbEntity
  8
1
  6
DASH_CENTER
 62
     3
100
AcDbLine
 10
118.9455640171579
 20
-31.8540195041474
 30
0.0
 11
113.5455640171579
 21
-31.8540195041474
 31
0.0
  0
LINE
  5
28B
330
1F
100
AcDbEntity
  8
1
  6
Continuous
 62
     7
100
AcDbLine
 10
116.1501184011553
 20
-29.15065549099504
 30
0.0
 11
115.0455640171579
 21
-29.05401950414739
 31
0.0
  0
LINE
  5
28C
330
1F
100
AcDbEntity
  8
1
  6
Continuous
 62
     7
100
AcDbLine
 10
115.0455640171579
 20
-34.6540195041474
 30
0.0
 11
116.1501184011553
 21
-34.55738351729975
 31
0.0
  0
LINE
  5
28D
330
1F
100
AcDbEntity
  8
1
  6
Continuous
 62
     7
100
AcDbLine
 10
115.0455640171579
 20
-34.6540195041474
 30
0.0
 11
115.0455640171579
 21
-29.05401950414739
 31
0.0
  0
LINE
  5
28E
330
1F
100
AcDbEntity
  8
1
  6
DASH_CENTER
 62
     3
100
AcDbLine
 10
113.5455640171579
 20
-62.8540195041474
 30
0.0
 11
118.9455640171579
 21
-62.8540195041474
 31
0.0
  0
LINE
  5
28F
330
1F
100
AcDbEntity
  8
1
  6
Continuous
 62
     7
100
AcDbLine
 10
115.0455640171579
 20
-65.65401950414741
 30
0.0
 11
116.1501184011553
 21
-65.55738351729975
 31
0.0
  0
LINE
  5
290
330
1F
100
AcDbEntity
  8
1
  6
Continuous
 62
     7
100
AcDbLine
 10
116.1501184011553
 20
-60.15065549099504
 30
0.0
 11
115.0455640171579
 21
-60.0540195041474
 31
0.0
  0
LINE
  5
291
330
1F
100
AcDbEntity
  8
1
  6
Continuous
 62
     7
100
AcDbLine
 10
115.0455640171579
 20
-65.65401950414741
 30
0.0
 11
115.0455640171579
 21
-60.0540195041474
 31
0.0
  0
LINE
  5
292
330
1F
100
AcDbEntity
  8
1
  6
Continuous
 62
     7
100
AcDbLine
 10
117.3455640171578
 20
-26.3540195041474
 30
0.0
 11
71.34556401715787
 21
-26.3540195041474
 31
0.0
  0
LINE
  5
293
330
1F
100
AcDbEntity
  8
1
  6
Continuous
 62
     7
100
AcDbLine
 10
80.46832171335717
 20
-32.0243097873915
 30
0.0
 11
83.34556401715787
 21
-32.0243097873915
 31
0.0
  0
LINE
  5
294
330
1F
100
AcDbEntity
  8
1
  6
DASH_CENTER
 62
     3
100
AcDbLine
 10
82.62593391810867
 20
-31.8540195041474
 30
0.0
 11
69.80037451231095
 21
-31.8540195041474
 31
0.0
  0
LINE
  5
295
330
1F
100
AcDbEntity
  8
1
  6
Continuous
 62
     3
100
AcDbLine
 10
75.14556401715785
 20
-30.8540195041474
 30
0.0
 11
80.55518942999606
 21
-30.8540195041474
 31
0.0
  0
LINE
  5
296
330
1F
100
AcDbEntity
  8
1
  6
Continuous
 62
     7
100
AcDbLine
 10
80.96291720693816
 20
-30.3540195041474
 30
0.0
 11
75.64556401715785
 21
-30.3540195041474
 31
0.0
  0
LINE
  5
297
330
1F
100
AcDbEntity
  8
1
  6
Continuous
 62
     3
100
AcDbLine
 10
75.14556401715785
 20
-32.8540195041474
 30
0.0
 11
80.75145740425637
 21
-32.8540195041474
 31
0.0
  0
LINE
  5
298
330
1F
100
AcDbEntity
  8
1
  6
Continuous
 62
     7
100
AcDbLine
 10
75.64556401715785
 20
-30.3540195041474
 30
0.0
 11
75.64556401715785
 21
-33.3540195041474
 31
0.0
  0
LINE
  5
299
330
1F
100
AcDbEntity
  8
1
  6
Continuous
 62
     7
100
AcDbLine
 10
75.14556401715785
 20
-32.8540195041474
 30
0.0
 11
75.64556401715785
 21
-33.3540195041474
 31
0.0
  0
LINE
  5
29A
330
1F
100
AcDbEntity
  8
1
  6
Continuous
 62
     7
100
AcDbLine
 10
75.14556401715785
 20
-30.8540195041474
 30
0.0
 11
75.14556401715785
 21
-32.8540195041474
 31
0.0
  0
LINE
  5
29B
330
1F
100
AcDbEntity
  8
1
  6
Continuous
 62
     7
100
AcDbLine
 10
75.64556401715785
 20
-30.3540195041474
 30
0.0
 11
75.14556401715785
 21
-30.8540195041474
 31
0.0
  0
LINE
  5
29C
330
1F
100
AcDbEntity
  8
1
  6
Continuous
 62
     7
100
AcDbLine
 10
75.14556401715785
 20
-30.8540195041474
 30
0.0
 11
70.84556401715787
 21
-30.8540195041474
 31
0.0
  0
LINE
  5
29D
330
1F
100
AcDbEntity
  8
1
  6
Continuous
 62
     7
100
AcDbLine
 10
75.14556401715785
 20
-32.8540195041474
 30
0.0
 11
70.84556401715787
 21
-32.8540195041474
 31
0.0
  0
LINE
  5
29E
330
1F
100
AcDbEntity
  8
1
  6
Continuous
 62
     7
100
AcDbLine
 10
70.84556401715787
 20
-32.8540195041474
 30
0.0
 11
70.84556401715787
 21
-30.8540195041474
 31
0.0
  0
LINE
  5
29F
330
1F
100
AcDbEntity
  8
1
  6
Continuous
 62
     3
100
AcDbLine
 10
75.64556401715785
 20
-33.3540195041474
 30
0.0
 11
70.84556401715787
 21
-33.3540195041474
 31
0.0
  0
LINE
  5
2A0
330
1F
100
AcDbEntity
  8
1
  6
Continuous
 62
     3
100
AcDbLine
 10
75.64556401715785
 20
-30.3540195041474
 30
0.0
 11
70.84556401715787
 21
-30.3540195041474
 31
0.0
  0
LINE
  5
2A1
330
1F
100
AcDbEntity
  8
1
  6
Continuous
 62
     7
100
AcDbLine
 10
70.84556401715787
 20
-67.8540195041474
 30
0.0
 11
70.84556401715787
 21
-26.8540195041474
 31
0.0
  0
LINE
  5
2A2
330
1F
100
AcDbEntity
  8
1
  6
Continuous
 62
     7
100
AcDbLine
 10
80.37594864204485
 20
-33.3540195041474
 30
0.0
 11
75.64556401715785
 21
-33.3540195041474
 31
0.0
  0
LINE
  5
2A3
330
1F
100
AcDbEntity
  8
1
  6
Continuous
 62
     7
100
AcDbLine
 10
50.84556401715788
 20
-49.55401950414739
 30
0.0
 11
51.14556401715786
 21
-49.8540195041474
 31
0.0
  0
LINE
  5
2A4
330
1F
100
AcDbEntity
  8
1
  6
DASH_CENTER
 62
     3
100
AcDbLine
 10
45.01184845647597
 20
-47.3540195041474
 30
0.0
 11
121.1994279409198
 21
-47.3540195041474
 31
0.0
  0
LINE
  5
2A5
330
1F
100
AcDbEntity
  8
1
  6
Continuous
 62
     7
100
AcDbLine
 10
68.84556401715787
 20
-58.15401950414739
 30
0.0
 11
69.04556401715786
 21
-58.3540195041474
 31
0.0
  0
LINE
  5
2A6
330
1F
100
AcDbEntity
  8
1
  6
Continuous
 62
     7
100
AcDbLine
 10
68.84556401715787
 20
-36.55401950414739
 30
0.0
 11
69.04556401715786
 21
-36.3540195041474
 31
0.0
  0
LINE
  5
2A7
330
1F
100
AcDbEntity
  8
1
  6
Continuous
 62
     7
100
AcDbLine
 10
215.737955849373
 20
-31.85401950414741
 30
0.0
 11
215.8203804777685
 21
-31.63929600605305
 31
0.0
  0
LINE
  5
2A8
330
1F
100
AcDbEntity
  8
1
  6
Continuous
 62
     7
100
AcDbLine
 10
215.8203804777685
 20
-31.63929600605305
 30
0.0
 11
216.3502177208518
 21
-31.09063347946504
 31
0.0
  0
LINE
  5
2A9
330
1F
100
AcDbEntity
  8
1
  6
Continuous
 62
     7
100
AcDbLine
 10
215.8203804777685
 20
-32.06874300224176
 30
0.0
 11
215.737955849373
 21
-31.85401950414741
 31
0.0
  0
LINE
  5
2AA
330
1F
100
AcDbEntity
  8
1
  6
Continuous
 62
     7
100
AcDbLine
 10
216.3502177208518
 20
-32.61740552882978
 30
0.0
 11
215.8203804777685
 21
-32.06874300224176
 31
0.0
  0
LINE
  5
2AB
330
1F
100
AcDbEntity
  8
1
  6
Continuous
 62
     7
100
AcDbLine
 10
215.0590005519284
 20
-32.53297480159205
 30
0.0
 11
215.2737240500228
 21
-32.61539942998748
 31
0.0
  0
LINE
  5
2AC
330
1F
100
AcDbEntity
  8
1
  6
Continuous
 62
     7
100
AcDbLine
 10
215.2737240500228
 20
-32.61539942998748
 30
0.0
 11
215.8223865766108
 21
-33.14523667307081
 31
0.0
  0
LINE
  5
2AD
330
1F
100
AcDbEntity
  8
1
  6
Continuous
 62
     7
100
AcDbLine
 10
214.844277053834
 20
-32.61539942998748
 30
0.0
 11
215.0590005519284
 21
-32.53297480159205
 31
0.0
  0
LINE
  5
2AE
330
1F
100
AcDbEntity
  8
1
  6
Continuous
 62
     7
100
AcDbLine
 10
214.295614527246
 20
-33.14523667307081
 30
0.0
 11
214.844277053834
 21
-32.61539942998748
 31
0.0
  0
LINE
  5
2AF
330
1F
100
AcDbEntity
  8
1
  6
Continuous
 62
     7
100
AcDbLine
 10
214.3800452544837
 20
-31.8540195041474
 30
0.0
 11
214.2976206260883
 21
-32.06874300224175
 31
0.0
  0
LINE
  5
2B0
330
1F
100
AcDbEntity
  8
1
  6
Continuous
 62
     7
100
AcDbLine
 10
214.2976206260883
 20
-32.06874300224175
 30
0.0
 11
213.767783383005
 21
-32.61740552882976
 31
0.0
  0
LINE
  5
2B1
330
1F
100
AcDbEntity
  8
1
  6
Continuous
 62
     7
100
AcDbLine
 10
214.2976206260883
 20
-31.63929600605304
 30
0.0
 11
214.3800452544837
 21
-31.8540195041474
 31
0.0
  0
LINE
  5
2B2
330
1F
100
AcDbEntity
  8
1
  6
Continuous
 62
     7
100
AcDbLine
 10
213.767783383005
 20
-31.09063347946502
 30
0.0
 11
214.2976206260883
 21
-31.63929600605304
 31
0.0
  0
LINE
  5
2B3
330
1F
100
AcDbEntity
  8
1
  6
Continuous
 62
     7
100
AcDbLine
 10
215.0590005519284
 20
-31.17506420670275
 30
0.0
 11
214.8442770538341
 21
-31.09263957830733
 31
0.0
  0
LINE
  5
2B4
330
1F
100
AcDbEntity
  8
1
  6
Continuous
 62
     7
100
AcDbLine
 10
214.8442770538341
 20
-31.09263957830733
 30
0.0
 11
214.2956145272461
 21
-30.562802335224
 31
0.0
  0
LINE
  5
2B5
330
1F
100
AcDbEntity
  8
1
  6
Continuous
 62
     7
100
AcDbLine
 10
215.2737240500228
 20
-31.09263957830733
 30
0.0
 11
215.0590005519284
 21
-31.17506420670275
 31
0.0
  0
LINE
  5
2B6
330
1F
100
AcDbEntity
  8
1
  6
Continuous
 62
     7
100
AcDbLine
 10
215.8223865766108
 20
-30.562802335224
 30
0.0
 11
215.2737240500228
 21
-31.09263957830733
 31
0.0
  0
LINE
  5
2B7
330
1F
100
AcDbEntity
  8
1
  6
Continuous
 62
     7
100
AcDbLine
 10
215.737955849373
 20
-62.85401950414742
 30
0.0
 11
215.8203804777685
 21
-62.63929600605305
 31
0.0
  0
LINE
  5
2B8
330
1F
100
AcDbEntity
  8
1
  6
Continuous
 62
     7
100
AcDbLine
 10
215.8203804777685
 20
-62.63929600605305
 30
0.0
 11
216.3502177208518
 21
-62.09063347946505
 31
0.0
  0
LINE
  5
2B9
330
1F
100
AcDbEntity
  8
1
  6
Continuous
 62
     7
100
AcDbLine
 10
215.8203804777685
 20
-63.06874300224177
 30
0.0
 11
215.737955849373
 21
-62.85401950414742
 31
0.0
  0
LINE
  5
2BA
330
1F
100
AcDbEntity
  8
1
  6
Continuous
 62
     7
100
AcDbLine
 10
216.3502177208518
 20
-63.61740552882977
 30
0.0
 11
215.8203804777685
 21
-63.06874300224177
 31
0.0
  0
LINE
  5
2BB
330
1F
100
AcDbEntity
  8
1
  6
Continuous
 62
     7
100
AcDbLine
 10
215.0590005519284
 20
-63.53297480159205
 30
0.0
 11
215.2737240500228
 21
-63.61539942998746
 31
0.0
  0
LINE
  5
2BC
330
1F
100
AcDbEntity
  8
1
  6
Continuous
 62
     7
100
AcDbLine
 10
215.2737240500228
 20
-63.61539942998746
 30
0.0
 11
215.8223865766108
 21
-64.1452366730708
 31
0.0
  0
LINE
  5
2BD
330
1F
100
AcDbEntity
  8
1
  6
Continuous
 62
     7
100
AcDbLine
 10
214.844277053834
 20
-63.61539942998746
 30
0.0
 11
215.0590005519284
 21
-63.53297480159205
 31
0.0
  0
LINE
  5
2BE
330
1F
100
AcDbEntity
  8
1
  6
Continuous
 62
     7
100
AcDbLine
 10
214.295614527246
 20
-64.1452366730708
 30
0.0
 11
214.844277053834
 21
-63.61539942998746
 31
0.0
  0
LINE
  5
2BF
330
1F
100
AcDbEntity
  8
1
  6
Continuous
 62
     7
100
AcDbLine
 10
214.3800452544838
 20
-62.8540195041474
 30
0.0
 11
214.2976206260883
 21
-63.06874300224175
 31
0.0
  0
LINE
  5
2C0
330
1F
100
AcDbEntity
  8
1
  6
Continuous
 62
     7
100
AcDbLine
 10
214.2976206260883
 20
-63.06874300224175
 30
0.0
 11
213.767783383005
 21
-63.61740552882976
 31
0.0
  0
LINE
  5
2C1
330
1F
100
AcDbEntity
  8
1
  6
Continuous
 62
     7
100
AcDbLine
 10
214.2976206260883
 20
-62.63929600605305
 30
0.0
 11
214.3800452544838
 21
-62.8540195041474
 31
0.0
  0
LINE
  5
2C2
330
1F
100
AcDbEntity
  8
1
  6
Continuous
 62
     7
100
AcDbLine
 10
213.767783383005
 20
-62.09063347946503
 30
0.0
 11
214.2976206260883
 21
-62.63929600605305
 31
0.0
  0
LINE
  5
2C3
330
1F
100
AcDbEntity
  8
1
  6
Continuous
 62
     7
100
AcDbLine
 10
215.0590005519284
 20
-62.17506420670276
 30
0.0
 11
214.8442770538341
 21
-62.09263957830733
 31
0.0
  0
LINE
  5
2C4
330
1F
100
AcDbEntity
  8
1
  6
Continuous
 62
     7
100
AcDbLine
 10
214.8442770538341
 20
-62.09263957830733
 30
0.0
 11
214.2956145272461
 21
-61.56280233522399
 31
0.0
  0
LINE
  5
2C5
330
1F
100
AcDbEntity
  8
1
  6
Continuous
 62
     7
100
AcDbLine
 10
215.2737240500228
 20
-62.09263957830733
 30
0.0
 11
215.0590005519284
 21
-62.17506420670276
 31
0.0
  0
LINE
  5
2C6
330
1F
100
AcDbEntity
  8
1
  6
Continuous
 62
     7
100
AcDbLine
 10
215.8223865766108
 20
-61.56280233522399
 30
0.0
 11
215.2737240500228
 21
-62.09263957830733
 31
0.0
  0
LINE
  5
2C7
330
1F
100
AcDbEntity
  8
1
  6
Continuous
 62
     7
100
AcDbLine
 10
184.737955849373
 20
-62.8540195041474
 30
0.0
 11
184.8203804777685
 21
-62.63929600605305
 31
0.0
  0
LINE
  5
2C8
330
1F
100
AcDbEntity
  8
1
  6
Continuous
 62
     7
100
AcDbLine
 10
184.8203804777685
 20
-62.63929600605305
 30
0.0
 11
185.3502177208518
 21
-62.09063347946505
 31
0.0
  0
LINE
  5
2C9
330
1F
100
AcDbEntity
  8
1
  6
Continuous
 62
     7
100
AcDbLine
 10
184.8203804777685
 20
-63.06874300224175
 30
0.0
 11
184.737955849373
 21
-62.8540195041474
 31
0.0
  0
LINE
  5
2CA
330
1F
100
AcDbEntity
  8
1
  6
Continuous
 62
     7
100
AcDbLine
 10
185.3502177208518
 20
-63.61740552882977
 30
0.0
 11
184.8203804777685
 21
-63.06874300224175
 31
0.0
  0
LINE
  5
2CB
330
1F
100
AcDbEntity
  8
1
  6
Continuous
 62
     7
100
AcDbLine
 10
184.0590005519284
 20
-63.53297480159203
 30
0.0
 11
184.2737240500228
 21
-63.61539942998746
 31
0.0
  0
LINE
  5
2CC
330
1F
100
AcDbEntity
  8
1
  6
Continuous
 62
     7
100
AcDbLine
 10
184.2737240500228
 20
-63.61539942998746
 30
0.0
 11
184.8223865766108
 21
-64.1452366730708
 31
0.0
  0
LINE
  5
2CD
330
1F
100
AcDbEntity
  8
1
  6
Continuous
 62
     7
100
AcDbLine
 10
183.844277053834
 20
-63.61539942998746
 30
0.0
 11
184.0590005519284
 21
-63.53297480159203
 31
0.0
  0
LINE
  5
2CE
330
1F
100
AcDbEntity
  8
1
  6
Continuous
 62
     7
100
AcDbLine
 10
183.295614527246
 20
-64.1452366730708
 30
0.0
 11
183.844277053834
 21
-63.61539942998746
 31
0.0
  0
LINE
  5
2CF
330
1F
100
AcDbEntity
  8
1
  6
Continuous
 62
     7
100
AcDbLine
 10
183.3800452544838
 20
-62.85401950414738
 30
0.0
 11
183.2976206260883
 21
-63.06874300224173
 31
0.0
  0
LINE
  5
2D0
330
1F
100
AcDbEntity
  8
1
  6
Continuous
 62
     7
100
AcDbLine
 10
183.2976206260883
 20
-63.06874300224173
 30
0.0
 11
182.767783383005
 21
-63.61740552882976
 31
0.0
  0
LINE
  5
2D1
330
1F
100
AcDbEntity
  8
1
  6
Continuous
 62
     7
100
AcDbLine
 10
183.2976206260883
 20
-62.63929600605304
 30
0.0
 11
183.3800452544838
 21
-62.85401950414738
 31
0.0
  0
LINE
  5
2D2
330
1F
100
AcDbEntity
  8
1
  6
Continuous
 62
     7
100
AcDbLine
 10
182.767783383005
 20
-62.09063347946503
 30
0.0
 11
183.2976206260883
 21
-62.63929600605304
 31
0.0
  0
LINE
  5
2D3
330
1F
100
AcDbEntity
  8
1
  6
Continuous
 62
     7
100
AcDbLine
 10
184.0590005519284
 20
-62.17506420670276
 30
0.0
 11
183.8442770538341
 21
-62.09263957830733
 31
0.0
  0
LINE
  5
2D4
330
1F
100
AcDbEntity
  8
1
  6
Continuous
 62
     7
100
AcDbLine
 10
183.8442770538341
 20
-62.09263957830733
 30
0.0
 11
183.2956145272461
 21
-61.56280233522399
 31
0.0
  0
LINE
  5
2D5
330
1F
100
AcDbEntity
  8
1
  6
Continuous
 62
     7
100
AcDbLine
 10
184.2737240500228
 20
-62.09263957830733
 30
0.0
 11
184.0590005519284
 21
-62.17506420670276
 31
0.0
  0
LINE
  5
2D6
330
1F
100
AcDbEntity
  8
1
  6
Continuous
 62
     7
100
AcDbLine
 10
184.8223865766108
 20
-61.56280233522399
 30
0.0
 11
184.2737240500228
 21
-62.09263957830733
 31
0.0
  0
LINE
  5
2D7
330
1F
100
AcDbEntity
  8
1
  6
Continuous
 62
     7
100
AcDbLine
 10
184.737955849373
 20
-31.8540195041474
 30
0.0
 11
184.8203804777685
 21
-31.63929600605304
 31
0.0
  0
LINE
  5
2D8
330
1F
100
AcDbEntity
  8
1
  6
Continuous
 62
     7
100
AcDbLine
 10
184.8203804777685
 20
-31.63929600605304
 30
0.0
 11
185.3502177208518
 21
-31.09063347946503
 31
0.0
  0
LINE
  5
2D9
330
1F
100
AcDbEntity
  8
1
  6
Continuous
 62
     7
100
AcDbLine
 10
184.8203804777685
 20
-32.06874300224175
 30
0.0
 11
184.737955849373
 21
-31.8540195041474
 31
0.0
  0
LINE
  5
2DA
330
1F
100
AcDbEntity
  8
1
  6
Continuous
 62
     7
100
AcDbLine
 10
185.3502177208518
 20
-32.61740552882976
 30
0.0
 11
184.8203804777685
 21
-32.06874300224175
 31
0.0
  0
LINE
  5
2DB
330
1F
100
AcDbEntity
  8
1
  6
Continuous
 62
     7
100
AcDbLine
 10
184.0590005519284
 20
-32.53297480159203
 30
0.0
 11
184.2737240500228
 21
-32.61539942998746
 31
0.0
  0
LINE
  5
2DC
330
1F
100
AcDbEntity
  8
1
  6
Continuous
 62
     7
100
AcDbLine
 10
184.2737240500228
 20
-32.61539942998746
 30
0.0
 11
184.8223865766108
 21
-33.1452366730708
 31
0.0
  0
LINE
  5
2DD
330
1F
100
AcDbEntity
  8
1
  6
Continuous
 62
     7
100
AcDbLine
 10
183.844277053834
 20
-32.61539942998746
 30
0.0
 11
184.0590005519284
 21
-32.53297480159203
 31
0.0
  0
LINE
  5
2DE
330
1F
100
AcDbEntity
  8
1
  6
Continuous
 62
     7
100
AcDbLine
 10
183.295614527246
 20
-33.1452366730708
 30
0.0
 11
183.844277053834
 21
-32.61539942998746
 31
0.0
  0
LINE
  5
2DF
330
1F
100
AcDbEntity
  8
1
  6
Continuous
 62
     7
100
AcDbLine
 10
183.3800452544838
 20
-31.85401950414737
 30
0.0
 11
183.2976206260883
 21
-32.06874300224173
 31
0.0
  0
LINE
  5
2E0
330
1F
100
AcDbEntity
  8
1
  6
Continuous
 62
     7
100
AcDbLine
 10
183.2976206260883
 20
-32.06874300224173
 30
0.0
 11
182.767783383005
 21
-32.61740552882975
 31
0.0
  0
LINE
  5
2E1
330
1F
100
AcDbEntity
  8
1
  6
Continuous
 62
     7
100
AcDbLine
 10
183.2976206260883
 20
-31.63929600605302
 30
0.0
 11
183.3800452544838
 21
-31.85401950414737
 31
0.0
  0
LINE
  5
2E2
330
1F
100
AcDbEntity
  8
1
  6
Continuous
 62
     7
100
AcDbLine
 10
182.767783383005
 20
-31.09063347946502
 30
0.0
 11
183.2976206260883
 21
-31.63929600605302
 31
0.0
  0
LINE
  5
2E3
330
1F
100
AcDbEntity
  8
1
  6
Continuous
 62
     7
100
AcDbLine
 10
184.0590005519284
 20
-31.17506420670274
 30
0.0
 11
183.8442770538341
 21
-31.09263957830731
 31
0.0
  0
LINE
  5
2E4
330
1F
100
AcDbEntity
  8
1
  6
Continuous
 62
     7
100
AcDbLine
 10
183.8442770538341
 20
-31.09263957830731
 30
0.0
 11
183.2956145272461
 21
-30.56280233522399
 31
0.0
  0
LINE
  5
2E5
330
1F
100
AcDbEntity
  8
1
  6
Continuous
 62
     7
100
AcDbLine
 10
184.2737240500228
 20
-31.09263957830731
 30
0.0
 11
184.0590005519284
 21
-31.17506420670274
 31
0.0
  0
LINE
  5
2E6
330
1F
100
AcDbEntity
  8
1
  6
Continuous
 62
     7
100
AcDbLine
 10
184.8223865766108
 20
-30.56280233522399
 30
0.0
 11
184.2737240500228
 21
-31.09263957830731
 31
0.0
  0
LINE
  5
2E7
330
1F
100
AcDbEntity
  8
1
  6
Continuous
 62
     7
100
AcDbLine
 10
215.0590005519284
 20
-35.05401950414739
 30
0.0
 11
220.5590005519284
 21
-35.05401950414739
 31
0.0
  0
LINE
  5
2E8
330
1F
100
AcDbEntity
  8
1
  6
DASH_CENTER
 62
     3
100
AcDbLine
 10
215.0590005519284
 20
-28.2540195041474
 30
0.0
 11
215.0590005519284
 21
-35.4540195041474
 31
0.0
  0
LINE
  5
2E9
330
1F
100
AcDbEntity
  8
1
  6
Continuous
 62
     7
100
AcDbLine
 10
215.0590005519284
 20
-59.65401950414739
 30
0.0
 11
220.5590005519284
 21
-59.65401950414739
 31
0.0
  0
LINE
  5
2EA
330
1F
100
AcDbEntity
  8
1
  6
DASH_CENTER
 62
     3
100
AcDbLine
 10
215.0590005519284
 20
-66.4540195041474
 30
0.0
 11
215.0590005519284
 21
-59.2540195041474
 31
0.0
  0
LINE
  5
2EB
330
1F
100
AcDbEntity
  8
1
  6
Continuous
 62
     7
100
AcDbLine
 10
178.5590005519284
 20
-59.65401950414739
 30
0.0
 11
184.0590005519284
 21
-59.65401950414739
 31
0.0
  0
LINE
  5
2EC
330
1F
100
AcDbEntity
  8
1
  6
DASH_CENTER
 62
     3
100
AcDbLine
 10
184.0590005519284
 20
-66.4540195041474
 30
0.0
 11
184.0590005519284
 21
-59.2540195041474
 31
0.0
  0
LINE
  5
2ED
330
1F
100
AcDbEntity
  8
1
  6
Continuous
 62
     7
100
AcDbLine
 10
178.5590005519284
 20
-35.05401950414739
 30
0.0
 11
184.0590005519284
 21
-35.05401950414739
 31
0.0
  0
LINE
  5
2EE
330
1F
100
AcDbEntity
  8
1
  6
DASH_CENTER
 62
     3
100
AcDbLine
 10
184.0590005519284
 20
-35.4540195041474
 30
0.0
 11
184.0590005519284
 21
-28.2540195041474
 31
0.0
  0
LINE
  5
2EF
330
1F
100
AcDbEntity
  8
1
  6
Continuous
 62
     7
100
AcDbLine
 10
187.2590005519284
 20
-26.3540195041474
 30
0.0
 11
187.2590005519284
 21
-31.8540195041474
 31
0.0
  0
LINE
  5
2F0
330
1F
100
AcDbEntity
  8
1
  6
DASH_CENTER
 62
     3
100
AcDbLine
 10
180.4590005519284
 20
-31.8540195041474
 30
0.0
 11
187.6590005519284
 21
-31.8540195041474
 31
0.0
  0
LINE
  5
2F1
330
1F
100
AcDbEntity
  8
1
  6
Continuous
 62
     7
100
AcDbLine
 10
187.2590005519284
 20
-62.8540195041474
 30
0.0
 11
187.2590005519284
 21
-68.3540195041474
 31
0.0
  0
LINE
  5
2F2
330
1F
100
AcDbEntity
  8
1
  6
DASH_CENTER
 62
     3
100
AcDbLine
 10
180.4590005519284
 20
-62.8540195041474
 30
0.0
 11
187.6590005519284
 21
-62.8540195041474
 31
0.0
  0
LINE
  5
2F3
330
1F
100
AcDbEntity
  8
1
  6
Continuous
 62
     7
100
AcDbLine
 10
211.8590005519284
 20
-62.8540195041474
 30
0.0
 11
211.8590005519284
 21
-68.3540195041474
 31
0.0
  0
LINE
  5
2F4
330
1F
100
AcDbEntity
  8
1
  6
DASH_CENTER
 62
     3
100
AcDbLine
 10
211.4590005519284
 20
-62.8540195041474
 30
0.0
 11
218.6590005519284
 21
-62.8540195041474
 31
0.0
  0
LINE
  5
2F5
330
1F
100
AcDbEntity
  8
1
  6
Continuous
 62
     7
100
AcDbLine
 10
211.8590005519284
 20
-26.3540195041474
 30
0.0
 11
211.8590005519284
 21
-31.8540195041474
 31
0.0
  0
LINE
  5
2F6
330
1F
100
AcDbEntity
  8
1
  6
DASH_CENTER
 62
     3
100
AcDbLine
 10
211.4590005519284
 20
-31.8540195041474
 30
0.0
 11
218.6590005519284
 21
-31.8540195041474
 31
0.0
  0
LINE
  5
2F7
330
1F
100
AcDbEntity
  8
1
  6
Continuous
 62
     7
100
AcDbLine
 10
211.2590005519284
 20
-26.3540195041474
 30
0.0
 11
211.2590005519284
 21
-31.8540195041474
 31
0.0
  0
LINE
  5
2F8
330
1F
100
AcDbEntity
  8
1
  6
Continuous
 62
     7
100
AcDbLine
 10
220.5590005519284
 20
-35.6540195041474
 30
0.0
 11
215.0590005519284
 21
-35.6540195041474
 31
0.0
  0
LINE
  5
2F9
330
1F
100
AcDbEntity
  8
1
  6
Continuous
 62
     7
100
AcDbLine
 10
220.5590005519284
 20
-59.05401950414739
 30
0.0
 11
215.0590005519284
 21
-59.05401950414739
 31
0.0
  0
LINE
  5
2FA
330
1F
100
AcDbEntity
  8
1
  6
Continuous
 62
     7
100
AcDbLine
 10
211.2590005519284
 20
-62.8540195041474
 30
0.0
 11
211.2590005519284
 21
-68.3540195041474
 31
0.0
  0
LINE
  5
2FB
330
1F
100
AcDbEntity
  8
1
  6
Continuous
 62
     7
100
AcDbLine
 10
178.5590005519284
 20
-59.05401950414739
 30
0.0
 11
184.0590005519284
 21
-59.05401950414739
 31
0.0
  0
LINE
  5
2FC
330
1F
100
AcDbEntity
  8
1
  6
Continuous
 62
     7
100
AcDbLine
 10
187.8590005519284
 20
-62.8540195041474
 30
0.0
 11
187.8590005519284
 21
-68.3540195041474
 31
0.0
  0
LINE
  5
2FD
330
1F
100
AcDbEntity
  8
1
  6
Continuous
 62
     7
100
AcDbLine
 10
184.2292908351725
 20
-68.3540195041474
 30
0.0
 11
214.8887102686843
 21
-68.3540195041474
 31
0.0
  0
LINE
  5
2FE
330
1F
100
AcDbEntity
  8
1
  6
Continuous
 62
     7
100
AcDbLine
 10
187.8590005519284
 20
-26.3540195041474
 30
0.0
 11
187.8590005519284
 21
-31.8540195041474
 31
0.0
  0
LINE
  5
2FF
330
1F
100
AcDbEntity
  8
1
  6
Continuous
 62
     7
100
AcDbLine
 10
214.8887102686843
 20
-26.3540195041474
 30
0.0
 11
184.2292908351725
 21
-26.3540195041474
 31
0.0
  0
LINE
  5
300
330
1F
100
AcDbEntity
  8
1
  6
Continuous
 62
     7
100
AcDbLine
 10
184.0590005519284
 20
-35.6540195041474
 30
0.0
 11
178.5590005519284
 21
-35.6540195041474
 31
0.0
  0
LINE
  5
301
330
1F
100
AcDbEntity
  8
1
  6
DASH_CENTER
 62
     3
100
AcDbLine
 10
199.5590005519284
 20
-18.36461054564838
 30
0.0
 11
199.5590005519284
 21
-73.3540195041474
 31
0.0
  0
LINE
  5
302
330
1F
100
AcDbEntity
  8
1
  6
DASH_CENTER
 62
     3
100
AcDbLine
 10
173.5590005519284
 20
-47.3540195041474
 30
0.0
 11
225.5590005519284
 21
-47.3540195041474
 31
0.0
  0
LINE
  5
303
330
1F
100
AcDbEntity
  8
1
  6
Continuous
 62
     7
100
AcDbLine
 10
220.5590005519284
 20
-62.68372922090328
 30
0.0
 11
220.5590005519284
 21
-32.0243097873915
 31
0.0
  0
LINE
  5
304
330
1F
100
AcDbEntity
  8
1
  6
Continuous
 62
     1
100
AcDbLine
 10
220.5590005519283
 20
-35.3540195041474
 30
0.0
 11
220.8590005519283
 21
-35.3540195041474
 31
0.0
  0
LINE
  5
305
330
1F
100
AcDbEntity
  8
1
  6
Continuous
 62
     1
100
AcDbLine
 10
220.8590005519283
 20
-35.3540195041474
 30
0.0
 11
220.8590005519283
 21
-59.3540195041474
 31
0.0
  0
LINE
  5
306
330
1F
100
AcDbEntity
  8
1
  6
Continuous
 62
     1
100
AcDbLine
 10
220.8590005519283
 20
-59.3540195041474
 30
0.0
 11
220.5590005519283
 21
-59.3540195041474
 31
0.0
  0
LINE
  5
307
330
1F
100
AcDbEntity
  8
1
  6
Continuous
 62
     7
100
AcDbLine
 10
178.5590005519284
 20
-62.68372922090328
 30
0.0
 11
178.5590005519284
 21
-32.0243097873915
 31
0.0
  0
LINE
  5
308
330
1F
100
AcDbEntity
  8
1
  6
Continuous
 62
     1
100
AcDbLine
 10
-65.24543978109675
 20
-35.3540195041474
 30
0.0
 11
-65.54543978109675
 21
-35.3540195041474
 31
0.0
  0
LINE
  5
309
330
1F
100
AcDbEntity
  8
1
  6
Continuous
 62
     1
100
AcDbLine
 10
-65.54543978109675
 20
-35.3540195041474
 30
0.0
 11
-65.54543978109675
 21
-59.3540195041474
 31
0.0
  0
LINE
  5
30A
330
1F
100
AcDbEntity
  8
1
  6
Continuous
 62
     1
100
AcDbLine
 10
-65.54543978109675
 20
-35.3540195041474
 30
0.0
 11
-65.54543978109675
 21
-59.3540195041474
 31
0.0
  0
LINE
  5
30B
330
1F
100
AcDbEntity
  8
1
  6
Continuous
 62
     1
100
AcDbLine
 10
-65.54543978109675
 20
-59.3540195041474
 30
0.0
 11
-65.24543978109675
 21
-59.3540195041474
 31
0.0
  0
ARC
  5
30C
330
1F
100
AcDbEntity
  8
1
  6
Continuous
 62
     7
100
AcDbCircle
 10
-44.24543978109674
 20
-47.3540195041474
 30
0.0
 40
26.00000000000001
100
AcDbArc
 50
36.12892747193822
 51
53.87107252806177
  0
ARC
  5
30D
330
1F
100
AcDbEntity
  8
1
  6
Continuous
 62
     7
100
AcDbCircle
 10
-44.24543978109674
 20
-47.3540195041474
 30
0.0
 40
26.00000000000001
100
AcDbArc
 50
-53.87107252806177
 51
-36.12892747193818
  0
ARC
  5
30E
330
1F
100
AcDbEntity
  8
1
  6
Continuous
 62
     7
100
AcDbCircle
 10
-44.24543978109674
 20
-47.3540195041474
 30
0.0
 40
26.00000000000001
100
AcDbArc
 50
126.1289274719382
 51
143.8710725280618
  0
ARC
  5
30F
330
1F
100
AcDbEntity
  8
1
  6
Continuous
 62
     7
100
AcDbCircle
 10
-44.24543978109674
 20
-47.3540195041474
 30
0.0
 40
25.99999999999999
100
AcDbArc
 50
-143.8710725280618
 51
-126.1289274719382
  0
ARC
  5
310
330
1F
100
AcDbEntity
  8
1
  6
Continuous
 62
     2
100
AcDbCircle
 10
-44.24543978109674
 20
-47.3540195041474
 30
0.0
 40
26.00000000000001
100
AcDbArc
 50
110.3944157364452
 51
122.5365189493492
  0
ARC
  5
311
330
1F
100
AcDbEntity
  8
1
  6
Continuous
 62
     2
100
AcDbCircle
 10
-44.24543978109674
 20
-47.3540195041474
 30
0.0
 40
26.0
100
AcDbArc
 50
-69.01959658593064
 51
-58.10167866826417
  0
ARC
  5
312
330
1F
100
AcDbEntity
  8
1
  6
Continuous
 62
     7
100
AcDbCircle
 10
112.4455640171579
 20
-31.8540195041474
 30
0.0
 40
5.000000000000107
100
AcDbArc
 50
-25.26416482102343
 51
25.26416482102351
  0
ARC
  5
313
330
1F
100
AcDbEntity
  8
1
  6
Continuous
 62
     7
100
AcDbCircle
 10
112.4455640171579
 20
-62.8540195041474
 30
0.0
 40
5.000000000000105
100
AcDbArc
 50
-25.2641648210234
 51
25.26416482102332
  0
ARC
  5
314
330
1F
100
AcDbEntity
  8
1
  6
Continuous
 62
     7
100
AcDbCircle
 10
199.5590005519284
 20
-47.3540195041474
 30
0.0
 40
26.00000000000001
100
AcDbArc
 50
126.1289274719382
 51
143.8710725280618
  0
ARC
  5
315
330
1F
100
AcDbEntity
  8
1
  6
Continuous
 62
     7
100
AcDbCircle
 10
199.5590005519284
 20
-47.3540195041474
 30
0.0
 40
26.0
100
AcDbArc
 50
36.12892747193823
 51
53.87107252806178
  0
ARC
  5
316
330
1F
100
AcDbEntity
  8
1
  6
Continuous
 62
     7
100
AcDbCircle
 10
199.5590005519284
 20
-47.3540195041474
 30
0.0
 40
26.0
100
AcDbArc
 50
-53.87107252806178
 51
-36.12892747193819
  0
ARC
  5
317
330
1F
100
AcDbEntity
  8
1
  6
Continuous
 62
     7
100
AcDbCircle
 10
199.5590005519284
 20
-47.3540195041474
 30
0.0
 40
25.99999999999999
100
AcDbArc
 50
-143.8710725280618
 51
-126.1289274719382
  0
ARC
  5
318
330
1F
100
AcDbEntity
  8
1
  6
Continuous
 62
     7
100
AcDbCircle
 10
215.0590005519284
 20
-31.8540195041474
 30
0.0
 40
1.500000000001
100
AcDbArc
 50
-59.40781443534684
 51
-30.5921855646527
  0
ARC
  5
319
330
1F
100
AcDbEntity
  8
1
  6
Continuous
 62
     7
100
AcDbCircle
 10
215.0590005519284
 20
-31.8540195041474
 30
0.0
 40
1.500000000000961
100
AcDbArc
 50
-149.407814435348
 51
-120.5921855646532
  0
ARC
  5
31A
330
1F
100
AcDbEntity
  8
1
  6
Continuous
 62
     7
100
AcDbCircle
 10
215.0590005519284
 20
-31.8540195041474
 30
0.0
 40
1.50000000000093
100
AcDbArc
 50
120.5921855646497
 51
149.4078144353473
  0
ARC
  5
31B
330
1F
100
AcDbEntity
  8
1
  6
Continuous
 62
     7
100
AcDbCircle
 10
215.0590005519284
 20
-31.8540195041474
 30
0.0
 40
1.500000000000961
100
AcDbArc
 50
30.592185564652
 51
59.40781443534655
  0
ARC
  5
31C
330
1F
100
AcDbEntity
  8
1
  6
Continuous
 62
     7
100
AcDbCircle
 10
215.0590005519284
 20
-62.8540195041474
 30
0.0
 40
1.500000000000985
100
AcDbArc
 50
-59.40781443534649
 51
-30.59218556465235
  0
ARC
  5
31D
330
1F
100
AcDbEntity
  8
1
  6
Continuous
 62
     7
100
AcDbCircle
 10
215.0590005519284
 20
-62.8540195041474
 30
0.0
 40
1.500000000000959
100
AcDbArc
 50
-149.4078144353481
 51
-120.5921855646535
  0
ARC
  5
31E
330
1F
100
AcDbEntity
  8
1
  6
Continuous
 62
     7
100
AcDbCircle
 10
215.0590005519284
 20
-62.8540195041474
 30
0.0
 40
1.500000000000939
100
AcDbArc
 50
120.5921855646495
 51
149.4078144353477
  0
ARC
  5
31F
330
1F
100
AcDbEntity
  8
1
  6
Continuous
 62
     7
100
AcDbCircle
 10
215.0590005519284
 20
-62.8540195041474
 30
0.0
 40
1.500000000000959
100
AcDbArc
 50
30.59218556465187
 51
59.40781443534677
  0
ARC
  5
320
330
1F
100
AcDbEntity
  8
1
  6
Continuous
 62
     7
100
AcDbCircle
 10
184.0590005519284
 20
-62.8540195041474
 30
0.0
 40
1.500000000000985
100
AcDbArc
 50
-59.40781443534649
 51
-30.59218556465235
  0
ARC
  5
321
330
1F
100
AcDbEntity
  8
1
  6
Continuous
 62
     7
100
AcDbCircle
 10
184.0590005519284
 20
-62.8540195041474
 30
0.0
 40
1.500000000000959
100
AcDbArc
 50
-149.4078144353481
 51
-120.5921855646535
  0
ARC
  5
322
330
1F
100
AcDbEntity
  8
1
  6
Continuous
 62
     7
100
AcDbCircle
 10
184.0590005519284
 20
-62.8540195041474
 30
0.0
 40
1.500000000000939
100
AcDbArc
 50
120.5921855646495
 51
149.4078144353477
  0
ARC
  5
323
330
1F
100
AcDbEntity
  8
1
  6
Continuous
 62
     7
100
AcDbCircle
 10
184.0590005519284
 20
-62.8540195041474
 30
0.0
 40
1.500000000000959
100
AcDbArc
 50
30.59218556465187
 51
59.40781443534677
  0
ARC
  5
324
330
1F
100
AcDbEntity
  8
1
  6
Continuous
 62
     7
100
AcDbCircle
 10
184.0590005519284
 20
-31.8540195041474
 30
0.0
 40
1.500000000000987
100
AcDbArc
 50
-59.40781443534655
 51
-30.592185564652
  0
ARC
  5
325
330
1F
100
AcDbEntity
  8
1
  6
Continuous
 62
     7
100
AcDbCircle
 10
184.0590005519284
 20
-31.8540195041474
 30
0.0
 40
1.500000000000957
100
AcDbArc
 50
-149.4078144353483
 51
-120.5921855646535
  0
ARC
  5
326
330
1F
100
AcDbEntity
  8
1
  6
Continuous
 62
     7
100
AcDbCircle
 10
184.0590005519284
 20
-31.8540195041474
 30
0.0
 40
1.500000000000939
100
AcDbArc
 50
120.5921855646495
 51
149.4078144353473
  0
ARC
  5
327
330
1F
100
AcDbEntity
  8
1
  6
Continuous
 62
     7
100
AcDbCircle
 10
184.0590005519284
 20
-31.8540195041474
 30
0.0
 40
1.500000000000966
100
AcDbArc
 50
30.59218556465235
 51
59.40781443534677
  0
ARC
  5
328
330
1F
100
AcDbEntity
  8
1
  6
Continuous
 62
     7
100
AcDbCircle
 10
195.6350115407918
 20
-53.25227437427507
 30
0.0
 40
0.7739711149938043
100
AcDbArc
 50
-127.3889169372934
 51
-32.20950515067904
  0
ARC
  5
329
330
1F
100
AcDbEntity
  8
1
  6
Continuous
 62
     7
100
AcDbCircle
 10
197.3268830689433
 20
-54.31809475866862
 30
0.0
 40
1.225629435005726
100
AcDbArc
 50
-47.97132075872405
 51
147.7904948493178
  0
ARC
  5
32A
330
1F
100
AcDbEntity
  8
1
  6
Continuous
 62
     7
100
AcDbCircle
 10
201.7911180349135
 20
-54.31809475866862
 30
0.0
 40
1.225629435005858
100
AcDbArc
 50
32.2095051506766
 51
-132.028679241272
  0
ARC
  5
32B
330
1F
100
AcDbEntity
  8
1
  6
Continuous
 62
     7
100
AcDbCircle
 10
203.4829895630651
 20
-53.25227437427507
 30
0.0
 40
0.773971114993787
100
AcDbArc
 50
-147.7904948493165
 51
-52.61108306271159
  0
ARC
  5
32C
330
1F
100
AcDbEntity
  8
1
  6
Continuous
 62
     7
100
AcDbCircle
 10
199.5590005519284
 20
-48.11785173452263
 30
0.0
 40
7.23616776962475
100
AcDbArc
 50
-52.61108306270325
 51
-127.3889169372966
  0
ARC
  5
32D
330
1F
100
AcDbEntity
  8
1
  6
Continuous
 62
     7
100
AcDbCircle
 10
215.0590005519284
 20
-31.8540195041474
 30
0.0
 40
3.199999999999989
100
AcDbArc
 50
180.0
 51
-90.0
  0
ARC
  5
32E
330
1F
100
AcDbEntity
  8
1
  6
Continuous
 62
     7
100
AcDbCircle
 10
215.0590005519284
 20
-62.8540195041474
 30
0.0
 40
3.20000000000001
100
AcDbArc
 50
90.0
 51
180.0
  0
ARC
  5
32F
330
1F
100
AcDbEntity
  8
1
  6
Continuous
 62
     7
100
AcDbCircle
 10
184.0590005519284
 20
-62.8540195041474
 30
0.0
 40
3.200000000000017
100
AcDbArc
 50
0.0
 51
90.0
  0
ARC
  5
330
330
1F
100
AcDbEntity
  8
1
  6
Continuous
 62
     7
100
AcDbCircle
 10
184.0590005519284
 20
-31.8540195041474
 30
0.0
 40
3.199999999999992
100
AcDbArc
 50
-90.0
 51
0.0
  0
ARC
  5
331
330
1F
100
AcDbEntity
  8
1
  6
Continuous
 62
     7
100
AcDbCircle
 10
215.0590005519284
 20
-31.8540195041474
 30
0.0
 40
3.799999999999983
100
AcDbArc
 50
180.0
 51
-90.0
  0
ARC
  5
332
330
1F
100
AcDbEntity
  8
1
  6
Continuous
 62
     7
100
AcDbCircle
 10
215.0590005519284
 20
-62.8540195041474
 30
0.0
 40
3.800000000000011
100
AcDbArc
 50
90.0
 51
180.0
  0
ARC
  5
333
330
1F
100
AcDbEntity
  8
1
  6
Continuous
 62
     7
100
AcDbCircle
 10
184.0590005519284
 20
-62.8540195041474
 30
0.0
 40
3.800000000000011
100
AcDbArc
 50
0.0
 51
90.0
  0
ARC
  5
334
330
1F
100
AcDbEntity
  8
1
  6
Continuous
 62
     7
100
AcDbCircle
 10
184.0590005519284
 20
-31.8540195041474
 30
0.0
 40
3.800000000000001
100
AcDbArc
 50
-90.0
 51
0.0
  0
CIRCLE
  5
335
330
1F
100
AcDbEntity
  8
1
  6
Continuous
 62
     7
100
AcDbCircle
 10
-44.24543978109674
 20
-47.3540195041474
 30
0.0
 40
2.5
  0
CIRCLE
  5
336
330
1F
100
AcDbEntity
  8
1
  6
Continuous
 62
     7
100
AcDbCircle
 10
199.5590005519284
 20
-47.3540195041474
 30
0.0
 40
8.0
  0
CIRCLE
  5
337
330
1F
100
AcDbEntity
  8
1
  6
Continuous
 62
     3
100
AcDbCircle
 10
-44.24543978109674
 20
-47.3540195041474
 30
0.0
 40
2.0
  0
CIRCLE
  5
338
330
1F
100
AcDbEntity
  8
1
  6
Continuous
 62
     7
100
AcDbCircle
 10
-28.74543978109674
 20
-31.8540195041474
 30
0.0
 40
1.199999999999999
  0
CIRCLE
  5
339
330
1F
100
AcDbEntity
  8
1
  6
Continuous
 62
     3
100
AcDbCircle
 10
-28.74543978109674
 20
-31.8540195041474
 30
0.0
 40
1.5
  0
CIRCLE
  5
33A
330
1F
100
AcDbEntity
  8
1
  6
Continuous
 62
     7
100
AcDbCircle
 10
-59.74543978109674
 20
-31.8540195041474
 30
0.0
 40
1.199999999999996
  0
CIRCLE
  5
33B
330
1F
100
AcDbEntity
  8
1
  6
Continuous
 62
     3
100
AcDbCircle
 10
-59.74543978109674
 20
-31.8540195041474
 30
0.0
 40
1.5
  0
CIRCLE
  5
33C
330
1F
100
AcDbEntity
  8
1
  6
Continuous
 62
     7
100
AcDbCircle
 10
-59.74543978109674
 20
-62.8540195041474
 30
0.0
 40
1.199999999999996
  0
CIRCLE
  5
33D
330
1F
100
AcDbEntity
  8
1
  6
Continuous
 62
     3
100
AcDbCircle
 10
-59.74543978109674
 20
-62.8540195041474
 30
0.0
 40
1.5
  0
CIRCLE
  5
33E
330
1F
100
AcDbEntity
  8
1
  6
Continuous
 62
     7
100
AcDbCircle
 10
-28.74543978109674
 20
-62.8540195041474
 30
0.0
 40
1.199999999999999
  0
CIRCLE
  5
33F
330
1F
100
AcDbEntity
  8
1
  6
Continuous
 62
     3
100
AcDbCircle
 10
-28.74543978109674
 20
-62.8540195041474
 30
0.0
 40
1.5
  0
CIRCLE
  5
340
330
1F
100
AcDbEntity
  8
1
  6
Continuous
 62
     7
100
AcDbCircle
 10
-44.24543978109674
 20
-47.3540195041474
 30
0.0
 40
11.0
  0
CIRCLE
  5
341
330
1F
100
AcDbEntity
  8
1
  6
Continuous
 62
     7
100
AcDbCircle
 10
-44.24543978109674
 20
-47.3540195041474
 30
0.0
 40
6.5
  0
CIRCLE
  5
342
330
1F
100
AcDbEntity
  8
1
  6
Continuous
 62
     7
100
AcDbCircle
 10
215.0590005519284
 20
-31.8540195041474
 30
0.0
 40
2.800000000000011
  0
CIRCLE
  5
343
330
1F
100
AcDbEntity
  8
1
  6
Continuous
 62
     7
100
AcDbCircle
 10
215.0590005519284
 20
-62.8540195041474
 30
0.0
 40
2.800000000000011
  0
CIRCLE
  5
344
330
1F
100
AcDbEntity
  8
1
  6
Continuous
 62
     7
100
AcDbCircle
 10
184.0590005519284
 20
-62.8540195041474
 30
0.0
 40
2.800000000000011
  0
CIRCLE
  5
345
330
1F
100
AcDbEntity
  8
1
  6
Continuous
 62
     7
100
AcDbCircle
 10
184.0590005519284
 20
-31.8540195041474
 30
0.0
 40
2.800000000000011
  0
CIRCLE
  5
346
330
1F
100
AcDbEntity
  8
1
  6
Continuous
 62
     7
100
AcDbCircle
 10
199.5590005519284
 20
-47.3540195041474
 30
0.0
 40
2.5
  0
CIRCLE
  5
347
330
1F
100
AcDbEntity
  8
1
  6
Continuous
 62
     7
100
AcDbCircle
 10
199.5590005519284
 20
-47.3540195041474
 30
0.0
 40
2.0
  0
CIRCLE
  5
348
330
1F
100
AcDbEntity
  8
1
  6
Continuous
 62
     7
100
AcDbCircle
 10
197.3268830689433
 20
-54.31809475866862
 30
0.0
 40
0.5832850249458303
  0
CIRCLE
  5
349
330
1F
100
AcDbEntity
  8
1
  6
Continuous
 62
     7
100
AcDbCircle
 10
201.7911180349135
 20
-54.31809475866862
 30
0.0
 40
0.5832850249458303
  0
SPLINE
  5
34A
330
1F
100
AcDbEntity
  8
1
  6
Continuous
 62
     7
100
AcDbSpline
210
0.0
220
0.0
230
1.0
 70
     8
 71
     3
 72
    11
 73
     7
 74
     5
 42
0.0000000001
 43
0.0000000001
 44
0.00000001
 40
0.0
 40
0.0
 40
0.0
 40
0.0
 40
1.061413362334761
 40
2.153354230730928
 40
3.492978298362259
 40
4.833550222058488
 40
4.833550222058488
 40
4.833550222058488
 40
4.833550222058488
 10
80.96291720693816
 20
-30.3540195041474
 30
0.0
 10
80.84719024454472
 20
-30.01161390002992
 30
0.0
 10
80.6124078751845
 20
-29.31695470087449
 30
0.0
 10
79.46479056186774
 20
-28.66843755395627
 30
0.0
 10
79.79106702098399
 20
-27.13370172833604
 30
0.0
 10
80.52249877877351
 20
-26.61397484632143
 30
0.0
 10
80.88834399373732
 20
-26.35401950414741
 30
0.0
 11
80.96291720693816
 21
-30.3540195041474
 31
0.0
 11
80.50088781772229
 21
-29.39844262642191
 31
0.0
 11
79.74968765664293
 21
-28.60595718297949
 31
0.0
 11
79.91579778514883
 21
-27.27667163510617
 31
0.0
 11
80.88834399373732
 21
-26.35401950414741
 31
0.0
  0
SPLINE
  5
34B
330
1F
100
AcDbEntity
  8
1
  6
Continuous
 62
     7
100
AcDbSpline
210
0.0
220
0.0
230
1.0
 70
     8
 71
     3
 72
    21
 73
    17
 74
    15
 42
0.0000000001
 43
0.0000000001
 44
0.00000001
 40
0.0
 40
0.0
 40
0.0
 40
0.0
 40
0.3919505886038082
 40
0.6546459664020167
 40
0.7873240542615375
 40
0.928587444179379
 40
1.226392561073366
 40
1.536775334736712
 40
1.71377176011631
 40
1.886808737220442
 40
2.216780242915871
 40
2.557142480906881
 40
2.83426309815733
 40
3.090146331137325
 40
3.262196977089316
 40
3.480001493501822
 40
3.480001493501822
 40
3.480001493501822
 40
3.480001493501822
 10
80.37594864204485
 20
-33.3540195041474
 30
0.0
 10
80.48086765634127
 20
-33.27200971170782
 30
0.0
 10
80.65610609584124
 20
-33.1350348445
 30
0.0
 10
80.75412149180063
 20
-32.87951307353438
 30
0.0
 10
80.76297236611529
 20
-32.70058015764312
 30
0.0
 10
80.74693095079105
 20
-32.50920622595346
 30
0.0
 10
80.63832502363849
 20
-32.27788155035887
 30
0.0
 10
80.489617954639
 20
-32.06366010896041
 30
0.0
 10
80.37779159012369
 20
-31.87359414674917
 30
0.0
 10
80.29225332490348
 20
-31.66184768817655
 30
0.0
 10
80.28564893655884
 20
-31.37203108613215
 30
0.0
 10
80.38291116132109
 20
-31.06732454052906
 30
0.0
 10
80.54245040002547
 20
-30.81941622033564
 30
0.0
 10
80.714754506779
 20
-30.65934565356384
 30
0.0
 10
80.92900672342222
 20
-30.57058862099617
 30
0.0
 10
80.95076261330384
 20
-30.43164474967968
 30
0.0
 10
80.96291720693816
 20
-30.3540195041474
 30
0.0
 11
80.37594864204485
 21
-33.3540195041474
 31
0.0
 11
80.65710281637284
 21
-33.08093051834824
 31
0.0
 11
80.75145740425634
 21
-32.83576511854256
 31
0.0
 11
80.75996797865415
 21
-32.70336026545372
 31
0.0
 11
80.74601195160054
 21
-32.5627879543823
 31
0.0
 11
80.63366187116338
 21
-32.28698848543066
 31
0.0
 11
80.46832171335714
 21
-32.02430978739148
 31
0.0
 11
80.38101762914779
 21
-31.87034313035976
 31
0.0
 11
80.31901582519012
 21
-31.7087957015615
 31
0.0
 11
80.30367657614076
 21
-31.37918092335896
 31
0.0
 11
80.40441505047227
 21
-31.0540683077323
 31
0.0
 11
80.55522146978234
 21
-30.82157473706819
 31
0.0
 11
80.74861607374314
 21
-30.6540195041474
 31
0.0
 11
80.89287020270123
 21
-30.5602529266742
 31
0.0
 11
80.96291720693816
 21
-30.3540195041474
 31
0.0
  0
SPLINE
  5
34C
330
1F
100
AcDbEntity
  8
1
  6
Continuous
 62
     7
100
AcDbSpline
210
0.0
220
0.0
230
1.0
 70
     8
 71
     3
 72
    14
 73
    10
 74
     8
 42
0.0000000001
 43
0.0000000001
 44
0.00000001
 40
0.0
 40
0.0
 40
0.0
 40
0.0
 40
1.640449387360258
 40
3.26582426777689
 40
4.819414925210984
 40
5.871280895584688
 40
6.989293170548846
 40
8.593906216490124
 40
10.19588504833779
 40
10.19588504833779
 40
10.19588504833779
 40
10.19588504833779
 10
70.84556401715784
 20
-35.66562647296431
 30
0.0
 10
71.33922000757374
 20
-35.3602624644273
 30
0.0
 10
72.32199565786551
 20
-34.75234051494822
 30
0.0
 10
73.90875571927454
 20
-35.38617139884881
 30
0.0
 10
75.334792856494
 20
-35.72635563419872
 30
0.0
 10
76.4926429296707
 20
-35.16183489672679
 30
0.0
 10
77.52516043323986
 20
-34.4485381824643
 30
0.0
 10
78.92851043032852
 20
-34.04017448270159
 30
0.0
 10
79.89373354828942
 20
-33.58261253467263
 30
0.0
 10
80.37594864204485
 20
-33.3540195041474
 30
0.0
 11
70.84556401715784
 21
-35.66562647296431
 31
0.0
 11
72.34986468096092
 21
-35.01129192139894
 31
0.0
 11
73.93888481480799
 21
-35.35313767041158
 31
0.0
 11
75.47972639253919
 21
-35.55176083925481
 31
0.0
 11
76.45299939940935
 21
-35.15281012334101
 31
0.0
 11
77.41544216559959
 21
-34.58390295272473
 31
0.0
 11
78.91050234579531
 21
-34.00116966484933
 31
0.0
 11
80.37594864204485
 21
-33.3540195041474
 31
0.0
  0
ARC
  5
34D
330
1F
100
AcDbEntity
  8
1
  6
Continuous
 62
     7
100
AcDbCircle
 10
195.7590005519284
 20
-25.8540195041474
 30
0.0
 40
0.1999999999999993
100
AcDbArc
 50
90.0
 51
180.0
  0
ARC
  5
34E
330
1F
100
AcDbEntity
  8
1
  6
Continuous
 62
     7
100
AcDbCircle
 10
203.3590005519284
 20
-25.8540195041474
 30
0.0
 40
0.1999999999999886
100
AcDbArc
 50
0.0
 51
90.0
  0
ARC
  5
34F
330
1F
100
AcDbEntity
  8
1
  6
Continuous
 62
     7
100
AcDbCircle
 10
116.6455640171579
 20
-25.8540195041474
 30
0.0
 40
0.1999999999999034
100
AcDbArc
 50
0.0
 51
90.0
  0
ARC
  5
350
330
1F
100
AcDbEntity
  8
1
  6
Continuous
 62
     7
100
AcDbCircle
 10
110.9455640171579
 20
-25.8540195041474
 30
0.0
 40
0.1999999999999993
100
AcDbArc
 50
90.0
 51
180.0
  0
ARC
  5
351
330
1F
100
AcDbEntity
  8
1
  6
Continuous
 62
     7
100
AcDbCircle
 10
-48.04543978109673
 20
-25.8540195041474
 30
0.0
 40
0.1999999999999993
100
AcDbArc
 50
90.0
 51
180.0
  0
ARC
  5
352
330
1F
100
AcDbEntity
  8
1
  6
Continuous
 62
     7
100
AcDbCircle
 10
-40.44543978109675
 20
-25.8540195041474
 30
0.0
 40
0.2000000000000099
100
AcDbArc
 50
0.0
 51
90.0
  0
ARC
  5
353
330
1F
100
AcDbEntity
  8
1
  6
Continuous
 62
     7
100
AcDbCircle
 10
116.0629626584077
 20
-30.14685018908677
 30
0.0
 40
1.000000000000057
100
AcDbArc
 50
25.26416482102162
 51
85.00000000000338
  0
ARC
  5
354
330
1F
100
AcDbEntity
  8
1
  6
Continuous
 62
     7
100
AcDbCircle
 10
116.0629626584077
 20
-33.56118881920801
 30
0.0
 40
0.9999999999999839
100
AcDbArc
 50
-85.0000000000034
 51
-25.26416482102199
  0
ARC
  5
355
330
1F
100
AcDbEntity
  8
1
  6
Continuous
 62
     7
100
AcDbCircle
 10
116.0629626584077
 20
-64.56118881920803
 30
0.0
 40
0.9999999999999768
100
AcDbArc
 50
-85.00000000000337
 51
-25.26416482102125
  0
ARC
  5
356
330
1F
100
AcDbEntity
  8
1
  6
Continuous
 62
     7
100
AcDbCircle
 10
116.0629626584077
 20
-61.14685018908679
 30
0.0
 40
1.000000000000057
100
AcDbArc
 50
25.26416482102162
 51
85.00000000000347
  0
SOLID
  5
357
330
1F
100
AcDbEntity
  8
1
 62
     2
100
AcDbTrace
 10
108.3210626386033
 20
24.25027177910868
 30
0.0
 11
108.9324688322668
 21
24.93981444804144
 31
0.0
 12
111.2455640171578
 22
22.2729975585426
 32
0.0
 13
111.2455640171578
 23
22.2729975585426
 33
0.0
  0
LEADER
  5
358
330
1F
100
AcDbEntity
  8
1
  6
Continuous
 62
     2
100
AcDbLeader
  3
Standard
 71
     0
 76
     3
 10
111.2455640171578
 20
22.2729975585426
 30
0.0
 10
96.68494719718171
 20
35.1836580707812
 30
0.0
 10
91.68494719718171
 20
35.1836580707812
 30
0.0
  0
SOLID
  5
359
330
1F
100
AcDbEntity
  8
1
 62
     2
100
AcDbTrace
 10
49.90737043842353
 20
-52.95727007754099
 30
0.0
 11
49.05851254574947
 21
-52.598484760152
 31
0.0
 12
50.84556401715788
 22
-49.55401950414739
 32
0.0
 13
50.84556401715788
 23
-49.55401950414739
 33
0.0
  0
LEADER
  5
35A
330
1F
100
AcDbEntity
  8
1
  6
Continuous
 62
     2
100
AcDbLeader
  3
Standard
 71
     0
 76
     3
 10
50.84556401715788
 20
-49.55401950414739
 30
0.0
 10
43.13926772952566
 20
-67.7865114986547
 30
0.0
 10
38.13926772952566
 20
-67.7865114986547
 30
0.0
  0
SOLID
  5
35B
330
1F
100
AcDbEntity
  8
1
 62
     4
100
AcDbTrace
 10
16.96559510508706
 20
-41.3050098164565
 30
0.0
 11
17.88716258819884
 21
-41.3050098164565
 31
0.0
 12
17.42637884664295
 22
-44.8050098164565
 32
0.0
 13
17.42637884664295
 23
-44.8050098164565
 33
0.0
  0
LEADER
  5
35C
330
1F
100
AcDbEntity
  8
1
  6
Continuous
 62
     4
100
AcDbLeader
  3
Standard
 71
     0
 76
     3
 10
17.42637884664295
 20
-44.8050098164565
 30
0.0
 10
17.42637884664295
 20
-14.260818272778
 30
0.0
 10
22.53950342223666
 20
-14.260818272778
 30
0.0
  0
SOLID
  5
35D
330
1F
100
AcDbEntity
  8
1
 62
     2
100
AcDbTrace
 10
70.71312764709751
 20
-29.19985129103529
 30
0.0
 11
71.47938791035851
 21
-28.68786317117689
 31
0.0
 12
73.04072571226845
 22
-31.8540195041474
 32
0.0
 13
73.04072571226845
 23
-31.8540195041474
 33
0.0
  0
LEADER
  5
35E
330
1F
100
AcDbEntity
  8
1
  6
Continuous
 62
     2
100
AcDbLeader
  3
Standard
 71
     0
 76
     3
 10
73.04072571226845
 20
-31.8540195041474
 30
0.0
 10
57.43475522945526
 20
-8.49754972138943
 30
0.0
 10
52.43475522945526
 20
-8.49754972138943
 30
0.0
  0
SOLID
  5
35F
330
1F
100
AcDbEntity
  8
1
 62
     2
100
AcDbTrace
 10
222.2395117557127
 20
-39.43316565070391
 30
0.0
 11
223.0333953470268
 21
-39.90117790414526
 31
0.0
 12
220.8590005519283
 22
-42.682244054299
 32
0.0
 13
220.8590005519283
 23
-42.682244054299
 33
0.0
  0
LEADER
  5
360
330
1F
100
AcDbEntity
  8
1
  6
Continuous
 62
     2
100
AcDbLeader
  3
Standard
 71
     0
 76
     3
 10
220.8590005519283
 20
-42.682244054299
 30
0.0
 10
230.253684627551
 20
-26.7461537524431
 30
0.0
 10
235.253684627551
 20
-26.7461537524431
 30
0.0
  0
SOLID
  5
361
330
1F
100
AcDbEntity
  8
1
 62
     2
100
AcDbTrace
 10
-52.43479583280099
 20
-26.39217004574385
 30
0.0
 11
-53.28609441243271
 21
-26.74512521888342
 31
0.0
 12
-54.20092547660809
 22
-23.33552028861628
 32
0.0
 13
-54.20092547660809
 23
-23.33552028861628
 33
0.0
  0
LEADER
  5
362
330
1F
100
AcDbEntity
  8
1
  6
Continuous
 62
     2
100
AcDbLeader
  3
Standard
 71
     0
 76
     2
 10
-54.20092547660809
 20
-23.33552028861628
 30
0.0
 10
-53.43428288340834
 20
-25.18459858621089
 30
0.0
  0
SOLID
  5
363
330
1F
100
AcDbEntity
  8
1
 62
     4
100
AcDbTrace
 10
23.61595070130905
 20
-52.4790195041474
 30
0.0
 11
25.47146079572112
 21
-49.8540195041474
 31
0.0
 12
21.76044060689698
 22
-49.8540195041474
 32
0.0
 13
21.76044060689698
 23
-49.8540195041474
 33
0.0
  0
LEADER
  5
364
330
1F
100
AcDbEntity
  8
1
  6
Continuous
 62
     4
100
AcDbLeader
  3
Standard
 71
     0
 76
     2
 10
23.61595070130905
 20
-49.8540195041474
 30
0.0
 10
23.61595070130905
 20
-63.34893101103701
 30
0.0
  0
SOLID
  5
365
330
1F
100
AcDbEntity
  8
1
 62
     4
100
AcDbTrace
 10
4.04822775621868
 20
-32.8653314264337
 30
0.0
 11
4.96979523933045
 21
-32.8653314264337
 31
0.0
 12
4.50901149777456
 22
-36.3653314264337
 32
0.0
 13
4.50901149777456
 23
-36.3653314264337
 33
0.0
  0
LEADER
  5
366
330
1F
100
AcDbEntity
  8
1
  6
Continuous
 62
     4
100
AcDbLeader
  3
Standard
 71
     0
 76
     2
 10
4.50901149777456
 20
-36.3653314264337
 30
0.0
 10
4.50901149777456
 20
6.6209904497221
 30
0.0
  0
DIMENSION
  5
372
330
1F
100
AcDbEntity
  8
1
100
AcDbDimension
  2
*D1
 10
50.84556401715788
 20
-33.68930642665021
 30
0.0
 11
58.34556401715788
 21
-29.9393064266502
 31
0.0
 70
    32
  1
<>
 71
     5
 42
-1.0
 53
0.00013888888889
  3
ME10_DIM_10
100
AcDbAlignedDimension
 13
65.84556401715787
 23
-45.8540195041474
 33
0.0
 14
50.84556401715788
 24
-45.15401950414742
 34
0.0
100
AcDbRotatedDimension
  0
DIMENSION
  5
37F
330
1F
100
AcDbEntity
  8
1
100
AcDbDimension
  2
*D2
 10
-46.74543978109674
 20
-34.0191989533753
 30
0.0
 11
-40.28002409272714
 21
-30.2691989533753
 31
0.0
 70
    32
  1
<>
 71
     5
 42
-1.0
 53
0.00013888888889
  3
ME10_DIM_11
100
AcDbAlignedDimension
 13
-42.24543978109674
 23
-45.8540195041474
 33
0.0
 14
-46.74543978109674
 24
-47.3540195041474
 34
0.0
100
AcDbRotatedDimension
  0
DIMENSION
  5
38D
330
1F
100
AcDbEntity
  8
1
100
AcDbDimension
  2
*D3
 10
17.37575427104916
 20
-44.85401950414741
 30
0.0
 11
12.31325427104916
 21
-47.3540195041474
 31
0.0
 70
    32
  1
<>
 71
     5
 42
-1.0
 53
90.0
  3
ME10_DIM_12
100
AcDbAlignedDimension
 13
51.14556401715786
 23
-49.8540195041474
 33
0.0
 14
51.14556401715786
 24
-44.85401950414741
 34
0.0
 50
90.0
100
AcDbRotatedDimension
  0
DIMENSION
  5
398
330
1F
100
AcDbEntity
  8
1
100
AcDbDimension
  2
*D4
 10
70.84556401715786
 20
-97.4017393453905
 30
0.0
 11
94.34556401715784
 21
-93.6517393453905
 31
0.0
 70
    32
  1
<>
 71
     5
 42
-1.0
 53
0.00013888888889
  3
ME10_DIM_13
100
AcDbAlignedDimension
 13
117.8455640171578
 23
-67.8540195041474
 33
0.0
 14
70.84556401715787
 24
-67.8540195041474
 34
0.0
100
AcDbRotatedDimension
  0
DIMENSION
  5
3A5
330
1F
100
AcDbEntity
  8
1
100
AcDbDimension
  2
*D5
 10
135.0955640171578
 20
35.8367362876015
 30
0.0
 11
131.3455640171578
 21
19.3342327608362
 31
0.0
 70
    32
  1
5~10
 71
     5
 42
-1.0
 53
90.0
  3
ME10_DIM_14
100
AcDbAlignedDimension
 13
116.3455640171578
 23
31.5020239383464
 33
0.0
 14
115.7080640171579
 24
35.8367362876015
 34
0.0
 50
90.0
100
AcDbRotatedDimension
  0
DIMENSION
  5
3B0
330
1F
100
AcDbEntity
  8
1
100
AcDbDimension
  2
*D6
 10
145.0955640171578
 20
35.8367362876015
 30
0.0
 11
141.3455640171578
 21
4.74135839172705
 31
0.0
 70
    32
  1
300MIN.
 71
     5
 42
-1.0
 53
90.0
  3
ME10_DIM_15
100
AcDbAlignedDimension
 13
117.3455640171578
 23
-26.3540195041474
 33
0.0
 14
115.7080640171579
 24
35.8367362876015
 34
0.0
 50
90.0
100
AcDbRotatedDimension
  0
DIMENSION
  5
3BB
330
1F
100
AcDbEntity
  8
1
100
AcDbDimension
  2
*D7
 10
-86.49543978109674
 20
-26.3540195041474
 30
0.0
 11
-90.24543978109674
 21
-47.3540195041474
 31
0.0
 70
    32
  1
42
 71
     5
 42
-1.0
 53
90.0
  3
ME10_DIM_16
100
AcDbAlignedDimension
 13
-59.57514949785264
 23
-68.3540195041474
 33
0.0
 14
-59.57514949785264
 24
-26.3540195041474
 34
0.0
 50
90.0
100
AcDbRotatedDimension
  0
DIMENSION
  5
3C6
330
1F
100
AcDbEntity
  8
1
100
AcDbDimension
  2
*D8
 10
-76.49543978109674
 20
-31.8540195041474
 30
0.0
 11
-80.24543978109674
 21
-47.3540195041474
 31
0.0
 70
    33
  1
<>
 71
     5
 42
-1.0
 53
90.0
  3
ME10_DIM_17
100
AcDbAlignedDimension
 13
-62.14543978109675
 23
-62.8540195041474
 33
0.0
 14
-62.14543978109675
 24
-31.8540195041474
 34
0.0
  0
DIMENSION
  5
3D1
330
1F
100
AcDbEntity
  8
1
100
AcDbDimension
  2
*D9
 10
-59.74543978109674
 20
-87.1040195041474
 30
0.0
 11
-44.24543978109674
 21
-83.3540195041474
 31
0.0
 70
    32
  1
<>
 71
     5
 42
-1.0
 53
0.00013888888889
  3
ME10_DIM_18
100
AcDbAlignedDimension
 13
-28.74543978109674
 23
-65.25401950414741
 33
0.0
 14
-59.74543978109674
 24
-65.25401950414741
 34
0.0
100
AcDbRotatedDimension
  0
DIMENSION
  5
3DC
330
1F
100
AcDbEntity
  8
1
100
AcDbDimension
  2
*D10
 10
-65.24543978109674
 20
-97.1040195041474
 30
0.0
 11
-44.24543978109674
 21
-93.3540195041474
 31
0.0
 70
    32
  1
<>
 71
     5
 42
-1.0
 53
0.00013888888889
  3
ME10_DIM_19
100
AcDbAlignedDimension
 13
-23.24543978109674
 23
-62.68372922090328
 33
0.0
 14
-65.24543978109674
 24
-62.68372922090328
 34
0.0
100
AcDbRotatedDimension
  0
DIMENSION
  5
3E9
330
1F
100
AcDbEntity
  8
1
100
AcDbDimension
  2
*D11
 10
70.84556401715787
 20
-14.8602817659602
 30
0.0
 11
77.33624498496866
 21
-11.1102817659602
 31
0.0
 70
    32
  1
4-4.5MIN.
 71
     5
 42
-1.0
 53
0.00013888888889
  3
ME10_DIM_20
100
AcDbAlignedDimension
 13
75.14556401715785
 23
-30.8540195041474
 33
0.0
 14
70.84556401715787
 24
-26.8540195041474
 34
0.0
100
AcDbRotatedDimension
  0
DIMENSION
  5
3F6
330
1F
100
AcDbEntity
  8
1
100
AcDbDimension
  2
*D12
 10
68.84556401715786
 20
-87.31848230598669
 30
0.0
 11
59.6710724362016
 21
-83.56848230598669
 31
0.0
 70
    32
  1
<>
 71
     5
 42
-1.0
 53
0.00013888888889
  3
ME10_DIM_21
100
AcDbAlignedDimension
 13
70.84556401715787
 23
-67.8540195041474
 33
0.0
 14
68.84556401715787
 24
-58.15401950414739
 34
0.0
100
AcDbRotatedDimension
  0
DIMENSION
  5
401
330
1F
100
AcDbEntity
  8
1
100
AcDbDimension
  2
*D13
 10
50.84556401715787
 20
-97.4310817556456
 30
0.0
 11
60.84556401715786
 21
-93.6810817556456
 31
0.0
 70
    32
  1
<>
 71
     5
 42
-1.0
 53
0.00013888888889
  3
ME10_DIM_22
100
AcDbAlignedDimension
 13
70.84556401715787
 23
-67.8540195041474
 33
0.0
 14
50.84556401715788
 24
-49.55401950414739
 34
0.0
100
AcDbRotatedDimension
  0
DIMENSION
  5
40C
330
1F
100
AcDbEntity
  8
1
100
AcDbDimension
  2
*D14
 10
4.45838692218076
 20
-36.3540195041474
 30
0.0
 11
-0.60411307781924
 21
-47.3540195041474
 31
0.0
 70
    32
  1
<>
 71
     5
 42
-1.0
 53
90.0
  3
ME10_DIM_23
100
AcDbAlignedDimension
 13
69.04556401715786
 23
-58.3540195041474
 33
0.0
 14
69.04556401715786
 24
-36.3540195041474
 34
0.0
 50
90.0
100
AcDbRotatedDimension
  0
INSERT
  5
414
330
1F
100
AcDbEntity
  8
1
100
AcDbBlockReference
  2
*D15
 10
0.0
 20
0.0
 30
0.0
  0
ENDSEC
  0
SECTION
  2
OBJECTS
  0
DICTIONARY
  5
C
330
0
100
AcDbDictionary
281
     1
  3
ACAD_GROUP
350
D
  3
ACAD_LAYOUT
350
1A
  3
ACAD_MLINESTYLE
350
17
  3
ACAD_PLOTSETTINGS
350
19
  3
ACAD_PLOTSTYLENAME
350
E
  0
DICTIONARY
  5
D
102
{ACAD_REACTORS
330
C
102
}
330
C
100
AcDbDictionary
281
     1
  0
DICTIONARY
  5
1A
102
{ACAD_REACTORS
330
C
102
}
330
C
100
AcDbDictionary
281
     1
  3
Layout1
350
1E
  3
Layout2
350
26
  3
Model
350
22
  0
DICTIONARY
  5
17
102
{ACAD_REACTORS
330
C
102
}
330
C
100
AcDbDictionary
281
     1
  3
Standard
350
18
  0
DICTIONARY
  5
19
102
{ACAD_REACTORS
330
C
102
}
330
C
100
AcDbDictionary
281
     1
  0
ACDBDICTIONARYWDFLT
  5
E
102
{ACAD_REACTORS
330
C
102
}
330
C
100
AcDbDictionary
281
     1
  3
Normal
350
F
100
AcDbDictionaryWithDefault
340
F
  0
LAYOUT
  5
1E
102
{ACAD_REACTORS
330
1A
102
}
330
1A
100
AcDbPlotSettings
  1

  2

  4

  6

 40
0.0
 41
0.0
 42
0.0
 43
0.0
 44
0.0
 45
0.0
 46
0.0
 47
0.0
 48
0.0
 49
0.0
140
0.0
141
0.0
142
1.0
143
1.0
 70
   688
 72
     0
 73
     0
 74
     5
  7

 75
    16
147
1.0
148
0.0
149
0.0
100
AcDbLayout
  1
Layout1
 70
     1
 71
     1
 10
0.0
 20
0.0
 11
0.0
 21
0.0
 12
0.0
 22
0.0
 32
0.0
 14
0.0
 24
0.0
 34
0.0
 15
0.0
 25
0.0
 35
0.0
146
0.0
 13
0.0
 23
0.0
 33
0.0
 16
1.0
 26
0.0
 36
0.0
 17
0.0
 27
1.0
 37
0.0
 76
     0
330
1B
  0
LAYOUT
  5
26
102
{ACAD_REACTORS
330
1A
102
}
330
1A
100
AcDbPlotSettings
  1

  2

  4

  6

 40
0.0
 41
0.0
 42
0.0
 43
0.0
 44
0.0
 45
0.0
 46
0.0
 47
0.0
 48
0.0
 49
0.0
140
0.0
141
0.0
142
1.0
143
1.0
 70
   688
 72
     0
 73
     0
 74
     5
  7

 75
    16
147
1.0
148
0.0
149
0.0
100
AcDbLayout
  1
Layout2
 70
     1
 71
     2
 10
0.0
 20
0.0
 11
0.0
 21
0.0
 12
0.0
 22
0.0
 32
0.0
 14
0.0
 24
0.0
 34
0.0
 15
0.0
 25
0.0
 35
0.0
146
0.0
 13
0.0
 23
0.0
 33
0.0
 16
1.0
 26
0.0
 36
0.0
 17
0.0
 27
1.0
 37
0.0
 76
     0
330
23
  0
LAYOUT
  5
22
102
{ACAD_REACTORS
330
1A
102
}
330
1A
100
AcDbPlotSettings
  1

  2

  4

  6

 40
0.0
 41
0.0
 42
0.0
 43
0.0
 44
0.0
 45
0.0
 46
0.0
 47
0.0
 48
0.0
 49
0.0
140
0.0
141
0.0
142
1.0
143
1.0
 70
  1712
 72
     0
 73
     0
 74
     0
  7

 75
     0
147
1.0
148
0.0
149
0.0
100
AcDbLayout
  1
Model
 70
     1
 71
     0
 10
0.0
 20
0.0
 11
0.0
 21
0.0
 12
0.0
 22
0.0
 32
0.0
 14
-91.99543978109674
 24
-120.2054711972681
 34
0.0
 15
254.8077520249507
 25
45.91030134374829
 35
0.0
146
0.0
 13
0.0
 23
0.0
 33
0.0
 16
1.0
 26
0.0
 36
0.0
 17
0.0
 27
1.0
 37
0.0
 76
     0
330
1F
  0
MLINESTYLE
  5
18
102
{ACAD_REACTORS
330
17
102
}
330
17
100
AcDbMlineStyle
  2
Standard
 70
     0
  3

 62
   256
 51
90.0
 52
90.0
 71
     2
 49
0.5
 62
   256
  6
BYLAYER
 49
-0.5
 62
   256
  6
BYLAYER
  0
ACDBPLACEHOLDER
  5
F
102
{ACAD_REACTORS
330
E
102
}
330
E
  0
ENDSEC
  0
EOF
