  0
SECTION
  2
HEADER
  9
$ACADVER
  1
AC1015
  9
$ACADMAINTVER
 70
     6
  9
$DWGCODEPAGE
  3
DOS932
  9
$INSBASE
 10
0.0
 20
0.0
 30
0.0
  9
$EXTMIN
 10
-63.35287709926444
 20
-120.2054711972681
 30
0.0
  9
$EXTMAX
 10
255.0532171984311
 20
50.26291949475154
 30
0.0
  9
$LIMMIN
 10
0.0
 20
0.0
  9
$LIMMAX
 10
12.0
 20
9.0
  9
$ORTHOMODE
 70
     0
  9
$REGENMODE
 70
     1
  9
$FILLMODE
 70
     1
  9
$QTEXTMODE
 70
     0
  9
$MIRRTEXT
 70
     1
  9
$LTSCALE
 40
1.0
  9
$ATTMODE
 70
     1
  9
$TEXTSIZE
 40
0.2
  9
$TRACEWID
 40
0.05
  9
$TEXTSTYLE
  7
Standard
  9
$CLAYER
  8
0
  9
$CELTYPE
  6
ByLayer
  9
$CECOLOR
 62
   256
  9
$CELTSCALE
 40
1.0
  9
$DISPSILH
 70
     0
  9
$DIMSCALE
 40
1.0
  9
$DIMASZ
 40
0.18
  9
$DIMEXO
 40
0.0625
  9
$DIMDLI
 40
0.38
  9
$DIMRND
 40
0.0
  9
$DIMDLE
 40
0.0
  9
$DIMEXE
 40
0.18
  9
$DIMTP
 40
0.0
  9
$DIMTM
 40
0.0
  9
$DIMTXT
 40
0.18
  9
$DIMCEN
 40
0.09
  9
$DIMTSZ
 40
0.0
  9
$DIMTOL
 70
     0
  9
$DIMLIM
 70
     0
  9
$DIMTIH
 70
     1
  9
$DIMTOH
 70
     1
  9
$DIMSE1
 70
     0
  9
$DIMSE2
 70
     0
  9
$DIMTAD
 70
     0
  9
$DIMZIN
 70
     0
  9
$DIMBLK
  1

  9
$DIMASO
 70
     1
  9
$DIMSHO
 70
     1
  9
$DIMPOST
  1

  9
$DIMAPOST
  1

  9
$DIMALT
 70
     0
  9
$DIMALTD
 70
     2
  9
$DIMALTF
 40
25.4
  9
$DIMLFAC
 40
1.0
  9
$DIMTOFL
 70
     0
  9
$DIMTVP
 40
0.0
  9
$DIMTIX
 70
     0
  9
$DIMSOXD
 70
     0
  9
$DIMSAH
 70
     0
  9
$DIMBLK1
  1

  9
$DIMBLK2
  1

  9
$DIMSTYLE
  2
Standard
  9
$DIMCLRD
 70
     0
  9
$DIMCLRE
 70
     0
  9
$DIMCLRT
 70
     0
  9
$DIMTFAC
 40
1.0
  9
$DIMGAP
 40
0.09
  9
$DIMJUST
 70
     0
  9
$DIMSD1
 70
     0
  9
$DIMSD2
 70
     0
  9
$DIMTOLJ
 70
     1
  9
$DIMTZIN
 70
     0
  9
$DIMALTZ
 70
     0
  9
$DIMALTTZ
 70
     0
  9
$DIMUPT
 70
     0
  9
$DIMDEC
 70
     4
  9
$DIMTDEC
 70
     4
  9
$DIMALTU
 70
     2
  9
$DIMALTTD
 70
     2
  9
$DIMTXSTY
  7
Standard
  9
$DIMAUNIT
 70
     0
  9
$DIMADEC
 70
     0
  9
$DIMALTRND
 40
0.0
  9
$DIMAZIN
 70
     0
  9
$DIMDSEP
 70
    46
  9
$DIMATFIT
 70
     3
  9
$DIMFRAC
 70
     0
  9
$DIMLDRBLK
  1

  9
$DIMLUNIT
 70
     2
  9
$DIMLWD
 70
    -2
  9
$DIMLWE
 70
    -2
  9
$DIMTMOVE
 70
     0
  9
$LUNITS
 70
     2
  9
$LUPREC
 70
     4
  9
$SKETCHINC
 40
0.1
  9
$FILLETRAD
 40
0.5
  9
$AUNITS
 70
     0
  9
$AUPREC
 70
     0
  9
$MENU
  1
.
  9
$ELEVATION
 40
0.0
  9
$PELEVATION
 40
0.0
  9
$THICKNESS
 40
0.0
  9
$LIMCHECK
 70
     0
  9
$CHAMFERA
 40
0.5
  9
$CHAMFERB
 40
0.5
  9
$CHAMFERC
 40
1.0
  9
$CHAMFERD
 40
0.0
  9
$SKPOLY
 70
     0
  9
$TDCREATE
 40
2454823.547652083
  9
$TDUCREATE
 40
2454823.172652083
  9
$TDUPDATE
 40
2454823.547652095
  9
$TDUUPDATE
 40
2454823.172652095
  9
$TDINDWG
 40
0.0000000116
  9
$TDUSRTIMER
 40
0.0000000116
  9
$USRTIMER
 70
     1
  9
$ANGBASE
 50
0.0
  9
$ANGDIR
 70
     0
  9
$PDMODE
 70
     0
  9
$PDSIZE
 40
0.0
  9
$PLINEWID
 40
0.0
  9
$SPLFRAME
 70
     0
  9
$SPLINETYPE
 70
     6
  9
$SPLINESEGS
 70
     8
  9
$HANDSEED
  5
400
  9
$SURFTAB1
 70
     6
  9
$SURFTAB2
 70
     6
  9
$SURFTYPE
 70
     6
  9
$SURFU
 70
     6
  9
$SURFV
 70
     6
  9
$UCSBASE
  2

  9
$UCSNAME
  2

  9
$UCSORG
 10
0.0
 20
0.0
 30
0.0
  9
$UCSXDIR
 10
1.0
 20
0.0
 30
0.0
  9
$UCSYDIR
 10
0.0
 20
1.0
 30
0.0
  9
$UCSORTHOREF
  2

  9
$UCSORTHOVIEW
 70
     0
  9
$UCSORGTOP
 10
0.0
 20
0.0
 30
0.0
  9
$UCSORGBOTTOM
 10
0.0
 20
0.0
 30
0.0
  9
$UCSORGLEFT
 10
0.0
 20
0.0
 30
0.0
  9
$UCSORGRIGHT
 10
0.0
 20
0.0
 30
0.0
  9
$UCSORGFRONT
 10
0.0
 20
0.0
 30
0.0
  9
$UCSORGBACK
 10
0.0
 20
0.0
 30
0.0
  9
$PUCSBASE
  2

  9
$PUCSNAME
  2

  9
$PUCSORG
 10
0.0
 20
0.0
 30
0.0
  9
$PUCSXDIR
 10
1.0
 20
0.0
 30
0.0
  9
$PUCSYDIR
 10
0.0
 20
1.0
 30
0.0
  9
$PUCSORTHOREF
  2

  9
$PUCSORTHOVIEW
 70
     0
  9
$PUCSORGTOP
 10
0.0
 20
0.0
 30
0.0
  9
$PUCSORGBOTTOM
 10
0.0
 20
0.0
 30
0.0
  9
$PUCSORGLEFT
 10
0.0
 20
0.0
 30
0.0
  9
$PUCSORGRIGHT
 10
0.0
 20
0.0
 30
0.0
  9
$PUCSORGFRONT
 10
0.0
 20
0.0
 30
0.0
  9
$PUCSORGBACK
 10
0.0
 20
0.0
 30
0.0
  9
$USERI1
 70
     0
  9
$USERI2
 70
     0
  9
$USERI3
 70
     0
  9
$USERI4
 70
     0
  9
$USERI5
 70
     0
  9
$USERR1
 40
14.5
  9
$USERR2
 40
0.0
  9
$USERR3
 40
0.0
  9
$USERR4
 40
0.0
  9
$USERR5
 40
0.0
  9
$WORLDVIEW
 70
     1
  9
$SHADEDGE
 70
     3
  9
$SHADEDIF
 70
    70
  9
$TILEMODE
 70
     1
  9
$MAXACTVP
 70
    64
  9
$PINSBASE
 10
0.0
 20
0.0
 30
0.0
  9
$PLIMCHECK
 70
     0
  9
$PEXTMIN
 10
1.00000000000000E+20
 20
1.00000000000000E+20
 30
1.00000000000000E+20
  9
$PEXTMAX
 10
-1.00000000000000E+20
 20
-1.00000000000000E+20
 30
-1.00000000000000E+20
  9
$PLIMMIN
 10
0.0
 20
0.0
  9
$PLIMMAX
 10
12.0
 20
9.0
  9
$UNITMODE
 70
     0
  9
$VISRETAIN
 70
     1
  9
$PLINEGEN
 70
     0
  9
$PSLTSCALE
 70
     1
  9
$TREEDEPTH
 70
  3020
  9
$CMLSTYLE
  2
Standard
  9
$CMLJUST
 70
     0
  9
$CMLSCALE
 40
1.0
  9
$PROXYGRAPHICS
 70
     1
  9
$MEASUREMENT
 70
     1
  9
$CELWEIGHT
370
    -1
  9
$ENDCAPS
280
     0
  9
$JOINSTYLE
280
     0
  9
$LWDISPLAY
290
     0
  9
$INSUNITS
 70
     1
  9
$HYPERLINKBASE
  1

  9
$STYLESHEET
  1

  9
$XEDIT
290
     1
  9
$CEPSNTYPE
380
     0
  9
$PSTYLEMODE
290
     1
  9
$FINGERPRINTGUID
  2
{340B5291-16F3-483B-B6AB-4FC526DAC05B}
  9
$VERSIONGUID
  2
{FAEB1C32-E019-11D5-929B-00C0DF256EC4}
  9
$EXTNAMES
290
     1
  9
$PSVPSCALE
 40
0.0
  9
$OLESTARTUP
290
     0
  0
ENDSEC
  0
SECTION
  2
CLASSES
  0
CLASS
  1
ACDBDICTIONARYWDFLT
  2
AcDbDictionaryWithDefault
  3
ObjectDBX Classes
 90
        0
280
     0
281
     0
  0
CLASS
  1

  2
exOdDbCircle
  3

 90
        0
280
     0
281
     1
  0
CLASS
  1

  2
exOdDbSpline
  3

 90
        0
280
     0
281
     1
  0
CLASS
  1
ACDBPLACEHOLDER
  2
AcDbPlaceHolder
  3
ObjectDBX Classes
 90
        0
280
     0
281
     0
  0
CLASS
  1
LAYOUT
  2
AcDbLayout
  3
ObjectDBX Classes
 90
        0
280
     0
281
     0
  0
ENDSEC
  0
SECTION
  2
TABLES
  0
TABLE
  2
VPORT
  5
8
330
0
100
AcDbSymbolTable
 70
     1
  0
VPORT
  5
29
330
8
100
AcDbSymbolTableRecord
100
AcDbViewportTableRecord
  2
*Active
 70
     0
 10
0.0
 20
0.0
 11
1.0
 21
1.0
 12
95.85017004958333
 22
-34.97127585125828
 13
0.0
 23
0.0
 14
0.5
 24
0.5
 15
0.5
 25
0.5
 16
0.0
 26
0.0
 36
1.0
 17
0.0
 27
0.0
 37
0.0
 40
218.5383332449922
 41
1.60267857142857
 42
50.0
 43
0.0
 44
0.0
 50
0.0
 51
0.0
 71
     0
 72
   100
 73
     1
 74
     3
 75
     0
 76
     0
 77
     0
 78
     0
281
     0
 65
     1
110
0.0
120
0.0
130
0.0
111
1.0
121
0.0
131
0.0
112
0.0
122
1.0
132
0.0
 79
     0
146
0.0
  0
ENDTAB
  0
TABLE
  2
LTYPE
  5
5
330
0
100
AcDbSymbolTable
 70
     8
  0
LTYPE
  5
14
330
5
100
AcDbSymbolTableRecord
100
AcDbLinetypeTableRecord
  2
ByBlock
 70
     0
  3

 72
    65
 73
     0
 40
0.0
  0
LTYPE
  5
15
330
5
100
AcDbSymbolTableRecord
100
AcDbLinetypeTableRecord
  2
ByLayer
 70
     0
  3

 72
    65
 73
     0
 40
0.0
  0
LTYPE
  5
16
330
5
100
AcDbSymbolTableRecord
100
AcDbLinetypeTableRecord
  2
Continuous
 70
     0
  3
Solid line
 72
    65
 73
     0
 40
0.0
  0
LTYPE
  5
2A
330
5
100
AcDbSymbolTableRecord
100
AcDbLinetypeTableRecord
  2
DASHED
 70
     0
  3
Dashed
 72
    65
 73
     2
 40
15.0
 49
7.0
 74
     0
 49
-8.0
 74
     0
  0
LTYPE
  5
2B
330
5
100
AcDbSymbolTableRecord
100
AcDbLinetypeTableRecord
  2
DOTTED
 70
     0
  3
Dotted
 72
    65
 73
     2
 40
1.0
 49
0.0
 74
     0
 49
-1.0
 74
     0
  0
LTYPE
  5
2C
330
5
100
AcDbSymbolTableRecord
100
AcDbLinetypeTableRecord
  2
DOT_CENTER
 70
     0
  3
Dot_Center
 72
    65
 73
     4
 40
14.0
 49
12.0
 74
     0
 49
-1.0
 74
     0
 49
0.0
 74
     0
 49
-1.0
 74
     0
  0
LTYPE
  5
2D
330
5
100
AcDbSymbolTableRecord
100
AcDbLinetypeTableRecord
  2
LONG_DASHED
 70
     0
  3
Long_Dashed
 72
    65
 73
     2
 40
15.0
 49
10.0
 74
     0
 49
-5.0
 74
     0
  0
LTYPE
  5
2E
330
5
100
AcDbSymbolTableRecord
100
AcDbLinetypeTableRecord
  2
DASH_CENTER
 70
     0
  3
Dash_Center
 72
    65
 73
     4
 40
14.0
 49
11.0
 74
     0
 49
-1.0
 74
     0
 49
1.0
 74
     0
 49
-1.0
 74
     0
  0
LTYPE
  5
2F
330
5
100
AcDbSymbolTableRecord
100
AcDbLinetypeTableRecord
  2
PHANTOM
 70
     0
  3
Phantom
 72
    65
 73
     6
 40
13.0
 49
10.0
 74
     0
 49
-1.0
 74
     0
 49
0.0
 74
     0
 49
-1.0
 74
     0
 49
0.0
 74
     0
 49
-1.0
 74
     0
  0
LTYPE
  5
30
330
5
100
AcDbSymbolTableRecord
100
AcDbLinetypeTableRecord
  2
CENTER_DASH_DASH
 70
     0
  3
Center_Dash_Dash
 72
    65
 73
     6
 40
14.0
 49
9.0
 74
     0
 49
-1.0
 74
     0
 49
1.0
 74
     0
 49
-1.0
 74
     0
 49
1.0
 74
     0
 49
-1.0
 74
     0
  0
ENDTAB
  0
TABLE
  2
LAYER
  5
2
330
0
100
AcDbSymbolTable
 70
     2
  0
LAYER
  5
10
330
2
100
AcDbSymbolTableRecord
100
AcDbLayerTableRecord
  2
0
 70
     0
 62
     7
  6
Continuous
370
    -3
390
F
  0
LAYER
  5
31
330
2
100
AcDbSymbolTableRecord
100
AcDbLayerTableRecord
  2
1
 70
     0
 62
     7
  6
Continuous
370
    -3
390
F
  0
ENDTAB
  0
TABLE
  2
STYLE
  5
3
330
0
100
AcDbSymbolTable
 70
     3
  0
STYLE
  5
11
330
3
100
AcDbSymbolTableRecord
100
AcDbTextStyleTableRecord
  2
Standard
 70
     0
 40
0.0
 41
1.0
 50
0.0
 71
     0
 42
0.2
  3
txt
  4

  0
STYLE
  5
36E
330
3
100
AcDbSymbolTableRecord
100
AcDbTextStyleTableRecord
  2
CONVERTER_11
 70
     0
 40
0.0
 41
0.89
 50
0.0
 71
     0
 42
0.2
  3
msmincho.ttc
  4

1001
ACAD
1000
MS Mincho
1071
    32785
  0
STYLE
  5
37A
330
3
100
AcDbSymbolTableRecord
100
AcDbTextStyleTableRecord
  2
CONVERTER_12
 70
     0
 40
0.0
 41
0.95
 50
0.0
 71
     0
 42
0.2
  3
txt.shx
  4

  0
ENDTAB
  0
TABLE
  2
VIEW
  5
6
330
0
100
AcDbSymbolTable
 70
     0
  0
ENDTAB
  0
TABLE
  2
UCS
  5
7
330
0
100
AcDbSymbolTable
 70
     0
  0
ENDTAB
  0
TABLE
  2
APPID
  5
9
330
0
100
AcDbSymbolTable
 70
     1
  0
APPID
  5
12
330
9
100
AcDbSymbolTableRecord
100
AcDbRegAppTableRecord
  2
ACAD
 70
     0
  0
ENDTAB
  0
TABLE
  2
DIMSTYLE
  5
A
330
0
100
AcDbSymbolTable
 70
    13
100
AcDbDimStyleTable
  0
DIMSTYLE
105
27
330
A
100
AcDbSymbolTableRecord
100
AcDbDimStyleTableRecord
  2
Standard
 70
     0
340
11
  0
DIMSTYLE
105
372
102
{ACAD_REACTORS
330
373
102
}
330
A
100
AcDbSymbolTableRecord
100
AcDbDimStyleTableRecord
  2
ME10_DIM_10
 70
     0
  3
φ<>
 41
3.5
 42
1.0
 44
1.5
 48
0.025
 71
     1
 73
     0
 74
     0
 77
     1
 78
     8
140
3.5
146
0.7
147
2.0
172
     1
173
     1
176
     2
177
     2
178
     2
272
     0
340
36E
  0
DIMSTYLE
105
37E
102
{ACAD_REACTORS
330
37F
102
}
330
A
100
AcDbSymbolTableRecord
100
AcDbDimStyleTableRecord
  2
ME10_DIM_11
 70
     0
 41
3.5
 42
1.0
 44
1.5
 47
0.5
 48
0.5
 71
     1
 73
     0
 74
     0
 77
     1
 78
     8
140
3.5
146
0.7
147
2.0
172
     1
173
     1
176
     2
177
     2
178
     2
272
     1
340
37A
  0
DIMSTYLE
105
38B
102
{ACAD_REACTORS
330
38C
102
}
330
A
100
AcDbSymbolTableRecord
100
AcDbDimStyleTableRecord
  2
ME10_DIM_12
 70
     0
 41
3.5
 42
1.0
 44
1.5
 47
0.2
 48
0.2
 71
     1
 73
     0
 74
     0
 77
     1
 78
     8
140
3.5
146
0.7
147
2.0
172
     1
173
     1
176
     2
177
     2
178
     2
272
     1
340
37A
  0
DIMSTYLE
105
398
102
{ACAD_REACTORS
330
399
102
}
330
A
100
AcDbSymbolTableRecord
100
AcDbDimStyleTableRecord
  2
ME10_DIM_13
 70
     0
 41
3.5
 42
1.0
 44
1.5
 73
     0
 74
     0
 77
     1
 78
     8
140
3.5
147
2.0
172
     1
173
     1
176
     2
177
     2
178
     3
340
37A
  0
DIMSTYLE
105
3A3
102
{ACAD_REACTORS
330
3A4
102
}
330
A
100
AcDbSymbolTableRecord
100
AcDbDimStyleTableRecord
  2
ME10_DIM_14
 70
     0
  3
□<>
 41
3.5
 42
1.0
 44
1.5
 47
0.25
 48
0.25
 71
     1
 73
     0
 74
     0
 77
     1
 78
     8
140
3.5
146
0.7
147
2.0
172
     1
173
     1
176
     2
177
     2
178
     2
272
     2
340
36E
  0
DIMSTYLE
105
3AE
102
{ACAD_REACTORS
330
3AF
102
}
330
A
100
AcDbSymbolTableRecord
100
AcDbDimStyleTableRecord
  2
ME10_DIM_15
 70
     0
  3
□<>
 41
3.5
 42
1.0
 44
1.5
 47
0.2
 48
0.2
 71
     1
 73
     0
 74
     0
 77
     1
 78
     8
140
3.5
146
0.7
147
2.0
172
     1
173
     1
176
     2
177
     2
178
     2
272
     1
340
36E
  0
DIMSTYLE
105
3B9
102
{ACAD_REACTORS
330
3BA
102
}
330
A
100
AcDbSymbolTableRecord
100
AcDbDimStyleTableRecord
  2
ME10_DIM_16
 70
     0
 41
3.5
 42
1.0
 44
1.5
 47
1.0
 48
1.0
 71
     1
 73
     0
 74
     0
 77
     1
 78
     8
140
3.5
146
0.7
147
2.0
172
     1
173
     1
176
     2
177
     2
178
     2
272
     0
340
37A
  0
DIMSTYLE
105
3C6
102
{ACAD_REACTORS
330
3C7
102
}
330
A
100
AcDbSymbolTableRecord
100
AcDbDimStyleTableRecord
  2
ME10_DIM_17
 70
     0
  3
φ<>
 41
3.5
 42
1.0
 44
1.5
 48
0.013
 71
     1
 73
     0
 74
     0
 77
     1
 78
     8
140
3.5
146
0.7
147
2.0
172
     1
173
     1
176
     2
177
     2
178
     2
272
     0
340
36E
  0
DIMSTYLE
105
3D3
102
{ACAD_REACTORS
330
3D4
102
}
330
A
100
AcDbSymbolTableRecord
100
AcDbDimStyleTableRecord
  2
ME10_DIM_18
 70
     0
 41
3.5
 42
1.0
 44
1.5
 47
0.15
 48
0.15
 71
     1
 73
     0
 74
     0
 77
     1
 78
     8
140
3.5
146
0.7
147
2.0
172
     1
173
     1
176
     2
177
     2
178
     2
272
     2
340
37A
  0
DIMSTYLE
105
3DE
102
{ACAD_REACTORS
330
3DF
102
}
330
A
100
AcDbSymbolTableRecord
100
AcDbDimStyleTableRecord
  2
ME10_DIM_19
 70
     0
 41
3.5
 42
1.0
 44
1.5
 47
30.0
 71
     1
 73
     0
 74
     0
 77
     1
 78
     8
140
3.5
146
0.7
147
2.0
172
     1
173
     1
176
     2
177
     2
178
     3
272
     0
340
37A
  0
DIMSTYLE
105
3EB
102
{ACAD_REACTORS
330
3EC
102
}
330
A
100
AcDbSymbolTableRecord
100
AcDbDimStyleTableRecord
  2
ME10_DIM_20
 70
     0
  3
(<>)
 41
3.5
 42
1.0
 44
1.5
 73
     0
 74
     0
 77
     1
 78
     8
140
3.5
147
2.0
172
     1
173
     1
176
     2
177
     2
178
     2
340
37A
  0
DIMSTYLE
105
3F6
102
{ACAD_REACTORS
330
3F7
102
}
330
A
100
AcDbSymbolTableRecord
100
AcDbDimStyleTableRecord
  2
ME10_DIM_21
 70
     0
 41
3.5
 42
1.0
 44
1.5
 47
0.25
 48
0.25
 71
     1
 73
     0
 74
     0
 77
     1
 78
     8
140
3.5
146
0.7
147
2.0
172
     1
173
     1
176
     2
177
     2
178
     2
272
     2
340
37A
  0
ENDTAB
  0
TABLE
  2
BLOCK_RECORD
  5
1
330
0
100
AcDbSymbolTable
 70
    14
  0
BLOCK_RECORD
  5
1F
330
1
100
AcDbSymbolTableRecord
100
AcDbBlockTableRecord
  2
*Model_Space
340
22
  0
BLOCK_RECORD
  5
1B
330
1
100
AcDbSymbolTableRecord
100
AcDbBlockTableRecord
  2
*Paper_Space
340
1E
  0
BLOCK_RECORD
  5
23
330
1
100
AcDbSymbolTableRecord
100
AcDbBlockTableRecord
  2
*Paper_Space0
340
26
  0
BLOCK_RECORD
  5
368
330
1
100
AcDbSymbolTableRecord
100
AcDbBlockTableRecord
  2
*D1
340
0
  0
BLOCK_RECORD
  5
374
330
1
100
AcDbSymbolTableRecord
100
AcDbBlockTableRecord
  2
*D2
340
0
  0
BLOCK_RECORD
  5
380
330
1
100
AcDbSymbolTableRecord
100
AcDbBlockTableRecord
  2
*D3
340
0
  0
BLOCK_RECORD
  5
38D
330
1
100
AcDbSymbolTableRecord
100
AcDbBlockTableRecord
  2
*D4
340
0
  0
BLOCK_RECORD
  5
39A
330
1
100
AcDbSymbolTableRecord
100
AcDbBlockTableRecord
  2
*D5
340
0
  0
BLOCK_RECORD
  5
3A5
330
1
100
AcDbSymbolTableRecord
100
AcDbBlockTableRecord
  2
*D6
340
0
  0
BLOCK_RECORD
  5
3B0
330
1
100
AcDbSymbolTableRecord
100
AcDbBlockTableRecord
  2
*D7
340
0
  0
BLOCK_RECORD
  5
3BB
330
1
100
AcDbSymbolTableRecord
100
AcDbBlockTableRecord
  2
*D8
340
0
  0
BLOCK_RECORD
  5
3C8
330
1
100
AcDbSymbolTableRecord
100
AcDbBlockTableRecord
  2
*D9
340
0
  0
BLOCK_RECORD
  5
3D5
330
1
100
AcDbSymbolTableRecord
100
AcDbBlockTableRecord
  2
*D10
340
0
  0
BLOCK_RECORD
  5
3E0
330
1
100
AcDbSymbolTableRecord
100
AcDbBlockTableRecord
  2
*D11
340
0
  0
BLOCK_RECORD
  5
3ED
330
1
100
AcDbSymbolTableRecord
100
AcDbBlockTableRecord
  2
*D12
340
0
  0
BLOCK_RECORD
  5
3F8
330
1
100
AcDbSymbolTableRecord
100
AcDbBlockTableRecord
  2
*D13
340
0
102
{BLKREFS
331
3FF
102
}
  0
ENDTAB
  0
ENDSEC
  0
SECTION
  2
BLOCKS
  0
BLOCK
  5
20
330
1F
100
AcDbEntity
  8
0
100
AcDbBlockBegin
  2
*Model_Space
 70
     0
 71
     0
 10
0.0
 20
0.0
 30
0.0
  3
*Model_Space
  1

  0
ENDBLK
  5
21
330
1F
100
AcDbEntity
  8
0
100
AcDbBlockEnd
  0
BLOCK
  5
1C
330
1B
100
AcDbEntity
 67
     1
  8
0
100
AcDbBlockBegin
  2
*Paper_Space
 70
     0
 71
     0
 10
0.0
 20
0.0
 30
0.0
  3
*Paper_Space
  1

  0
ENDBLK
  5
1D
330
1B
100
AcDbEntity
 67
     1
  8
0
100
AcDbBlockEnd
  0
BLOCK
  5
24
330
23
100
AcDbEntity
  8
0
100
AcDbBlockBegin
  2
*Paper_Space0
 70
     0
 71
     0
 10
0.0
 20
0.0
 30
0.0
  3
*Paper_Space0
  1

  0
ENDBLK
  5
25
330
23
100
AcDbEntity
  8
0
100
AcDbBlockEnd
  0
BLOCK
  5
370
330
368
100
AcDbEntity
  8
0
100
AcDbBlockBegin
  2
*D1
 70
     1
 71
     0
 10
0.0
 20
0.0
 30
0.0
  3
*D1
  1

  0
LINE
  5
369
330
368
100
AcDbEntity
  8
1
  6
Continuous
 62
     2
100
AcDbLine
 10
17.0447884022916
 20
-58.3540195041474
 30
0.0
 11
17.0447884022916
 21
-36.3540195041474
 31
0.0
  0
LINE
  5
36A
330
368
100
AcDbEntity
  8
1
  6
Continuous
 62
     2
100
AcDbLine
 10
80.63196549726871
 20
-58.3540195041474
 30
0.0
 11
15.5447884022916
 21
-58.3540195041474
 31
0.0
  0
LINE
  5
36B
330
368
100
AcDbEntity
  8
1
  6
Continuous
 62
     2
100
AcDbLine
 10
80.63196549726871
 20
-36.3540195041474
 30
0.0
 11
15.5447884022916
 21
-36.3540195041474
 31
0.0
  0
SOLID
  5
36C
330
368
100
AcDbEntity
  8
1
 62
     2
100
AcDbTrace
 10
17.50557214384748
 20
-39.8540195041474
 30
0.0
 11
16.58400466073572
 21
-39.8540195041474
 31
0.0
 12
17.0447884022916
 22
-36.3540195041474
 32
0.0
 13
17.0447884022916
 23
-36.3540195041474
 33
0.0
  0
SOLID
  5
36D
330
368
100
AcDbEntity
  8
1
 62
     2
100
AcDbTrace
 10
16.58400466073572
 20
-54.8540195041474
 30
0.0
 11
17.50557214384749
 21
-54.8540195041474
 31
0.0
 12
17.0447884022916
 22
-58.3540195041474
 32
0.0
 13
17.0447884022916
 23
-58.3540195041474
 33
0.0
  0
MTEXT
  5
36F
330
368
100
AcDbEntity
  8
1
 62
     2
100
AcDbMText
 10
13.7322884022916
 20
-60.44802277212126
 30
0.0
 40
3.5
 41
0.0
 71
     7
 72
     1
  1
\C2;φ\C2;\C2;22\C2;\H2.45;\S 0^ -0.025;
  7
CONVERTER_11
 11
0.0
 21
1.0
 31
0.0
 73
     1
 44
0.60024009603842
  0
ENDBLK
  5
371
330
368
100
AcDbEntity
  8
0
100
AcDbBlockEnd
  0
BLOCK
  5
37C
330
374
100
AcDbEntity
  8
0
100
AcDbBlockBegin
  2
*D2
 70
     1
 71
     0
 10
0.0
 20
0.0
 30
0.0
  3
*D2
  1

  0
LINE
  5
375
330
374
100
AcDbEntity
  8
1
  6
Continuous
 62
     2
100
AcDbLine
 10
63.43196549726871
 20
-97.4310817556456
 30
0.0
 11
83.4319654972687
 21
-97.4310817556456
 31
0.0
  0
LINE
  5
376
330
374
100
AcDbEntity
  8
1
  6
Continuous
 62
     2
100
AcDbLine
 10
63.43196549726871
 20
-50.55401950414739
 30
0.0
 11
63.43196549726871
 21
-98.9310817556456
 31
0.0
  0
LINE
  5
377
330
374
100
AcDbEntity
  8
1
  6
Continuous
 62
     2
100
AcDbLine
 10
83.4319654972687
 20
-68.8540195041474
 30
0.0
 11
83.4319654972687
 21
-98.9310817556456
 31
0.0
  0
SOLID
  5
378
330
374
100
AcDbEntity
  8
1
 62
     2
100
AcDbTrace
 10
66.93196549726872
 20
-96.9702980140897
 30
0.0
 11
66.93196549726872
 21
-97.89186549720148
 31
0.0
 12
63.43196549726871
 22
-97.4310817556456
 32
0.0
 13
63.43196549726871
 23
-97.4310817556456
 33
0.0
  0
SOLID
  5
379
330
374
100
AcDbEntity
  8
1
 62
     2
100
AcDbTrace
 10
79.9319654972687
 20
-97.89186549720148
 30
0.0
 11
79.9319654972687
 21
-96.9702980140897
 31
0.0
 12
83.4319654972687
 22
-97.4310817556456
 32
0.0
 13
83.4319654972687
 23
-97.4310817556456
 33
0.0
  0
MTEXT
  5
37B
330
374
100
AcDbEntity
  8
1
 62
     2
100
AcDbMText
 10
66.54211255609223
 20
-95.4310817556456
 30
0.0
 40
3.5
 41
0.0
 71
     7
 72
     1
  1
\C2;20\C2;\H2.45;{\Fgdt;`}0.5
  7
CONVERTER_12
 11
0.9999999999970621
 21
2.424068405545307E-6
 31
0.0
 73
     1
 44
0.60024009603842
  0
ENDBLK
  5
37D
330
374
100
AcDbEntity
  8
0
100
AcDbBlockEnd
  0
BLOCK
  5
389
330
380
100
AcDbEntity
  8
0
100
AcDbBlockBegin
  2
*D3
 70
     1
 71
     0
 10
0.0
 20
0.0
 30
0.0
  3
*D3
  1

  0
LINE
  5
381
330
380
100
AcDbEntity
  8
1
  6
Continuous
 62
     2
100
AcDbLine
 10
81.4319654972687
 20
-87.31848230598669
 30
0.0
 11
64.64035185093475
 21
-87.31848230598669
 31
0.0
  0
LINE
  5
382
330
380
100
AcDbEntity
  8
1
  6
Continuous
 62
     2
100
AcDbLine
 10
81.4319654972687
 20
-87.31848230598669
 30
0.0
 11
83.4319654972687
 21
-87.31848230598669
 31
0.0
  0
LINE
  5
383
330
380
100
AcDbEntity
  8
1
  6
Continuous
 62
     2
100
AcDbLine
 10
90.4319654972687
 20
-87.31848230598669
 30
0.0
 11
83.4319654972687
 21
-87.31848230598669
 31
0.0
  0
LINE
  5
384
330
380
100
AcDbEntity
  8
1
  6
Continuous
 62
     2
100
AcDbLine
 10
83.4319654972687
 20
-68.85401950414739
 30
0.0
 11
83.4319654972687
 21
-88.81848230598669
 31
0.0
  0
LINE
  5
385
330
380
100
AcDbEntity
  8
1
  6
Continuous
 62
     2
100
AcDbLine
 10
81.4319654972687
 20
-59.15401950414739
 30
0.0
 11
81.4319654972687
 21
-88.81848230598669
 31
0.0
  0
SOLID
  5
386
330
380
100
AcDbEntity
  8
1
 62
     2
100
AcDbTrace
 10
77.9319654972687
 20
-87.77926604754258
 30
0.0
 11
77.9319654972687
 21
-86.8576985644308
 31
0.0
 12
81.4319654972687
 22
-87.31848230598669
 32
0.0
 13
81.4319654972687
 23
-87.31848230598669
 33
0.0
  0
SOLID
  5
387
330
380
100
AcDbEntity
  8
1
 62
     2
100
AcDbTrace
 10
86.9319654972687
 20
-86.8576985644308
 30
0.0
 11
86.9319654972687
 21
-87.77926604754258
 31
0.0
 12
83.4319654972687
 22
-87.31848230598669
 32
0.0
 13
83.4319654972687
 23
-87.31848230598669
 33
0.0
  0
MTEXT
  5
388
330
380
100
AcDbEntity
  8
1
 62
     2
100
AcDbMText
 10
65.25285185093475
 20
-85.31848230598669
 30
0.0
 40
3.5
 41
0.0
 71
     7
 72
     1
  1
\C2;2\C2;\H2.45;{\Fgdt;`}0.2
  7
CONVERTER_12
 11
0.9999999999970621
 21
2.424068405545307E-6
 31
0.0
 73
     1
 44
0.60024009603842
  0
ENDBLK
  5
38A
330
380
100
AcDbEntity
  8
0
100
AcDbBlockEnd
  0
BLOCK
  5
396
330
38D
100
AcDbEntity
  8
0
100
AcDbBlockBegin
  2
*D4
 70
     1
 71
     0
 10
0.0
 20
0.0
 30
0.0
  3
*D4
  1

  0
LINE
  5
38E
330
38D
100
AcDbEntity
  8
1
  6
Continuous
 62
     2
100
AcDbLine
 10
83.4319654972687
 20
-14.8602817659602
 30
0.0
 11
87.7319654972687
 21
-14.8602817659602
 31
0.0
  0
LINE
  5
38F
330
38D
100
AcDbEntity
  8
1
  6
Continuous
 62
     2
100
AcDbLine
 10
83.4319654972687
 20
-14.8602817659602
 30
0.0
 11
76.4319654972687
 21
-14.8602817659602
 31
0.0
  0
LINE
  5
390
330
38D
100
AcDbEntity
  8
1
  6
Continuous
 62
     2
100
AcDbLine
 10
87.7319654972687
 20
-14.8602817659602
 30
0.0
 11
94.7319654972687
 21
-14.8602817659602
 31
0.0
  0
LINE
  5
391
330
38D
100
AcDbEntity
  8
1
  6
Continuous
 62
     2
100
AcDbLine
 10
83.4319654972687
 20
-25.8540195041474
 30
0.0
 11
83.4319654972687
 21
-13.3602817659602
 31
0.0
  0
LINE
  5
392
330
38D
100
AcDbEntity
  8
1
  6
Continuous
 62
     2
100
AcDbLine
 10
87.7319654972687
 20
-29.8540195041474
 30
0.0
 11
87.7319654972687
 21
-13.3602817659602
 31
0.0
  0
SOLID
  5
393
330
38D
100
AcDbEntity
  8
1
 62
     2
100
AcDbTrace
 10
79.9319654972687
 20
-15.32106550751609
 30
0.0
 11
79.9319654972687
 21
-14.39949802440431
 31
0.0
 12
83.4319654972687
 22
-14.8602817659602
 32
0.0
 13
83.4319654972687
 23
-14.8602817659602
 33
0.0
  0
SOLID
  5
394
330
38D
100
AcDbEntity
  8
1
 62
     2
100
AcDbTrace
 10
91.2319654972687
 20
-14.39949802440431
 30
0.0
 11
91.2319654972687
 21
-15.32106550751609
 31
0.0
 12
87.7319654972687
 22
-14.8602817659602
 32
0.0
 13
87.7319654972687
 23
-14.8602817659602
 33
0.0
  0
MTEXT
  5
395
330
38D
100
AcDbEntity
  8
1
 62
     3
100
AcDbMText
 10
78.39323470037361
 20
-12.8602817659602
 30
0.0
 40
3.5
 41
0.0
 71
     7
 72
     1
  1
4-4.5MIN.
  7
CONVERTER_12
 11
0.9999999999970621
 21
2.424068405545307E-6
 31
0.0
 73
     1
 44
0.60024009603842
  0
ENDBLK
  5
397
330
38D
100
AcDbEntity
  8
0
100
AcDbBlockEnd
  0
BLOCK
  5
3A1
330
39A
100
AcDbEntity
  8
0
100
AcDbBlockBegin
  2
*D5
 70
     1
 71
     0
 10
0.0
 20
0.0
 30
0.0
  3
*D5
  1

  0
LINE
  5
39B
330
39A
100
AcDbEntity
  8
1
  6
Continuous
 62
     2
100
AcDbLine
 10
-57.5311937126416
 20
-97.35854959657499
 30
0.0
 11
-15.5311937126416
 21
-97.35854959657499
 31
0.0
  0
LINE
  5
39C
330
39A
100
AcDbEntity
  8
1
  6
Continuous
 62
     2
100
AcDbLine
 10
-15.5311937126416
 20
-63.68372922090327
 30
0.0
 11
-15.5311937126416
 21
-98.85854959657499
 31
0.0
  0
LINE
  5
39D
330
39A
100
AcDbEntity
  8
1
  6
Continuous
 62
     2
100
AcDbLine
 10
-57.5311937126416
 20
-63.68372922090327
 30
0.0
 11
-57.5311937126416
 21
-98.85854959657499
 31
0.0
  0
SOLID
  5
39E
330
39A
100
AcDbEntity
  8
1
 62
     2
100
AcDbTrace
 10
-54.0311937126416
 20
-96.8977658550191
 30
0.0
 11
-54.0311937126416
 21
-97.81933333813087
 31
0.0
 12
-57.5311937126416
 22
-97.35854959657499
 32
0.0
 13
-57.5311937126416
 23
-97.35854959657499
 33
0.0
  0
SOLID
  5
39F
330
39A
100
AcDbEntity
  8
1
 62
     2
100
AcDbTrace
 10
-19.0311937126416
 20
-97.81933333813087
 30
0.0
 11
-19.0311937126416
 21
-96.8977658550191
 31
0.0
 12
-15.5311937126416
 22
-97.35854959657499
 32
0.0
 13
-15.5311937126416
 23
-97.35854959657499
 33
0.0
  0
MTEXT
  5
3A0
330
39A
100
AcDbEntity
  8
1
 62
     2
100
AcDbMText
 10
-48.13220678452016
 20
-95.35856351072763
 30
0.0
 40
3.5
 41
0.0
 71
     7
 72
     1
  1
\C2;□\C2;\C2;42\C2;\H2.45;{\Fgdt;`}0.25
  7
CONVERTER_11
 11
0.9999999999970621
 21
2.424068405545307E-6
 31
0.0
 73
     1
 44
0.60024009603842
  0
ENDBLK
  5
3A2
330
39A
100
AcDbEntity
  8
0
100
AcDbBlockEnd
  0
BLOCK
  5
3AC
330
3A5
100
AcDbEntity
  8
0
100
AcDbBlockBegin
  2
*D6
 70
     1
 71
     0
 10
0.0
 20
0.0
 30
0.0
  3
*D6
  1

  0
LINE
  5
3A6
330
3A5
100
AcDbEntity
  8
1
  6
Continuous
 62
     2
100
AcDbLine
 10
-52.0311937126416
 20
-87.40542910567729
 30
0.0
 11
-21.0311937126416
 21
-87.40542910567729
 31
0.0
  0
LINE
  5
3A7
330
3A5
100
AcDbEntity
  8
1
  6
Continuous
 62
     2
100
AcDbLine
 10
-21.0311937126416
 20
-66.2540195041474
 30
0.0
 11
-21.0311937126416
 21
-88.90542910567729
 31
0.0
  0
LINE
  5
3A8
330
3A5
100
AcDbEntity
  8
1
  6
Continuous
 62
     2
100
AcDbLine
 10
-52.0311937126416
 20
-66.2540195041474
 30
0.0
 11
-52.0311937126416
 21
-88.90542910567729
 31
0.0
  0
SOLID
  5
3A9
330
3A5
100
AcDbEntity
  8
1
 62
     2
100
AcDbTrace
 10
-48.5311937126416
 20
-86.9446453641214
 30
0.0
 11
-48.5311937126416
 21
-87.86621284723317
 31
0.0
 12
-52.0311937126416
 22
-87.40542910567729
 32
0.0
 13
-52.0311937126416
 23
-87.40542910567729
 33
0.0
  0
SOLID
  5
3AA
330
3A5
100
AcDbEntity
  8
1
 62
     2
100
AcDbTrace
 10
-24.5311937126416
 20
-87.86621284723317
 30
0.0
 11
-24.5311937126416
 21
-86.9446453641214
 31
0.0
 12
-21.0311937126416
 22
-87.40542910567729
 32
0.0
 13
-21.0311937126416
 23
-87.40542910567729
 33
0.0
  0
MTEXT
  5
3AB
330
3A5
100
AcDbEntity
  8
1
 62
     2
100
AcDbMText
 10
-46.33073619628487
 20
-85.40544301982993
 30
0.0
 40
3.5
 41
0.0
 71
     7
 72
     1
  1
\C2;□\C2;\C2;31\C2;\H2.45;{\Fgdt;`}0.2
  7
CONVERTER_11
 11
0.9999999999970621
 21
2.424068405545307E-6
 31
0.0
 73
     1
 44
0.60024009603842
  0
ENDBLK
  5
3AD
330
3A5
100
AcDbEntity
  8
0
100
AcDbBlockEnd
  0
BLOCK
  5
3B7
330
3B0
100
AcDbEntity
  8
0
100
AcDbBlockBegin
  2
*D7
 70
     1
 71
     0
 10
0.0
 20
0.0
 30
0.0
  3
*D7
  1

  0
LINE
  5
3B1
330
3B0
100
AcDbEntity
  8
1
  6
Continuous
 62
     2
100
AcDbLine
 10
83.4319654972687
 20
-97.4017393453905
 30
0.0
 11
122.4319654972687
 21
-97.4017393453905
 31
0.0
  0
LINE
  5
3B2
330
3B0
100
AcDbEntity
  8
1
  6
Continuous
 62
     2
100
AcDbLine
 10
122.4319654972687
 20
-68.8540195041474
 30
0.0
 11
122.4319654972687
 21
-98.9017393453905
 31
0.0
  0
LINE
  5
3B3
330
3B0
100
AcDbEntity
  8
1
  6
Continuous
 62
     2
100
AcDbLine
 10
83.4319654972687
 20
-68.8540195041474
 30
0.0
 11
83.4319654972687
 21
-98.9017393453905
 31
0.0
  0
SOLID
  5
3B4
330
3B0
100
AcDbEntity
  8
1
 62
     2
100
AcDbTrace
 10
86.9319654972687
 20
-96.94095560383461
 30
0.0
 11
86.9319654972687
 21
-97.86252308694638
 31
0.0
 12
83.4319654972687
 22
-97.4017393453905
 32
0.0
 13
83.4319654972687
 23
-97.4017393453905
 33
0.0
  0
SOLID
  5
3B5
330
3B0
100
AcDbEntity
  8
1
 62
     2
100
AcDbTrace
 10
118.9319654972687
 20
-97.86252308694638
 30
0.0
 11
118.9319654972687
 21
-96.94095560383461
 31
0.0
 12
122.4319654972687
 22
-97.4017393453905
 32
0.0
 13
122.4319654972687
 23
-97.4017393453905
 33
0.0
  0
MTEXT
  5
3B6
330
3B0
100
AcDbEntity
  8
1
 62
     2
100
AcDbMText
 10
98.21417137962165
 20
-95.4017393453905
 30
0.0
 40
3.5
 41
0.0
 71
     7
 72
     1
  1
\C2;39\C2;\H2.45;{\Fgdt;`}1
  7
CONVERTER_12
 11
0.9999999999970621
 21
2.424068405545307E-6
 31
0.0
 73
     1
 44
0.60024009603842
  0
ENDBLK
  5
3B8
330
3B0
100
AcDbEntity
  8
0
100
AcDbBlockEnd
  0
BLOCK
  5
3C4
330
3BB
100
AcDbEntity
  8
0
100
AcDbBlockBegin
  2
*D8
 70
     1
 71
     0
 10
0.0
 20
0.0
 30
0.0
  3
*D8
  1

  0
LINE
  5
3BC
330
3BB
100
AcDbEntity
  8
1
  6
Continuous
 62
     2
100
AcDbLine
 10
29.96215575116
 20
-49.8540195041474
 30
0.0
 11
29.96215575116
 21
-44.85401950414741
 31
0.0
  0
LINE
  5
3BD
330
3BB
100
AcDbEntity
  8
1
  6
Continuous
 62
     2
100
AcDbLine
 10
29.96215575116
 20
-49.8540195041474
 30
0.0
 11
29.96215575116
 21
-56.8540195041474
 31
0.0
  0
LINE
  5
3BE
330
3BB
100
AcDbEntity
  8
1
  6
Continuous
 62
     2
100
AcDbLine
 10
29.96215575116
 20
-44.85401950414741
 30
0.0
 11
29.96215575116
 21
-37.85401950414741
 31
0.0
  0
LINE
  5
3BF
330
3BB
100
AcDbEntity
  8
1
  6
Continuous
 62
     2
100
AcDbLine
 10
62.73196549726872
 20
-49.8540195041474
 30
0.0
 11
28.46215575116
 21
-49.8540195041474
 31
0.0
  0
LINE
  5
3C0
330
3BB
100
AcDbEntity
  8
1
  6
Continuous
 62
     2
100
AcDbLine
 10
62.73196549726872
 20
-44.85401950414741
 30
0.0
 11
28.46215575116
 21
-44.85401950414741
 31
0.0
  0
SOLID
  5
3C1
330
3BB
100
AcDbEntity
  8
1
 62
     2
100
AcDbTrace
 10
29.50137200960411
 20
-41.35401950414741
 30
0.0
 11
30.42293949271589
 21
-41.35401950414741
 31
0.0
 12
29.96215575116
 22
-44.85401950414741
 32
0.0
 13
29.96215575116
 23
-44.85401950414741
 33
0.0
  0
SOLID
  5
3C2
330
3BB
100
AcDbEntity
  8
1
 62
     2
100
AcDbTrace
 10
30.42293949271588
 20
-53.3540195041474
 30
0.0
 11
29.50137200960411
 21
-53.3540195041474
 31
0.0
 12
29.96215575116
 22
-49.8540195041474
 32
0.0
 13
29.96215575116
 23
-49.8540195041474
 33
0.0
  0
MTEXT
  5
3C3
330
3BB
100
AcDbEntity
  8
1
 62
     2
100
AcDbMText
 10
26.64965575116
 20
-58.51787571329773
 30
0.0
 40
3.5
 41
0.0
 71
     7
 72
     1
  1
\C2;φ\C2;\C2;5\C2;\H2.45;\S 0^ -0.013;
  7
CONVERTER_11
 11
0.0
 21
1.0
 31
0.0
 73
     1
 44
0.60024009603842
  0
ENDBLK
  5
3C5
330
3BB
100
AcDbEntity
  8
0
100
AcDbBlockEnd
  0
BLOCK
  5
3D1
330
3C8
100
AcDbEntity
  8
0
100
AcDbBlockBegin
  2
*D9
 70
     1
 71
     0
 10
0.0
 20
0.0
 30
0.0
  3
*D9
  1

  0
LINE
  5
3C9
330
3C8
100
AcDbEntity
  8
1
  6
Continuous
 62
     2
100
AcDbLine
 10
-34.5311937126416
 20
-34.0191989533753
 30
0.0
 11
-27.5311937126416
 21
-34.0191989533753
 31
0.0
  0
LINE
  5
3CA
330
3C8
100
AcDbEntity
  8
1
  6
Continuous
 62
     2
100
AcDbLine
 10
-39.0311937126416
 20
-34.0191989533753
 30
0.0
 11
-46.0311937126416
 21
-34.0191989533753
 31
0.0
  0
LINE
  5
3CB
330
3C8
100
AcDbEntity
  8
1
  6
Continuous
 62
     2
100
AcDbLine
 10
-39.0311937126416
 20
-34.0191989533753
 30
0.0
 11
-34.5311937126416
 21
-34.0191989533753
 31
0.0
  0
LINE
  5
3CC
330
3C8
100
AcDbEntity
  8
1
  6
Continuous
 62
     2
100
AcDbLine
 10
-34.5311937126416
 20
-44.8540195041474
 30
0.0
 11
-34.5311937126416
 21
-32.5191989533753
 31
0.0
  0
LINE
  5
3CD
330
3C8
100
AcDbEntity
  8
1
  6
Continuous
 62
     2
100
AcDbLine
 10
-39.0311937126416
 20
-46.3540195041474
 30
0.0
 11
-39.0311937126416
 21
-32.5191989533753
 31
0.0
  0
SOLID
  5
3CE
330
3C8
100
AcDbEntity
  8
1
 62
     2
100
AcDbTrace
 10
-42.5311937126416
 20
-34.47998269493119
 30
0.0
 11
-42.5311937126416
 21
-33.55841521181942
 31
0.0
 12
-39.0311937126416
 22
-34.0191989533753
 32
0.0
 13
-39.0311937126416
 23
-34.0191989533753
 33
0.0
  0
SOLID
  5
3CF
330
3C8
100
AcDbEntity
  8
1
 62
     2
100
AcDbTrace
 10
-31.0311937126416
 20
-33.55841521181942
 30
0.0
 11
-31.0311937126416
 21
-34.47998269493119
 31
0.0
 12
-34.5311937126416
 22
-34.0191989533753
 32
0.0
 13
-34.5311937126416
 23
-34.0191989533753
 33
0.0
  0
MTEXT
  5
3D0
330
3C8
100
AcDbEntity
  8
1
 62
     2
100
AcDbMText
 10
-41.07695449486023
 20
-32.0191989533753
 30
0.0
 40
3.5
 41
0.0
 71
     7
 72
     1
  1
\C2;4.5\C2;\H2.45;{\Fgdt;`}0.15
  7
CONVERTER_12
 11
0.9999999999970621
 21
2.424068405545307E-6
 31
0.0
 73
     1
 44
0.60024009603842
  0
ENDBLK
  5
3D2
330
3C8
100
AcDbEntity
  8
0
100
AcDbBlockEnd
  0
BLOCK
  5
3DC
330
3D5
100
AcDbEntity
  8
0
100
AcDbBlockBegin
  2
*D10
 70
     1
 71
     0
 10
0.0
 20
0.0
 30
0.0
  3
*D10
  1

  0
LINE
  5
3D6
330
3D5
100
AcDbEntity
  8
1
  6
Continuous
 62
     2
100
AcDbLine
 10
142.4944654972687
 20
-26.3540195041474
 30
0.0
 11
142.4944654972687
 21
33.6459804958526
 31
0.0
  0
LINE
  5
3D7
330
3D5
100
AcDbEntity
  8
1
  6
Continuous
 62
     2
100
AcDbLine
 10
121.9319654972687
 20
33.6459804958526
 30
0.0
 11
143.9944654972687
 21
33.6459804958526
 31
0.0
  0
LINE
  5
3D8
330
3D5
100
AcDbEntity
  8
1
  6
Continuous
 62
     2
100
AcDbLine
 10
122.9319654972687
 20
-26.3540195041474
 30
0.0
 11
143.9944654972687
 21
-26.3540195041474
 31
0.0
  0
SOLID
  5
3D9
330
3D5
100
AcDbEntity
  8
1
 62
     2
100
AcDbTrace
 10
142.0336817557128
 20
-22.8540195041474
 30
0.0
 11
142.9552492388246
 21
-22.8540195041474
 31
0.0
 12
142.4944654972687
 22
-26.3540195041474
 32
0.0
 13
142.4944654972687
 23
-26.3540195041474
 33
0.0
  0
SOLID
  5
3DA
330
3D5
100
AcDbEntity
  8
1
 62
     2
100
AcDbTrace
 10
142.9552492388246
 20
30.1459804958526
 30
0.0
 11
142.0336817557128
 21
30.1459804958526
 31
0.0
 12
142.4944654972687
 22
33.6459804958526
 32
0.0
 13
142.4944654972687
 23
33.6459804958526
 33
0.0
  0
MTEXT
  5
3DB
330
3D5
100
AcDbEntity
  8
1
 62
     3
100
AcDbMText
 10
139.1819654972687
 20
-4.60990185708857
 30
0.0
 40
3.5
 41
0.0
 71
     7
 72
     1
  1
\C3;300\C3;\H2.45;\S+30^  0;
  7
CONVERTER_12
 11
0.0
 21
1.0
 31
0.0
 73
     1
 44
0.60024009603842
  0
ENDBLK
  5
3DD
330
3D5
100
AcDbEntity
  8
0
100
AcDbBlockEnd
  0
BLOCK
  5
3E9
330
3E0
100
AcDbEntity
  8
0
100
AcDbBlockBegin
  2
*D11
 70
     1
 71
     0
 10
0.0
 20
0.0
 30
0.0
  3
*D11
  1

  0
LINE
  5
3E1
330
3E0
100
AcDbEntity
  8
1
  6
Continuous
 62
     2
100
AcDbLine
 10
142.4944654972687
 20
26.6459804958526
 30
0.0
 11
142.4944654972687
 21
33.6459804958526
 31
0.0
  0
LINE
  5
3E2
330
3E0
100
AcDbEntity
  8
1
  6
Continuous
 62
     2
100
AcDbLine
 10
142.4944654972687
 20
33.6459804958526
 30
0.0
 11
142.4944654972687
 21
39.6459804958526
 31
0.0
  0
LINE
  5
3E3
330
3E0
100
AcDbEntity
  8
1
  6
Continuous
 62
     2
100
AcDbLine
 10
142.4944654972687
 20
39.6459804958526
 30
0.0
 11
142.4944654972687
 21
50.26291949475154
 31
0.0
  0
LINE
  5
3E4
330
3E0
100
AcDbEntity
  8
1
  6
Continuous
 62
     2
100
AcDbLine
 10
121.2944654972687
 20
39.6459804958526
 30
0.0
 11
143.9944654972687
 21
39.6459804958526
 31
0.0
  0
LINE
  5
3E5
330
3E0
100
AcDbEntity
  8
1
  6
Continuous
 62
     2
100
AcDbLine
 10
121.9319654972687
 20
33.6459804958526
 30
0.0
 11
143.9944654972687
 21
33.6459804958526
 31
0.0
  0
SOLID
  5
3E6
330
3E0
100
AcDbEntity
  8
1
 62
     2
100
AcDbTrace
 10
142.9552492388246
 20
30.1459804958526
 30
0.0
 11
142.0336817557128
 21
30.1459804958526
 31
0.0
 12
142.4944654972687
 22
33.6459804958526
 32
0.0
 13
142.4944654972687
 23
33.6459804958526
 33
0.0
  0
SOLID
  5
3E7
330
3E0
100
AcDbEntity
  8
1
 62
     2
100
AcDbTrace
 10
142.0336817557128
 20
43.1459804958526
 30
0.0
 11
142.9552492388246
 21
43.1459804958526
 31
0.0
 12
142.4944654972687
 22
39.6459804958526
 32
0.0
 13
142.4944654972687
 23
39.6459804958526
 33
0.0
  0
MTEXT
  5
3E8
330
3E0
100
AcDbEntity
  8
1
 62
     2
100
AcDbMText
 10
140.4944654972687
 20
43.27527243592802
 30
0.0
 40
3.5
 41
0.0
 71
     7
 72
     1
  1
\C2;(\C2;6\C2;)
  7
CONVERTER_12
 11
0.0
 21
1.0
 31
0.0
 73
     1
 44
0.60024009603842
  0
ENDBLK
  5
3EA
330
3E0
100
AcDbEntity
  8
0
100
AcDbBlockEnd
  0
BLOCK
  5
3F4
330
3ED
100
AcDbEntity
  8
0
100
AcDbBlockBegin
  2
*D12
 70
     1
 71
     0
 10
0.0
 20
0.0
 30
0.0
  3
*D12
  1

  0
LINE
  5
3EE
330
3ED
100
AcDbEntity
  8
1
  6
Continuous
 62
     2
100
AcDbLine
 10
63.43196549726871
 20
-33.68930642665021
 30
0.0
 11
78.43196549726872
 21
-33.68930642665021
 31
0.0
  0
LINE
  5
3EF
330
3ED
100
AcDbEntity
  8
1
  6
Continuous
 62
     2
100
AcDbLine
 10
78.43196549726872
 20
-44.8540195041474
 30
0.0
 11
78.43196549726872
 21
-32.18930642665021
 31
0.0
  0
LINE
  5
3F0
330
3ED
100
AcDbEntity
  8
1
  6
Continuous
 62
     2
100
AcDbLine
 10
63.43196549726871
 20
-44.15401950414742
 30
0.0
 11
63.43196549726871
 21
-32.18930642665021
 31
0.0
  0
SOLID
  5
3F1
330
3ED
100
AcDbEntity
  8
1
 62
     2
100
AcDbTrace
 10
66.93196549726872
 20
-33.22852268509432
 30
0.0
 11
66.93196549726872
 21
-34.15009016820609
 31
0.0
 12
63.43196549726871
 22
-33.68930642665021
 32
0.0
 13
63.43196549726871
 23
-33.68930642665021
 33
0.0
  0
SOLID
  5
3F2
330
3ED
100
AcDbEntity
  8
1
 62
     2
100
AcDbTrace
 10
74.93196549726872
 20
-34.15009016820609
 30
0.0
 11
74.93196549726872
 21
-33.22852268509432
 31
0.0
 12
78.43196549726872
 22
-33.68930642665021
 32
0.0
 13
78.43196549726872
 23
-33.68930642665021
 33
0.0
  0
MTEXT
  5
3F3
330
3ED
100
AcDbEntity
  8
1
 62
     2
100
AcDbMText
 10
63.35240667373931
 20
-31.6893064266502
 30
0.0
 40
3.5
 41
0.0
 71
     7
 72
     1
  1
\C2;15\C2;\H2.45;{\Fgdt;`}0.25
  7
CONVERTER_12
 11
0.9999999999970621
 21
2.424068405545307E-6
 31
0.0
 73
     1
 44
0.60024009603842
  0
ENDBLK
  5
3F5
330
3ED
100
AcDbEntity
  8
0
100
AcDbBlockEnd
  0
BLOCK
  5
3FD
330
3F8
100
AcDbEntity
  8
0
100
AcDbBlockBegin
  2
*D13
 70
     1
 71
     0
 10
0.0
 20
0.0
 30
0.0
  3
*D13
  1

  0
LINE
  5
3F9
330
3F8
100
AcDbEntity
  8
1
  6
Continuous
 62
     2
100
AcDbLine
 10
-49.01382481168275
 20
-17.23850951764497
 30
0.0
 11
-63.35287709926444
 21
-17.23850951764497
 31
0.0
  0
LINE
  5
3FA
330
3F8
100
AcDbEntity
  8
1
  6
Continuous
 62
     2
100
AcDbLine
 10
-26.57572115486444
 20
-71.37252416516544
 30
0.0
 11
-49.01382481168275
 21
-17.23850951764497
 31
0.0
  0
SOLID
  5
3FB
330
3F8
100
AcDbEntity
  8
1
 62
     2
100
AcDbTrace
 10
-28.34154770857604
 20
-68.31569930287954
 30
0.0
 11
-27.49021413593901
 21
-67.96282854179265
 31
0.0
 12
-26.57572115486444
 22
-71.37252416516544
 32
0.0
 13
-26.57572115486444
 23
-71.37252416516544
 33
0.0
  0
MTEXT
  5
3FC
330
3F8
100
AcDbEntity
  8
1
 62
     2
100
AcDbMText
 10
-65.10676598813647
 20
-15.23852343179762
 30
0.0
 40
3.5
 41
0.0
 71
     7
 72
     1
  1
\C2;φ\C2;52
  7
CONVERTER_11
 11
0.9999999999970621
 21
2.424068405545307E-6
 31
0.0
 73
     1
 44
0.60024009603842
  0
ENDBLK
  5
3FE
330
3F8
100
AcDbEntity
  8
0
100
AcDbBlockEnd
  0
ENDSEC
  0
SECTION
  2
ENTITIES
  0
LINE
  5
32
330
1F
100
AcDbEntity
  8
1
  6
Continuous
 62
     4
100
AcDbLine
 10
79.069296038054
 20
-117.5221378639348
 30
0.0
 11
80.71635486158341
 21
-117.5221378639348
 31
0.0
  0
LINE
  5
33
330
1F
100
AcDbEntity
  8
1
  6
Continuous
 62
     4
100
AcDbLine
 10
79.8928254498187
 20
-114.9554711972681
 30
0.0
 11
81.02517839099518
 21
-118.4554711972681
 31
0.0
  0
LINE
  5
34
330
1F
100
AcDbEntity
  8
1
  6
Continuous
 62
     4
100
AcDbLine
 10
78.76047250864224
 20
-118.4554711972681
 30
0.0
 11
79.8928254498187
 21
-114.9554711972681
 31
0.0
  0
LINE
  5
35
330
1F
100
AcDbEntity
  8
1
  6
Continuous
 62
     4
100
AcDbLine
 10
73.26341368511282
 20
-118.2221378639348
 30
0.0
 11
73.01635486158341
 21
-117.9888045306014
 31
0.0
  0
LINE
  5
36
330
1F
100
AcDbEntity
  8
1
  6
Continuous
 62
     4
100
AcDbLine
 10
73.5928254498187
 20
-118.4554711972681
 30
0.0
 11
73.26341368511282
 21
-118.2221378639348
 31
0.0
  0
LINE
  5
37
330
1F
100
AcDbEntity
  8
1
  6
Continuous
 62
     4
100
AcDbLine
 10
74.169296038054
 20
-118.4554711972681
 30
0.0
 11
73.5928254498187
 21
-118.4554711972681
 31
0.0
  0
LINE
  5
38
330
1F
100
AcDbEntity
  8
1
  6
Continuous
 62
     4
100
AcDbLine
 10
74.41635486158341
 20
-118.2221378639348
 30
0.0
 11
74.169296038054
 21
-118.4554711972681
 31
0.0
  0
LINE
  5
39
330
1F
100
AcDbEntity
  8
1
  6
Continuous
 62
     4
100
AcDbLine
 10
74.58106074393635
 20
-117.9888045306014
 30
0.0
 11
74.41635486158341
 21
-118.2221378639348
 31
0.0
  0
LINE
  5
3A
330
1F
100
AcDbEntity
  8
1
  6
Continuous
 62
     4
100
AcDbLine
 10
74.66341368511281
 20
-117.4054711972681
 30
0.0
 11
74.58106074393635
 21
-117.9888045306014
 31
0.0
  0
LINE
  5
3B
330
1F
100
AcDbEntity
  8
1
  6
Continuous
 62
     4
100
AcDbLine
 10
74.58106074393635
 20
-116.8221378639348
 30
0.0
 11
74.66341368511281
 21
-117.4054711972681
 31
0.0
  0
LINE
  5
3C
330
1F
100
AcDbEntity
  8
1
  6
Continuous
 62
     4
100
AcDbLine
 10
74.41635486158341
 20
-116.5888045306014
 30
0.0
 11
74.58106074393635
 21
-116.8221378639348
 31
0.0
  0
LINE
  5
3D
330
1F
100
AcDbEntity
  8
1
  6
Continuous
 62
     4
100
AcDbLine
 10
74.169296038054
 20
-116.3554711972681
 30
0.0
 11
74.41635486158341
 21
-116.5888045306014
 31
0.0
  0
LINE
  5
3E
330
1F
100
AcDbEntity
  8
1
  6
Continuous
 62
     4
100
AcDbLine
 10
73.83988427334812
 20
-116.2388045306014
 30
0.0
 11
74.169296038054
 21
-116.3554711972681
 31
0.0
  0
LINE
  5
3F
330
1F
100
AcDbEntity
  8
1
  6
Continuous
 62
     4
100
AcDbLine
 10
73.51047250864224
 20
-116.3554711972681
 30
0.0
 11
73.83988427334812
 21
-116.2388045306014
 31
0.0
  0
LINE
  5
40
330
1F
100
AcDbEntity
  8
1
  6
Continuous
 62
     4
100
AcDbLine
 10
73.09870780275988
 20
-116.7054711972681
 30
0.0
 11
73.51047250864224
 21
-116.3554711972681
 31
0.0
  0
LINE
  5
41
330
1F
100
AcDbEntity
  8
1
  6
Continuous
 62
     4
100
AcDbLine
 10
73.18106074393636
 20
-114.9554711972681
 30
0.0
 11
73.09870780275988
 21
-116.7054711972681
 31
0.0
  0
LINE
  5
42
330
1F
100
AcDbEntity
  8
1
  6
Continuous
 62
     4
100
AcDbLine
 10
74.58106074393635
 20
-114.9554711972681
 30
0.0
 11
73.18106074393636
 21
-114.9554711972681
 31
0.0
  0
LINE
  5
43
330
1F
100
AcDbEntity
  8
1
  6
Continuous
 62
     4
100
AcDbLine
 10
71.369296038054
 20
-117.6388045306014
 30
0.0
 11
71.369296038054
 21
-118.4554711972681
 31
0.0
  0
LINE
  5
44
330
1F
100
AcDbEntity
  8
1
  6
Continuous
 62
     4
100
AcDbLine
 10
71.53400192040694
 20
-116.5888045306014
 30
0.0
 11
71.369296038054
 21
-117.6388045306014
 31
0.0
  0
LINE
  5
45
330
1F
100
AcDbEntity
  8
1
  6
Continuous
 62
     4
100
AcDbLine
 10
72.1928254498187
 20
-114.9554711972681
 30
0.0
 11
71.53400192040694
 21
-116.5888045306014
 31
0.0
  0
LINE
  5
46
330
1F
100
AcDbEntity
  8
1
  6
Continuous
 62
     4
100
AcDbLine
 10
70.54576662628929
 20
-114.9554711972681
 30
0.0
 11
72.1928254498187
 21
-114.9554711972681
 31
0.0
  0
LINE
  5
47
330
1F
100
AcDbEntity
  8
1
  6
Continuous
 62
     4
100
AcDbLine
 10
69.31047250864223
 20
-115.1888045306014
 30
0.0
 11
68.8163548615834
 21
-114.9554711972681
 31
0.0
  0
LINE
  5
48
330
1F
100
AcDbEntity
  8
1
  6
Continuous
 62
     4
100
AcDbLine
 10
69.63988427334812
 20
-115.7721378639348
 30
0.0
 11
69.31047250864223
 21
-115.1888045306014
 31
0.0
  0
LINE
  5
49
330
1F
100
AcDbEntity
  8
1
  6
Continuous
 62
     4
100
AcDbLine
 10
69.72223721452458
 20
-116.7054711972681
 30
0.0
 11
69.63988427334812
 21
-115.7721378639348
 31
0.0
  0
LINE
  5
4A
330
1F
100
AcDbEntity
  8
1
  6
Continuous
 62
     4
100
AcDbLine
 10
69.63988427334812
 20
-117.6388045306014
 30
0.0
 11
69.72223721452458
 21
-116.7054711972681
 31
0.0
  0
LINE
  5
4B
330
1F
100
AcDbEntity
  8
1
  6
Continuous
 62
     4
100
AcDbLine
 10
69.31047250864223
 20
-118.2221378639348
 30
0.0
 11
69.63988427334812
 21
-117.6388045306014
 31
0.0
  0
LINE
  5
4C
330
1F
100
AcDbEntity
  8
1
  6
Continuous
 62
     4
100
AcDbLine
 10
68.8163548615834
 20
-118.4554711972681
 30
0.0
 11
69.31047250864223
 21
-118.2221378639348
 31
0.0
  0
LINE
  5
4D
330
1F
100
AcDbEntity
  8
1
  6
Continuous
 62
     4
100
AcDbLine
 10
68.32223721452458
 20
-118.2221378639348
 30
0.0
 11
68.8163548615834
 21
-118.4554711972681
 31
0.0
  0
LINE
  5
4E
330
1F
100
AcDbEntity
  8
1
  6
Continuous
 62
     4
100
AcDbLine
 10
68.07517839099518
 20
-117.6388045306014
 30
0.0
 11
68.32223721452458
 21
-118.2221378639348
 31
0.0
  0
LINE
  5
4F
330
1F
100
AcDbEntity
  8
1
  6
Continuous
 62
     4
100
AcDbLine
 10
67.91047250864223
 20
-116.7054711972681
 30
0.0
 11
68.07517839099518
 21
-117.6388045306014
 31
0.0
  0
LINE
  5
50
330
1F
100
AcDbEntity
  8
1
  6
Continuous
 62
     4
100
AcDbLine
 10
68.07517839099518
 20
-115.7721378639348
 30
0.0
 11
67.91047250864223
 21
-116.7054711972681
 31
0.0
  0
LINE
  5
51
330
1F
100
AcDbEntity
  8
1
  6
Continuous
 62
     4
100
AcDbLine
 10
68.32223721452458
 20
-115.1888045306014
 30
0.0
 11
68.07517839099518
 21
-115.7721378639348
 31
0.0
  0
LINE
  5
52
330
1F
100
AcDbEntity
  8
1
  6
Continuous
 62
     4
100
AcDbLine
 10
68.8163548615834
 20
-114.9554711972681
 30
0.0
 11
68.32223721452458
 21
-115.1888045306014
 31
0.0
  0
LINE
  5
53
330
1F
100
AcDbEntity
  8
1
  6
Continuous
 62
     4
100
AcDbLine
 10
66.8398842733481
 20
-118.1054711972681
 30
0.0
 11
66.92223721452459
 21
-117.9888045306014
 31
0.0
  0
LINE
  5
54
330
1F
100
AcDbEntity
  8
1
  6
Continuous
 62
     4
100
AcDbLine
 10
66.92223721452459
 20
-118.2221378639348
 30
0.0
 11
66.8398842733481
 21
-118.1054711972681
 31
0.0
  0
LINE
  5
55
330
1F
100
AcDbEntity
  8
1
  6
Continuous
 62
     4
100
AcDbLine
 10
67.00459015570105
 20
-118.1054711972681
 30
0.0
 11
66.92223721452459
 21
-118.2221378639348
 31
0.0
  0
LINE
  5
56
330
1F
100
AcDbEntity
  8
1
  6
Continuous
 62
     4
100
AcDbLine
 10
66.92223721452459
 20
-117.9888045306014
 30
0.0
 11
67.00459015570105
 21
-118.1054711972681
 31
0.0
  0
LINE
  5
57
330
1F
100
AcDbEntity
  8
1
  6
Continuous
 62
     4
100
AcDbLine
 10
66.8398842733481
 20
-117.9888045306014
 30
0.0
 11
67.00459015570105
 21
-117.9888045306014
 31
0.0
  0
LINE
  5
58
330
1F
100
AcDbEntity
  8
1
  6
Continuous
 62
     4
100
AcDbLine
 10
66.8398842733481
 20
-118.2221378639348
 30
0.0
 11
66.8398842733481
 21
-117.9888045306014
 31
0.0
  0
LINE
  5
59
330
1F
100
AcDbEntity
  8
1
  6
Continuous
 62
     4
100
AcDbLine
 10
67.00459015570105
 20
-118.2221378639348
 30
0.0
 11
66.8398842733481
 21
-118.2221378639348
 31
0.0
  0
LINE
  5
5A
330
1F
100
AcDbEntity
  8
1
  6
Continuous
 62
     4
100
AcDbLine
 10
67.00459015570105
 20
-117.9888045306014
 30
0.0
 11
67.00459015570105
 21
-118.2221378639348
 31
0.0
  0
LINE
  5
5B
330
1F
100
AcDbEntity
  8
1
  6
Continuous
 62
     4
100
AcDbLine
 10
66.75753133217164
 20
-118.1054711972681
 30
0.0
 11
66.92223721452459
 21
-117.8721378639348
 31
0.0
  0
LINE
  5
5C
330
1F
100
AcDbEntity
  8
1
  6
Continuous
 62
     4
100
AcDbLine
 10
66.92223721452459
 20
-118.3388045306014
 30
0.0
 11
66.75753133217164
 21
-118.1054711972681
 31
0.0
  0
LINE
  5
5D
330
1F
100
AcDbEntity
  8
1
  6
Continuous
 62
     4
100
AcDbLine
 10
67.08694309687752
 20
-118.1054711972681
 30
0.0
 11
66.92223721452459
 21
-118.3388045306014
 31
0.0
  0
LINE
  5
5E
330
1F
100
AcDbEntity
  8
1
  6
Continuous
 62
     4
100
AcDbLine
 10
66.92223721452459
 20
-117.8721378639348
 30
0.0
 11
67.08694309687752
 21
-118.1054711972681
 31
0.0
  0
LINE
  5
5F
330
1F
100
AcDbEntity
  8
1
  6
Continuous
 62
     4
100
AcDbLine
 10
65.5222372145246
 20
-115.1888045306014
 30
0.0
 11
65.02811956746577
 21
-114.9554711972681
 31
0.0
  0
LINE
  5
60
330
1F
100
AcDbEntity
  8
1
  6
Continuous
 62
     4
100
AcDbLine
 10
65.85164897923048
 20
-115.7721378639348
 30
0.0
 11
65.5222372145246
 21
-115.1888045306014
 31
0.0
  0
LINE
  5
61
330
1F
100
AcDbEntity
  8
1
  6
Continuous
 62
     4
100
AcDbLine
 10
65.93400192040694
 20
-116.7054711972681
 30
0.0
 11
65.85164897923048
 21
-115.7721378639348
 31
0.0
  0
LINE
  5
62
330
1F
100
AcDbEntity
  8
1
  6
Continuous
 62
     4
100
AcDbLine
 10
65.85164897923048
 20
-117.6388045306014
 30
0.0
 11
65.93400192040694
 21
-116.7054711972681
 31
0.0
  0
LINE
  5
63
330
1F
100
AcDbEntity
  8
1
  6
Continuous
 62
     4
100
AcDbLine
 10
65.5222372145246
 20
-118.2221378639348
 30
0.0
 11
65.85164897923048
 21
-117.6388045306014
 31
0.0
  0
LINE
  5
64
330
1F
100
AcDbEntity
  8
1
  6
Continuous
 62
     4
100
AcDbLine
 10
65.02811956746577
 20
-118.4554711972681
 30
0.0
 11
65.5222372145246
 21
-118.2221378639348
 31
0.0
  0
LINE
  5
65
330
1F
100
AcDbEntity
  8
1
  6
Continuous
 62
     4
100
AcDbLine
 10
64.53400192040694
 20
-118.2221378639348
 30
0.0
 11
65.02811956746577
 21
-118.4554711972681
 31
0.0
  0
LINE
  5
66
330
1F
100
AcDbEntity
  8
1
  6
Continuous
 62
     4
100
AcDbLine
 10
64.28694309687754
 20
-117.6388045306014
 30
0.0
 11
64.53400192040694
 21
-118.2221378639348
 31
0.0
  0
LINE
  5
67
330
1F
100
AcDbEntity
  8
1
  6
Continuous
 62
     4
100
AcDbLine
 10
64.12223721452459
 20
-116.7054711972681
 30
0.0
 11
64.28694309687754
 21
-117.6388045306014
 31
0.0
  0
LINE
  5
68
330
1F
100
AcDbEntity
  8
1
  6
Continuous
 62
     4
100
AcDbLine
 10
64.28694309687754
 20
-115.7721378639348
 30
0.0
 11
64.12223721452459
 21
-116.7054711972681
 31
0.0
  0
LINE
  5
69
330
1F
100
AcDbEntity
  8
1
  6
Continuous
 62
     4
100
AcDbLine
 10
64.53400192040694
 20
-115.1888045306014
 30
0.0
 11
64.28694309687754
 21
-115.7721378639348
 31
0.0
  0
LINE
  5
6A
330
1F
100
AcDbEntity
  8
1
  6
Continuous
 62
     4
100
AcDbLine
 10
65.02811956746577
 20
-114.9554711972681
 30
0.0
 11
64.53400192040694
 21
-115.1888045306014
 31
0.0
  0
LINE
  5
6B
330
1F
100
AcDbEntity
  8
1
  6
Continuous
 62
     4
100
AcDbLine
 10
76.39282544981869
 20
-113.2054711972681
 30
0.0
 11
76.39282544981869
 21
-120.2054711972681
 31
0.0
  0
LINE
  5
6C
330
1F
100
AcDbEntity
  8
1
  6
Continuous
 62
     4
100
AcDbLine
 10
83.39282544981869
 20
-120.2054711972681
 30
0.0
 11
83.39282544981869
 21
-113.2054711972681
 31
0.0
  0
LINE
  5
6D
330
1F
100
AcDbEntity
  8
1
  6
Continuous
 62
     4
100
AcDbLine
 10
55.39282544981869
 20
-113.2054711972681
 30
0.0
 11
55.39282544981869
 21
-120.2054711972681
 31
0.0
  0
LINE
  5
6E
330
1F
100
AcDbEntity
  8
1
  6
Continuous
 62
     4
100
AcDbLine
 10
83.39282544981869
 20
-113.2054711972681
 30
0.0
 11
55.39282544981869
 21
-113.2054711972681
 31
0.0
  0
LINE
  5
6F
330
1F
100
AcDbEntity
  8
1
  6
Continuous
 62
     4
100
AcDbLine
 10
62.39282544981869
 20
-120.2054711972681
 30
0.0
 11
62.39282544981869
 21
-113.2054711972681
 31
0.0
  0
LINE
  5
70
330
1F
100
AcDbEntity
  8
1
  6
Continuous
 62
     4
100
AcDbLine
 10
55.39282544981869
 20
-120.2054711972681
 30
0.0
 11
83.39282544981869
 21
-120.2054711972681
 31
0.0
  0
LINE
  5
71
330
1F
100
AcDbEntity
  8
1
  6
Continuous
 62
     4
100
AcDbLine
 10
58.89282544981869
 20
-119.3304711972681
 30
0.0
 11
58.89282544981869
 21
-114.0804711972681
 31
0.0
  0
LINE
  5
72
330
1F
100
AcDbEntity
  8
1
  6
Continuous
 62
     4
100
AcDbLine
 10
56.26782544981869
 20
-119.3304711972681
 30
0.0
 11
61.51782544981869
 21
-119.3304711972681
 31
0.0
  0
LINE
  5
73
330
1F
100
AcDbEntity
  8
1
  6
Continuous
 62
     2
100
AcDbLine
 10
100.2315045112522
 20
40.35696357256887
 30
0.0
 11
99.61385745242869
 21
40.5902969059022
 31
0.0
  0
LINE
  5
74
330
1F
100
AcDbEntity
  8
1
  6
Continuous
 62
     2
100
AcDbLine
 10
100.6432692171346
 20
39.77363023923553
 30
0.0
 11
100.2315045112522
 21
40.35696357256887
 31
0.0
  0
LINE
  5
75
330
1F
100
AcDbEntity
  8
1
  6
Continuous
 62
     2
100
AcDbLine
 10
100.7462103936052
 20
38.8402969059022
 30
0.0
 11
100.6432692171346
 21
39.77363023923553
 31
0.0
  0
LINE
  5
76
330
1F
100
AcDbEntity
  8
1
  6
Continuous
 62
     2
100
AcDbLine
 10
100.6432692171346
 20
37.90696357256887
 30
0.0
 11
100.7462103936052
 21
38.8402969059022
 31
0.0
  0
LINE
  5
77
330
1F
100
AcDbEntity
  8
1
  6
Continuous
 62
     2
100
AcDbLine
 10
100.2315045112522
 20
37.32363023923553
 30
0.0
 11
100.6432692171346
 21
37.90696357256887
 31
0.0
  0
LINE
  5
78
330
1F
100
AcDbEntity
  8
1
  6
Continuous
 62
     2
100
AcDbLine
 10
99.61385745242869
 20
37.0902969059022
 30
0.0
 11
100.2315045112522
 21
37.32363023923553
 31
0.0
  0
LINE
  5
79
330
1F
100
AcDbEntity
  8
1
  6
Continuous
 62
     2
100
AcDbLine
 10
98.99621039360517
 20
37.32363023923553
 30
0.0
 11
99.61385745242869
 21
37.0902969059022
 31
0.0
  0
LINE
  5
7A
330
1F
100
AcDbEntity
  8
1
  6
Continuous
 62
     2
100
AcDbLine
 10
98.6873868641934
 20
37.90696357256887
 30
0.0
 11
98.99621039360517
 21
37.32363023923553
 31
0.0
  0
LINE
  5
7B
330
1F
100
AcDbEntity
  8
1
  6
Continuous
 62
     2
100
AcDbLine
 10
98.48150451125223
 20
38.8402969059022
 30
0.0
 11
98.6873868641934
 21
37.90696357256887
 31
0.0
  0
LINE
  5
7C
330
1F
100
AcDbEntity
  8
1
  6
Continuous
 62
     2
100
AcDbLine
 10
98.6873868641934
 20
39.77363023923553
 30
0.0
 11
98.48150451125223
 21
38.8402969059022
 31
0.0
  0
LINE
  5
7D
330
1F
100
AcDbEntity
  8
1
  6
Continuous
 62
     2
100
AcDbLine
 10
98.99621039360517
 20
40.35696357256887
 30
0.0
 11
98.6873868641934
 21
39.77363023923553
 31
0.0
  0
LINE
  5
7E
330
1F
100
AcDbEntity
  8
1
  6
Continuous
 62
     2
100
AcDbLine
 10
99.61385745242869
 20
40.5902969059022
 30
0.0
 11
98.99621039360517
 21
40.35696357256887
 31
0.0
  0
LINE
  5
7F
330
1F
100
AcDbEntity
  8
1
  6
Continuous
 62
     2
100
AcDbLine
 10
95.39326921713457
 20
37.4402969059022
 30
0.0
 11
95.1873868641934
 21
37.67363023923554
 31
0.0
  0
LINE
  5
80
330
1F
100
AcDbEntity
  8
1
  6
Continuous
 62
     2
100
AcDbLine
 10
95.80503392301694
 20
37.20696357256887
 30
0.0
 11
95.39326921713457
 21
37.4402969059022
 31
0.0
  0
LINE
  5
81
330
1F
100
AcDbEntity
  8
1
  6
Continuous
 62
     2
100
AcDbLine
 10
96.31973980536986
 20
37.0902969059022
 30
0.0
 11
95.80503392301694
 21
37.20696357256887
 31
0.0
  0
LINE
  5
82
330
1F
100
AcDbEntity
  8
1
  6
Continuous
 62
     2
100
AcDbLine
 10
96.9373868641934
 20
37.20696357256887
 30
0.0
 11
96.31973980536986
 21
37.0902969059022
 31
0.0
  0
LINE
  5
83
330
1F
100
AcDbEntity
  8
1
  6
Continuous
 62
     2
100
AcDbLine
 10
97.24621039360517
 20
37.4402969059022
 30
0.0
 11
96.9373868641934
 21
37.20696357256887
 31
0.0
  0
LINE
  5
84
330
1F
100
AcDbEntity
  8
1
  6
Continuous
 62
     2
100
AcDbLine
 10
97.45209274654634
 20
38.02363023923553
 30
0.0
 11
97.24621039360517
 21
37.4402969059022
 31
0.0
  0
LINE
  5
85
330
1F
100
AcDbEntity
  8
1
  6
Continuous
 62
     2
100
AcDbLine
 10
97.24621039360517
 20
38.60696357256887
 30
0.0
 11
97.45209274654634
 21
38.02363023923553
 31
0.0
  0
LINE
  5
86
330
1F
100
AcDbEntity
  8
1
  6
Continuous
 62
     2
100
AcDbLine
 10
96.73150451125223
 20
38.95696357256887
 30
0.0
 11
97.24621039360517
 21
38.60696357256887
 31
0.0
  0
LINE
  5
87
330
1F
100
AcDbEntity
  8
1
  6
Continuous
 62
     2
100
AcDbLine
 10
96.21679862889928
 20
38.95696357256887
 30
0.0
 11
96.73150451125223
 21
38.95696357256887
 31
0.0
  0
LINE
  5
88
330
1F
100
AcDbEntity
  8
1
  6
Continuous
 62
     2
100
AcDbLine
 10
96.73150451125223
 20
38.95696357256887
 30
0.0
 11
96.21679862889928
 21
38.95696357256887
 31
0.0
  0
LINE
  5
89
330
1F
100
AcDbEntity
  8
1
  6
Continuous
 62
     2
100
AcDbLine
 10
97.14326921713457
 20
39.1902969059022
 30
0.0
 11
96.73150451125223
 21
38.95696357256887
 31
0.0
  0
LINE
  5
8A
330
1F
100
AcDbEntity
  8
1
  6
Continuous
 62
     2
100
AcDbLine
 10
97.34915157007575
 20
39.65696357256887
 30
0.0
 11
97.14326921713457
 21
39.1902969059022
 31
0.0
  0
LINE
  5
8B
330
1F
100
AcDbEntity
  8
1
  6
Continuous
 62
     2
100
AcDbLine
 10
97.24621039360517
 20
40.00696357256886
 30
0.0
 11
97.34915157007575
 21
39.65696357256887
 31
0.0
  0
LINE
  5
8C
330
1F
100
AcDbEntity
  8
1
  6
Continuous
 62
     2
100
AcDbLine
 10
96.9373868641934
 20
40.47363023923553
 30
0.0
 11
97.24621039360517
 21
40.00696357256886
 31
0.0
  0
LINE
  5
8D
330
1F
100
AcDbEntity
  8
1
  6
Continuous
 62
     2
100
AcDbLine
 10
96.31973980536986
 20
40.5902969059022
 30
0.0
 11
96.9373868641934
 21
40.47363023923553
 31
0.0
  0
LINE
  5
8E
330
1F
100
AcDbEntity
  8
1
  6
Continuous
 62
     2
100
AcDbLine
 10
95.70209274654634
 20
40.47363023923553
 30
0.0
 11
96.31973980536986
 21
40.5902969059022
 31
0.0
  0
LINE
  5
8F
330
1F
100
AcDbEntity
  8
1
  6
Continuous
 62
     2
100
AcDbLine
 10
95.290328040664
 20
40.00696357256886
 30
0.0
 11
95.70209274654634
 21
40.47363023923553
 31
0.0
  0
LINE
  5
90
330
1F
100
AcDbEntity
  8
1
  6
Continuous
 62
     2
100
AcDbLine
 10
93.540328040664
 20
37.0902969059022
 30
0.0
 11
93.540328040664
 21
38.72363023923553
 31
0.0
  0
LINE
  5
91
330
1F
100
AcDbEntity
  8
1
  6
Continuous
 62
     2
100
AcDbLine
 10
91.6873868641934
 20
37.90696357256887
 30
0.0
 11
94.15797509948752
 21
37.90696357256887
 31
0.0
  0
LINE
  5
92
330
1F
100
AcDbEntity
  8
1
  6
Continuous
 62
     2
100
AcDbLine
 10
93.540328040664
 20
40.5902969059022
 30
0.0
 11
91.6873868641934
 21
37.90696357256887
 31
0.0
  0
LINE
  5
93
330
1F
100
AcDbEntity
  8
1
  6
Continuous
 62
     2
100
AcDbLine
 10
90.14326921713459
 20
40.5902969059022
 30
0.0
 11
90.14326921713459
 21
37.0902969059022
 31
0.0
  0
LINE
  5
94
330
1F
100
AcDbEntity
  8
1
  6
Continuous
 62
     2
100
AcDbLine
 10
89.62856333478165
 20
40.2402969059022
 30
0.0
 11
90.14326921713459
 21
40.5902969059022
 31
0.0
  0
LINE
  5
95
330
1F
100
AcDbEntity
  8
1
  6
Continuous
 62
     2
100
AcDbLine
 10
86.02562215831105
 20
37.0902969059022
 30
0.0
 11
88.08444568772282
 21
37.0902969059022
 31
0.0
  0
LINE
  5
96
330
1F
100
AcDbEntity
  8
1
  6
Continuous
 62
     2
100
AcDbLine
 10
86.02562215831105
 20
40.5902969059022
 30
0.0
 11
86.02562215831105
 21
37.0902969059022
 31
0.0
  0
LINE
  5
97
330
1F
100
AcDbEntity
  8
1
  6
Continuous
 62
     2
100
AcDbLine
 10
84.99621039360517
 20
37.7902969059022
 30
0.0
 11
84.99621039360517
 21
40.5902969059022
 31
0.0
  0
LINE
  5
98
330
1F
100
AcDbEntity
  8
1
  6
Continuous
 62
     2
100
AcDbLine
 10
84.790328040664
 20
37.4402969059022
 30
0.0
 11
84.99621039360517
 21
37.7902969059022
 31
0.0
  0
LINE
  5
99
330
1F
100
AcDbEntity
  8
1
  6
Continuous
 62
     2
100
AcDbLine
 10
84.48150451125223
 20
37.20696357256887
 30
0.0
 11
84.790328040664
 21
37.4402969059022
 31
0.0
  0
LINE
  5
9A
330
1F
100
AcDbEntity
  8
1
  6
Continuous
 62
     2
100
AcDbLine
 10
83.96679862889928
 20
37.0902969059022
 30
0.0
 11
84.48150451125223
 21
37.20696357256887
 31
0.0
  0
LINE
  5
9B
330
1F
100
AcDbEntity
  8
1
  6
Continuous
 62
     2
100
AcDbLine
 10
83.55503392301694
 20
37.20696357256887
 30
0.0
 11
83.96679862889928
 21
37.0902969059022
 31
0.0
  0
LINE
  5
9C
330
1F
100
AcDbEntity
  8
1
  6
Continuous
 62
     2
100
AcDbLine
 10
83.14326921713459
 20
37.4402969059022
 30
0.0
 11
83.55503392301694
 21
37.20696357256887
 31
0.0
  0
LINE
  5
9D
330
1F
100
AcDbEntity
  8
1
  6
Continuous
 62
     2
100
AcDbLine
 10
83.040328040664
 20
37.7902969059022
 30
0.0
 11
83.14326921713459
 21
37.4402969059022
 31
0.0
  0
LINE
  5
9E
330
1F
100
AcDbEntity
  8
1
  6
Continuous
 62
     2
100
AcDbLine
 10
83.040328040664
 20
40.5902969059022
 30
0.0
 11
83.040328040664
 21
37.7902969059022
 31
0.0
  0
LINE
  5
9F
330
1F
100
AcDbEntity
  8
1
  6
Continuous
 62
     2
100
AcDbLine
 10
96.44096967857568
 20
44.16030134374829
 30
0.0
 11
96.23508732563451
 21
43.46030134374828
 31
0.0
  0
LINE
  5
A0
330
1F
100
AcDbEntity
  8
1
  6
Continuous
 62
     2
100
AcDbLine
 10
96.74979320798745
 20
44.51030134374829
 30
0.0
 11
96.44096967857568
 21
44.16030134374829
 31
0.0
  0
LINE
  5
A1
330
1F
100
AcDbEntity
  8
1
  6
Continuous
 62
     2
100
AcDbLine
 10
97.1615579138698
 20
44.62696801041496
 30
0.0
 11
96.74979320798745
 21
44.51030134374829
 31
0.0
  0
LINE
  5
A2
330
1F
100
AcDbEntity
  8
1
  6
Continuous
 62
     2
100
AcDbLine
 10
97.57332261975216
 20
44.51030134374829
 30
0.0
 11
97.1615579138698
 21
44.62696801041496
 31
0.0
  0
LINE
  5
A3
330
1F
100
AcDbEntity
  8
1
  6
Continuous
 62
     2
100
AcDbLine
 10
97.98508732563451
 20
44.16030134374829
 30
0.0
 11
97.57332261975216
 21
44.51030134374829
 31
0.0
  0
LINE
  5
A4
330
1F
100
AcDbEntity
  8
1
  6
Continuous
 62
     2
100
AcDbLine
 10
98.0880285021051
 20
43.92696801041495
 30
0.0
 11
97.98508732563451
 21
44.16030134374829
 31
0.0
  0
LINE
  5
A5
330
1F
100
AcDbEntity
  8
1
  6
Continuous
 62
     2
100
AcDbLine
 10
98.19096967857568
 20
43.46030134374828
 30
0.0
 11
98.0880285021051
 21
43.92696801041495
 31
0.0
  0
LINE
  5
A6
330
1F
100
AcDbEntity
  8
1
  6
Continuous
 62
     2
100
AcDbLine
 10
97.98508732563451
 20
42.87696801041496
 30
0.0
 11
98.19096967857568
 21
43.46030134374828
 31
0.0
  0
LINE
  5
A7
330
1F
100
AcDbEntity
  8
1
  6
Continuous
 62
     2
100
AcDbLine
 10
97.67626379622274
 20
42.52696801041495
 30
0.0
 11
97.98508732563451
 21
42.87696801041496
 31
0.0
  0
LINE
  5
A8
330
1F
100
AcDbEntity
  8
1
  6
Continuous
 62
     2
100
AcDbLine
 10
97.1615579138698
 20
42.41030134374829
 30
0.0
 11
97.67626379622274
 21
42.52696801041495
 31
0.0
  0
LINE
  5
A9
330
1F
100
AcDbEntity
  8
1
  6
Continuous
 62
     2
100
AcDbLine
 10
96.54391085504628
 20
42.64363467708162
 30
0.0
 11
97.1615579138698
 21
42.41030134374829
 31
0.0
  0
LINE
  5
AA
330
1F
100
AcDbEntity
  8
1
  6
Continuous
 62
     2
100
AcDbLine
 10
96.3380285021051
 20
42.99363467708162
 30
0.0
 11
96.54391085504628
 21
42.64363467708162
 31
0.0
  0
LINE
  5
AB
330
1F
100
AcDbEntity
  8
1
  6
Continuous
 62
     2
100
AcDbLine
 10
96.23508732563451
 20
43.46030134374828
 30
0.0
 11
96.3380285021051
 21
42.99363467708162
 31
0.0
  0
LINE
  5
AC
330
1F
100
AcDbEntity
  8
1
  6
Continuous
 62
     2
100
AcDbLine
 10
96.23508732563451
 20
44.86030134374829
 30
0.0
 11
96.23508732563451
 21
43.46030134374828
 31
0.0
  0
LINE
  5
AD
330
1F
100
AcDbEntity
  8
1
  6
Continuous
 62
     2
100
AcDbLine
 10
96.3380285021051
 20
45.32696801041495
 30
0.0
 11
96.23508732563451
 21
44.86030134374829
 31
0.0
  0
LINE
  5
AE
330
1F
100
AcDbEntity
  8
1
  6
Continuous
 62
     2
100
AcDbLine
 10
96.64685203151686
 20
45.67696801041495
 30
0.0
 11
96.3380285021051
 21
45.32696801041495
 31
0.0
  0
LINE
  5
AF
330
1F
100
AcDbEntity
  8
1
  6
Continuous
 62
     2
100
AcDbLine
 10
96.85273438445805
 20
45.79363467708162
 30
0.0
 11
96.64685203151686
 21
45.67696801041495
 31
0.0
  0
LINE
  5
B0
330
1F
100
AcDbEntity
  8
1
  6
Continuous
 62
     2
100
AcDbLine
 10
97.1615579138698
 20
45.91030134374829
 30
0.0
 11
96.85273438445805
 21
45.79363467708162
 31
0.0
  0
LINE
  5
B1
330
1F
100
AcDbEntity
  8
1
  6
Continuous
 62
     2
100
AcDbLine
 10
97.57332261975216
 20
45.79363467708162
 30
0.0
 11
97.1615579138698
 21
45.91030134374829
 31
0.0
  0
LINE
  5
B2
330
1F
100
AcDbEntity
  8
1
  6
Continuous
 62
     2
100
AcDbLine
 10
97.88214614916392
 20
45.67696801041495
 30
0.0
 11
97.57332261975216
 21
45.79363467708162
 31
0.0
  0
LINE
  5
B3
330
1F
100
AcDbEntity
  8
1
  6
Continuous
 62
     2
100
AcDbLine
 10
98.19096967857568
 20
45.32696801041495
 30
0.0
 11
97.88214614916392
 21
45.67696801041495
 31
0.0
  0
LINE
  5
B4
330
1F
100
AcDbEntity
  8
1
  6
Continuous
 62
     2
100
AcDbLine
 10
92.94096967857568
 20
42.41030134374829
 30
0.0
 11
95.20567556092863
 21
42.41030134374829
 31
0.0
  0
LINE
  5
B5
330
1F
100
AcDbEntity
  8
1
  6
Continuous
 62
     2
100
AcDbLine
 10
93.14685203151686
 20
42.99363467708162
 30
0.0
 11
92.94096967857568
 21
42.41030134374829
 31
0.0
  0
LINE
  5
B6
330
1F
100
AcDbEntity
  8
1
  6
Continuous
 62
     2
100
AcDbLine
 10
93.35273438445803
 20
43.34363467708162
 30
0.0
 11
93.14685203151686
 21
42.99363467708162
 31
0.0
  0
LINE
  5
B7
330
1F
100
AcDbEntity
  8
1
  6
Continuous
 62
     2
100
AcDbLine
 10
93.7644990903404
 20
43.69363467708162
 30
0.0
 11
93.35273438445803
 21
43.34363467708162
 31
0.0
  0
LINE
  5
B8
330
1F
100
AcDbEntity
  8
1
  6
Continuous
 62
     2
100
AcDbLine
 10
94.17626379622274
 20
43.92696801041495
 30
0.0
 11
93.7644990903404
 21
43.69363467708162
 31
0.0
  0
LINE
  5
B9
330
1F
100
AcDbEntity
  8
1
  6
Continuous
 62
     2
100
AcDbLine
 10
94.69096967857568
 20
44.27696801041495
 30
0.0
 11
94.17626379622274
 21
43.92696801041495
 31
0.0
  0
LINE
  5
BA
330
1F
100
AcDbEntity
  8
1
  6
Continuous
 62
     2
100
AcDbLine
 10
94.99979320798745
 20
44.74363467708162
 30
0.0
 11
94.69096967857568
 21
44.27696801041495
 31
0.0
  0
LINE
  5
BB
330
1F
100
AcDbEntity
  8
1
  6
Continuous
 62
     2
100
AcDbLine
 10
95.10273438445803
 20
45.21030134374828
 30
0.0
 11
94.99979320798745
 21
44.74363467708162
 31
0.0
  0
LINE
  5
BC
330
1F
100
AcDbEntity
  8
1
  6
Continuous
 62
     2
100
AcDbLine
 10
94.69096967857568
 20
45.67696801041495
 30
0.0
 11
95.10273438445803
 21
45.21030134374828
 31
0.0
  0
LINE
  5
BD
330
1F
100
AcDbEntity
  8
1
  6
Continuous
 62
     2
100
AcDbLine
 10
94.07332261975215
 20
45.91030134374829
 30
0.0
 11
94.69096967857568
 21
45.67696801041495
 31
0.0
  0
LINE
  5
BE
330
1F
100
AcDbEntity
  8
1
  6
Continuous
 62
     2
100
AcDbLine
 10
93.45567556092863
 20
45.67696801041495
 30
0.0
 11
94.07332261975215
 21
45.91030134374829
 31
0.0
  0
LINE
  5
BF
330
1F
100
AcDbEntity
  8
1
  6
Continuous
 62
     2
100
AcDbLine
 10
93.04391085504628
 20
45.21030134374828
 30
0.0
 11
93.45567556092863
 21
45.67696801041495
 31
0.0
  0
LINE
  5
C0
330
1F
100
AcDbEntity
  8
1
  6
Continuous
 62
     2
100
AcDbLine
 10
91.9115579138698
 20
44.04363467708162
 30
0.0
 11
90.98508732563451
 21
44.04363467708162
 31
0.0
  0
LINE
  5
C1
330
1F
100
AcDbEntity
  8
1
  6
Continuous
 62
     2
100
AcDbLine
 10
91.9115579138698
 20
43.34363467708162
 30
0.0
 11
91.9115579138698
 21
44.04363467708162
 31
0.0
  0
LINE
  5
C2
330
1F
100
AcDbEntity
  8
1
  6
Continuous
 62
     2
100
AcDbLine
 10
91.8086167373992
 20
42.99363467708162
 30
0.0
 11
91.9115579138698
 21
43.34363467708162
 31
0.0
  0
LINE
  5
C3
330
1F
100
AcDbEntity
  8
1
  6
Continuous
 62
     2
100
AcDbLine
 10
91.60273438445803
 20
42.76030134374829
 30
0.0
 11
91.8086167373992
 21
42.99363467708162
 31
0.0
  0
LINE
  5
C4
330
1F
100
AcDbEntity
  8
1
  6
Continuous
 62
     2
100
AcDbLine
 10
91.29391085504626
 20
42.52696801041495
 30
0.0
 11
91.60273438445803
 21
42.76030134374829
 31
0.0
  0
LINE
  5
C5
330
1F
100
AcDbEntity
  8
1
  6
Continuous
 62
     2
100
AcDbLine
 10
90.77920497269332
 20
42.41030134374829
 30
0.0
 11
91.29391085504626
 21
42.52696801041495
 31
0.0
  0
LINE
  5
C6
330
1F
100
AcDbEntity
  8
1
  6
Continuous
 62
     2
100
AcDbLine
 10
90.2644990903404
 20
42.52696801041495
 30
0.0
 11
90.77920497269332
 21
42.41030134374829
 31
0.0
  0
LINE
  5
C7
330
1F
100
AcDbEntity
  8
1
  6
Continuous
 62
     2
100
AcDbLine
 10
89.95567556092863
 20
42.99363467708162
 30
0.0
 11
90.2644990903404
 21
42.52696801041495
 31
0.0
  0
LINE
  5
C8
330
1F
100
AcDbEntity
  8
1
  6
Continuous
 62
     2
100
AcDbLine
 10
89.85273438445803
 20
43.22696801041496
 30
0.0
 11
89.95567556092863
 21
42.99363467708162
 31
0.0
  0
LINE
  5
C9
330
1F
100
AcDbEntity
  8
1
  6
Continuous
 62
     2
100
AcDbLine
 10
89.64685203151686
 20
44.16030134374829
 30
0.0
 11
89.85273438445803
 21
43.22696801041496
 31
0.0
  0
LINE
  5
CA
330
1F
100
AcDbEntity
  8
1
  6
Continuous
 62
     2
100
AcDbLine
 10
89.74979320798745
 20
44.62696801041496
 30
0.0
 11
89.64685203151686
 21
44.16030134374829
 31
0.0
  0
LINE
  5
CB
330
1F
100
AcDbEntity
  8
1
  6
Continuous
 62
     2
100
AcDbLine
 10
89.95567556092863
 20
45.32696801041495
 30
0.0
 11
89.74979320798745
 21
44.62696801041496
 31
0.0
  0
LINE
  5
CC
330
1F
100
AcDbEntity
  8
1
  6
Continuous
 62
     2
100
AcDbLine
 10
90.0586167373992
 20
45.56030134374829
 30
0.0
 11
89.95567556092863
 21
45.32696801041495
 31
0.0
  0
LINE
  5
CD
330
1F
100
AcDbEntity
  8
1
  6
Continuous
 62
     2
100
AcDbLine
 10
90.36744026681097
 20
45.79363467708162
 30
0.0
 11
90.0586167373992
 21
45.56030134374829
 31
0.0
  0
LINE
  5
CE
330
1F
100
AcDbEntity
  8
1
  6
Continuous
 62
     2
100
AcDbLine
 10
90.77920497269332
 20
45.91030134374829
 30
0.0
 11
90.36744026681097
 21
45.79363467708162
 31
0.0
  0
LINE
  5
CF
330
1F
100
AcDbEntity
  8
1
  6
Continuous
 62
     2
100
AcDbLine
 10
91.29391085504626
 20
45.79363467708162
 30
0.0
 11
90.77920497269332
 21
45.91030134374829
 31
0.0
  0
LINE
  5
D0
330
1F
100
AcDbEntity
  8
1
  6
Continuous
 62
     2
100
AcDbLine
 10
91.49979320798745
 20
45.67696801041495
 30
0.0
 11
91.29391085504626
 21
45.79363467708162
 31
0.0
  0
LINE
  5
D1
330
1F
100
AcDbEntity
  8
1
  6
Continuous
 62
     2
100
AcDbLine
 10
91.70567556092863
 20
45.44363467708162
 30
0.0
 11
91.49979320798745
 21
45.67696801041495
 31
0.0
  0
LINE
  5
D2
330
1F
100
AcDbEntity
  8
1
  6
Continuous
 62
     2
100
AcDbLine
 10
91.9115579138698
 20
45.09363467708162
 30
0.0
 11
91.70567556092863
 21
45.44363467708162
 31
0.0
  0
LINE
  5
D3
330
1F
100
AcDbEntity
  8
1
  6
Continuous
 62
     2
100
AcDbLine
 10
87.89685203151687
 20
42.41030134374829
 30
0.0
 11
88.61744026681099
 21
45.91030134374829
 31
0.0
  0
LINE
  5
D4
330
1F
100
AcDbEntity
  8
1
  6
Continuous
 62
     2
100
AcDbLine
 10
87.07332261975216
 20
45.79363467708162
 30
0.0
 11
87.89685203151687
 21
42.41030134374829
 31
0.0
  0
LINE
  5
D5
330
1F
100
AcDbEntity
  8
1
  6
Continuous
 62
     2
100
AcDbLine
 10
86.35273438445805
 20
42.41030134374829
 30
0.0
 11
87.07332261975216
 21
45.79363467708162
 31
0.0
  0
LINE
  5
D6
330
1F
100
AcDbEntity
  8
1
  6
Continuous
 62
     2
100
AcDbLine
 10
85.52920497269334
 20
45.91030134374829
 30
0.0
 11
86.35273438445805
 21
42.41030134374829
 31
0.0
  0
LINE
  5
D7
330
1F
100
AcDbEntity
  8
1
  6
Continuous
 62
     2
100
AcDbLine
 10
82.54391085504628
 20
43.34363467708162
 30
0.0
 11
84.19096967857568
 21
43.34363467708162
 31
0.0
  0
LINE
  5
D8
330
1F
100
AcDbEntity
  8
1
  6
Continuous
 62
     2
100
AcDbLine
 10
83.36744026681097
 20
45.91030134374829
 30
0.0
 11
84.49979320798745
 21
42.41030134374829
 31
0.0
  0
LINE
  5
D9
330
1F
100
AcDbEntity
  8
1
  6
Continuous
 62
     2
100
AcDbLine
 10
82.23508732563451
 20
42.41030134374829
 30
0.0
 11
83.36744026681097
 21
45.91030134374829
 31
0.0
  0
LINE
  5
DA
330
1F
100
AcDbEntity
  8
1
  6
Continuous
 62
     4
100
AcDbLine
 10
40.77188356612069
 20
5.80432378305543
 30
0.0
 11
42.41894238965009
 21
5.80432378305543
 31
0.0
  0
LINE
  5
DB
330
1F
100
AcDbEntity
  8
1
  6
Continuous
 62
     4
100
AcDbLine
 10
41.59541297788539
 20
8.3709904497221
 30
0.0
 11
42.72776591906186
 21
4.8709904497221
 31
0.0
  0
LINE
  5
DC
330
1F
100
AcDbEntity
  8
1
  6
Continuous
 62
     4
100
AcDbLine
 10
40.46306003670892
 20
4.8709904497221
 30
0.0
 11
41.59541297788539
 21
8.3709904497221
 31
0.0
  0
LINE
  5
DD
330
1F
100
AcDbEntity
  8
1
  6
Continuous
 62
     4
100
AcDbLine
 10
36.03658944847364
 20
5.10432378305543
 30
0.0
 11
35.80497180141482
 21
5.33765711638877
 31
0.0
  0
LINE
  5
DE
330
1F
100
AcDbEntity
  8
1
  6
Continuous
 62
     4
100
AcDbLine
 10
36.3454129778854
 20
4.8709904497221
 30
0.0
 11
36.03658944847364
 21
5.10432378305543
 31
0.0
  0
LINE
  5
DF
330
1F
100
AcDbEntity
  8
1
  6
Continuous
 62
     4
100
AcDbLine
 10
36.88585415435599
 20
4.8709904497221
 30
0.0
 11
36.3454129778854
 21
4.8709904497221
 31
0.0
  0
LINE
  5
E0
330
1F
100
AcDbEntity
  8
1
  6
Continuous
 62
     4
100
AcDbLine
 10
37.11747180141482
 20
5.10432378305543
 30
0.0
 11
36.88585415435599
 21
4.8709904497221
 31
0.0
  0
LINE
  5
E1
330
1F
100
AcDbEntity
  8
1
  6
Continuous
 62
     4
100
AcDbLine
 10
37.2718835661207
 20
5.33765711638877
 30
0.0
 11
37.11747180141482
 21
5.10432378305543
 31
0.0
  0
LINE
  5
E2
330
1F
100
AcDbEntity
  8
1
  6
Continuous
 62
     4
100
AcDbLine
 10
37.34908944847364
 20
5.9209904497221
 30
0.0
 11
37.2718835661207
 21
5.33765711638877
 31
0.0
  0
LINE
  5
E3
330
1F
100
AcDbEntity
  8
1
  6
Continuous
 62
     4
100
AcDbLine
 10
37.2718835661207
 20
6.50432378305544
 30
0.0
 11
37.34908944847364
 21
5.9209904497221
 31
0.0
  0
LINE
  5
E4
330
1F
100
AcDbEntity
  8
1
  6
Continuous
 62
     4
100
AcDbLine
 10
37.11747180141482
 20
6.73765711638877
 30
0.0
 11
37.2718835661207
 21
6.50432378305544
 31
0.0
  0
LINE
  5
E5
330
1F
100
AcDbEntity
  8
1
  6
Continuous
 62
     4
100
AcDbLine
 10
36.88585415435599
 20
6.9709904497221
 30
0.0
 11
37.11747180141482
 21
6.73765711638877
 31
0.0
  0
LINE
  5
E6
330
1F
100
AcDbEntity
  8
1
  6
Continuous
 62
     4
100
AcDbLine
 10
36.57703062494423
 20
7.08765711638877
 30
0.0
 11
36.88585415435599
 21
6.9709904497221
 31
0.0
  0
LINE
  5
E7
330
1F
100
AcDbEntity
  8
1
  6
Continuous
 62
     4
100
AcDbLine
 10
36.26820709553246
 20
6.9709904497221
 30
0.0
 11
36.57703062494423
 21
7.08765711638877
 31
0.0
  0
LINE
  5
E8
330
1F
100
AcDbEntity
  8
1
  6
Continuous
 62
     4
100
AcDbLine
 10
35.88217768376776
 20
6.6209904497221
 30
0.0
 11
36.26820709553246
 21
6.9709904497221
 31
0.0
  0
LINE
  5
E9
330
1F
100
AcDbEntity
  8
1
  6
Continuous
 62
     4
100
AcDbLine
 10
35.9593835661207
 20
8.3709904497221
 30
0.0
 11
35.88217768376776
 21
6.6209904497221
 31
0.0
  0
LINE
  5
EA
330
1F
100
AcDbEntity
  8
1
  6
Continuous
 62
     4
100
AcDbLine
 10
37.2718835661207
 20
8.3709904497221
 30
0.0
 11
35.9593835661207
 21
8.3709904497221
 31
0.0
  0
LINE
  5
EB
330
1F
100
AcDbEntity
  8
1
  6
Continuous
 62
     4
100
AcDbLine
 10
34.26085415435599
 20
5.68765711638877
 30
0.0
 11
34.26085415435599
 21
4.8709904497221
 31
0.0
  0
LINE
  5
EC
330
1F
100
AcDbEntity
  8
1
  6
Continuous
 62
     4
100
AcDbLine
 10
34.41526591906187
 20
6.73765711638877
 30
0.0
 11
34.26085415435599
 21
5.68765711638877
 31
0.0
  0
LINE
  5
ED
330
1F
100
AcDbEntity
  8
1
  6
Continuous
 62
     4
100
AcDbLine
 10
35.0329129778854
 20
8.3709904497221
 30
0.0
 11
34.41526591906187
 21
6.73765711638877
 31
0.0
  0
LINE
  5
EE
330
1F
100
AcDbEntity
  8
1
  6
Continuous
 62
     4
100
AcDbLine
 10
33.48879533082658
 20
8.3709904497221
 30
0.0
 11
35.0329129778854
 21
8.3709904497221
 31
0.0
  0
LINE
  5
EF
330
1F
100
AcDbEntity
  8
1
  6
Continuous
 62
     4
100
AcDbLine
 10
32.33070709553246
 20
8.13765711638877
 30
0.0
 11
31.86747180141481
 21
8.3709904497221
 31
0.0
  0
LINE
  5
F0
330
1F
100
AcDbEntity
  8
1
  6
Continuous
 62
     4
100
AcDbLine
 10
32.63953062494423
 20
7.55432378305543
 30
0.0
 11
32.33070709553246
 21
8.13765711638877
 31
0.0
  0
LINE
  5
F1
330
1F
100
AcDbEntity
  8
1
  6
Continuous
 62
     4
100
AcDbLine
 10
32.71673650729716
 20
6.6209904497221
 30
0.0
 11
32.63953062494423
 21
7.55432378305543
 31
0.0
  0
LINE
  5
F2
330
1F
100
AcDbEntity
  8
1
  6
Continuous
 62
     4
100
AcDbLine
 10
32.63953062494423
 20
5.68765711638877
 30
0.0
 11
32.71673650729716
 21
6.6209904497221
 31
0.0
  0
LINE
  5
F3
330
1F
100
AcDbEntity
  8
1
  6
Continuous
 62
     4
100
AcDbLine
 10
32.33070709553246
 20
5.10432378305543
 30
0.0
 11
32.63953062494423
 21
5.68765711638877
 31
0.0
  0
LINE
  5
F4
330
1F
100
AcDbEntity
  8
1
  6
Continuous
 62
     4
100
AcDbLine
 10
31.86747180141481
 20
4.8709904497221
 30
0.0
 11
32.33070709553246
 21
5.10432378305543
 31
0.0
  0
LINE
  5
F5
330
1F
100
AcDbEntity
  8
1
  6
Continuous
 62
     4
100
AcDbLine
 10
31.40423650729717
 20
5.10432378305543
 30
0.0
 11
31.86747180141481
 21
4.8709904497221
 31
0.0
  0
LINE
  5
F6
330
1F
100
AcDbEntity
  8
1
  6
Continuous
 62
     4
100
AcDbLine
 10
31.17261886023834
 20
5.68765711638877
 30
0.0
 11
31.40423650729717
 21
5.10432378305543
 31
0.0
  0
LINE
  5
F7
330
1F
100
AcDbEntity
  8
1
  6
Continuous
 62
     4
100
AcDbLine
 10
31.01820709553246
 20
6.6209904497221
 30
0.0
 11
31.17261886023834
 21
5.68765711638877
 31
0.0
  0
LINE
  5
F8
330
1F
100
AcDbEntity
  8
1
  6
Continuous
 62
     4
100
AcDbLine
 10
31.17261886023834
 20
7.55432378305543
 30
0.0
 11
31.01820709553246
 21
6.6209904497221
 31
0.0
  0
LINE
  5
F9
330
1F
100
AcDbEntity
  8
1
  6
Continuous
 62
     4
100
AcDbLine
 10
31.40423650729717
 20
8.13765711638877
 30
0.0
 11
31.17261886023834
 21
7.55432378305543
 31
0.0
  0
LINE
  5
FA
330
1F
100
AcDbEntity
  8
1
  6
Continuous
 62
     4
100
AcDbLine
 10
31.86747180141481
 20
8.3709904497221
 30
0.0
 11
31.40423650729717
 21
8.13765711638877
 31
0.0
  0
LINE
  5
FB
330
1F
100
AcDbEntity
  8
1
  6
Continuous
 62
     4
100
AcDbLine
 10
30.01453062494423
 20
5.2209904497221
 30
0.0
 11
30.09173650729717
 21
5.33765711638877
 31
0.0
  0
LINE
  5
FC
330
1F
100
AcDbEntity
  8
1
  6
Continuous
 62
     4
100
AcDbLine
 10
30.09173650729717
 20
5.10432378305543
 30
0.0
 11
30.01453062494423
 21
5.2209904497221
 31
0.0
  0
LINE
  5
FD
330
1F
100
AcDbEntity
  8
1
  6
Continuous
 62
     4
100
AcDbLine
 10
30.16894238965011
 20
5.2209904497221
 30
0.0
 11
30.09173650729717
 21
5.10432378305543
 31
0.0
  0
LINE
  5
FE
330
1F
100
AcDbEntity
  8
1
  6
Continuous
 62
     4
100
AcDbLine
 10
30.09173650729717
 20
5.33765711638877
 30
0.0
 11
30.16894238965011
 21
5.2209904497221
 31
0.0
  0
LINE
  5
FF
330
1F
100
AcDbEntity
  8
1
  6
Continuous
 62
     4
100
AcDbLine
 10
30.01453062494423
 20
5.33765711638877
 30
0.0
 11
30.16894238965011
 21
5.33765711638877
 31
0.0
  0
LINE
  5
100
330
1F
100
AcDbEntity
  8
1
  6
Continuous
 62
     4
100
AcDbLine
 10
30.01453062494423
 20
5.10432378305543
 30
0.0
 11
30.01453062494423
 21
5.33765711638877
 31
0.0
  0
LINE
  5
101
330
1F
100
AcDbEntity
  8
1
  6
Continuous
 62
     4
100
AcDbLine
 10
30.16894238965011
 20
5.10432378305543
 30
0.0
 11
30.01453062494423
 21
5.10432378305543
 31
0.0
  0
LINE
  5
102
330
1F
100
AcDbEntity
  8
1
  6
Continuous
 62
     4
100
AcDbLine
 10
30.16894238965011
 20
5.33765711638877
 30
0.0
 11
30.16894238965011
 21
5.10432378305543
 31
0.0
  0
LINE
  5
103
330
1F
100
AcDbEntity
  8
1
  6
Continuous
 62
     4
100
AcDbLine
 10
29.93732474259128
 20
5.2209904497221
 30
0.0
 11
30.09173650729717
 21
5.45432378305543
 31
0.0
  0
LINE
  5
104
330
1F
100
AcDbEntity
  8
1
  6
Continuous
 62
     4
100
AcDbLine
 10
30.09173650729717
 20
4.98765711638877
 30
0.0
 11
29.93732474259128
 21
5.2209904497221
 31
0.0
  0
LINE
  5
105
330
1F
100
AcDbEntity
  8
1
  6
Continuous
 62
     4
100
AcDbLine
 10
30.24614827200305
 20
5.2209904497221
 30
0.0
 11
30.09173650729717
 21
4.98765711638877
 31
0.0
  0
LINE
  5
106
330
1F
100
AcDbEntity
  8
1
  6
Continuous
 62
     4
100
AcDbLine
 10
30.09173650729717
 20
5.45432378305543
 30
0.0
 11
30.24614827200305
 21
5.2209904497221
 31
0.0
  0
LINE
  5
107
330
1F
100
AcDbEntity
  8
1
  6
Continuous
 62
     4
100
AcDbLine
 10
28.77923650729716
 20
8.13765711638877
 30
0.0
 11
28.31600121317952
 21
8.3709904497221
 31
0.0
  0
LINE
  5
108
330
1F
100
AcDbEntity
  8
1
  6
Continuous
 62
     4
100
AcDbLine
 10
29.08806003670893
 20
7.55432378305543
 30
0.0
 11
28.77923650729716
 21
8.13765711638877
 31
0.0
  0
LINE
  5
109
330
1F
100
AcDbEntity
  8
1
  6
Continuous
 62
     4
100
AcDbLine
 10
29.16526591906187
 20
6.6209904497221
 30
0.0
 11
29.08806003670893
 21
7.55432378305543
 31
0.0
  0
LINE
  5
10A
330
1F
100
AcDbEntity
  8
1
  6
Continuous
 62
     4
100
AcDbLine
 10
29.08806003670893
 20
5.68765711638877
 30
0.0
 11
29.16526591906187
 21
6.6209904497221
 31
0.0
  0
LINE
  5
10B
330
1F
100
AcDbEntity
  8
1
  6
Continuous
 62
     4
100
AcDbLine
 10
28.77923650729716
 20
5.10432378305543
 30
0.0
 11
29.08806003670893
 21
5.68765711638877
 31
0.0
  0
LINE
  5
10C
330
1F
100
AcDbEntity
  8
1
  6
Continuous
 62
     4
100
AcDbLine
 10
28.31600121317952
 20
4.8709904497221
 30
0.0
 11
28.77923650729716
 21
5.10432378305543
 31
0.0
  0
LINE
  5
10D
330
1F
100
AcDbEntity
  8
1
  6
Continuous
 62
     4
100
AcDbLine
 10
27.85276591906187
 20
5.10432378305543
 30
0.0
 11
28.31600121317952
 21
4.8709904497221
 31
0.0
  0
LINE
  5
10E
330
1F
100
AcDbEntity
  8
1
  6
Continuous
 62
     4
100
AcDbLine
 10
27.62114827200305
 20
5.68765711638877
 30
0.0
 11
27.85276591906187
 21
5.10432378305543
 31
0.0
  0
LINE
  5
10F
330
1F
100
AcDbEntity
  8
1
  6
Continuous
 62
     4
100
AcDbLine
 10
27.46673650729716
 20
6.6209904497221
 30
0.0
 11
27.62114827200305
 21
5.68765711638877
 31
0.0
  0
LINE
  5
110
330
1F
100
AcDbEntity
  8
1
  6
Continuous
 62
     4
100
AcDbLine
 10
27.62114827200305
 20
7.55432378305543
 30
0.0
 11
27.46673650729716
 21
6.6209904497221
 31
0.0
  0
LINE
  5
111
330
1F
100
AcDbEntity
  8
1
  6
Continuous
 62
     4
100
AcDbLine
 10
27.85276591906187
 20
8.13765711638877
 30
0.0
 11
27.62114827200305
 21
7.55432378305543
 31
0.0
  0
LINE
  5
112
330
1F
100
AcDbEntity
  8
1
  6
Continuous
 62
     4
100
AcDbLine
 10
28.31600121317952
 20
8.3709904497221
 30
0.0
 11
27.85276591906187
 21
8.13765711638877
 31
0.0
  0
LINE
  5
113
330
1F
100
AcDbEntity
  8
1
  6
Continuous
 62
     4
100
AcDbLine
 10
26.37298650729716
 20
7.2772404497221
 30
0.0
 11
26.15423650729716
 21
7.3866154497221
 31
0.0
  0
LINE
  5
114
330
1F
100
AcDbEntity
  8
1
  6
Continuous
 62
     4
100
AcDbLine
 10
26.5188198406305
 20
6.8397404497221
 30
0.0
 11
26.37298650729716
 21
7.2772404497221
 31
0.0
  0
LINE
  5
115
330
1F
100
AcDbEntity
  8
1
  6
Continuous
 62
     4
100
AcDbLine
 10
26.5188198406305
 20
6.4022404497221
 30
0.0
 11
26.5188198406305
 21
6.8397404497221
 31
0.0
  0
LINE
  5
116
330
1F
100
AcDbEntity
  8
1
  6
Continuous
 62
     4
100
AcDbLine
 10
26.3000698406305
 20
5.8553654497221
 30
0.0
 11
26.5188198406305
 21
6.4022404497221
 31
0.0
  0
LINE
  5
117
330
1F
100
AcDbEntity
  8
1
  6
Continuous
 62
     4
100
AcDbLine
 10
26.00840317396383
 20
5.6366154497221
 30
0.0
 11
26.3000698406305
 21
5.8553654497221
 31
0.0
  0
LINE
  5
118
330
1F
100
AcDbEntity
  8
1
  6
Continuous
 62
     4
100
AcDbLine
 10
25.71673650729716
 20
5.6366154497221
 30
0.0
 11
26.00840317396383
 21
5.6366154497221
 31
0.0
  0
LINE
  5
119
330
1F
100
AcDbEntity
  8
1
  6
Continuous
 62
     4
100
AcDbLine
 10
25.49798650729716
 20
5.7459904497221
 30
0.0
 11
25.71673650729716
 21
5.6366154497221
 31
0.0
  0
LINE
  5
11A
330
1F
100
AcDbEntity
  8
1
  6
Continuous
 62
     4
100
AcDbLine
 10
25.35215317396383
 20
6.1834904497221
 30
0.0
 11
25.49798650729716
 21
5.7459904497221
 31
0.0
  0
LINE
  5
11B
330
1F
100
AcDbEntity
  8
1
  6
Continuous
 62
     4
100
AcDbLine
 10
25.35215317396383
 20
6.6209904497221
 30
0.0
 11
25.35215317396383
 21
6.1834904497221
 31
0.0
  0
LINE
  5
11C
330
1F
100
AcDbEntity
  8
1
  6
Continuous
 62
     4
100
AcDbLine
 10
25.57090317396383
 20
7.1678654497221
 30
0.0
 11
25.35215317396383
 21
6.6209904497221
 31
0.0
  0
LINE
  5
11D
330
1F
100
AcDbEntity
  8
1
  6
Continuous
 62
     4
100
AcDbLine
 10
25.8625698406305
 20
7.3866154497221
 30
0.0
 11
25.57090317396383
 21
7.1678654497221
 31
0.0
  0
LINE
  5
11E
330
1F
100
AcDbEntity
  8
1
  6
Continuous
 62
     4
100
AcDbLine
 10
26.15423650729716
 20
7.3866154497221
 30
0.0
 11
25.8625698406305
 21
7.3866154497221
 31
0.0
  0
LINE
  5
11F
330
1F
100
AcDbEntity
  8
1
  6
Continuous
 62
     4
100
AcDbLine
 10
25.57090317396383
 20
4.8709904497221
 30
0.0
 11
26.3000698406305
 21
8.2616154497221
 31
0.0
  0
LINE
  5
120
330
1F
100
AcDbEntity
  8
1
  6
Continuous
 62
     4
100
AcDbLine
 10
38.0954129778854
 20
10.1209904497221
 30
0.0
 11
38.0954129778854
 21
3.1209904497221
 31
0.0
  0
LINE
  5
121
330
1F
100
AcDbEntity
  8
1
  6
Continuous
 62
     4
100
AcDbLine
 10
45.0954129778854
 20
3.1209904497221
 30
0.0
 11
45.0954129778854
 21
10.1209904497221
 31
0.0
  0
LINE
  5
122
330
1F
100
AcDbEntity
  8
1
  6
Continuous
 62
     4
100
AcDbLine
 10
17.0954129778854
 20
10.1209904497221
 30
0.0
 11
17.0954129778854
 21
3.1209904497221
 31
0.0
  0
LINE
  5
123
330
1F
100
AcDbEntity
  8
1
  6
Continuous
 62
     4
100
AcDbLine
 10
45.0954129778854
 20
10.1209904497221
 30
0.0
 11
17.0954129778854
 21
10.1209904497221
 31
0.0
  0
LINE
  5
124
330
1F
100
AcDbEntity
  8
1
  6
Continuous
 62
     4
100
AcDbLine
 10
24.0954129778854
 20
3.1209904497221
 30
0.0
 11
24.0954129778854
 21
10.1209904497221
 31
0.0
  0
LINE
  5
125
330
1F
100
AcDbEntity
  8
1
  6
Continuous
 62
     4
100
AcDbLine
 10
17.0954129778854
 20
3.1209904497221
 30
0.0
 11
45.0954129778854
 21
3.1209904497221
 31
0.0
  0
LINE
  5
126
330
1F
100
AcDbEntity
  8
1
  6
Continuous
 62
     4
100
AcDbLine
 10
18.1454129778854
 20
7.67099044972209
 30
0.0
 11
17.9704129778854
 21
6.9709904497221
 31
0.0
  0
LINE
  5
127
330
1F
100
AcDbEntity
  8
1
  6
Continuous
 62
     4
100
AcDbLine
 10
18.4954129778854
 20
8.1959904497221
 30
0.0
 11
18.1454129778854
 21
7.67099044972209
 31
0.0
  0
LINE
  5
128
330
1F
100
AcDbEntity
  8
1
  6
Continuous
 62
     4
100
AcDbLine
 10
19.0204129778854
 20
8.72099044972209
 30
0.0
 11
18.4954129778854
 21
8.1959904497221
 31
0.0
  0
LINE
  5
129
330
1F
100
AcDbEntity
  8
1
  6
Continuous
 62
     4
100
AcDbLine
 10
19.5454129778854
 20
9.0709904497221
 30
0.0
 11
19.0204129778854
 21
8.72099044972209
 31
0.0
  0
LINE
  5
12A
330
1F
100
AcDbEntity
  8
1
  6
Continuous
 62
     4
100
AcDbLine
 10
20.2454129778854
 20
9.2459904497221
 30
0.0
 11
19.5454129778854
 21
9.0709904497221
 31
0.0
  0
LINE
  5
12B
330
1F
100
AcDbEntity
  8
1
  6
Continuous
 62
     4
100
AcDbLine
 10
20.9454129778854
 20
9.2459904497221
 30
0.0
 11
20.2454129778854
 21
9.2459904497221
 31
0.0
  0
LINE
  5
12C
330
1F
100
AcDbEntity
  8
1
  6
Continuous
 62
     4
100
AcDbLine
 10
21.6454129778854
 20
9.0709904497221
 30
0.0
 11
20.9454129778854
 21
9.2459904497221
 31
0.0
  0
LINE
  5
12D
330
1F
100
AcDbEntity
  8
1
  6
Continuous
 62
     4
100
AcDbLine
 10
22.1704129778854
 20
8.72099044972209
 30
0.0
 11
21.6454129778854
 21
9.0709904497221
 31
0.0
  0
LINE
  5
12E
330
1F
100
AcDbEntity
  8
1
  6
Continuous
 62
     4
100
AcDbLine
 10
22.6954129778854
 20
8.1959904497221
 30
0.0
 11
22.1704129778854
 21
8.72099044972209
 31
0.0
  0
LINE
  5
12F
330
1F
100
AcDbEntity
  8
1
  6
Continuous
 62
     4
100
AcDbLine
 10
23.0454129778854
 20
7.67099044972209
 30
0.0
 11
22.6954129778854
 21
8.1959904497221
 31
0.0
  0
LINE
  5
130
330
1F
100
AcDbEntity
  8
1
  6
Continuous
 62
     4
100
AcDbLine
 10
23.2204129778854
 20
6.9709904497221
 30
0.0
 11
23.0454129778854
 21
7.67099044972209
 31
0.0
  0
LINE
  5
131
330
1F
100
AcDbEntity
  8
1
  6
Continuous
 62
     4
100
AcDbLine
 10
23.2204129778854
 20
6.2709904497221
 30
0.0
 11
23.2204129778854
 21
6.9709904497221
 31
0.0
  0
LINE
  5
132
330
1F
100
AcDbEntity
  8
1
  6
Continuous
 62
     4
100
AcDbLine
 10
23.0454129778854
 20
5.57099044972209
 30
0.0
 11
23.2204129778854
 21
6.2709904497221
 31
0.0
  0
LINE
  5
133
330
1F
100
AcDbEntity
  8
1
  6
Continuous
 62
     4
100
AcDbLine
 10
22.6954129778854
 20
5.0459904497221
 30
0.0
 11
23.0454129778854
 21
5.57099044972209
 31
0.0
  0
LINE
  5
134
330
1F
100
AcDbEntity
  8
1
  6
Continuous
 62
     4
100
AcDbLine
 10
22.1704129778854
 20
4.5209904497221
 30
0.0
 11
22.6954129778854
 21
5.0459904497221
 31
0.0
  0
LINE
  5
135
330
1F
100
AcDbEntity
  8
1
  6
Continuous
 62
     4
100
AcDbLine
 10
21.6454129778854
 20
4.17099044972209
 30
0.0
 11
22.1704129778854
 21
4.5209904497221
 31
0.0
  0
LINE
  5
136
330
1F
100
AcDbEntity
  8
1
  6
Continuous
 62
     4
100
AcDbLine
 10
20.9454129778854
 20
3.9959904497221
 30
0.0
 11
21.6454129778854
 21
4.17099044972209
 31
0.0
  0
LINE
  5
137
330
1F
100
AcDbEntity
  8
1
  6
Continuous
 62
     4
100
AcDbLine
 10
20.2454129778854
 20
3.9959904497221
 30
0.0
 11
20.9454129778854
 21
3.9959904497221
 31
0.0
  0
LINE
  5
138
330
1F
100
AcDbEntity
  8
1
  6
Continuous
 62
     4
100
AcDbLine
 10
19.5454129778854
 20
4.17099044972209
 30
0.0
 11
20.2454129778854
 21
3.9959904497221
 31
0.0
  0
LINE
  5
139
330
1F
100
AcDbEntity
  8
1
  6
Continuous
 62
     4
100
AcDbLine
 10
19.0204129778854
 20
4.5209904497221
 30
0.0
 11
19.5454129778854
 21
4.17099044972209
 31
0.0
  0
LINE
  5
13A
330
1F
100
AcDbEntity
  8
1
  6
Continuous
 62
     4
100
AcDbLine
 10
18.4954129778854
 20
5.0459904497221
 30
0.0
 11
19.0204129778854
 21
4.5209904497221
 31
0.0
  0
LINE
  5
13B
330
1F
100
AcDbEntity
  8
1
  6
Continuous
 62
     4
100
AcDbLine
 10
18.1454129778854
 20
5.57099044972209
 30
0.0
 11
18.4954129778854
 21
5.0459904497221
 31
0.0
  0
LINE
  5
13C
330
1F
100
AcDbEntity
  8
1
  6
Continuous
 62
     4
100
AcDbLine
 10
17.9704129778854
 20
6.2709904497221
 30
0.0
 11
18.1454129778854
 21
5.57099044972209
 31
0.0
  0
LINE
  5
13D
330
1F
100
AcDbEntity
  8
1
  6
Continuous
 62
     4
100
AcDbLine
 10
17.9704129778854
 20
6.9709904497221
 30
0.0
 11
17.9704129778854
 21
6.2709904497221
 31
0.0
  0
LINE
  5
13E
330
1F
100
AcDbEntity
  8
1
  6
Continuous
 62
     4
100
AcDbLine
 10
19.1954129778854
 20
7.67099044972209
 30
0.0
 11
18.8454129778854
 21
6.9709904497221
 31
0.0
  0
LINE
  5
13F
330
1F
100
AcDbEntity
  8
1
  6
Continuous
 62
     4
100
AcDbLine
 10
19.5454129778854
 20
8.0209904497221
 30
0.0
 11
19.1954129778854
 21
7.67099044972209
 31
0.0
  0
LINE
  5
140
330
1F
100
AcDbEntity
  8
1
  6
Continuous
 62
     4
100
AcDbLine
 10
20.2454129778854
 20
8.3709904497221
 30
0.0
 11
19.5454129778854
 21
8.0209904497221
 31
0.0
  0
LINE
  5
141
330
1F
100
AcDbEntity
  8
1
  6
Continuous
 62
     4
100
AcDbLine
 10
20.9454129778854
 20
8.3709904497221
 30
0.0
 11
20.2454129778854
 21
8.3709904497221
 31
0.0
  0
LINE
  5
142
330
1F
100
AcDbEntity
  8
1
  6
Continuous
 62
     4
100
AcDbLine
 10
21.6454129778854
 20
8.0209904497221
 30
0.0
 11
20.9454129778854
 21
8.3709904497221
 31
0.0
  0
LINE
  5
143
330
1F
100
AcDbEntity
  8
1
  6
Continuous
 62
     4
100
AcDbLine
 10
21.9954129778854
 20
7.67099044972209
 30
0.0
 11
21.6454129778854
 21
8.0209904497221
 31
0.0
  0
LINE
  5
144
330
1F
100
AcDbEntity
  8
1
  6
Continuous
 62
     4
100
AcDbLine
 10
22.3454129778854
 20
6.9709904497221
 30
0.0
 11
21.9954129778854
 21
7.67099044972209
 31
0.0
  0
LINE
  5
145
330
1F
100
AcDbEntity
  8
1
  6
Continuous
 62
     4
100
AcDbLine
 10
22.3454129778854
 20
6.2709904497221
 30
0.0
 11
22.3454129778854
 21
6.9709904497221
 31
0.0
  0
LINE
  5
146
330
1F
100
AcDbEntity
  8
1
  6
Continuous
 62
     4
100
AcDbLine
 10
21.9954129778854
 20
5.57099044972209
 30
0.0
 11
22.3454129778854
 21
6.2709904497221
 31
0.0
  0
LINE
  5
147
330
1F
100
AcDbEntity
  8
1
  6
Continuous
 62
     4
100
AcDbLine
 10
21.6454129778854
 20
5.22099044972209
 30
0.0
 11
21.9954129778854
 21
5.57099044972209
 31
0.0
  0
LINE
  5
148
330
1F
100
AcDbEntity
  8
1
  6
Continuous
 62
     4
100
AcDbLine
 10
20.9454129778854
 20
4.8709904497221
 30
0.0
 11
21.6454129778854
 21
5.22099044972209
 31
0.0
  0
LINE
  5
149
330
1F
100
AcDbEntity
  8
1
  6
Continuous
 62
     4
100
AcDbLine
 10
20.2454129778854
 20
4.8709904497221
 30
0.0
 11
20.9454129778854
 21
4.8709904497221
 31
0.0
  0
LINE
  5
14A
330
1F
100
AcDbEntity
  8
1
  6
Continuous
 62
     4
100
AcDbLine
 10
19.5454129778854
 20
5.22099044972209
 30
0.0
 11
20.2454129778854
 21
4.8709904497221
 31
0.0
  0
LINE
  5
14B
330
1F
100
AcDbEntity
  8
1
  6
Continuous
 62
     4
100
AcDbLine
 10
19.1954129778854
 20
5.57099044972209
 30
0.0
 11
19.5454129778854
 21
5.22099044972209
 31
0.0
  0
LINE
  5
14C
330
1F
100
AcDbEntity
  8
1
  6
Continuous
 62
     4
100
AcDbLine
 10
18.8454129778854
 20
6.2709904497221
 30
0.0
 11
19.1954129778854
 21
5.57099044972209
 31
0.0
  0
LINE
  5
14D
330
1F
100
AcDbEntity
  8
1
  6
Continuous
 62
     4
100
AcDbLine
 10
18.8454129778854
 20
6.9709904497221
 30
0.0
 11
18.8454129778854
 21
6.2709904497221
 31
0.0
  0
LINE
  5
14E
330
1F
100
AcDbEntity
  8
1
  6
Continuous
 62
     4
100
AcDbLine
 10
35.37882276965519
 20
-67.67219416087997
 30
0.0
 11
37.0258815931846
 21
-67.67219416087997
 31
0.0
  0
LINE
  5
14F
330
1F
100
AcDbEntity
  8
1
  6
Continuous
 62
     4
100
AcDbLine
 10
36.2023521814199
 20
-65.1055274942133
 30
0.0
 11
37.33470512259637
 21
-68.6055274942133
 31
0.0
  0
LINE
  5
150
330
1F
100
AcDbEntity
  8
1
  6
Continuous
 62
     4
100
AcDbLine
 10
35.06999924024343
 20
-68.6055274942133
 30
0.0
 11
36.2023521814199
 21
-65.1055274942133
 31
0.0
  0
LINE
  5
151
330
1F
100
AcDbEntity
  8
1
  6
Continuous
 62
     4
100
AcDbLine
 10
32.7023521814199
 20
-63.35552749421331
 30
0.0
 11
32.7023521814199
 21
-70.3555274942133
 31
0.0
  0
LINE
  5
152
330
1F
100
AcDbEntity
  8
1
  6
Continuous
 62
     4
100
AcDbLine
 10
39.7023521814199
 20
-63.35552749421331
 30
0.0
 11
32.7023521814199
 21
-63.35552749421331
 31
0.0
  0
LINE
  5
153
330
1F
100
AcDbEntity
  8
1
  6
Continuous
 62
     4
100
AcDbLine
 10
39.7023521814199
 20
-70.3555274942133
 30
0.0
 11
39.7023521814199
 21
-63.35552749421331
 31
0.0
  0
LINE
  5
154
330
1F
100
AcDbEntity
  8
1
  6
Continuous
 62
     4
100
AcDbLine
 10
32.7023521814199
 20
-70.3555274942133
 30
0.0
 11
39.7023521814199
 21
-70.3555274942133
 31
0.0
  0
LINE
  5
155
330
1F
100
AcDbEntity
  8
1
  6
Continuous
 62
     2
100
AcDbLine
 10
53.77577581070388
 20
-66.39345876514665
 30
0.0
 11
53.46695228129212
 21
-66.16012543181331
 31
0.0
  0
LINE
  5
156
330
1F
100
AcDbEntity
  8
1
  6
Continuous
 62
     2
100
AcDbLine
 10
54.18754051658623
 20
-66.62679209847998
 30
0.0
 11
53.77577581070388
 21
-66.39345876514665
 31
0.0
  0
LINE
  5
157
330
1F
100
AcDbEntity
  8
1
  6
Continuous
 62
     2
100
AcDbLine
 10
54.90812875188035
 20
-66.62679209847998
 30
0.0
 11
54.18754051658623
 21
-66.62679209847998
 31
0.0
  0
LINE
  5
158
330
1F
100
AcDbEntity
  8
1
  6
Continuous
 62
     2
100
AcDbLine
 10
55.21695228129212
 20
-66.39345876514665
 30
0.0
 11
54.90812875188035
 21
-66.62679209847998
 31
0.0
  0
LINE
  5
159
330
1F
100
AcDbEntity
  8
1
  6
Continuous
 62
     2
100
AcDbLine
 10
55.42283463423329
 20
-66.16012543181331
 30
0.0
 11
55.21695228129212
 21
-66.39345876514665
 31
0.0
  0
LINE
  5
15A
330
1F
100
AcDbEntity
  8
1
  6
Continuous
 62
     2
100
AcDbLine
 10
55.52577581070388
 20
-65.57679209847998
 30
0.0
 11
55.42283463423329
 21
-66.16012543181331
 31
0.0
  0
LINE
  5
15B
330
1F
100
AcDbEntity
  8
1
  6
Continuous
 62
     2
100
AcDbLine
 10
55.42283463423329
 20
-64.99345876514664
 30
0.0
 11
55.52577581070388
 21
-65.57679209847998
 31
0.0
  0
LINE
  5
15C
330
1F
100
AcDbEntity
  8
1
  6
Continuous
 62
     2
100
AcDbLine
 10
55.21695228129212
 20
-64.76012543181332
 30
0.0
 11
55.42283463423329
 21
-64.99345876514664
 31
0.0
  0
LINE
  5
15D
330
1F
100
AcDbEntity
  8
1
  6
Continuous
 62
     2
100
AcDbLine
 10
54.90812875188035
 20
-64.52679209847999
 30
0.0
 11
55.21695228129212
 21
-64.76012543181332
 31
0.0
  0
LINE
  5
15E
330
1F
100
AcDbEntity
  8
1
  6
Continuous
 62
     2
100
AcDbLine
 10
54.496364045998
 20
-64.41012543181331
 30
0.0
 11
54.90812875188035
 21
-64.52679209847999
 31
0.0
  0
LINE
  5
15F
330
1F
100
AcDbEntity
  8
1
  6
Continuous
 62
     2
100
AcDbLine
 10
54.08459934011565
 20
-64.52679209847999
 30
0.0
 11
54.496364045998
 21
-64.41012543181331
 31
0.0
  0
LINE
  5
160
330
1F
100
AcDbEntity
  8
1
  6
Continuous
 62
     2
100
AcDbLine
 10
53.5698934577627
 20
-64.87679209847998
 30
0.0
 11
54.08459934011565
 21
-64.52679209847999
 31
0.0
  0
LINE
  5
161
330
1F
100
AcDbEntity
  8
1
  6
Continuous
 62
     2
100
AcDbLine
 10
53.67283463423329
 20
-63.12679209847998
 30
0.0
 11
53.5698934577627
 21
-64.87679209847998
 31
0.0
  0
LINE
  5
162
330
1F
100
AcDbEntity
  8
1
  6
Continuous
 62
     2
100
AcDbLine
 10
55.42283463423329
 20
-63.12679209847998
 30
0.0
 11
53.67283463423329
 21
-63.12679209847998
 31
0.0
  0
LINE
  5
163
330
1F
100
AcDbEntity
  8
1
  6
Continuous
 62
     2
100
AcDbLine
 10
52.12871698717446
 20
-66.27679209847999
 30
0.0
 11
52.23165816364505
 21
-66.16012543181331
 31
0.0
  0
LINE
  5
164
330
1F
100
AcDbEntity
  8
1
  6
Continuous
 62
     2
100
AcDbLine
 10
52.23165816364505
 20
-66.39345876514665
 30
0.0
 11
52.12871698717446
 21
-66.27679209847999
 31
0.0
  0
LINE
  5
165
330
1F
100
AcDbEntity
  8
1
  6
Continuous
 62
     2
100
AcDbLine
 10
52.33459934011565
 20
-66.27679209847999
 30
0.0
 11
52.23165816364505
 21
-66.39345876514665
 31
0.0
  0
LINE
  5
166
330
1F
100
AcDbEntity
  8
1
  6
Continuous
 62
     2
100
AcDbLine
 10
52.23165816364505
 20
-66.16012543181331
 30
0.0
 11
52.33459934011565
 21
-66.27679209847999
 31
0.0
  0
LINE
  5
167
330
1F
100
AcDbEntity
  8
1
  6
Continuous
 62
     2
100
AcDbLine
 10
52.12871698717446
 20
-66.16012543181331
 30
0.0
 11
52.33459934011565
 21
-66.16012543181331
 31
0.0
  0
LINE
  5
168
330
1F
100
AcDbEntity
  8
1
  6
Continuous
 62
     2
100
AcDbLine
 10
52.12871698717446
 20
-66.39345876514665
 30
0.0
 11
52.12871698717446
 21
-66.16012543181331
 31
0.0
  0
LINE
  5
169
330
1F
100
AcDbEntity
  8
1
  6
Continuous
 62
     2
100
AcDbLine
 10
52.33459934011565
 20
-66.39345876514665
 30
0.0
 11
52.12871698717446
 21
-66.39345876514665
 31
0.0
  0
LINE
  5
16A
330
1F
100
AcDbEntity
  8
1
  6
Continuous
 62
     2
100
AcDbLine
 10
52.33459934011565
 20
-66.16012543181331
 30
0.0
 11
52.33459934011565
 21
-66.39345876514665
 31
0.0
  0
LINE
  5
16B
330
1F
100
AcDbEntity
  8
1
  6
Continuous
 62
     2
100
AcDbLine
 10
52.02577581070388
 20
-66.27679209847999
 30
0.0
 11
52.23165816364505
 21
-66.04345876514665
 31
0.0
  0
LINE
  5
16C
330
1F
100
AcDbEntity
  8
1
  6
Continuous
 62
     2
100
AcDbLine
 10
52.23165816364505
 20
-66.51012543181332
 30
0.0
 11
52.02577581070388
 21
-66.27679209847999
 31
0.0
  0
LINE
  5
16D
330
1F
100
AcDbEntity
  8
1
  6
Continuous
 62
     2
100
AcDbLine
 10
52.43754051658623
 20
-66.27679209847999
 30
0.0
 11
52.23165816364505
 21
-66.51012543181332
 31
0.0
  0
LINE
  5
16E
330
1F
100
AcDbEntity
  8
1
  6
Continuous
 62
     2
100
AcDbLine
 10
52.23165816364505
 20
-66.04345876514665
 30
0.0
 11
52.43754051658623
 21
-66.27679209847999
 31
0.0
  0
LINE
  5
16F
330
1F
100
AcDbEntity
  8
1
  6
Continuous
 62
     2
100
AcDbLine
 10
50.48165816364505
 20
-63.36012543181332
 30
0.0
 11
49.86401110482152
 21
-63.12679209847998
 31
0.0
  0
LINE
  5
170
330
1F
100
AcDbEntity
  8
1
  6
Continuous
 62
     2
100
AcDbLine
 10
50.89342286952741
 20
-63.94345876514664
 30
0.0
 11
50.48165816364505
 21
-63.36012543181332
 31
0.0
  0
LINE
  5
171
330
1F
100
AcDbEntity
  8
1
  6
Continuous
 62
     2
100
AcDbLine
 10
50.99636404599799
 20
-64.87679209847998
 30
0.0
 11
50.89342286952741
 21
-63.94345876514664
 31
0.0
  0
LINE
  5
172
330
1F
100
AcDbEntity
  8
1
  6
Continuous
 62
     2
100
AcDbLine
 10
50.89342286952741
 20
-65.81012543181332
 30
0.0
 11
50.99636404599799
 21
-64.87679209847998
 31
0.0
  0
LINE
  5
173
330
1F
100
AcDbEntity
  8
1
  6
Continuous
 62
     2
100
AcDbLine
 10
50.48165816364505
 20
-66.39345876514665
 30
0.0
 11
50.89342286952741
 21
-65.81012543181332
 31
0.0
  0
LINE
  5
174
330
1F
100
AcDbEntity
  8
1
  6
Continuous
 62
     2
100
AcDbLine
 10
49.86401110482152
 20
-66.62679209847998
 30
0.0
 11
50.48165816364505
 21
-66.39345876514665
 31
0.0
  0
LINE
  5
175
330
1F
100
AcDbEntity
  8
1
  6
Continuous
 62
     2
100
AcDbLine
 10
49.24636404599799
 20
-66.39345876514665
 30
0.0
 11
49.86401110482152
 21
-66.62679209847998
 31
0.0
  0
LINE
  5
176
330
1F
100
AcDbEntity
  8
1
  6
Continuous
 62
     2
100
AcDbLine
 10
48.93754051658623
 20
-65.81012543181332
 30
0.0
 11
49.24636404599799
 21
-66.39345876514665
 31
0.0
  0
LINE
  5
177
330
1F
100
AcDbEntity
  8
1
  6
Continuous
 62
     2
100
AcDbLine
 10
48.73165816364505
 20
-64.87679209847998
 30
0.0
 11
48.93754051658623
 21
-65.81012543181332
 31
0.0
  0
LINE
  5
178
330
1F
100
AcDbEntity
  8
1
  6
Continuous
 62
     2
100
AcDbLine
 10
48.93754051658623
 20
-63.94345876514664
 30
0.0
 11
48.73165816364505
 21
-64.87679209847998
 31
0.0
  0
LINE
  5
179
330
1F
100
AcDbEntity
  8
1
  6
Continuous
 62
     2
100
AcDbLine
 10
49.24636404599799
 20
-63.36012543181332
 30
0.0
 11
48.93754051658623
 21
-63.94345876514664
 31
0.0
  0
LINE
  5
17A
330
1F
100
AcDbEntity
  8
1
  6
Continuous
 62
     2
100
AcDbLine
 10
49.86401110482152
 20
-63.12679209847998
 30
0.0
 11
49.24636404599799
 21
-63.36012543181332
 31
0.0
  0
LINE
  5
17B
330
1F
100
AcDbEntity
  8
1
  6
Continuous
 62
     2
100
AcDbLine
 10
47.49636404599799
 20
-66.16012543181331
 30
0.0
 11
47.70224639893917
 21
-65.81012543181332
 31
0.0
  0
LINE
  5
17C
330
1F
100
AcDbEntity
  8
1
  6
Continuous
 62
     2
100
AcDbLine
 10
47.08459934011565
 20
-66.51012543181332
 30
0.0
 11
47.49636404599799
 21
-66.16012543181331
 31
0.0
  0
LINE
  5
17D
330
1F
100
AcDbEntity
  8
1
  6
Continuous
 62
     2
100
AcDbLine
 10
46.5698934577627
 20
-66.62679209847998
 30
0.0
 11
47.08459934011565
 21
-66.51012543181332
 31
0.0
  0
LINE
  5
17E
330
1F
100
AcDbEntity
  8
1
  6
Continuous
 62
     2
100
AcDbLine
 10
45.95224639893917
 20
-66.39345876514665
 30
0.0
 11
46.5698934577627
 21
-66.62679209847998
 31
0.0
  0
LINE
  5
17F
330
1F
100
AcDbEntity
  8
1
  6
Continuous
 62
     2
100
AcDbLine
 10
45.64342286952741
 20
-65.69345876514664
 30
0.0
 11
45.95224639893917
 21
-66.39345876514665
 31
0.0
  0
LINE
  5
180
330
1F
100
AcDbEntity
  8
1
  6
Continuous
 62
     2
100
AcDbLine
 10
45.54048169305682
 20
-64.87679209847998
 30
0.0
 11
45.64342286952741
 21
-65.69345876514664
 31
0.0
  0
LINE
  5
181
330
1F
100
AcDbEntity
  8
1
  6
Continuous
 62
     2
100
AcDbLine
 10
45.64342286952741
 20
-64.06012543181332
 30
0.0
 11
45.54048169305682
 21
-64.87679209847998
 31
0.0
  0
LINE
  5
182
330
1F
100
AcDbEntity
  8
1
  6
Continuous
 62
     2
100
AcDbLine
 10
45.95224639893917
 20
-63.47679209847998
 30
0.0
 11
45.64342286952741
 21
-64.06012543181332
 31
0.0
  0
LINE
  5
183
330
1F
100
AcDbEntity
  8
1
  6
Continuous
 62
     2
100
AcDbLine
 10
46.5698934577627
 20
-63.12679209847998
 30
0.0
 11
45.95224639893917
 21
-63.47679209847998
 31
0.0
  0
LINE
  5
184
330
1F
100
AcDbEntity
  8
1
  6
Continuous
 62
     2
100
AcDbLine
 10
47.08459934011565
 20
-63.24345876514665
 30
0.0
 11
46.5698934577627
 21
-63.12679209847998
 31
0.0
  0
LINE
  5
185
330
1F
100
AcDbEntity
  8
1
  6
Continuous
 62
     2
100
AcDbLine
 10
47.39342286952741
 20
-63.47679209847998
 30
0.0
 11
47.08459934011565
 21
-63.24345876514665
 31
0.0
  0
LINE
  5
186
330
1F
100
AcDbEntity
  8
1
  6
Continuous
 62
     2
100
AcDbLine
 10
47.70224639893917
 20
-63.82679209847998
 30
0.0
 11
47.39342286952741
 21
-63.47679209847998
 31
0.0
  0
LINE
  5
187
330
1F
100
AcDbEntity
  8
1
  6
Continuous
 62
     2
100
AcDbLine
 10
61.65917226530224
 20
-6.86762884432206
 30
0.0
 11
61.45328991236107
 21
-6.63429551098873
 31
0.0
  0
LINE
  5
188
330
1F
100
AcDbEntity
  8
1
  6
Continuous
 62
     2
100
AcDbLine
 10
62.07093697118459
 20
-7.10096217765539
 30
0.0
 11
61.65917226530224
 21
-6.86762884432206
 31
0.0
  0
LINE
  5
189
330
1F
100
AcDbEntity
  8
1
  6
Continuous
 62
     2
100
AcDbLine
 10
62.58564285353754
 20
-7.21762884432206
 30
0.0
 11
62.07093697118459
 21
-7.10096217765539
 31
0.0
  0
LINE
  5
18A
330
1F
100
AcDbEntity
  8
1
  6
Continuous
 62
     2
100
AcDbLine
 10
63.20328991236107
 20
-7.10096217765539
 30
0.0
 11
62.58564285353754
 21
-7.21762884432206
 31
0.0
  0
LINE
  5
18B
330
1F
100
AcDbEntity
  8
1
  6
Continuous
 62
     2
100
AcDbLine
 10
63.51211344177283
 20
-6.86762884432206
 30
0.0
 11
63.20328991236107
 21
-7.10096217765539
 31
0.0
  0
LINE
  5
18C
330
1F
100
AcDbEntity
  8
1
  6
Continuous
 62
     2
100
AcDbLine
 10
63.71799579471401
 20
-6.28429551098873
 30
0.0
 11
63.51211344177283
 21
-6.86762884432206
 31
0.0
  0
LINE
  5
18D
330
1F
100
AcDbEntity
  8
1
  6
Continuous
 62
     2
100
AcDbLine
 10
63.51211344177283
 20
-5.70096217765539
 30
0.0
 11
63.71799579471401
 21
-6.28429551098873
 31
0.0
  0
LINE
  5
18E
330
1F
100
AcDbEntity
  8
1
  6
Continuous
 62
     2
100
AcDbLine
 10
62.99740755941989
 20
-5.35096217765539
 30
0.0
 11
63.51211344177283
 21
-5.70096217765539
 31
0.0
  0
LINE
  5
18F
330
1F
100
AcDbEntity
  8
1
  6
Continuous
 62
     2
100
AcDbLine
 10
62.48270167706695
 20
-5.35096217765539
 30
0.0
 11
62.99740755941989
 21
-5.35096217765539
 31
0.0
  0
LINE
  5
190
330
1F
100
AcDbEntity
  8
1
  6
Continuous
 62
     2
100
AcDbLine
 10
62.99740755941989
 20
-5.35096217765539
 30
0.0
 11
62.48270167706695
 21
-5.35096217765539
 31
0.0
  0
LINE
  5
191
330
1F
100
AcDbEntity
  8
1
  6
Continuous
 62
     2
100
AcDbLine
 10
63.40917226530224
 20
-5.11762884432206
 30
0.0
 11
62.99740755941989
 21
-5.35096217765539
 31
0.0
  0
LINE
  5
192
330
1F
100
AcDbEntity
  8
1
  6
Continuous
 62
     2
100
AcDbLine
 10
63.61505461824342
 20
-4.65096217765539
 30
0.0
 11
63.40917226530224
 21
-5.11762884432206
 31
0.0
  0
LINE
  5
193
330
1F
100
AcDbEntity
  8
1
  6
Continuous
 62
     2
100
AcDbLine
 10
63.51211344177283
 20
-4.30096217765539
 30
0.0
 11
63.61505461824342
 21
-4.65096217765539
 31
0.0
  0
LINE
  5
194
330
1F
100
AcDbEntity
  8
1
  6
Continuous
 62
     2
100
AcDbLine
 10
63.20328991236107
 20
-3.83429551098873
 30
0.0
 11
63.51211344177283
 21
-4.30096217765539
 31
0.0
  0
LINE
  5
195
330
1F
100
AcDbEntity
  8
1
  6
Continuous
 62
     2
100
AcDbLine
 10
62.58564285353754
 20
-3.71762884432206
 30
0.0
 11
63.20328991236107
 21
-3.83429551098873
 31
0.0
  0
LINE
  5
196
330
1F
100
AcDbEntity
  8
1
  6
Continuous
 62
     2
100
AcDbLine
 10
61.96799579471401
 20
-3.83429551098873
 30
0.0
 11
62.58564285353754
 21
-3.71762884432206
 31
0.0
  0
LINE
  5
197
330
1F
100
AcDbEntity
  8
1
  6
Continuous
 62
     2
100
AcDbLine
 10
61.55623108883165
 20
-4.30096217765539
 30
0.0
 11
61.96799579471401
 21
-3.83429551098873
 31
0.0
  0
LINE
  5
198
330
1F
100
AcDbEntity
  8
1
  6
Continuous
 62
     2
100
AcDbLine
 10
60.42387814765518
 20
-3.71762884432206
 30
0.0
 11
60.42387814765518
 21
-7.21762884432206
 31
0.0
  0
LINE
  5
199
330
1F
100
AcDbEntity
  8
1
  6
Continuous
 62
     2
100
AcDbLine
 10
59.08564285353753
 20
-7.10096217765539
 30
0.0
 11
60.42387814765518
 21
-3.71762884432206
 31
0.0
  0
LINE
  5
19A
330
1F
100
AcDbEntity
  8
1
  6
Continuous
 62
     2
100
AcDbLine
 10
57.74740755941988
 20
-3.71762884432206
 30
0.0
 11
59.08564285353753
 21
-7.10096217765539
 31
0.0
  0
LINE
  5
19B
330
1F
100
AcDbEntity
  8
1
  6
Continuous
 62
     2
100
AcDbLine
 10
57.74740755941988
 20
-7.21762884432206
 30
0.0
 11
57.74740755941988
 21
-3.71762884432206
 31
0.0
  0
LINE
  5
19C
330
1F
100
AcDbEntity
  8
1
  6
Continuous
 62
     2
100
AcDbLine
 10
54.86505461824342
 20
-5.46762884432206
 30
0.0
 11
56.71799579471401
 21
-5.46762884432206
 31
0.0
  0
LINE
  5
19D
330
1F
100
AcDbEntity
  8
1
  6
Continuous
 62
     2
100
AcDbLine
 10
53.21799579471401
 20
-7.21762884432206
 30
0.0
 11
53.21799579471401
 21
-5.58429551098873
 31
0.0
  0
LINE
  5
19E
330
1F
100
AcDbEntity
  8
1
  6
Continuous
 62
     2
100
AcDbLine
 10
51.36505461824342
 20
-6.40096217765539
 30
0.0
 11
53.83564285353754
 21
-6.40096217765539
 31
0.0
  0
LINE
  5
19F
330
1F
100
AcDbEntity
  8
1
  6
Continuous
 62
     2
100
AcDbLine
 10
53.21799579471401
 20
-3.71762884432206
 30
0.0
 11
51.36505461824342
 21
-6.40096217765539
 31
0.0
  0
LINE
  5
1A0
330
1F
100
AcDbEntity
  8
1
  6
Continuous
 62
     3
100
AcDbLine
 10
252.9943936690193
 20
-22.05422815789733
 30
0.0
 11
254.8473348454899
 21
-22.05422815789733
 31
0.0
  0
LINE
  5
1A1
330
1F
100
AcDbEntity
  8
1
  6
Continuous
 62
     3
100
AcDbLine
 10
252.9943936690193
 20
-23.920894824564
 30
0.0
 11
255.0532171984311
 21
-23.920894824564
 31
0.0
  0
LINE
  5
1A2
330
1F
100
AcDbEntity
  8
1
  6
Continuous
 62
     3
100
AcDbLine
 10
252.9943936690193
 20
-20.420894824564
 30
0.0
 11
252.9943936690193
 21
-23.920894824564
 31
0.0
  0
LINE
  5
1A3
330
1F
100
AcDbEntity
  8
1
  6
Continuous
 62
     3
100
AcDbLine
 10
255.0532171984311
 20
-20.420894824564
 30
0.0
 11
252.9943936690193
 21
-20.420894824564
 31
0.0
  0
LINE
  5
1A4
330
1F
100
AcDbEntity
  8
1
  6
Continuous
 62
     3
100
AcDbLine
 10
250.8326289631369
 20
-20.420894824564
 30
0.0
 11
250.8326289631369
 21
-23.920894824564
 31
0.0
  0
LINE
  5
1A5
330
1F
100
AcDbEntity
  8
1
  6
Continuous
 62
     3
100
AcDbLine
 10
249.7002760219605
 20
-20.420894824564
 30
0.0
 11
251.9649819043134
 21
-20.420894824564
 31
0.0
  0
LINE
  5
1A6
330
1F
100
AcDbEntity
  8
1
  6
Continuous
 62
     3
100
AcDbLine
 10
246.7149819043134
 20
-22.98756149123067
 30
0.0
 11
248.3620407278428
 21
-22.98756149123067
 31
0.0
  0
LINE
  5
1A7
330
1F
100
AcDbEntity
  8
1
  6
Continuous
 62
     3
100
AcDbLine
 10
247.5385113160781
 20
-20.420894824564
 30
0.0
 11
248.6708642572546
 21
-23.920894824564
 31
0.0
  0
LINE
  5
1A8
330
1F
100
AcDbEntity
  8
1
  6
Continuous
 62
     3
100
AcDbLine
 10
246.4061583749017
 20
-23.920894824564
 30
0.0
 11
247.5385113160781
 21
-20.420894824564
 31
0.0
  0
LINE
  5
1A9
330
1F
100
AcDbEntity
  8
1
  6
Continuous
 62
     3
100
AcDbLine
 10
243.317923080784
 20
-23.920894824564
 30
0.0
 11
245.3767466101958
 21
-23.920894824564
 31
0.0
  0
LINE
  5
1AA
330
1F
100
AcDbEntity
  8
1
  6
Continuous
 62
     3
100
AcDbLine
 10
243.317923080784
 20
-20.420894824564
 30
0.0
 11
243.317923080784
 21
-23.920894824564
 31
0.0
  0
LINE
  5
1AB
330
1F
100
AcDbEntity
  8
1
  6
Continuous
 62
     3
100
AcDbLine
 10
241.567923080784
 20
-22.170894824564
 30
0.0
 11
240.2296877866664
 21
-22.170894824564
 31
0.0
  0
LINE
  5
1AC
330
1F
100
AcDbEntity
  8
1
  6
Continuous
 62
     3
100
AcDbLine
 10
241.9796877866664
 20
-21.93756149123067
 30
0.0
 11
241.567923080784
 21
-22.170894824564
 31
0.0
  0
LINE
  5
1AD
330
1F
100
AcDbEntity
  8
1
  6
Continuous
 62
     3
100
AcDbLine
 10
242.1855701396075
 20
-21.70422815789733
 30
0.0
 11
241.9796877866664
 21
-21.93756149123067
 31
0.0
  0
LINE
  5
1AE
330
1F
100
AcDbEntity
  8
1
  6
Continuous
 62
     3
100
AcDbLine
 10
242.2885113160781
 20
-21.23756149123067
 30
0.0
 11
242.1855701396075
 21
-21.70422815789733
 31
0.0
  0
LINE
  5
1AF
330
1F
100
AcDbEntity
  8
1
  6
Continuous
 62
     3
100
AcDbLine
 10
242.1855701396075
 20
-21.00422815789733
 30
0.0
 11
242.2885113160781
 21
-21.23756149123067
 31
0.0
  0
LINE
  5
1B0
330
1F
100
AcDbEntity
  8
1
  6
Continuous
 62
     3
100
AcDbLine
 10
241.9796877866664
 20
-20.65422815789734
 30
0.0
 11
242.1855701396075
 21
-21.00422815789733
 31
0.0
  0
LINE
  5
1B1
330
1F
100
AcDbEntity
  8
1
  6
Continuous
 62
     3
100
AcDbLine
 10
241.567923080784
 20
-20.420894824564
 30
0.0
 11
241.9796877866664
 21
-20.65422815789734
 31
0.0
  0
LINE
  5
1B2
330
1F
100
AcDbEntity
  8
1
  6
Continuous
 62
     3
100
AcDbLine
 10
240.2296877866664
 20
-20.420894824564
 30
0.0
 11
241.567923080784
 21
-20.420894824564
 31
0.0
  0
LINE
  5
1B3
330
1F
100
AcDbEntity
  8
1
  6
Continuous
 62
     3
100
AcDbLine
 10
240.2296877866664
 20
-23.920894824564
 30
0.0
 11
240.2296877866664
 21
-20.420894824564
 31
0.0
  0
LINE
  5
1B4
330
1F
100
AcDbEntity
  8
1
  6
Continuous
 62
     3
100
AcDbLine
 10
234.1561583749017
 20
-22.05422815789733
 30
0.0
 11
236.0090995513722
 21
-22.05422815789733
 31
0.0
  0
LINE
  5
1B5
330
1F
100
AcDbEntity
  8
1
  6
Continuous
 62
     3
100
AcDbLine
 10
234.1561583749017
 20
-23.920894824564
 30
0.0
 11
236.2149819043134
 21
-23.920894824564
 31
0.0
  0
LINE
  5
1B6
330
1F
100
AcDbEntity
  8
1
  6
Continuous
 62
     3
100
AcDbLine
 10
234.1561583749017
 20
-20.420894824564
 30
0.0
 11
234.1561583749017
 21
-23.920894824564
 31
0.0
  0
LINE
  5
1B7
330
1F
100
AcDbEntity
  8
1
  6
Continuous
 62
     3
100
AcDbLine
 10
236.2149819043134
 20
-20.420894824564
 30
0.0
 11
234.1561583749017
 21
-20.420894824564
 31
0.0
  0
LINE
  5
1B8
330
1F
100
AcDbEntity
  8
1
  6
Continuous
 62
     3
100
AcDbLine
 10
233.1267466101958
 20
-20.420894824564
 30
0.0
 11
233.1267466101958
 21
-23.920894824564
 31
0.0
  0
LINE
  5
1B9
330
1F
100
AcDbEntity
  8
1
  6
Continuous
 62
     3
100
AcDbLine
 10
231.7885113160781
 20
-23.80422815789733
 30
0.0
 11
233.1267466101958
 21
-20.420894824564
 31
0.0
  0
LINE
  5
1BA
330
1F
100
AcDbEntity
  8
1
  6
Continuous
 62
     3
100
AcDbLine
 10
230.4502760219605
 20
-20.420894824564
 30
0.0
 11
231.7885113160781
 21
-23.80422815789733
 31
0.0
  0
LINE
  5
1BB
330
1F
100
AcDbEntity
  8
1
  6
Continuous
 62
     3
100
AcDbLine
 10
230.4502760219605
 20
-23.920894824564
 30
0.0
 11
230.4502760219605
 21
-20.420894824564
 31
0.0
  0
LINE
  5
1BC
330
1F
100
AcDbEntity
  8
1
  6
Continuous
 62
     3
100
AcDbLine
 10
227.4649819043134
 20
-22.98756149123067
 30
0.0
 11
229.1120407278428
 21
-22.98756149123067
 31
0.0
  0
LINE
  5
1BD
330
1F
100
AcDbEntity
  8
1
  6
Continuous
 62
     3
100
AcDbLine
 10
228.2885113160781
 20
-20.420894824564
 30
0.0
 11
229.4208642572546
 21
-23.920894824564
 31
0.0
  0
LINE
  5
1BE
330
1F
100
AcDbEntity
  8
1
  6
Continuous
 62
     3
100
AcDbLine
 10
227.1561583749017
 20
-23.920894824564
 30
0.0
 11
228.2885113160781
 21
-20.420894824564
 31
0.0
  0
LINE
  5
1BF
330
1F
100
AcDbEntity
  8
1
  6
Continuous
 62
     3
100
AcDbLine
 10
226.1267466101958
 20
-23.920894824564
 30
0.0
 11
226.1267466101958
 21
-20.420894824564
 31
0.0
  0
LINE
  5
1C0
330
1F
100
AcDbEntity
  8
1
  6
Continuous
 62
     3
100
AcDbLine
 10
224.067923080784
 20
-20.420894824564
 30
0.0
 11
226.1267466101958
 21
-23.920894824564
 31
0.0
  0
LINE
  5
1C1
330
1F
100
AcDbEntity
  8
1
  6
Continuous
 62
     3
100
AcDbLine
 10
224.067923080784
 20
-23.920894824564
 30
0.0
 11
224.067923080784
 21
-20.420894824564
 31
0.0
  0
LINE
  5
1C2
330
1F
100
AcDbEntity
  8
1
  6
Continuous
 62
     2
100
AcDbLine
 10
77.07897226515436
 20
-6.94883805404941
 30
0.0
 11
76.7701487357426
 21
-6.71550472071607
 31
0.0
  0
LINE
  5
1C3
330
1F
100
AcDbEntity
  8
1
  6
Continuous
 62
     2
100
AcDbLine
 10
77.49073697103671
 20
-7.18217138738274
 30
0.0
 11
77.07897226515436
 21
-6.94883805404941
 31
0.0
  0
LINE
  5
1C4
330
1F
100
AcDbEntity
  8
1
  6
Continuous
 62
     2
100
AcDbLine
 10
78.21132520633083
 20
-7.18217138738274
 30
0.0
 11
77.49073697103671
 21
-7.18217138738274
 31
0.0
  0
LINE
  5
1C5
330
1F
100
AcDbEntity
  8
1
  6
Continuous
 62
     2
100
AcDbLine
 10
78.5201487357426
 20
-6.94883805404941
 30
0.0
 11
78.21132520633083
 21
-7.18217138738274
 31
0.0
  0
LINE
  5
1C6
330
1F
100
AcDbEntity
  8
1
  6
Continuous
 62
     2
100
AcDbLine
 10
78.72603108868377
 20
-6.71550472071607
 30
0.0
 11
78.5201487357426
 21
-6.94883805404941
 31
0.0
  0
LINE
  5
1C7
330
1F
100
AcDbEntity
  8
1
  6
Continuous
 62
     2
100
AcDbLine
 10
78.82897226515436
 20
-6.13217138738274
 30
0.0
 11
78.72603108868377
 21
-6.71550472071607
 31
0.0
  0
LINE
  5
1C8
330
1F
100
AcDbEntity
  8
1
  6
Continuous
 62
     2
100
AcDbLine
 10
78.72603108868377
 20
-5.54883805404941
 30
0.0
 11
78.82897226515436
 21
-6.13217138738274
 31
0.0
  0
LINE
  5
1C9
330
1F
100
AcDbEntity
  8
1
  6
Continuous
 62
     2
100
AcDbLine
 10
78.5201487357426
 20
-5.31550472071607
 30
0.0
 11
78.72603108868377
 21
-5.54883805404941
 31
0.0
  0
LINE
  5
1CA
330
1F
100
AcDbEntity
  8
1
  6
Continuous
 62
     2
100
AcDbLine
 10
78.21132520633083
 20
-5.08217138738274
 30
0.0
 11
78.5201487357426
 21
-5.31550472071607
 31
0.0
  0
LINE
  5
1CB
330
1F
100
AcDbEntity
  8
1
  6
Continuous
 62
     2
100
AcDbLine
 10
77.79956050044848
 20
-4.96550472071607
 30
0.0
 11
78.21132520633083
 21
-5.08217138738274
 31
0.0
  0
LINE
  5
1CC
330
1F
100
AcDbEntity
  8
1
  6
Continuous
 62
     2
100
AcDbLine
 10
77.38779579456613
 20
-5.08217138738274
 30
0.0
 11
77.79956050044848
 21
-4.96550472071607
 31
0.0
  0
LINE
  5
1CD
330
1F
100
AcDbEntity
  8
1
  6
Continuous
 62
     2
100
AcDbLine
 10
76.87308991221319
 20
-5.43217138738274
 30
0.0
 11
77.38779579456613
 21
-5.08217138738274
 31
0.0
  0
LINE
  5
1CE
330
1F
100
AcDbEntity
  8
1
  6
Continuous
 62
     2
100
AcDbLine
 10
76.97603108868377
 20
-3.68217138738274
 30
0.0
 11
76.87308991221319
 21
-5.43217138738274
 31
0.0
  0
LINE
  5
1CF
330
1F
100
AcDbEntity
  8
1
  6
Continuous
 62
     2
100
AcDbLine
 10
78.72603108868377
 20
-3.68217138738274
 30
0.0
 11
76.97603108868377
 21
-3.68217138738274
 31
0.0
  0
LINE
  5
1D0
330
1F
100
AcDbEntity
  8
1
  6
Continuous
 62
     2
100
AcDbLine
 10
75.43191344162496
 20
-6.83217138738274
 30
0.0
 11
75.53485461809554
 21
-6.71550472071607
 31
0.0
  0
LINE
  5
1D1
330
1F
100
AcDbEntity
  8
1
  6
Continuous
 62
     2
100
AcDbLine
 10
75.53485461809554
 20
-6.94883805404941
 30
0.0
 11
75.43191344162496
 21
-6.83217138738274
 31
0.0
  0
LINE
  5
1D2
330
1F
100
AcDbEntity
  8
1
  6
Continuous
 62
     2
100
AcDbLine
 10
75.63779579456613
 20
-6.83217138738274
 30
0.0
 11
75.53485461809554
 21
-6.94883805404941
 31
0.0
  0
LINE
  5
1D3
330
1F
100
AcDbEntity
  8
1
  6
Continuous
 62
     2
100
AcDbLine
 10
75.53485461809554
 20
-6.71550472071607
 30
0.0
 11
75.63779579456613
 21
-6.83217138738274
 31
0.0
  0
LINE
  5
1D4
330
1F
100
AcDbEntity
  8
1
  6
Continuous
 62
     2
100
AcDbLine
 10
75.43191344162496
 20
-6.71550472071607
 30
0.0
 11
75.63779579456613
 21
-6.71550472071607
 31
0.0
  0
LINE
  5
1D5
330
1F
100
AcDbEntity
  8
1
  6
Continuous
 62
     2
100
AcDbLine
 10
75.43191344162496
 20
-6.94883805404941
 30
0.0
 11
75.43191344162496
 21
-6.71550472071607
 31
0.0
  0
LINE
  5
1D6
330
1F
100
AcDbEntity
  8
1
  6
Continuous
 62
     2
100
AcDbLine
 10
75.63779579456613
 20
-6.94883805404941
 30
0.0
 11
75.43191344162496
 21
-6.94883805404941
 31
0.0
  0
LINE
  5
1D7
330
1F
100
AcDbEntity
  8
1
  6
Continuous
 62
     2
100
AcDbLine
 10
75.63779579456613
 20
-6.71550472071607
 30
0.0
 11
75.63779579456613
 21
-6.94883805404941
 31
0.0
  0
LINE
  5
1D8
330
1F
100
AcDbEntity
  8
1
  6
Continuous
 62
     2
100
AcDbLine
 10
75.32897226515436
 20
-6.83217138738274
 30
0.0
 11
75.53485461809554
 21
-6.59883805404941
 31
0.0
  0
LINE
  5
1D9
330
1F
100
AcDbEntity
  8
1
  6
Continuous
 62
     2
100
AcDbLine
 10
75.53485461809554
 20
-7.06550472071607
 30
0.0
 11
75.32897226515436
 21
-6.83217138738274
 31
0.0
  0
LINE
  5
1DA
330
1F
100
AcDbEntity
  8
1
  6
Continuous
 62
     2
100
AcDbLine
 10
75.74073697103671
 20
-6.83217138738274
 30
0.0
 11
75.53485461809554
 21
-7.06550472071607
 31
0.0
  0
LINE
  5
1DB
330
1F
100
AcDbEntity
  8
1
  6
Continuous
 62
     2
100
AcDbLine
 10
75.53485461809554
 20
-6.59883805404941
 30
0.0
 11
75.74073697103671
 21
-6.83217138738274
 31
0.0
  0
LINE
  5
1DC
330
1F
100
AcDbEntity
  8
1
  6
Continuous
 62
     2
100
AcDbLine
 10
73.78485461809554
 20
-3.91550472071607
 30
0.0
 11
73.167207559272
 21
-3.68217138738274
 31
0.0
  0
LINE
  5
1DD
330
1F
100
AcDbEntity
  8
1
  6
Continuous
 62
     2
100
AcDbLine
 10
74.19661932397788
 20
-4.49883805404941
 30
0.0
 11
73.78485461809554
 21
-3.91550472071607
 31
0.0
  0
LINE
  5
1DE
330
1F
100
AcDbEntity
  8
1
  6
Continuous
 62
     2
100
AcDbLine
 10
74.29956050044848
 20
-5.43217138738274
 30
0.0
 11
74.19661932397788
 21
-4.49883805404941
 31
0.0
  0
LINE
  5
1DF
330
1F
100
AcDbEntity
  8
1
  6
Continuous
 62
     2
100
AcDbLine
 10
74.19661932397788
 20
-6.36550472071607
 30
0.0
 11
74.29956050044848
 21
-5.43217138738274
 31
0.0
  0
LINE
  5
1E0
330
1F
100
AcDbEntity
  8
1
  6
Continuous
 62
     2
100
AcDbLine
 10
73.78485461809554
 20
-6.94883805404941
 30
0.0
 11
74.19661932397788
 21
-6.36550472071607
 31
0.0
  0
LINE
  5
1E1
330
1F
100
AcDbEntity
  8
1
  6
Continuous
 62
     2
100
AcDbLine
 10
73.167207559272
 20
-7.18217138738274
 30
0.0
 11
73.78485461809554
 21
-6.94883805404941
 31
0.0
  0
LINE
  5
1E2
330
1F
100
AcDbEntity
  8
1
  6
Continuous
 62
     2
100
AcDbLine
 10
72.54956050044848
 20
-6.94883805404941
 30
0.0
 11
73.167207559272
 21
-7.18217138738274
 31
0.0
  0
LINE
  5
1E3
330
1F
100
AcDbEntity
  8
1
  6
Continuous
 62
     2
100
AcDbLine
 10
72.24073697103671
 20
-6.36550472071607
 30
0.0
 11
72.54956050044848
 21
-6.94883805404941
 31
0.0
  0
LINE
  5
1E4
330
1F
100
AcDbEntity
  8
1
  6
Continuous
 62
     2
100
AcDbLine
 10
72.03485461809554
 20
-5.43217138738274
 30
0.0
 11
72.24073697103671
 21
-6.36550472071607
 31
0.0
  0
LINE
  5
1E5
330
1F
100
AcDbEntity
  8
1
  6
Continuous
 62
     2
100
AcDbLine
 10
72.24073697103671
 20
-4.49883805404941
 30
0.0
 11
72.03485461809554
 21
-5.43217138738274
 31
0.0
  0
LINE
  5
1E6
330
1F
100
AcDbEntity
  8
1
  6
Continuous
 62
     2
100
AcDbLine
 10
72.54956050044848
 20
-3.91550472071607
 30
0.0
 11
72.24073697103671
 21
-4.49883805404941
 31
0.0
  0
LINE
  5
1E7
330
1F
100
AcDbEntity
  8
1
  6
Continuous
 62
     2
100
AcDbLine
 10
73.167207559272
 20
-3.68217138738274
 30
0.0
 11
72.54956050044848
 21
-3.91550472071607
 31
0.0
  0
LINE
  5
1E8
330
1F
100
AcDbEntity
  8
1
  6
Continuous
 62
     2
100
AcDbLine
 10
69.35838402986025
 20
-5.78217138738274
 30
0.0
 11
71.00544285338965
 21
-5.78217138738274
 31
0.0
  0
LINE
  5
1E9
330
1F
100
AcDbEntity
  8
1
  6
Continuous
 62
     2
100
AcDbLine
 10
69.35838402986025
 20
-4.96550472071607
 30
0.0
 11
71.00544285338965
 21
-4.96550472071607
 31
0.0
  0
LINE
  5
1EA
330
1F
100
AcDbEntity
  8
1
  6
Continuous
 62
     2
100
AcDbLine
 10
67.60838402986025
 20
-5.43217138738274
 30
0.0
 11
66.2701487357426
 21
-5.43217138738274
 31
0.0
  0
LINE
  5
1EB
330
1F
100
AcDbEntity
  8
1
  6
Continuous
 62
     2
100
AcDbLine
 10
68.0201487357426
 20
-5.19883805404941
 30
0.0
 11
67.60838402986025
 21
-5.43217138738274
 31
0.0
  0
LINE
  5
1EC
330
1F
100
AcDbEntity
  8
1
  6
Continuous
 62
     2
100
AcDbLine
 10
68.22603108868377
 20
-4.96550472071607
 30
0.0
 11
68.0201487357426
 21
-5.19883805404941
 31
0.0
  0
LINE
  5
1ED
330
1F
100
AcDbEntity
  8
1
  6
Continuous
 62
     2
100
AcDbLine
 10
68.32897226515436
 20
-4.49883805404941
 30
0.0
 11
68.22603108868377
 21
-4.96550472071607
 31
0.0
  0
LINE
  5
1EE
330
1F
100
AcDbEntity
  8
1
  6
Continuous
 62
     2
100
AcDbLine
 10
68.22603108868377
 20
-4.26550472071607
 30
0.0
 11
68.32897226515436
 21
-4.49883805404941
 31
0.0
  0
LINE
  5
1EF
330
1F
100
AcDbEntity
  8
1
  6
Continuous
 62
     2
100
AcDbLine
 10
68.0201487357426
 20
-3.91550472071607
 30
0.0
 11
68.22603108868377
 21
-4.26550472071607
 31
0.0
  0
LINE
  5
1F0
330
1F
100
AcDbEntity
  8
1
  6
Continuous
 62
     2
100
AcDbLine
 10
67.60838402986025
 20
-3.68217138738274
 30
0.0
 11
68.0201487357426
 21
-3.91550472071607
 31
0.0
  0
LINE
  5
1F1
330
1F
100
AcDbEntity
  8
1
  6
Continuous
 62
     2
100
AcDbLine
 10
66.2701487357426
 20
-3.68217138738274
 30
0.0
 11
67.60838402986025
 21
-3.68217138738274
 31
0.0
  0
LINE
  5
1F2
330
1F
100
AcDbEntity
  8
1
  6
Continuous
 62
     2
100
AcDbLine
 10
66.2701487357426
 20
-7.18217138738274
 30
0.0
 11
66.2701487357426
 21
-3.68217138738274
 31
0.0
  0
LINE
  5
1F3
330
1F
100
AcDbEntity
  8
1
  6
Continuous
 62
     4
100
AcDbLine
 10
56.1259049023475
 20
-17.760818272778
 30
0.0
 11
56.1259049023475
 21
-10.760818272778
 31
0.0
  0
LINE
  5
1F4
330
1F
100
AcDbEntity
  8
1
  6
Continuous
 62
     4
100
AcDbLine
 10
35.1259049023475
 20
-10.760818272778
 30
0.0
 11
35.1259049023475
 21
-17.760818272778
 31
0.0
  0
LINE
  5
1F5
330
1F
100
AcDbEntity
  8
1
  6
Continuous
 62
     4
100
AcDbLine
 10
56.1259049023475
 20
-10.760818272778
 30
0.0
 11
35.1259049023475
 21
-10.760818272778
 31
0.0
  0
LINE
  5
1F6
330
1F
100
AcDbEntity
  8
1
  6
Continuous
 62
     4
100
AcDbLine
 10
42.1259049023475
 20
-17.760818272778
 30
0.0
 11
42.1259049023475
 21
-10.760818272778
 31
0.0
  0
LINE
  5
1F7
330
1F
100
AcDbEntity
  8
1
  6
Continuous
 62
     4
100
AcDbLine
 10
35.1259049023475
 20
-17.760818272778
 30
0.0
 11
56.1259049023475
 21
-17.760818272778
 31
0.0
  0
LINE
  5
1F8
330
1F
100
AcDbEntity
  8
1
  6
Continuous
 62
     4
100
AcDbLine
 10
39.3259049023475
 20
-13.560818272778
 30
0.0
 11
36.0009049023475
 21
-16.885818272778
 31
0.0
  0
LINE
  5
1F9
330
1F
100
AcDbEntity
  8
1
  6
Continuous
 62
     4
100
AcDbLine
 10
41.2509049023475
 20
-11.635818272778
 30
0.0
 11
38.6259049023475
 21
-12.860818272778
 31
0.0
  0
LINE
  5
1FA
330
1F
100
AcDbEntity
  8
1
  6
Continuous
 62
     4
100
AcDbLine
 10
40.0259049023475
 20
-14.260818272778
 30
0.0
 11
41.2509049023475
 21
-11.635818272778
 31
0.0
  0
LINE
  5
1FB
330
1F
100
AcDbEntity
  8
1
  6
Continuous
 62
     4
100
AcDbLine
 10
38.6259049023475
 20
-12.860818272778
 30
0.0
 11
40.0259049023475
 21
-14.260818272778
 31
0.0
  0
LINE
  5
1FC
330
1F
100
AcDbEntity
  8
1
  6
Continuous
 62
     4
100
AcDbLine
 10
52.42002254940633
 20
-15.77748493944467
 30
0.0
 11
52.11119901999456
 21
-15.54415160611133
 31
0.0
  0
LINE
  5
1FD
330
1F
100
AcDbEntity
  8
1
  6
Continuous
 62
     4
100
AcDbLine
 10
52.83178725528867
 20
-16.010818272778
 30
0.0
 11
52.42002254940633
 21
-15.77748493944467
 31
0.0
  0
LINE
  5
1FE
330
1F
100
AcDbEntity
  8
1
  6
Continuous
 62
     4
100
AcDbLine
 10
53.55237549058279
 20
-16.010818272778
 30
0.0
 11
52.83178725528867
 21
-16.010818272778
 31
0.0
  0
LINE
  5
1FF
330
1F
100
AcDbEntity
  8
1
  6
Continuous
 62
     4
100
AcDbLine
 10
53.86119901999456
 20
-15.77748493944467
 30
0.0
 11
53.55237549058279
 21
-16.010818272778
 31
0.0
  0
LINE
  5
200
330
1F
100
AcDbEntity
  8
1
  6
Continuous
 62
     4
100
AcDbLine
 10
54.06708137293573
 20
-15.54415160611133
 30
0.0
 11
53.86119901999456
 21
-15.77748493944467
 31
0.0
  0
LINE
  5
201
330
1F
100
AcDbEntity
  8
1
  6
Continuous
 62
     4
100
AcDbLine
 10
54.17002254940633
 20
-14.960818272778
 30
0.0
 11
54.06708137293573
 21
-15.54415160611133
 31
0.0
  0
LINE
  5
202
330
1F
100
AcDbEntity
  8
1
  6
Continuous
 62
     4
100
AcDbLine
 10
54.06708137293573
 20
-14.37748493944467
 30
0.0
 11
54.17002254940633
 21
-14.960818272778
 31
0.0
  0
LINE
  5
203
330
1F
100
AcDbEntity
  8
1
  6
Continuous
 62
     4
100
AcDbLine
 10
53.86119901999456
 20
-14.14415160611133
 30
0.0
 11
54.06708137293573
 21
-14.37748493944467
 31
0.0
  0
LINE
  5
204
330
1F
100
AcDbEntity
  8
1
  6
Continuous
 62
     4
100
AcDbLine
 10
53.55237549058279
 20
-13.910818272778
 30
0.0
 11
53.86119901999456
 21
-14.14415160611133
 31
0.0
  0
LINE
  5
205
330
1F
100
AcDbEntity
  8
1
  6
Continuous
 62
     4
100
AcDbLine
 10
53.14061078470044
 20
-13.79415160611133
 30
0.0
 11
53.55237549058279
 21
-13.910818272778
 31
0.0
  0
LINE
  5
206
330
1F
100
AcDbEntity
  8
1
  6
Continuous
 62
     4
100
AcDbLine
 10
52.72884607881809
 20
-13.910818272778
 30
0.0
 11
53.14061078470044
 21
-13.79415160611133
 31
0.0
  0
LINE
  5
207
330
1F
100
AcDbEntity
  8
1
  6
Continuous
 62
     4
100
AcDbLine
 10
52.21414019646515
 20
-14.260818272778
 30
0.0
 11
52.72884607881809
 21
-13.910818272778
 31
0.0
  0
LINE
  5
208
330
1F
100
AcDbEntity
  8
1
  6
Continuous
 62
     4
100
AcDbLine
 10
52.31708137293573
 20
-12.510818272778
 30
0.0
 11
52.21414019646515
 21
-14.260818272778
 31
0.0
  0
LINE
  5
209
330
1F
100
AcDbEntity
  8
1
  6
Continuous
 62
     4
100
AcDbLine
 10
54.06708137293573
 20
-12.510818272778
 30
0.0
 11
52.31708137293573
 21
-12.510818272778
 31
0.0
  0
LINE
  5
20A
330
1F
100
AcDbEntity
  8
1
  6
Continuous
 62
     4
100
AcDbLine
 10
50.56708137293573
 20
-12.74415160611133
 30
0.0
 11
49.9494343141122
 21
-12.510818272778
 31
0.0
  0
LINE
  5
20B
330
1F
100
AcDbEntity
  8
1
  6
Continuous
 62
     4
100
AcDbLine
 10
50.97884607881809
 20
-13.32748493944467
 30
0.0
 11
50.56708137293573
 21
-12.74415160611133
 31
0.0
  0
LINE
  5
20C
330
1F
100
AcDbEntity
  8
1
  6
Continuous
 62
     4
100
AcDbLine
 10
51.08178725528867
 20
-14.260818272778
 30
0.0
 11
50.97884607881809
 21
-13.32748493944467
 31
0.0
  0
LINE
  5
20D
330
1F
100
AcDbEntity
  8
1
  6
Continuous
 62
     4
100
AcDbLine
 10
50.97884607881809
 20
-15.19415160611133
 30
0.0
 11
51.08178725528867
 21
-14.260818272778
 31
0.0
  0
LINE
  5
20E
330
1F
100
AcDbEntity
  8
1
  6
Continuous
 62
     4
100
AcDbLine
 10
50.56708137293573
 20
-15.77748493944467
 30
0.0
 11
50.97884607881809
 21
-15.19415160611133
 31
0.0
  0
LINE
  5
20F
330
1F
100
AcDbEntity
  8
1
  6
Continuous
 62
     4
100
AcDbLine
 10
49.9494343141122
 20
-16.010818272778
 30
0.0
 11
50.56708137293573
 21
-15.77748493944467
 31
0.0
  0
LINE
  5
210
330
1F
100
AcDbEntity
  8
1
  6
Continuous
 62
     4
100
AcDbLine
 10
49.33178725528867
 20
-15.77748493944467
 30
0.0
 11
49.9494343141122
 21
-16.010818272778
 31
0.0
  0
LINE
  5
211
330
1F
100
AcDbEntity
  8
1
  6
Continuous
 62
     4
100
AcDbLine
 10
49.02296372587691
 20
-15.19415160611133
 30
0.0
 11
49.33178725528867
 21
-15.77748493944467
 31
0.0
  0
LINE
  5
212
330
1F
100
AcDbEntity
  8
1
  6
Continuous
 62
     4
100
AcDbLine
 10
48.81708137293573
 20
-14.260818272778
 30
0.0
 11
49.02296372587691
 21
-15.19415160611133
 31
0.0
  0
LINE
  5
213
330
1F
100
AcDbEntity
  8
1
  6
Continuous
 62
     4
100
AcDbLine
 10
49.02296372587691
 20
-13.32748493944467
 30
0.0
 11
48.81708137293573
 21
-14.260818272778
 31
0.0
  0
LINE
  5
214
330
1F
100
AcDbEntity
  8
1
  6
Continuous
 62
     4
100
AcDbLine
 10
49.33178725528867
 20
-12.74415160611133
 30
0.0
 11
49.02296372587691
 21
-13.32748493944467
 31
0.0
  0
LINE
  5
215
330
1F
100
AcDbEntity
  8
1
  6
Continuous
 62
     4
100
AcDbLine
 10
49.9494343141122
 20
-12.510818272778
 30
0.0
 11
49.33178725528867
 21
-12.74415160611133
 31
0.0
  0
LINE
  5
216
330
1F
100
AcDbEntity
  8
1
  6
Continuous
 62
     4
100
AcDbLine
 10
47.47884607881809
 20
-15.660818272778
 30
0.0
 11
47.58178725528867
 21
-15.54415160611133
 31
0.0
  0
LINE
  5
217
330
1F
100
AcDbEntity
  8
1
  6
Continuous
 62
     4
100
AcDbLine
 10
47.58178725528867
 20
-15.77748493944467
 30
0.0
 11
47.47884607881809
 21
-15.660818272778
 31
0.0
  0
LINE
  5
218
330
1F
100
AcDbEntity
  8
1
  6
Continuous
 62
     4
100
AcDbLine
 10
47.68472843175927
 20
-15.660818272778
 30
0.0
 11
47.58178725528867
 21
-15.77748493944467
 31
0.0
  0
LINE
  5
219
330
1F
100
AcDbEntity
  8
1
  6
Continuous
 62
     4
100
AcDbLine
 10
47.58178725528867
 20
-15.54415160611133
 30
0.0
 11
47.68472843175927
 21
-15.660818272778
 31
0.0
  0
LINE
  5
21A
330
1F
100
AcDbEntity
  8
1
  6
Continuous
 62
     4
100
AcDbLine
 10
47.47884607881809
 20
-15.54415160611133
 30
0.0
 11
47.68472843175927
 21
-15.54415160611133
 31
0.0
  0
LINE
  5
21B
330
1F
100
AcDbEntity
  8
1
  6
Continuous
 62
     4
100
AcDbLine
 10
47.47884607881809
 20
-15.77748493944467
 30
0.0
 11
47.47884607881809
 21
-15.54415160611133
 31
0.0
  0
LINE
  5
21C
330
1F
100
AcDbEntity
  8
1
  6
Continuous
 62
     4
100
AcDbLine
 10
47.68472843175927
 20
-15.77748493944467
 30
0.0
 11
47.47884607881809
 21
-15.77748493944467
 31
0.0
  0
LINE
  5
21D
330
1F
100
AcDbEntity
  8
1
  6
Continuous
 62
     4
100
AcDbLine
 10
47.68472843175927
 20
-15.54415160611133
 30
0.0
 11
47.68472843175927
 21
-15.77748493944467
 31
0.0
  0
LINE
  5
21E
330
1F
100
AcDbEntity
  8
1
  6
Continuous
 62
     4
100
AcDbLine
 10
47.3759049023475
 20
-15.660818272778
 30
0.0
 11
47.58178725528867
 21
-15.42748493944467
 31
0.0
  0
LINE
  5
21F
330
1F
100
AcDbEntity
  8
1
  6
Continuous
 62
     4
100
AcDbLine
 10
47.58178725528867
 20
-15.89415160611133
 30
0.0
 11
47.3759049023475
 21
-15.660818272778
 31
0.0
  0
LINE
  5
220
330
1F
100
AcDbEntity
  8
1
  6
Continuous
 62
     4
100
AcDbLine
 10
47.78766960822986
 20
-15.660818272778
 30
0.0
 11
47.58178725528867
 21
-15.89415160611133
 31
0.0
  0
LINE
  5
221
330
1F
100
AcDbEntity
  8
1
  6
Continuous
 62
     4
100
AcDbLine
 10
47.58178725528867
 20
-15.42748493944467
 30
0.0
 11
47.78766960822986
 21
-15.660818272778
 31
0.0
  0
LINE
  5
222
330
1F
100
AcDbEntity
  8
1
  6
Continuous
 62
     4
100
AcDbLine
 10
45.83178725528867
 20
-12.74415160611133
 30
0.0
 11
45.21414019646515
 21
-12.510818272778
 31
0.0
  0
LINE
  5
223
330
1F
100
AcDbEntity
  8
1
  6
Continuous
 62
     4
100
AcDbLine
 10
46.24355196117103
 20
-13.32748493944467
 30
0.0
 11
45.83178725528867
 21
-12.74415160611133
 31
0.0
  0
LINE
  5
224
330
1F
100
AcDbEntity
  8
1
  6
Continuous
 62
     4
100
AcDbLine
 10
46.34649313764162
 20
-14.260818272778
 30
0.0
 11
46.24355196117103
 21
-13.32748493944467
 31
0.0
  0
LINE
  5
225
330
1F
100
AcDbEntity
  8
1
  6
Continuous
 62
     4
100
AcDbLine
 10
46.24355196117103
 20
-15.19415160611133
 30
0.0
 11
46.34649313764162
 21
-14.260818272778
 31
0.0
  0
LINE
  5
226
330
1F
100
AcDbEntity
  8
1
  6
Continuous
 62
     4
100
AcDbLine
 10
45.83178725528867
 20
-15.77748493944467
 30
0.0
 11
46.24355196117103
 21
-15.19415160611133
 31
0.0
  0
LINE
  5
227
330
1F
100
AcDbEntity
  8
1
  6
Continuous
 62
     4
100
AcDbLine
 10
45.21414019646515
 20
-16.010818272778
 30
0.0
 11
45.83178725528867
 21
-15.77748493944467
 31
0.0
  0
LINE
  5
228
330
1F
100
AcDbEntity
  8
1
  6
Continuous
 62
     4
100
AcDbLine
 10
44.59649313764162
 20
-15.77748493944467
 30
0.0
 11
45.21414019646515
 21
-16.010818272778
 31
0.0
  0
LINE
  5
229
330
1F
100
AcDbEntity
  8
1
  6
Continuous
 62
     4
100
AcDbLine
 10
44.28766960822985
 20
-15.19415160611133
 30
0.0
 11
44.59649313764162
 21
-15.77748493944467
 31
0.0
  0
LINE
  5
22A
330
1F
100
AcDbEntity
  8
1
  6
Continuous
 62
     4
100
AcDbLine
 10
44.08178725528867
 20
-14.260818272778
 30
0.0
 11
44.28766960822985
 21
-15.19415160611133
 31
0.0
  0
LINE
  5
22B
330
1F
100
AcDbEntity
  8
1
  6
Continuous
 62
     4
100
AcDbLine
 10
44.28766960822985
 20
-13.32748493944467
 30
0.0
 11
44.08178725528867
 21
-14.260818272778
 31
0.0
  0
LINE
  5
22C
330
1F
100
AcDbEntity
  8
1
  6
Continuous
 62
     4
100
AcDbLine
 10
44.59649313764162
 20
-12.74415160611133
 30
0.0
 11
44.28766960822985
 21
-13.32748493944467
 31
0.0
  0
LINE
  5
22D
330
1F
100
AcDbEntity
  8
1
  6
Continuous
 62
     4
100
AcDbLine
 10
45.21414019646515
 20
-12.510818272778
 30
0.0
 11
44.59649313764162
 21
-12.74415160611133
 31
0.0
  0
LINE
  5
22E
330
1F
100
AcDbEntity
  8
1
  6
Continuous
 62
     1
100
AcDbLine
 10
-57.8311937126416
 20
-59.3540195041474
 30
0.0
 11
-57.53119371264161
 21
-59.3540195041474
 31
0.0
  0
LINE
  5
22F
330
1F
100
AcDbEntity
  8
1
  6
Continuous
 62
     1
100
AcDbLine
 10
-57.8311937126416
 20
-35.3540195041474
 30
0.0
 11
-57.8311937126416
 21
-59.3540195041474
 31
0.0
  0
LINE
  5
230
330
1F
100
AcDbEntity
  8
1
  6
Continuous
 62
     1
100
AcDbLine
 10
-57.8311937126416
 20
-35.3540195041474
 30
0.0
 11
-57.8311937126416
 21
-59.3540195041474
 31
0.0
  0
LINE
  5
231
330
1F
100
AcDbEntity
  8
1
  6
Continuous
 62
     1
100
AcDbLine
 10
-57.53119371264161
 20
-35.3540195041474
 30
0.0
 11
-57.8311937126416
 21
-35.3540195041474
 31
0.0
  0
LINE
  5
232
330
1F
100
AcDbEntity
  8
1
  6
Continuous
 62
     7
100
AcDbLine
 10
172.4688062873584
 20
-62.68372922090328
 30
0.0
 11
172.4688062873584
 21
-32.0243097873915
 31
0.0
  0
LINE
  5
233
330
1F
100
AcDbEntity
  8
1
  6
Continuous
 62
     1
100
AcDbLine
 10
214.7688062873583
 20
-59.3540195041474
 30
0.0
 11
214.4688062873583
 21
-59.3540195041474
 31
0.0
  0
LINE
  5
234
330
1F
100
AcDbEntity
  8
1
  6
Continuous
 62
     1
100
AcDbLine
 10
214.7688062873583
 20
-35.3540195041474
 30
0.0
 11
214.7688062873583
 21
-59.3540195041474
 31
0.0
  0
LINE
  5
235
330
1F
100
AcDbEntity
  8
1
  6
Continuous
 62
     1
100
AcDbLine
 10
214.4688062873583
 20
-35.3540195041474
 30
0.0
 11
214.7688062873583
 21
-35.3540195041474
 31
0.0
  0
LINE
  5
236
330
1F
100
AcDbEntity
  8
1
  6
Continuous
 62
     7
100
AcDbLine
 10
214.4688062873584
 20
-62.68372922090328
 30
0.0
 11
214.4688062873584
 21
-32.0243097873915
 31
0.0
  0
LINE
  5
237
330
1F
100
AcDbEntity
  8
1
  6
DASH_CENTER
 62
     3
100
AcDbLine
 10
167.4688062873584
 20
-47.3540195041474
 30
0.0
 11
219.4688062873584
 21
-47.3540195041474
 31
0.0
  0
LINE
  5
238
330
1F
100
AcDbEntity
  8
1
  6
DASH_CENTER
 62
     3
100
AcDbLine
 10
193.4688062873584
 20
-18.36461054564839
 30
0.0
 11
193.4688062873584
 21
-73.3540195041474
 31
0.0
  0
LINE
  5
239
330
1F
100
AcDbEntity
  8
1
  6
Continuous
 62
     7
100
AcDbLine
 10
177.9688062873584
 20
-35.6540195041474
 30
0.0
 11
172.4688062873584
 21
-35.6540195041474
 31
0.0
  0
LINE
  5
23A
330
1F
100
AcDbEntity
  8
1
  6
Continuous
 62
     7
100
AcDbLine
 10
208.7985160041143
 20
-26.3540195041474
 30
0.0
 11
178.1390965706025
 21
-26.3540195041474
 31
0.0
  0
LINE
  5
23B
330
1F
100
AcDbEntity
  8
1
  6
Continuous
 62
     7
100
AcDbLine
 10
181.7688062873584
 20
-26.3540195041474
 30
0.0
 11
181.7688062873584
 21
-31.8540195041474
 31
0.0
  0
LINE
  5
23C
330
1F
100
AcDbEntity
  8
1
  6
Continuous
 62
     7
100
AcDbLine
 10
178.1390965706025
 20
-68.3540195041474
 30
0.0
 11
208.7985160041143
 21
-68.3540195041474
 31
0.0
  0
LINE
  5
23D
330
1F
100
AcDbEntity
  8
1
  6
Continuous
 62
     7
100
AcDbLine
 10
181.7688062873584
 20
-62.8540195041474
 30
0.0
 11
181.7688062873584
 21
-68.3540195041474
 31
0.0
  0
LINE
  5
23E
330
1F
100
AcDbEntity
  8
1
  6
Continuous
 62
     7
100
AcDbLine
 10
172.4688062873584
 20
-59.05401950414739
 30
0.0
 11
177.9688062873584
 21
-59.05401950414739
 31
0.0
  0
LINE
  5
23F
330
1F
100
AcDbEntity
  8
1
  6
Continuous
 62
     7
100
AcDbLine
 10
205.1688062873584
 20
-62.8540195041474
 30
0.0
 11
205.1688062873584
 21
-68.3540195041474
 31
0.0
  0
LINE
  5
240
330
1F
100
AcDbEntity
  8
1
  6
Continuous
 62
     7
100
AcDbLine
 10
214.4688062873584
 20
-59.05401950414739
 30
0.0
 11
208.9688062873584
 21
-59.05401950414739
 31
0.0
  0
LINE
  5
241
330
1F
100
AcDbEntity
  8
1
  6
Continuous
 62
     7
100
AcDbLine
 10
214.4688062873584
 20
-35.6540195041474
 30
0.0
 11
208.9688062873584
 21
-35.6540195041474
 31
0.0
  0
LINE
  5
242
330
1F
100
AcDbEntity
  8
1
  6
Continuous
 62
     7
100
AcDbLine
 10
205.1688062873584
 20
-26.3540195041474
 30
0.0
 11
205.1688062873584
 21
-31.8540195041474
 31
0.0
  0
LINE
  5
243
330
1F
100
AcDbEntity
  8
1
  6
DASH_CENTER
 62
     3
100
AcDbLine
 10
205.3688062873584
 20
-31.8540195041474
 30
0.0
 11
212.5688062873584
 21
-31.8540195041474
 31
0.0
  0
LINE
  5
244
330
1F
100
AcDbEntity
  8
1
  6
Continuous
 62
     7
100
AcDbLine
 10
205.7688062873584
 20
-26.3540195041474
 30
0.0
 11
205.7688062873584
 21
-31.8540195041474
 31
0.0
  0
LINE
  5
245
330
1F
100
AcDbEntity
  8
1
  6
DASH_CENTER
 62
     3
100
AcDbLine
 10
205.3688062873584
 20
-62.8540195041474
 30
0.0
 11
212.5688062873584
 21
-62.8540195041474
 31
0.0
  0
LINE
  5
246
330
1F
100
AcDbEntity
  8
1
  6
Continuous
 62
     7
100
AcDbLine
 10
205.7688062873584
 20
-62.8540195041474
 30
0.0
 11
205.7688062873584
 21
-68.3540195041474
 31
0.0
  0
LINE
  5
247
330
1F
100
AcDbEntity
  8
1
  6
DASH_CENTER
 62
     3
100
AcDbLine
 10
174.3688062873584
 20
-62.8540195041474
 30
0.0
 11
181.5688062873584
 21
-62.8540195041474
 31
0.0
  0
LINE
  5
248
330
1F
100
AcDbEntity
  8
1
  6
Continuous
 62
     7
100
AcDbLine
 10
181.1688062873584
 20
-62.8540195041474
 30
0.0
 11
181.1688062873584
 21
-68.3540195041474
 31
0.0
  0
LINE
  5
249
330
1F
100
AcDbEntity
  8
1
  6
DASH_CENTER
 62
     3
100
AcDbLine
 10
174.3688062873584
 20
-31.8540195041474
 30
0.0
 11
181.5688062873584
 21
-31.8540195041474
 31
0.0
  0
LINE
  5
24A
330
1F
100
AcDbEntity
  8
1
  6
Continuous
 62
     7
100
AcDbLine
 10
181.1688062873584
 20
-26.3540195041474
 30
0.0
 11
181.1688062873584
 21
-31.8540195041474
 31
0.0
  0
LINE
  5
24B
330
1F
100
AcDbEntity
  8
1
  6
DASH_CENTER
 62
     3
100
AcDbLine
 10
177.9688062873584
 20
-35.4540195041474
 30
0.0
 11
177.9688062873584
 21
-28.2540195041474
 31
0.0
  0
LINE
  5
24C
330
1F
100
AcDbEntity
  8
1
  6
Continuous
 62
     7
100
AcDbLine
 10
172.4688062873584
 20
-35.05401950414739
 30
0.0
 11
177.9688062873584
 21
-35.05401950414739
 31
0.0
  0
LINE
  5
24D
330
1F
100
AcDbEntity
  8
1
  6
DASH_CENTER
 62
     3
100
AcDbLine
 10
177.9688062873584
 20
-66.4540195041474
 30
0.0
 11
177.9688062873584
 21
-59.2540195041474
 31
0.0
  0
LINE
  5
24E
330
1F
100
AcDbEntity
  8
1
  6
Continuous
 62
     7
100
AcDbLine
 10
172.4688062873584
 20
-59.65401950414739
 30
0.0
 11
177.9688062873584
 21
-59.65401950414739
 31
0.0
  0
LINE
  5
24F
330
1F
100
AcDbEntity
  8
1
  6
DASH_CENTER
 62
     3
100
AcDbLine
 10
208.9688062873584
 20
-66.4540195041474
 30
0.0
 11
208.9688062873584
 21
-59.2540195041474
 31
0.0
  0
LINE
  5
250
330
1F
100
AcDbEntity
  8
1
  6
Continuous
 62
     7
100
AcDbLine
 10
208.9688062873584
 20
-59.65401950414739
 30
0.0
 11
214.4688062873584
 21
-59.65401950414739
 31
0.0
  0
LINE
  5
251
330
1F
100
AcDbEntity
  8
1
  6
DASH_CENTER
 62
     3
100
AcDbLine
 10
208.9688062873584
 20
-28.2540195041474
 30
0.0
 11
208.9688062873584
 21
-35.4540195041474
 31
0.0
  0
LINE
  5
252
330
1F
100
AcDbEntity
  8
1
  6
Continuous
 62
     7
100
AcDbLine
 10
208.9688062873584
 20
-35.05401950414739
 30
0.0
 11
214.4688062873584
 21
-35.05401950414739
 31
0.0
  0
LINE
  5
253
330
1F
100
AcDbEntity
  8
1
  6
Continuous
 62
     7
100
AcDbLine
 10
178.7321923120408
 20
-30.56280233522399
 30
0.0
 11
178.1835297854528
 21
-31.09263957830731
 31
0.0
  0
LINE
  5
254
330
1F
100
AcDbEntity
  8
1
  6
Continuous
 62
     7
100
AcDbLine
 10
178.1835297854528
 20
-31.09263957830731
 30
0.0
 11
177.9688062873584
 21
-31.17506420670274
 31
0.0
  0
LINE
  5
255
330
1F
100
AcDbEntity
  8
1
  6
Continuous
 62
     7
100
AcDbLine
 10
177.7540827892641
 20
-31.09263957830731
 30
0.0
 11
177.2054202626761
 21
-30.56280233522399
 31
0.0
  0
LINE
  5
256
330
1F
100
AcDbEntity
  8
1
  6
Continuous
 62
     7
100
AcDbLine
 10
177.9688062873584
 20
-31.17506420670274
 30
0.0
 11
177.7540827892641
 21
-31.09263957830731
 31
0.0
  0
LINE
  5
257
330
1F
100
AcDbEntity
  8
1
  6
Continuous
 62
     7
100
AcDbLine
 10
176.677589118435
 20
-31.09063347946502
 30
0.0
 11
177.2074263615183
 21
-31.63929600605302
 31
0.0
  0
LINE
  5
258
330
1F
100
AcDbEntity
  8
1
  6
Continuous
 62
     7
100
AcDbLine
 10
177.2074263615183
 20
-31.63929600605302
 30
0.0
 11
177.2898509899138
 21
-31.85401950414737
 31
0.0
  0
LINE
  5
259
330
1F
100
AcDbEntity
  8
1
  6
Continuous
 62
     7
100
AcDbLine
 10
177.2074263615183
 20
-32.06874300224173
 30
0.0
 11
176.677589118435
 21
-32.61740552882975
 31
0.0
  0
LINE
  5
25A
330
1F
100
AcDbEntity
  8
1
  6
Continuous
 62
     7
100
AcDbLine
 10
177.2898509899138
 20
-31.85401950414737
 30
0.0
 11
177.2074263615183
 21
-32.06874300224173
 31
0.0
  0
LINE
  5
25B
330
1F
100
AcDbEntity
  8
1
  6
Continuous
 62
     7
100
AcDbLine
 10
177.205420262676
 20
-33.1452366730708
 30
0.0
 11
177.754082789264
 21
-32.61539942998746
 31
0.0
  0
LINE
  5
25C
330
1F
100
AcDbEntity
  8
1
  6
Continuous
 62
     7
100
AcDbLine
 10
177.754082789264
 20
-32.61539942998746
 30
0.0
 11
177.9688062873584
 21
-32.53297480159203
 31
0.0
  0
LINE
  5
25D
330
1F
100
AcDbEntity
  8
1
  6
Continuous
 62
     7
100
AcDbLine
 10
178.1835297854528
 20
-32.61539942998746
 30
0.0
 11
178.7321923120408
 21
-33.1452366730708
 31
0.0
  0
LINE
  5
25E
330
1F
100
AcDbEntity
  8
1
  6
Continuous
 62
     7
100
AcDbLine
 10
177.9688062873584
 20
-32.53297480159203
 30
0.0
 11
178.1835297854528
 21
-32.61539942998746
 31
0.0
  0
LINE
  5
25F
330
1F
100
AcDbEntity
  8
1
  6
Continuous
 62
     7
100
AcDbLine
 10
179.2600234562818
 20
-32.61740552882976
 30
0.0
 11
178.7301862131985
 21
-32.06874300224175
 31
0.0
  0
LINE
  5
260
330
1F
100
AcDbEntity
  8
1
  6
Continuous
 62
     7
100
AcDbLine
 10
178.7301862131985
 20
-32.06874300224175
 30
0.0
 11
178.647761584803
 21
-31.8540195041474
 31
0.0
  0
LINE
  5
261
330
1F
100
AcDbEntity
  8
1
  6
Continuous
 62
     7
100
AcDbLine
 10
178.7301862131985
 20
-31.63929600605304
 30
0.0
 11
179.2600234562818
 21
-31.09063347946503
 31
0.0
  0
LINE
  5
262
330
1F
100
AcDbEntity
  8
1
  6
Continuous
 62
     7
100
AcDbLine
 10
178.647761584803
 20
-31.8540195041474
 30
0.0
 11
178.7301862131985
 21
-31.63929600605304
 31
0.0
  0
LINE
  5
263
330
1F
100
AcDbEntity
  8
1
  6
Continuous
 62
     7
100
AcDbLine
 10
178.7321923120408
 20
-61.56280233522399
 30
0.0
 11
178.1835297854528
 21
-62.09263957830733
 31
0.0
  0
LINE
  5
264
330
1F
100
AcDbEntity
  8
1
  6
Continuous
 62
     7
100
AcDbLine
 10
178.1835297854528
 20
-62.09263957830733
 30
0.0
 11
177.9688062873584
 21
-62.17506420670276
 31
0.0
  0
LINE
  5
265
330
1F
100
AcDbEntity
  8
1
  6
Continuous
 62
     7
100
AcDbLine
 10
177.7540827892641
 20
-62.09263957830733
 30
0.0
 11
177.2054202626761
 21
-61.56280233522399
 31
0.0
  0
LINE
  5
266
330
1F
100
AcDbEntity
  8
1
  6
Continuous
 62
     7
100
AcDbLine
 10
177.9688062873584
 20
-62.17506420670276
 30
0.0
 11
177.7540827892641
 21
-62.09263957830733
 31
0.0
  0
LINE
  5
267
330
1F
100
AcDbEntity
  8
1
  6
Continuous
 62
     7
100
AcDbLine
 10
176.677589118435
 20
-62.09063347946503
 30
0.0
 11
177.2074263615183
 21
-62.63929600605304
 31
0.0
  0
LINE
  5
268
330
1F
100
AcDbEntity
  8
1
  6
Continuous
 62
     7
100
AcDbLine
 10
177.2074263615183
 20
-62.63929600605304
 30
0.0
 11
177.2898509899138
 21
-62.85401950414738
 31
0.0
  0
LINE
  5
269
330
1F
100
AcDbEntity
  8
1
  6
Continuous
 62
     7
100
AcDbLine
 10
177.2074263615183
 20
-63.06874300224173
 30
0.0
 11
176.677589118435
 21
-63.61740552882976
 31
0.0
  0
LINE
  5
26A
330
1F
100
AcDbEntity
  8
1
  6
Continuous
 62
     7
100
AcDbLine
 10
177.2898509899138
 20
-62.85401950414738
 30
0.0
 11
177.2074263615183
 21
-63.06874300224173
 31
0.0
  0
LINE
  5
26B
330
1F
100
AcDbEntity
  8
1
  6
Continuous
 62
     7
100
AcDbLine
 10
177.205420262676
 20
-64.1452366730708
 30
0.0
 11
177.754082789264
 21
-63.61539942998746
 31
0.0
  0
LINE
  5
26C
330
1F
100
AcDbEntity
  8
1
  6
Continuous
 62
     7
100
AcDbLine
 10
177.754082789264
 20
-63.61539942998746
 30
0.0
 11
177.9688062873584
 21
-63.53297480159203
 31
0.0
  0
LINE
  5
26D
330
1F
100
AcDbEntity
  8
1
  6
Continuous
 62
     7
100
AcDbLine
 10
178.1835297854528
 20
-63.61539942998746
 30
0.0
 11
178.7321923120408
 21
-64.1452366730708
 31
0.0
  0
LINE
  5
26E
330
1F
100
AcDbEntity
  8
1
  6
Continuous
 62
     7
100
AcDbLine
 10
177.9688062873584
 20
-63.53297480159203
 30
0.0
 11
178.1835297854528
 21
-63.61539942998746
 31
0.0
  0
LINE
  5
26F
330
1F
100
AcDbEntity
  8
1
  6
Continuous
 62
     7
100
AcDbLine
 10
179.2600234562818
 20
-63.61740552882977
 30
0.0
 11
178.7301862131985
 21
-63.06874300224175
 31
0.0
  0
LINE
  5
270
330
1F
100
AcDbEntity
  8
1
  6
Continuous
 62
     7
100
AcDbLine
 10
178.7301862131985
 20
-63.06874300224175
 30
0.0
 11
178.647761584803
 21
-62.8540195041474
 31
0.0
  0
LINE
  5
271
330
1F
100
AcDbEntity
  8
1
  6
Continuous
 62
     7
100
AcDbLine
 10
178.7301862131985
 20
-62.63929600605305
 30
0.0
 11
179.2600234562818
 21
-62.09063347946505
 31
0.0
  0
LINE
  5
272
330
1F
100
AcDbEntity
  8
1
  6
Continuous
 62
     7
100
AcDbLine
 10
178.647761584803
 20
-62.8540195041474
 30
0.0
 11
178.7301862131985
 21
-62.63929600605305
 31
0.0
  0
LINE
  5
273
330
1F
100
AcDbEntity
  8
1
  6
Continuous
 62
     7
100
AcDbLine
 10
209.7321923120408
 20
-61.56280233522399
 30
0.0
 11
209.1835297854528
 21
-62.09263957830733
 31
0.0
  0
LINE
  5
274
330
1F
100
AcDbEntity
  8
1
  6
Continuous
 62
     7
100
AcDbLine
 10
209.1835297854528
 20
-62.09263957830733
 30
0.0
 11
208.9688062873584
 21
-62.17506420670276
 31
0.0
  0
LINE
  5
275
330
1F
100
AcDbEntity
  8
1
  6
Continuous
 62
     7
100
AcDbLine
 10
208.7540827892641
 20
-62.09263957830733
 30
0.0
 11
208.2054202626761
 21
-61.56280233522399
 31
0.0
  0
LINE
  5
276
330
1F
100
AcDbEntity
  8
1
  6
Continuous
 62
     7
100
AcDbLine
 10
208.9688062873584
 20
-62.17506420670276
 30
0.0
 11
208.7540827892641
 21
-62.09263957830733
 31
0.0
  0
LINE
  5
277
330
1F
100
AcDbEntity
  8
1
  6
Continuous
 62
     7
100
AcDbLine
 10
207.677589118435
 20
-62.09063347946503
 30
0.0
 11
208.2074263615183
 21
-62.63929600605305
 31
0.0
  0
LINE
  5
278
330
1F
100
AcDbEntity
  8
1
  6
Continuous
 62
     7
100
AcDbLine
 10
208.2074263615183
 20
-62.63929600605305
 30
0.0
 11
208.2898509899138
 21
-62.8540195041474
 31
0.0
  0
LINE
  5
279
330
1F
100
AcDbEntity
  8
1
  6
Continuous
 62
     7
100
AcDbLine
 10
208.2074263615183
 20
-63.06874300224175
 30
0.0
 11
207.677589118435
 21
-63.61740552882976
 31
0.0
  0
LINE
  5
27A
330
1F
100
AcDbEntity
  8
1
  6
Continuous
 62
     7
100
AcDbLine
 10
208.2898509899138
 20
-62.8540195041474
 30
0.0
 11
208.2074263615183
 21
-63.06874300224175
 31
0.0
  0
LINE
  5
27B
330
1F
100
AcDbEntity
  8
1
  6
Continuous
 62
     7
100
AcDbLine
 10
208.205420262676
 20
-64.1452366730708
 30
0.0
 11
208.754082789264
 21
-63.61539942998746
 31
0.0
  0
LINE
  5
27C
330
1F
100
AcDbEntity
  8
1
  6
Continuous
 62
     7
100
AcDbLine
 10
208.754082789264
 20
-63.61539942998746
 30
0.0
 11
208.9688062873584
 21
-63.53297480159205
 31
0.0
  0
LINE
  5
27D
330
1F
100
AcDbEntity
  8
1
  6
Continuous
 62
     7
100
AcDbLine
 10
209.1835297854528
 20
-63.61539942998746
 30
0.0
 11
209.7321923120408
 21
-64.1452366730708
 31
0.0
  0
LINE
  5
27E
330
1F
100
AcDbEntity
  8
1
  6
Continuous
 62
     7
100
AcDbLine
 10
208.9688062873584
 20
-63.53297480159205
 30
0.0
 11
209.1835297854528
 21
-63.61539942998746
 31
0.0
  0
LINE
  5
27F
330
1F
100
AcDbEntity
  8
1
  6
Continuous
 62
     7
100
AcDbLine
 10
210.2600234562818
 20
-63.61740552882977
 30
0.0
 11
209.7301862131985
 21
-63.06874300224177
 31
0.0
  0
LINE
  5
280
330
1F
100
AcDbEntity
  8
1
  6
Continuous
 62
     7
100
AcDbLine
 10
209.7301862131985
 20
-63.06874300224177
 30
0.0
 11
209.647761584803
 21
-62.85401950414742
 31
0.0
  0
LINE
  5
281
330
1F
100
AcDbEntity
  8
1
  6
Continuous
 62
     7
100
AcDbLine
 10
209.7301862131985
 20
-62.63929600605305
 30
0.0
 11
210.2600234562818
 21
-62.09063347946505
 31
0.0
  0
LINE
  5
282
330
1F
100
AcDbEntity
  8
1
  6
Continuous
 62
     7
100
AcDbLine
 10
209.647761584803
 20
-62.85401950414742
 30
0.0
 11
209.7301862131985
 21
-62.63929600605305
 31
0.0
  0
LINE
  5
283
330
1F
100
AcDbEntity
  8
1
  6
Continuous
 62
     7
100
AcDbLine
 10
209.7321923120408
 20
-30.562802335224
 30
0.0
 11
209.1835297854528
 21
-31.09263957830733
 31
0.0
  0
LINE
  5
284
330
1F
100
AcDbEntity
  8
1
  6
Continuous
 62
     7
100
AcDbLine
 10
209.1835297854528
 20
-31.09263957830733
 30
0.0
 11
208.9688062873584
 21
-31.17506420670275
 31
0.0
  0
LINE
  5
285
330
1F
100
AcDbEntity
  8
1
  6
Continuous
 62
     7
100
AcDbLine
 10
208.7540827892641
 20
-31.09263957830733
 30
0.0
 11
208.2054202626761
 21
-30.562802335224
 31
0.0
  0
LINE
  5
286
330
1F
100
AcDbEntity
  8
1
  6
Continuous
 62
     7
100
AcDbLine
 10
208.9688062873584
 20
-31.17506420670275
 30
0.0
 11
208.7540827892641
 21
-31.09263957830733
 31
0.0
  0
LINE
  5
287
330
1F
100
AcDbEntity
  8
1
  6
Continuous
 62
     7
100
AcDbLine
 10
207.677589118435
 20
-31.09063347946502
 30
0.0
 11
208.2074263615183
 21
-31.63929600605304
 31
0.0
  0
LINE
  5
288
330
1F
100
AcDbEntity
  8
1
  6
Continuous
 62
     7
100
AcDbLine
 10
208.2074263615183
 20
-31.63929600605304
 30
0.0
 11
208.2898509899137
 21
-31.8540195041474
 31
0.0
  0
LINE
  5
289
330
1F
100
AcDbEntity
  8
1
  6
Continuous
 62
     7
100
AcDbLine
 10
208.2074263615183
 20
-32.06874300224175
 30
0.0
 11
207.677589118435
 21
-32.61740552882976
 31
0.0
  0
LINE
  5
28A
330
1F
100
AcDbEntity
  8
1
  6
Continuous
 62
     7
100
AcDbLine
 10
208.2898509899137
 20
-31.8540195041474
 30
0.0
 11
208.2074263615183
 21
-32.06874300224175
 31
0.0
  0
LINE
  5
28B
330
1F
100
AcDbEntity
  8
1
  6
Continuous
 62
     7
100
AcDbLine
 10
208.205420262676
 20
-33.14523667307081
 30
0.0
 11
208.754082789264
 21
-32.61539942998748
 31
0.0
  0
LINE
  5
28C
330
1F
100
AcDbEntity
  8
1
  6
Continuous
 62
     7
100
AcDbLine
 10
208.754082789264
 20
-32.61539942998748
 30
0.0
 11
208.9688062873584
 21
-32.53297480159205
 31
0.0
  0
LINE
  5
28D
330
1F
100
AcDbEntity
  8
1
  6
Continuous
 62
     7
100
AcDbLine
 10
209.1835297854528
 20
-32.61539942998748
 30
0.0
 11
209.7321923120408
 21
-33.14523667307081
 31
0.0
  0
LINE
  5
28E
330
1F
100
AcDbEntity
  8
1
  6
Continuous
 62
     7
100
AcDbLine
 10
208.9688062873584
 20
-32.53297480159205
 30
0.0
 11
209.1835297854528
 21
-32.61539942998748
 31
0.0
  0
LINE
  5
28F
330
1F
100
AcDbEntity
  8
1
  6
Continuous
 62
     7
100
AcDbLine
 10
210.2600234562818
 20
-32.61740552882978
 30
0.0
 11
209.7301862131985
 21
-32.06874300224176
 31
0.0
  0
LINE
  5
290
330
1F
100
AcDbEntity
  8
1
  6
Continuous
 62
     7
100
AcDbLine
 10
209.7301862131985
 20
-32.06874300224176
 30
0.0
 11
209.647761584803
 21
-31.85401950414741
 31
0.0
  0
LINE
  5
291
330
1F
100
AcDbEntity
  8
1
  6
Continuous
 62
     7
100
AcDbLine
 10
209.7301862131985
 20
-31.63929600605305
 30
0.0
 11
210.2600234562818
 21
-31.09063347946504
 31
0.0
  0
LINE
  5
292
330
1F
100
AcDbEntity
  8
1
  6
Continuous
 62
     7
100
AcDbLine
 10
209.647761584803
 20
-31.85401950414741
 30
0.0
 11
209.7301862131985
 21
-31.63929600605305
 31
0.0
  0
LINE
  5
293
330
1F
100
AcDbEntity
  8
1
  6
Continuous
 62
     7
100
AcDbLine
 10
81.4319654972687
 20
-36.55401950414739
 30
0.0
 11
81.63196549726871
 21
-36.3540195041474
 31
0.0
  0
LINE
  5
294
330
1F
100
AcDbEntity
  8
1
  6
Continuous
 62
     7
100
AcDbLine
 10
81.4319654972687
 20
-58.15401950414739
 30
0.0
 11
81.63196549726871
 21
-58.3540195041474
 31
0.0
  0
LINE
  5
295
330
1F
100
AcDbEntity
  8
1
  6
DASH_CENTER
 62
     3
100
AcDbLine
 10
57.59824993658681
 20
-47.3540195041474
 30
0.0
 11
125.7858294210307
 21
-47.3540195041474
 31
0.0
  0
LINE
  5
296
330
1F
100
AcDbEntity
  8
1
  6
Continuous
 62
     7
100
AcDbLine
 10
63.43196549726871
 20
-49.55401950414739
 30
0.0
 11
63.7319654972687
 21
-49.8540195041474
 31
0.0
  0
LINE
  5
297
330
1F
100
AcDbEntity
  8
1
  6
Continuous
 62
     7
100
AcDbLine
 10
92.9623501221557
 20
-33.3540195041474
 30
0.0
 11
88.2319654972687
 21
-33.3540195041474
 31
0.0
  0
LINE
  5
298
330
1F
100
AcDbEntity
  8
1
  6
Continuous
 62
     3
100
AcDbLine
 10
88.2319654972687
 20
-30.3540195041474
 30
0.0
 11
83.4319654972687
 21
-30.3540195041474
 31
0.0
  0
LINE
  5
299
330
1F
100
AcDbEntity
  8
1
  6
Continuous
 62
     3
100
AcDbLine
 10
88.2319654972687
 20
-33.3540195041474
 30
0.0
 11
83.43196549726872
 21
-33.3540195041474
 31
0.0
  0
LINE
  5
29A
330
1F
100
AcDbEntity
  8
1
  6
Continuous
 62
     7
100
AcDbLine
 10
83.43196549726872
 20
-32.8540195041474
 30
0.0
 11
83.4319654972687
 21
-30.8540195041474
 31
0.0
  0
LINE
  5
29B
330
1F
100
AcDbEntity
  8
1
  6
Continuous
 62
     7
100
AcDbLine
 10
87.7319654972687
 20
-32.8540195041474
 30
0.0
 11
83.43196549726872
 21
-32.8540195041474
 31
0.0
  0
LINE
  5
29C
330
1F
100
AcDbEntity
  8
1
  6
Continuous
 62
     7
100
AcDbLine
 10
87.7319654972687
 20
-30.8540195041474
 30
0.0
 11
83.4319654972687
 21
-30.8540195041474
 31
0.0
  0
LINE
  5
29D
330
1F
100
AcDbEntity
  8
1
  6
Continuous
 62
     7
100
AcDbLine
 10
88.2319654972687
 20
-30.3540195041474
 30
0.0
 11
87.7319654972687
 21
-30.8540195041474
 31
0.0
  0
LINE
  5
29E
330
1F
100
AcDbEntity
  8
1
  6
Continuous
 62
     7
100
AcDbLine
 10
87.7319654972687
 20
-30.8540195041474
 30
0.0
 11
87.7319654972687
 21
-32.8540195041474
 31
0.0
  0
LINE
  5
29F
330
1F
100
AcDbEntity
  8
1
  6
Continuous
 62
     7
100
AcDbLine
 10
87.7319654972687
 20
-32.8540195041474
 30
0.0
 11
88.2319654972687
 21
-33.3540195041474
 31
0.0
  0
LINE
  5
2A0
330
1F
100
AcDbEntity
  8
1
  6
Continuous
 62
     7
100
AcDbLine
 10
88.2319654972687
 20
-30.3540195041474
 30
0.0
 11
88.2319654972687
 21
-33.3540195041474
 31
0.0
  0
LINE
  5
2A1
330
1F
100
AcDbEntity
  8
1
  6
Continuous
 62
     3
100
AcDbLine
 10
87.7319654972687
 20
-32.8540195041474
 30
0.0
 11
93.33785888436721
 21
-32.8540195041474
 31
0.0
  0
LINE
  5
2A2
330
1F
100
AcDbEntity
  8
1
  6
Continuous
 62
     7
100
AcDbLine
 10
93.54931868704901
 20
-30.3540195041474
 30
0.0
 11
88.2319654972687
 21
-30.3540195041474
 31
0.0
  0
LINE
  5
2A3
330
1F
100
AcDbEntity
  8
1
  6
Continuous
 62
     3
100
AcDbLine
 10
87.7319654972687
 20
-30.8540195041474
 30
0.0
 11
93.1415909101069
 21
-30.8540195041474
 31
0.0
  0
LINE
  5
2A4
330
1F
100
AcDbEntity
  8
1
  6
DASH_CENTER
 62
     3
100
AcDbLine
 10
95.21233539821951
 20
-31.8540195041474
 30
0.0
 11
82.3867759924218
 21
-31.8540195041474
 31
0.0
  0
LINE
  5
2A5
330
1F
100
AcDbEntity
  8
1
  6
Continuous
 62
     7
100
AcDbLine
 10
93.054723193468
 20
-32.0243097873915
 30
0.0
 11
95.9319654972687
 21
-32.0243097873915
 31
0.0
  0
LINE
  5
2A6
330
1F
100
AcDbEntity
  8
1
  6
Continuous
 62
     7
100
AcDbLine
 10
119.6319654972687
 20
-65.65401950414741
 30
0.0
 11
119.6319654972687
 21
-60.0540195041474
 31
0.0
  0
LINE
  5
2A7
330
1F
100
AcDbEntity
  8
1
  6
Continuous
 62
     7
100
AcDbLine
 10
120.7365198812662
 20
-60.15065549099504
 30
0.0
 11
119.6319654972687
 21
-60.0540195041474
 31
0.0
  0
LINE
  5
2A8
330
1F
100
AcDbEntity
  8
1
  6
Continuous
 62
     7
100
AcDbLine
 10
119.6319654972687
 20
-65.65401950414741
 30
0.0
 11
120.7365198812662
 21
-65.55738351729975
 31
0.0
  0
LINE
  5
2A9
330
1F
100
AcDbEntity
  8
1
  6
DASH_CENTER
 62
     3
100
AcDbLine
 10
118.1319654972687
 20
-62.8540195041474
 30
0.0
 11
123.5319654972687
 21
-62.8540195041474
 31
0.0
  0
LINE
  5
2AA
330
1F
100
AcDbEntity
  8
1
  6
Continuous
 62
     7
100
AcDbLine
 10
119.6319654972687
 20
-34.6540195041474
 30
0.0
 11
119.6319654972687
 21
-29.05401950414739
 31
0.0
  0
LINE
  5
2AB
330
1F
100
AcDbEntity
  8
1
  6
Continuous
 62
     7
100
AcDbLine
 10
119.6319654972687
 20
-34.6540195041474
 30
0.0
 11
120.7365198812662
 21
-34.55738351729975
 31
0.0
  0
LINE
  5
2AC
330
1F
100
AcDbEntity
  8
1
  6
Continuous
 62
     7
100
AcDbLine
 10
120.7365198812662
 20
-29.15065549099504
 30
0.0
 11
119.6319654972687
 21
-29.05401950414739
 31
0.0
  0
LINE
  5
2AD
330
1F
100
AcDbEntity
  8
1
  6
DASH_CENTER
 62
     3
100
AcDbLine
 10
123.5319654972687
 20
-31.8540195041474
 30
0.0
 11
118.1319654972687
 21
-31.8540195041474
 31
0.0
  0
LINE
  5
2AE
330
1F
100
AcDbEntity
  8
1
  6
Continuous
 62
     7
100
AcDbLine
 10
119.6319654972687
 20
-26.8540195041474
 30
0.0
 11
119.6319654972687
 21
-35.05401950414739
 31
0.0
  0
LINE
  5
2AF
330
1F
100
AcDbEntity
  8
1
  6
Continuous
 62
     7
100
AcDbLine
 10
119.6319654972687
 20
-67.8540195041474
 30
0.0
 11
119.6319654972687
 21
-59.65401950414739
 31
0.0
  0
LINE
  5
2B0
330
1F
100
AcDbEntity
  8
1
  6
Continuous
 62
     7
100
AcDbLine
 10
109.9319654972687
 20
-62.68372922090328
 30
0.0
 11
119.6319654972687
 21
-62.68372922090328
 31
0.0
  0
LINE
  5
2B1
330
1F
100
AcDbEntity
  8
1
  6
Continuous
 62
     7
100
AcDbLine
 10
109.9319654972687
 20
-32.0243097873915
 30
0.0
 11
119.6319654972687
 21
-32.0243097873915
 31
0.0
  0
LINE
  5
2B2
330
1F
100
AcDbEntity
  8
1
  6
Continuous
 62
     7
100
AcDbLine
 10
122.4319654972687
 20
-26.8540195041474
 30
0.0
 11
122.4319654972687
 21
-67.8540195041474
 31
0.0
  0
LINE
  5
2B3
330
1F
100
AcDbEntity
  8
1
  6
Continuous
 62
     7
100
AcDbLine
 10
119.6319654972687
 20
-59.65401950414739
 30
0.0
 11
122.4319654972687
 21
-59.05401950414739
 31
0.0
  0
LINE
  5
2B4
330
1F
100
AcDbEntity
  8
1
  6
Continuous
 62
     7
100
AcDbLine
 10
119.6319654972687
 20
-35.05401950414739
 30
0.0
 11
122.4319654972687
 21
-35.6540195041474
 31
0.0
  0
LINE
  5
2B5
330
1F
100
AcDbEntity
  8
1
  6
Continuous
 62
     7
100
AcDbLine
 10
111.9319654972687
 20
-34.28935953789686
 30
0.0
 11
93.9319654972687
 21
-34.28935953789686
 31
0.0
  0
LINE
  5
2B6
330
1F
100
AcDbEntity
  8
1
  6
Continuous
 62
     7
100
AcDbLine
 10
111.9319654972687
 20
-60.91867947039795
 30
0.0
 11
109.9319654972687
 21
-60.91867947039795
 31
0.0
  0
LINE
  5
2B7
330
1F
100
AcDbEntity
  8
1
  6
Continuous
 62
     7
100
AcDbLine
 10
111.9319654972687
 20
-33.78935953789686
 30
0.0
 11
111.9319654972687
 21
-60.91867947039795
 31
0.0
  0
LINE
  5
2B8
330
1F
100
AcDbEntity
  8
1
  6
Continuous
 62
     7
100
AcDbLine
 10
93.9319654972687
 20
-60.91867947039795
 30
0.0
 11
93.9319654972687
 21
-33.78935953789686
 31
0.0
  0
LINE
  5
2B9
330
1F
100
AcDbEntity
  8
1
  6
Continuous
 62
     7
100
AcDbLine
 10
93.9319654972687
 20
-60.41867947039795
 30
0.0
 11
111.9319654972687
 21
-60.41867947039795
 31
0.0
  0
LINE
  5
2BA
330
1F
100
AcDbEntity
  8
1
  6
Continuous
 62
     7
100
AcDbLine
 10
83.4319654972687
 20
-62.68372922090328
 30
0.0
 11
95.9319654972687
 21
-62.68372922090328
 31
0.0
  0
LINE
  5
2BB
330
1F
100
AcDbEntity
  8
1
  6
Continuous
 62
     7
100
AcDbLine
 10
109.9319654972687
 20
-33.78935953789686
 30
0.0
 11
109.9319654972687
 21
-26.3540195041474
 31
0.0
  0
LINE
  5
2BC
330
1F
100
AcDbEntity
  8
1
  6
Continuous
 62
     7
100
AcDbLine
 10
83.4319654972687
 20
-67.8540195041474
 30
0.0
 11
83.4319654972687
 21
-26.8540195041474
 31
0.0
  0
LINE
  5
2BD
330
1F
100
AcDbEntity
  8
1
  6
Continuous
 62
     7
100
AcDbLine
 10
109.9319654972687
 20
-60.91867947039795
 30
0.0
 11
109.9319654972687
 21
-68.3540195041474
 31
0.0
  0
LINE
  5
2BE
330
1F
100
AcDbEntity
  8
1
  6
Continuous
 62
     7
100
AcDbLine
 10
111.9319654972687
 20
-60.91867947039795
 30
0.0
 11
109.9319654972687
 21
-60.91867947039795
 31
0.0
  0
LINE
  5
2BF
330
1F
100
AcDbEntity
  8
1
  6
Continuous
 62
     7
100
AcDbLine
 10
95.9319654972687
 20
-60.91867947039795
 30
0.0
 11
95.9319654972687
 21
-68.3540195041474
 31
0.0
  0
LINE
  5
2C0
330
1F
100
AcDbEntity
  8
1
  6
Continuous
 62
     7
100
AcDbLine
 10
93.9319654972687
 20
-60.91867947039795
 30
0.0
 11
95.9319654972687
 21
-60.91867947039795
 31
0.0
  0
LINE
  5
2C1
330
1F
100
AcDbEntity
  8
1
  6
Continuous
 62
     7
100
AcDbLine
 10
109.9319654972687
 20
-33.78935953789686
 30
0.0
 11
111.9319654972687
 21
-33.78935953789686
 31
0.0
  0
LINE
  5
2C2
330
1F
100
AcDbEntity
  8
1
  6
Continuous
 62
     7
100
AcDbLine
 10
95.9319654972687
 20
-33.78935953789686
 30
0.0
 11
93.9319654972687
 21
-33.78935953789686
 31
0.0
  0
LINE
  5
2C3
330
1F
100
AcDbEntity
  8
1
  6
Continuous
 62
     7
100
AcDbLine
 10
95.9319654972687
 20
-26.3540195041474
 30
0.0
 11
95.9319654972687
 21
-33.78935953789686
 31
0.0
  0
LINE
  5
2C4
330
1F
100
AcDbEntity
  8
1
  6
Continuous
 62
     7
100
AcDbLine
 10
81.4319654972687
 20
-36.55401950414739
 30
0.0
 11
81.4319654972687
 21
-58.15401950414739
 31
0.0
  0
LINE
  5
2C5
330
1F
100
AcDbEntity
  8
1
  6
Continuous
 62
     7
100
AcDbLine
 10
81.4319654972687
 20
-49.8540195041474
 30
0.0
 11
63.7319654972687
 21
-49.8540195041474
 31
0.0
  0
LINE
  5
2C6
330
1F
100
AcDbEntity
  8
1
  6
Continuous
 62
     7
100
AcDbLine
 10
121.9319654972687
 20
-26.3540195041474
 30
0.0
 11
122.4319654972687
 21
-26.8540195041474
 31
0.0
  0
LINE
  5
2C7
330
1F
100
AcDbEntity
  8
1
  6
Continuous
 62
     7
100
AcDbLine
 10
121.9319654972687
 20
-68.3540195041474
 30
0.0
 11
122.4319654972687
 21
-67.8540195041474
 31
0.0
  0
LINE
  5
2C8
330
1F
100
AcDbEntity
  8
1
  6
Continuous
 62
     7
100
AcDbLine
 10
83.9319654972687
 20
-68.3540195041474
 30
0.0
 11
83.4319654972687
 21
-67.8540195041474
 31
0.0
  0
LINE
  5
2C9
330
1F
100
AcDbEntity
  8
1
  6
Continuous
 62
     7
100
AcDbLine
 10
83.9319654972687
 20
-26.3540195041474
 30
0.0
 11
83.4319654972687
 21
-26.8540195041474
 31
0.0
  0
LINE
  5
2CA
330
1F
100
AcDbEntity
  8
1
  6
Continuous
 62
     7
100
AcDbLine
 10
119.1319654972687
 20
-26.3540195041474
 30
0.0
 11
119.6319654972687
 21
-26.8540195041474
 31
0.0
  0
LINE
  5
2CB
330
1F
100
AcDbEntity
  8
1
  6
Continuous
 62
     7
100
AcDbLine
 10
119.1319654972687
 20
-68.3540195041474
 30
0.0
 11
119.6319654972687
 21
-67.8540195041474
 31
0.0
  0
LINE
  5
2CC
330
1F
100
AcDbEntity
  8
1
  6
Continuous
 62
     7
100
AcDbLine
 10
83.9319654972687
 20
-68.3540195041474
 30
0.0
 11
121.9319654972687
 21
-68.3540195041474
 31
0.0
  0
LINE
  5
2CD
330
1F
100
AcDbEntity
  8
1
  6
Continuous
 62
     7
100
AcDbLine
 10
81.63196549726871
 20
-36.3540195041474
 30
0.0
 11
83.4319654972687
 21
-36.3540195041474
 31
0.0
  0
LINE
  5
2CE
330
1F
100
AcDbEntity
  8
1
  6
Continuous
 62
     7
100
AcDbLine
 10
81.63196549726871
 20
-58.3540195041474
 30
0.0
 11
83.4319654972687
 21
-58.3540195041474
 31
0.0
  0
LINE
  5
2CF
330
1F
100
AcDbEntity
  8
1
  6
DASH_CENTER
 62
     3
100
AcDbLine
 10
-36.5311937126416
 20
-17.26816789393229
 30
0.0
 11
-36.5311937126416
 21
-28.1626184340331
 31
0.0
  0
LINE
  5
2D0
330
1F
100
AcDbEntity
  8
1
  6
Continuous
 62
     7
100
AcDbLine
 10
-57.5311937126416
 20
-62.68372922090328
 30
0.0
 11
-57.5311937126416
 21
-32.0243097873915
 31
0.0
  0
LINE
  5
2D1
330
1F
100
AcDbEntity
  8
1
  6
DASH_CENTER
 62
     3
100
AcDbLine
 10
-62.5311937126416
 20
-47.3540195041474
 30
0.0
 11
-39.0311937126416
 21
-47.3540195041474
 31
0.0
  0
LINE
  5
2D2
330
1F
100
AcDbEntity
  8
1
  6
DASH_CENTER
 62
     3
100
AcDbLine
 10
-21.0311937126416
 20
-65.25401950414741
 30
0.0
 11
-21.0311937126416
 21
-60.4540195041474
 31
0.0
  0
LINE
  5
2D3
330
1F
100
AcDbEntity
  8
1
  6
DASH_CENTER
 62
     3
100
AcDbLine
 10
-23.43119371264159
 20
-62.8540195041474
 30
0.0
 11
-18.6311937126416
 21
-62.8540195041474
 31
0.0
  0
LINE
  5
2D4
330
1F
100
AcDbEntity
  8
1
  6
DASH_CENTER
 62
     3
100
AcDbLine
 10
-52.0311937126416
 20
-65.25401950414741
 30
0.0
 11
-52.0311937126416
 21
-60.4540195041474
 31
0.0
  0
LINE
  5
2D5
330
1F
100
AcDbEntity
  8
1
  6
DASH_CENTER
 62
     3
100
AcDbLine
 10
-54.43119371264161
 20
-62.8540195041474
 30
0.0
 11
-49.63119371264158
 21
-62.8540195041474
 31
0.0
  0
LINE
  5
2D6
330
1F
100
AcDbEntity
  8
1
  6
DASH_CENTER
 62
     3
100
AcDbLine
 10
-52.0311937126416
 20
-34.25401950414739
 30
0.0
 11
-52.0311937126416
 21
-29.45401950414739
 31
0.0
  0
LINE
  5
2D7
330
1F
100
AcDbEntity
  8
1
  6
DASH_CENTER
 62
     3
100
AcDbLine
 10
-54.43119371264161
 20
-31.8540195041474
 30
0.0
 11
-49.63119371264158
 21
-31.8540195041474
 31
0.0
  0
LINE
  5
2D8
330
1F
100
AcDbEntity
  8
1
  6
DASH_CENTER
 62
     3
100
AcDbLine
 10
-21.0311937126416
 20
-34.25401950414739
 30
0.0
 11
-21.0311937126416
 21
-29.45401950414739
 31
0.0
  0
LINE
  5
2D9
330
1F
100
AcDbEntity
  8
1
  6
DASH_CENTER
 62
     3
100
AcDbLine
 10
-23.43119371264159
 20
-31.8540195041474
 30
0.0
 11
-18.6311937126416
 21
-31.8540195041474
 31
0.0
  0
LINE
  5
2DA
330
1F
100
AcDbEntity
  8
1
  6
Continuous
 62
     7
100
AcDbLine
 10
-51.8609034293975
 20
-68.3540195041474
 30
0.0
 11
-21.2014839958857
 21
-68.3540195041474
 31
0.0
  0
LINE
  5
2DB
330
1F
100
AcDbEntity
  8
1
  6
Continuous
 62
     7
100
AcDbLine
 10
-15.5311937126416
 20
-32.0243097873915
 30
0.0
 11
-15.5311937126416
 21
-62.68372922090328
 31
0.0
  0
LINE
  5
2DC
330
1F
100
AcDbEntity
  8
1
  6
Continuous
 62
     7
100
AcDbLine
 10
-21.2014839958857
 20
-26.3540195041474
 30
0.0
 11
-51.8609034293975
 21
-26.3540195041474
 31
0.0
  0
LINE
  5
2DD
330
1F
100
AcDbEntity
  8
1
  6
Continuous
 62
     7
100
AcDbLine
 10
-32.5311937126416
 20
-25.8540195041474
 30
0.0
 11
-32.5311937126416
 21
-26.3540195041474
 31
0.0
  0
LINE
  5
2DE
330
1F
100
AcDbEntity
  8
1
  6
Continuous
 62
     7
100
AcDbLine
 10
-40.5311937126416
 20
-26.3540195041474
 30
0.0
 11
-40.5311937126416
 21
-25.8540195041474
 31
0.0
  0
LINE
  5
2DF
330
1F
100
AcDbEntity
  8
1
  6
Continuous
 62
     7
100
AcDbLine
 10
-32.73119371264161
 20
-25.6540195041474
 30
0.0
 11
-40.33119371264159
 21
-25.6540195041474
 31
0.0
  0
LINE
  5
2E0
330
1F
100
AcDbEntity
  8
1
  6
Continuous
 62
     3
100
AcDbLine
 10
-38.8311937126416
 20
-18.9537240070315
 30
0.0
 11
-38.8311937126416
 21
-25.6540195041474
 31
0.0
  0
LINE
  5
2E1
330
1F
100
AcDbEntity
  8
1
  6
Continuous
 62
     3
100
AcDbLine
 10
-37.6811937126416
 20
-18.4923483326749
 30
0.0
 11
-37.6811937126416
 21
-25.6540195041474
 31
0.0
  0
LINE
  5
2E2
330
1F
100
AcDbEntity
  8
1
  6
Continuous
 62
     3
100
AcDbLine
 10
-35.3811937126416
 20
-18.76278552834206
 30
0.0
 11
-35.3811937126416
 21
-25.6540195041474
 31
0.0
  0
LINE
  5
2E3
330
1F
100
AcDbEntity
  8
1
  6
Continuous
 62
     3
100
AcDbLine
 10
-34.23119371264161
 20
-19.0761184862208
 30
0.0
 11
-34.23119371264161
 21
-25.6540195041474
 31
0.0
  0
LINE
  5
2E4
330
1F
100
AcDbEntity
  8
1
  6
DASH_CENTER
 62
     3
100
AcDbLine
 10
-36.5311937126416
 20
-73.495333752334
 30
0.0
 11
-36.5311937126416
 21
-34.8698735669629
 31
0.0
  0
LINE
  5
2E5
330
1F
100
AcDbEntity
  8
1
  6
DASH_CENTER
 62
     3
100
AcDbLine
 10
-38.5311937126416
 20
-47.3540195041474
 30
0.0
 11
-10.5311937126416
 21
-47.3540195041474
 31
0.0
  0
LINE
  5
2E6
330
1F
100
AcDbEntity
  8
1
  6
DASH_CENTER
 62
     3
100
AcDbLine
 10
-36.5311937126416
 20
-44.8540195041474
 30
0.0
 11
-36.5311937126416
 21
-45.3540195041474
 31
0.0
  0
LINE
  5
2E7
330
1F
100
AcDbEntity
  8
1
  6
Continuous
 62
     3
100
AcDbLine
 10
-34.5311937126416
 20
-45.8540195041474
 30
0.0
 11
-34.5311937126416
 21
-48.8540195041474
 31
0.0
  0
LINE
  5
2E8
330
1F
100
AcDbEntity
  8
1
  6
Continuous
 62
     7
100
AcDbLine
 10
115.5319654972687
 20
-25.6540195041474
 30
0.0
 11
121.2319654972687
 21
-25.6540195041474
 31
0.0
  0
LINE
  5
2E9
330
1F
100
AcDbEntity
  8
1
  6
Continuous
 62
     7
100
AcDbLine
 10
115.3319654972687
 20
-25.8540195041474
 30
0.0
 11
115.3319654972687
 21
-26.3540195041474
 31
0.0
  0
LINE
  5
2EA
330
1F
100
AcDbEntity
  8
1
  6
Continuous
 62
     7
100
AcDbLine
 10
121.9319654972687
 20
-26.3540195041474
 30
0.0
 11
83.9319654972687
 21
-26.3540195041474
 31
0.0
  0
LINE
  5
2EB
330
1F
100
AcDbEntity
  8
1
  6
Continuous
 62
     7
100
AcDbLine
 10
121.4319654972687
 20
-25.8540195041474
 30
0.0
 11
121.4319654972687
 21
-26.3540195041474
 31
0.0
  0
LINE
  5
2EC
330
1F
100
AcDbEntity
  8
1
  6
Continuous
 62
     3
100
AcDbLine
 10
115.8319654972687
 20
2.26104268635065
 30
0.0
 11
115.8319654972687
 21
-25.6540195041474
 31
0.0
  0
LINE
  5
2ED
330
1F
100
AcDbEntity
  8
1
  6
Continuous
 62
     3
100
AcDbLine
 10
120.9319654972687
 20
2.06854199362769
 30
0.0
 11
120.9319654972687
 21
-25.6540195041474
 31
0.0
  0
LINE
  5
2EE
330
1F
100
AcDbEntity
  8
1
  6
Continuous
 62
     3
100
AcDbLine
 10
117.1069654972687
 20
2.98454217200572
 30
0.0
 11
117.1069654972687
 21
-25.6540195041474
 31
0.0
  0
LINE
  5
2EF
330
1F
100
AcDbEntity
  8
1
  6
Continuous
 62
     3
100
AcDbLine
 10
119.6569654972687
 20
1.63310800633879
 30
0.0
 11
119.6569654972687
 21
-25.6540195041474
 31
0.0
  0
LINE
  5
2F0
330
1F
100
AcDbEntity
  8
1
  6
Continuous
 62
     3
100
AcDbLine
 10
115.8319654972687
 20
33.6459804958526
 30
0.0
 11
115.8319654972687
 21
3.60673706287816
 31
0.0
  0
LINE
  5
2F1
330
1F
100
AcDbEntity
  8
1
  6
Continuous
 62
     3
100
AcDbLine
 10
120.9319654972687
 20
33.6459804958526
 30
0.0
 11
120.9319654972687
 21
3.4142363701552
 31
0.0
  0
LINE
  5
2F2
330
1F
100
AcDbEntity
  8
1
  6
DOT_CENTER
 62
     3
100
AcDbLine
 10
118.3819654972687
 20
41.94522875497189
 30
0.0
 11
118.3819654972687
 21
-25.6540195041474
 31
0.0
  0
LINE
  5
2F3
330
1F
100
AcDbEntity
  8
1
  6
Continuous
 62
     3
100
AcDbLine
 10
117.1069654972687
 20
33.6459804958526
 30
0.0
 11
117.1069654972687
 21
4.33023654853323
 31
0.0
  0
LINE
  5
2F4
330
1F
100
AcDbEntity
  8
1
  6
Continuous
 62
     3
100
AcDbLine
 10
119.6569654972687
 20
33.6459804958526
 30
0.0
 11
119.6569654972687
 21
2.9788023828663
 31
0.0
  0
LINE
  5
2F5
330
1F
100
AcDbEntity
  8
1
  6
Continuous
 62
     7
100
AcDbLine
 10
116.4694654972687
 20
39.6459804958526
 30
0.0
 11
116.4694654972687
 21
33.6459804958526
 31
0.0
  0
LINE
  5
2F6
330
1F
100
AcDbEntity
  8
1
  6
Continuous
 62
     3
100
AcDbLine
 10
115.8319654972687
 20
33.6459804958526
 30
0.0
 11
120.9319654972687
 21
33.6459804958526
 31
0.0
  0
LINE
  5
2F7
330
1F
100
AcDbEntity
  8
1
  6
Continuous
 62
     7
100
AcDbLine
 10
117.7444654972687
 20
39.6459804958526
 30
0.0
 11
117.7444654972687
 21
33.6459804958526
 31
0.0
  0
LINE
  5
2F8
330
1F
100
AcDbEntity
  8
1
  6
Continuous
 62
     7
100
AcDbLine
 10
119.0194654972687
 20
39.6459804958526
 30
0.0
 11
119.0194654972687
 21
33.6459804958526
 31
0.0
  0
LINE
  5
2F9
330
1F
100
AcDbEntity
  8
1
  6
Continuous
 62
     7
100
AcDbLine
 10
120.2944654972687
 20
39.6459804958526
 30
0.0
 11
120.2944654972687
 21
33.6459804958526
 31
0.0
  0
LINE
  5
2FA
330
1F
100
AcDbEntity
  8
1
  6
DASH_CENTER
 62
     3
100
AcDbLine
 10
193.4688062873584
 20
-17.26816789393229
 30
0.0
 11
193.4688062873584
 21
-25.6540195041474
 31
0.0
  0
LINE
  5
2FB
330
1F
100
AcDbEntity
  8
1
  6
Continuous
 62
     7
100
AcDbLine
 10
197.4688062873584
 20
-25.8540195041474
 30
0.0
 11
197.4688062873584
 21
-26.3540195041474
 31
0.0
  0
LINE
  5
2FC
330
1F
100
AcDbEntity
  8
1
  6
Continuous
 62
     7
100
AcDbLine
 10
189.4688062873584
 20
-26.3540195041474
 30
0.0
 11
189.4688062873584
 21
-25.8540195041474
 31
0.0
  0
LINE
  5
2FD
330
1F
100
AcDbEntity
  8
1
  6
Continuous
 62
     7
100
AcDbLine
 10
197.2688062873584
 20
-25.6540195041474
 30
0.0
 11
189.6688062873584
 21
-25.6540195041474
 31
0.0
  0
LINE
  5
2FE
330
1F
100
AcDbEntity
  8
1
  6
Continuous
 62
     3
100
AcDbLine
 10
191.1688062873584
 20
-18.9537240070315
 30
0.0
 11
191.1688062873584
 21
-25.6540195041474
 31
0.0
  0
LINE
  5
2FF
330
1F
100
AcDbEntity
  8
1
  6
Continuous
 62
     3
100
AcDbLine
 10
192.3188062873584
 20
-18.4923483326749
 30
0.0
 11
192.3188062873584
 21
-25.6540195041474
 31
0.0
  0
LINE
  5
300
330
1F
100
AcDbEntity
  8
1
  6
Continuous
 62
     3
100
AcDbLine
 10
194.6188062873584
 20
-18.76278552834206
 30
0.0
 11
194.6188062873584
 21
-25.6540195041474
 31
0.0
  0
LINE
  5
301
330
1F
100
AcDbEntity
  8
1
  6
Continuous
 62
     3
100
AcDbLine
 10
195.7688062873584
 20
-19.0761184862208
 30
0.0
 11
195.7688062873584
 21
-25.6540195041474
 31
0.0
  0
LINE
  5
302
330
1F
100
AcDbEntity
  8
1
  6
Continuous
 62
     7
100
AcDbLine
 10
63.7319654972687
 20
-44.85401950414741
 30
0.0
 11
81.4319654972687
 21
-44.8540195041474
 31
0.0
  0
LINE
  5
303
330
1F
100
AcDbEntity
  8
1
  6
Continuous
 62
     3
100
AcDbLine
 10
63.7319654972687
 20
-44.85401950414741
 30
0.0
 11
63.7319654972687
 21
-45.8540195041474
 31
0.0
  0
LINE
  5
304
330
1F
100
AcDbEntity
  8
1
  6
Continuous
 62
     7
100
AcDbLine
 10
63.7319654972687
 20
-44.85401950414741
 30
0.0
 11
63.43196549726871
 21
-45.15401950414742
 31
0.0
  0
LINE
  5
305
330
1F
100
AcDbEntity
  8
1
  6
Continuous
 62
     7
100
AcDbLine
 10
63.43196549726871
 20
-45.8540195041474
 30
0.0
 11
78.43196549726872
 21
-45.8540195041474
 31
0.0
  0
LINE
  5
306
330
1F
100
AcDbEntity
  8
1
  6
Continuous
 62
     7
100
AcDbLine
 10
78.43196549726872
 20
-45.8540195041474
 30
0.0
 11
78.43196549726872
 21
-48.8540195041474
 31
0.0
  0
LINE
  5
307
330
1F
100
AcDbEntity
  8
1
  6
Continuous
 62
     7
100
AcDbLine
 10
78.43196549726872
 20
-48.8540195041474
 30
0.0
 11
63.43196549726871
 21
-48.8540195041474
 31
0.0
  0
LINE
  5
308
330
1F
100
AcDbEntity
  8
1
  6
Continuous
 62
     3
100
AcDbLine
 10
63.7319654972687
 20
-48.8540195041474
 30
0.0
 11
63.7319654972687
 21
-49.8540195041474
 31
0.0
  0
LINE
  5
309
330
1F
100
AcDbEntity
  8
1
  6
Continuous
 62
     7
100
AcDbLine
 10
63.43196549726871
 20
-45.8540195041474
 30
0.0
 11
78.43196549726872
 21
-48.8540195041474
 31
0.0
  0
LINE
  5
30A
330
1F
100
AcDbEntity
  8
1
  6
Continuous
 62
     7
100
AcDbLine
 10
63.43196549726871
 20
-48.8540195041474
 30
0.0
 11
78.43196549726872
 21
-45.8540195041474
 31
0.0
  0
LINE
  5
30B
330
1F
100
AcDbEntity
  8
1
  6
Continuous
 62
     2
100
AcDbLine
 10
83.3991582101449
 20
-98.2512757990343
 30
0.0
 11
83.3991582101449
 21
-119.990033890961
 31
0.0
  0
LINE
  5
30C
330
1F
100
AcDbEntity
  8
1
  6
Continuous
 62
     7
100
AcDbLine
 10
63.43196549726871
 20
-45.15401950414742
 30
0.0
 11
63.43196549726871
 21
-49.55401950414739
 31
0.0
  0
ARC
  5
30D
330
1F
100
AcDbEntity
  8
1
  6
Continuous
 62
     7
100
AcDbCircle
 10
177.9688062873584
 20
-31.8540195041474
 30
0.0
 40
3.800000000000001
100
AcDbArc
 50
-90.0
 51
0.0
  0
ARC
  5
30E
330
1F
100
AcDbEntity
  8
1
  6
Continuous
 62
     7
100
AcDbCircle
 10
177.9688062873584
 20
-62.8540195041474
 30
0.0
 40
3.799999999999983
100
AcDbArc
 50
0.0
 51
90.0
  0
ARC
  5
30F
330
1F
100
AcDbEntity
  8
1
  6
Continuous
 62
     7
100
AcDbCircle
 10
208.9688062873584
 20
-62.8540195041474
 30
0.0
 40
3.800000000000011
100
AcDbArc
 50
90.0
 51
180.0
  0
ARC
  5
310
330
1F
100
AcDbEntity
  8
1
  6
Continuous
 62
     7
100
AcDbCircle
 10
208.9688062873584
 20
-31.8540195041474
 30
0.0
 40
3.800000000000011
100
AcDbArc
 50
180.0
 51
-90.0
  0
ARC
  5
311
330
1F
100
AcDbEntity
  8
1
  6
Continuous
 62
     7
100
AcDbCircle
 10
177.9688062873584
 20
-31.8540195041474
 30
0.0
 40
3.199999999999992
100
AcDbArc
 50
-90.0
 51
0.0
  0
ARC
  5
312
330
1F
100
AcDbEntity
  8
1
  6
Continuous
 62
     7
100
AcDbCircle
 10
177.9688062873584
 20
-62.8540195041474
 30
0.0
 40
3.199999999999989
100
AcDbArc
 50
0.0
 51
90.0
  0
ARC
  5
313
330
1F
100
AcDbEntity
  8
1
  6
Continuous
 62
     7
100
AcDbCircle
 10
208.9688062873584
 20
-62.8540195041474
 30
0.0
 40
3.20000000000001
100
AcDbArc
 50
90.0
 51
180.0
  0
ARC
  5
314
330
1F
100
AcDbEntity
  8
1
  6
Continuous
 62
     7
100
AcDbCircle
 10
208.9688062873584
 20
-31.8540195041474
 30
0.0
 40
3.200000000000017
100
AcDbArc
 50
180.0
 51
-90.0
  0
ARC
  5
315
330
1F
100
AcDbEntity
  8
1
  6
Continuous
 62
     7
100
AcDbCircle
 10
193.4688062873584
 20
-48.11785173452263
 30
0.0
 40
7.236167769624732
100
AcDbArc
 50
-52.61108306270343
 51
-127.3889169372967
  0
ARC
  5
316
330
1F
100
AcDbEntity
  8
1
  6
Continuous
 62
     7
100
AcDbCircle
 10
197.3927952984951
 20
-53.25227437427507
 30
0.0
 40
0.773971114993787
100
AcDbArc
 50
-147.7904948493165
 51
-52.61108306271159
  0
ARC
  5
317
330
1F
100
AcDbEntity
  8
1
  6
Continuous
 62
     7
100
AcDbCircle
 10
195.7009237703435
 20
-54.31809475866862
 30
0.0
 40
1.225629435005834
100
AcDbArc
 50
32.20950515067731
 51
-132.028679241273
  0
ARC
  5
318
330
1F
100
AcDbEntity
  8
1
  6
Continuous
 62
     7
100
AcDbCircle
 10
191.2366888043733
 20
-54.31809475866862
 30
0.0
 40
1.225629435005726
100
AcDbArc
 50
-47.97132075872405
 51
147.7904948493184
  0
ARC
  5
319
330
1F
100
AcDbEntity
  8
1
  6
Continuous
 62
     7
100
AcDbCircle
 10
189.5448172762218
 20
-53.25227437427507
 30
0.0
 40
0.7739711149938217
100
AcDbArc
 50
-127.3889169372951
 51
-32.20950515068015
  0
ARC
  5
31A
330
1F
100
AcDbEntity
  8
1
  6
Continuous
 62
     7
100
AcDbCircle
 10
177.9688062873584
 20
-31.8540195041474
 30
0.0
 40
1.500000000000966
100
AcDbArc
 50
30.59218556465235
 51
59.40781443534677
  0
ARC
  5
31B
330
1F
100
AcDbEntity
  8
1
  6
Continuous
 62
     7
100
AcDbCircle
 10
177.9688062873584
 20
-31.8540195041474
 30
0.0
 40
1.500000000000939
100
AcDbArc
 50
120.5921855646495
 51
149.4078144353473
  0
ARC
  5
31C
330
1F
100
AcDbEntity
  8
1
  6
Continuous
 62
     7
100
AcDbCircle
 10
177.9688062873584
 20
-31.8540195041474
 30
0.0
 40
1.500000000000957
100
AcDbArc
 50
-149.4078144353483
 51
-120.5921855646535
  0
ARC
  5
31D
330
1F
100
AcDbEntity
  8
1
  6
Continuous
 62
     7
100
AcDbCircle
 10
177.9688062873584
 20
-31.8540195041474
 30
0.0
 40
1.500000000000987
100
AcDbArc
 50
-59.40781443534655
 51
-30.592185564652
  0
ARC
  5
31E
330
1F
100
AcDbEntity
  8
1
  6
Continuous
 62
     7
100
AcDbCircle
 10
177.9688062873584
 20
-62.8540195041474
 30
0.0
 40
1.500000000000959
100
AcDbArc
 50
30.59218556465187
 51
59.40781443534677
  0
ARC
  5
31F
330
1F
100
AcDbEntity
  8
1
  6
Continuous
 62
     7
100
AcDbCircle
 10
177.9688062873584
 20
-62.8540195041474
 30
0.0
 40
1.500000000000939
100
AcDbArc
 50
120.5921855646495
 51
149.4078144353477
  0
ARC
  5
320
330
1F
100
AcDbEntity
  8
1
  6
Continuous
 62
     7
100
AcDbCircle
 10
177.9688062873584
 20
-62.8540195041474
 30
0.0
 40
1.500000000000959
100
AcDbArc
 50
-149.4078144353481
 51
-120.5921855646535
  0
ARC
  5
321
330
1F
100
AcDbEntity
  8
1
  6
Continuous
 62
     7
100
AcDbCircle
 10
177.9688062873584
 20
-62.8540195041474
 30
0.0
 40
1.500000000000985
100
AcDbArc
 50
-59.40781443534649
 51
-30.59218556465235
  0
ARC
  5
322
330
1F
100
AcDbEntity
  8
1
  6
Continuous
 62
     7
100
AcDbCircle
 10
208.9688062873584
 20
-62.8540195041474
 30
0.0
 40
1.500000000000959
100
AcDbArc
 50
30.59218556465187
 51
59.40781443534677
  0
ARC
  5
323
330
1F
100
AcDbEntity
  8
1
  6
Continuous
 62
     7
100
AcDbCircle
 10
208.9688062873584
 20
-62.8540195041474
 30
0.0
 40
1.500000000000939
100
AcDbArc
 50
120.5921855646495
 51
149.4078144353477
  0
ARC
  5
324
330
1F
100
AcDbEntity
  8
1
  6
Continuous
 62
     7
100
AcDbCircle
 10
208.9688062873584
 20
-62.8540195041474
 30
0.0
 40
1.500000000000959
100
AcDbArc
 50
-149.4078144353481
 51
-120.5921855646535
  0
ARC
  5
325
330
1F
100
AcDbEntity
  8
1
  6
Continuous
 62
     7
100
AcDbCircle
 10
208.9688062873584
 20
-62.8540195041474
 30
0.0
 40
1.500000000000985
100
AcDbArc
 50
-59.40781443534649
 51
-30.59218556465235
  0
ARC
  5
326
330
1F
100
AcDbEntity
  8
1
  6
Continuous
 62
     7
100
AcDbCircle
 10
208.9688062873584
 20
-31.8540195041474
 30
0.0
 40
1.500000000000961
100
AcDbArc
 50
30.592185564652
 51
59.40781443534655
  0
ARC
  5
327
330
1F
100
AcDbEntity
  8
1
  6
Continuous
 62
     7
100
AcDbCircle
 10
208.9688062873584
 20
-31.8540195041474
 30
0.0
 40
1.50000000000093
100
AcDbArc
 50
120.5921855646497
 51
149.4078144353473
  0
ARC
  5
328
330
1F
100
AcDbEntity
  8
1
  6
Continuous
 62
     7
100
AcDbCircle
 10
208.9688062873584
 20
-31.8540195041474
 30
0.0
 40
1.500000000000961
100
AcDbArc
 50
-149.407814435348
 51
-120.5921855646532
  0
ARC
  5
329
330
1F
100
AcDbEntity
  8
1
  6
Continuous
 62
     7
100
AcDbCircle
 10
208.9688062873584
 20
-31.8540195041474
 30
0.0
 40
1.500000000001
100
AcDbArc
 50
-59.40781443534684
 51
-30.5921855646527
  0
ARC
  5
32A
330
1F
100
AcDbEntity
  8
1
  6
Continuous
 62
     7
100
AcDbCircle
 10
193.4688062873584
 20
-47.3540195041474
 30
0.0
 40
25.99999999999999
100
AcDbArc
 50
-143.8710725280618
 51
-126.1289274719382
  0
ARC
  5
32B
330
1F
100
AcDbEntity
  8
1
  6
Continuous
 62
     7
100
AcDbCircle
 10
193.4688062873584
 20
-47.3540195041474
 30
0.0
 40
26.0
100
AcDbArc
 50
-53.87107252806178
 51
-36.12892747193819
  0
ARC
  5
32C
330
1F
100
AcDbEntity
  8
1
  6
Continuous
 62
     7
100
AcDbCircle
 10
193.4688062873584
 20
-47.3540195041474
 30
0.0
 40
26.0
100
AcDbArc
 50
36.12892747193823
 51
53.87107252806178
  0
ARC
  5
32D
330
1F
100
AcDbEntity
  8
1
  6
Continuous
 62
     7
100
AcDbCircle
 10
193.4688062873584
 20
-47.3540195041474
 30
0.0
 40
26.00000000000001
100
AcDbArc
 50
126.1289274719382
 51
143.8710725280618
  0
ARC
  5
32E
330
1F
100
AcDbEntity
  8
1
  6
Continuous
 62
     7
100
AcDbCircle
 10
117.0319654972687
 20
-62.8540195041474
 30
0.0
 40
5.000000000000105
100
AcDbArc
 50
-25.2641648210234
 51
25.26416482102332
  0
ARC
  5
32F
330
1F
100
AcDbEntity
  8
1
  6
Continuous
 62
     7
100
AcDbCircle
 10
117.0319654972688
 20
-31.8540195041474
 30
0.0
 40
5.000000000000016
100
AcDbArc
 50
-25.26416482102392
 51
25.26416482102399
  0
ARC
  5
330
330
1F
100
AcDbEntity
  8
1
  6
Continuous
 62
     2
100
AcDbCircle
 10
-36.5311937126416
 20
-47.3540195041474
 30
0.0
 40
26.0
100
AcDbArc
 50
-69.01959658593064
 51
-58.10167866826417
  0
ARC
  5
331
330
1F
100
AcDbEntity
  8
1
  6
Continuous
 62
     2
100
AcDbCircle
 10
-36.5311937126416
 20
-47.3540195041474
 30
0.0
 40
26.00000000000001
100
AcDbArc
 50
110.3944157364452
 51
122.5365189493492
  0
ARC
  5
332
330
1F
100
AcDbEntity
  8
1
  6
Continuous
 62
     7
100
AcDbCircle
 10
-36.5311937126416
 20
-47.3540195041474
 30
0.0
 40
25.99999999999999
100
AcDbArc
 50
-143.8710725280618
 51
-126.1289274719382
  0
ARC
  5
333
330
1F
100
AcDbEntity
  8
1
  6
Continuous
 62
     7
100
AcDbCircle
 10
-36.5311937126416
 20
-47.3540195041474
 30
0.0
 40
26.00000000000001
100
AcDbArc
 50
126.1289274719382
 51
143.8710725280618
  0
ARC
  5
334
330
1F
100
AcDbEntity
  8
1
  6
Continuous
 62
     7
100
AcDbCircle
 10
-36.5311937126416
 20
-47.3540195041474
 30
0.0
 40
26.00000000000001
100
AcDbArc
 50
-53.87107252806177
 51
-36.12892747193819
  0
ARC
  5
335
330
1F
100
AcDbEntity
  8
1
  6
Continuous
 62
     7
100
AcDbCircle
 10
-36.5311937126416
 20
-47.3540195041474
 30
0.0
 40
26.0
100
AcDbArc
 50
36.12892747193823
 51
53.87107252806177
  0
CIRCLE
  5
336
330
1F
100
AcDbEntity
  8
1
  6
Continuous
 62
     7
100
AcDbCircle
 10
195.7009237703435
 20
-54.31809475866862
 30
0.0
 40
0.5832850249458303
  0
CIRCLE
  5
337
330
1F
100
AcDbEntity
  8
1
  6
Continuous
 62
     7
100
AcDbCircle
 10
191.2366888043733
 20
-54.31809475866862
 30
0.0
 40
0.5832850249458303
  0
CIRCLE
  5
338
330
1F
100
AcDbEntity
  8
1
  6
Continuous
 62
     7
100
AcDbCircle
 10
193.4688062873584
 20
-47.3540195041474
 30
0.0
 40
2.0
  0
CIRCLE
  5
339
330
1F
100
AcDbEntity
  8
1
  6
Continuous
 62
     7
100
AcDbCircle
 10
193.4688062873584
 20
-47.3540195041474
 30
0.0
 40
2.5
  0
CIRCLE
  5
33A
330
1F
100
AcDbEntity
  8
1
  6
Continuous
 62
     7
100
AcDbCircle
 10
177.9688062873584
 20
-31.8540195041474
 30
0.0
 40
2.799999999999983
  0
CIRCLE
  5
33B
330
1F
100
AcDbEntity
  8
1
  6
Continuous
 62
     7
100
AcDbCircle
 10
177.9688062873584
 20
-62.8540195041474
 30
0.0
 40
2.799999999999983
  0
CIRCLE
  5
33C
330
1F
100
AcDbEntity
  8
1
  6
Continuous
 62
     7
100
AcDbCircle
 10
208.9688062873584
 20
-62.8540195041474
 30
0.0
 40
2.799999999999983
  0
CIRCLE
  5
33D
330
1F
100
AcDbEntity
  8
1
  6
Continuous
 62
     7
100
AcDbCircle
 10
208.9688062873584
 20
-31.8540195041474
 30
0.0
 40
2.799999999999983
  0
CIRCLE
  5
33E
330
1F
100
AcDbEntity
  8
1
  6
Continuous
 62
     7
100
AcDbCircle
 10
-36.5311937126416
 20
-47.3540195041474
 30
0.0
 40
6.5
  0
CIRCLE
  5
33F
330
1F
100
AcDbEntity
  8
1
  6
Continuous
 62
     7
100
AcDbCircle
 10
-36.5311937126416
 20
-47.3540195041474
 30
0.0
 40
11.0
  0
CIRCLE
  5
340
330
1F
100
AcDbEntity
  8
1
  6
Continuous
 62
     3
100
AcDbCircle
 10
-21.0311937126416
 20
-62.8540195041474
 30
0.0
 40
1.5
  0
CIRCLE
  5
341
330
1F
100
AcDbEntity
  8
1
  6
Continuous
 62
     7
100
AcDbCircle
 10
-21.0311937126416
 20
-62.8540195041474
 30
0.0
 40
1.199999999999999
  0
CIRCLE
  5
342
330
1F
100
AcDbEntity
  8
1
  6
Continuous
 62
     3
100
AcDbCircle
 10
-52.0311937126416
 20
-62.8540195041474
 30
0.0
 40
1.5
  0
CIRCLE
  5
343
330
1F
100
AcDbEntity
  8
1
  6
Continuous
 62
     7
100
AcDbCircle
 10
-52.0311937126416
 20
-62.8540195041474
 30
0.0
 40
1.199999999999996
  0
CIRCLE
  5
344
330
1F
100
AcDbEntity
  8
1
  6
Continuous
 62
     3
100
AcDbCircle
 10
-52.0311937126416
 20
-31.8540195041474
 30
0.0
 40
1.5
  0
CIRCLE
  5
345
330
1F
100
AcDbEntity
  8
1
  6
Continuous
 62
     7
100
AcDbCircle
 10
-52.0311937126416
 20
-31.8540195041474
 30
0.0
 40
1.199999999999996
  0
CIRCLE
  5
346
330
1F
100
AcDbEntity
  8
1
  6
Continuous
 62
     3
100
AcDbCircle
 10
-21.0311937126416
 20
-31.8540195041474
 30
0.0
 40
1.5
  0
CIRCLE
  5
347
330
1F
100
AcDbEntity
  8
1
  6
Continuous
 62
     7
100
AcDbCircle
 10
-21.0311937126416
 20
-31.8540195041474
 30
0.0
 40
1.199999999999999
  0
CIRCLE
  5
348
330
1F
100
AcDbEntity
  8
1
  6
Continuous
 62
     3
100
AcDbCircle
 10
-36.5311937126416
 20
-47.3540195041474
 30
0.0
 40
2.0
  0
CIRCLE
  5
349
330
1F
100
AcDbEntity
  8
1
  6
Continuous
 62
     7
100
AcDbCircle
 10
193.4688062873584
 20
-47.3540195041474
 30
0.0
 40
8.0
  0
CIRCLE
  5
34A
330
1F
100
AcDbEntity
  8
1
  6
Continuous
 62
     7
100
AcDbCircle
 10
-36.5311937126416
 20
-47.3540195041474
 30
0.0
 40
2.5
  0
SPLINE
  5
34B
330
1F
100
AcDbEntity
  8
1
  6
Continuous
 62
     7
100
AcDbSpline
210
0.0
220
0.0
230
1.0
 70
     8
 71
     3
 72
    11
 73
     7
 74
     5
 42
0.0000000001
 43
0.0000000001
 44
0.00000001
 40
0.0
 40
0.0
 40
0.0
 40
0.0
 40
1.061413362334736
 40
2.15335423073092
 40
3.492978298362276
 40
4.833550222058507
 40
4.833550222058507
 40
4.833550222058507
 40
4.833550222058507
 10
93.54931868704901
 20
-30.3540195041474
 30
0.0
 10
93.43359172465559
 20
-30.01161390002993
 30
0.0
 10
93.19880935529537
 20
-29.31695470087449
 30
0.0
 10
92.05119204197864
 20
-28.6684375539563
 30
0.0
 10
92.37746850109484
 20
-27.13370172833601
 30
0.0
 10
93.10890025888438
 20
-26.61397484632141
 30
0.0
 10
93.4747454738482
 20
-26.3540195041474
 30
0.0
 11
93.54931868704901
 21
-30.3540195041474
 31
0.0
 11
93.08728929783317
 21
-29.39844262642193
 31
0.0
 11
92.3360891367538
 21
-28.60595718297949
 31
0.0
 11
92.50219926525969
 21
-27.27667163510615
 31
0.0
 11
93.4747454738482
 21
-26.3540195041474
 31
0.0
  0
SPLINE
  5
34C
330
1F
100
AcDbEntity
  8
1
  6
Continuous
 62
     7
100
AcDbSpline
210
0.0
220
0.0
230
1.0
 70
     8
 71
     3
 72
    21
 73
    17
 74
    15
 42
0.0000000001
 43
0.0000000001
 44
0.00000001
 40
0.0
 40
0.0
 40
0.0
 40
0.0
 40
0.3919505886038338
 40
0.6546459664020438
 40
0.7873240542615636
 40
0.9285874441794192
 40
1.226392561073391
 40
1.536775334736714
 40
1.713771760116307
 40
1.886808737220453
 40
2.216780242915898
 40
2.557142480906893
 40
2.834263098157341
 40
3.090146331137342
 40
3.262196977089372
 40
3.480001493501839
 40
3.480001493501839
 40
3.480001493501839
 40
3.480001493501839
 10
92.9623501221557
 20
-33.3540195041474
 30
0.0
 10
93.06726913645213
 20
-33.27200971170783
 30
0.0
 10
93.24250757595212
 20
-33.13503484450002
 30
0.0
 10
93.34052297191155
 20
-32.87951307353438
 30
0.0
 10
93.34937384622616
 20
-32.70058015764312
 30
0.0
 10
93.33333243090193
 20
-32.50920622595344
 30
0.0
 10
93.22472650374934
 20
-32.27788155035888
 30
0.0
 10
93.07601943474984
 20
-32.06366010896045
 30
0.0
 10
92.96419307023457
 20
-31.87359414674918
 30
0.0
 10
92.87865480501435
 20
-31.66184768817655
 30
0.0
 10
92.87205041666978
 20
-31.37203108613218
 30
0.0
 10
92.96931264143191
 20
-31.06732454052904
 30
0.0
 10
93.12885188013635
 20
-30.81941622033565
 30
0.0
 10
93.30115598688987
 20
-30.65934565356383
 30
0.0
 10
93.51540820353307
 20
-30.57058862099615
 30
0.0
 10
93.53716409341466
 20
-30.43164474967966
 30
0.0
 10
93.54931868704901
 20
-30.3540195041474
 30
0.0
 11
92.9623501221557
 21
-33.3540195041474
 31
0.0
 11
93.24350429648374
 21
-33.08093051834825
 31
0.0
 11
93.33785888436722
 21
-32.83576511854256
 31
0.0
 11
93.34636945876501
 21
-32.70336026545372
 31
0.0
 11
93.3324134317114
 21
-32.56278795438229
 31
0.0
 11
93.22006335127423
 21
-32.28698848543067
 31
0.0
 11
93.05472319346799
 21
-32.02430978739152
 31
0.0
 11
92.96741910925867
 21
-31.87034313035979
 31
0.0
 11
92.905417305301
 21
-31.70879570156151
 31
0.0
 11
92.89007805625164
 21
-31.37918092335895
 31
0.0
 11
92.9908165305831
 21
-31.05406830773229
 31
0.0
 11
93.14162294989319
 21
-30.8215747370682
 31
0.0
 11
93.33501755385399
 21
-30.6540195041474
 31
0.0
 11
93.47927168281211
 21
-30.56025292667417
 31
0.0
 11
93.54931868704901
 21
-30.3540195041474
 31
0.0
  0
SPLINE
  5
34D
330
1F
100
AcDbEntity
  8
1
  6
Continuous
 62
     7
100
AcDbSpline
210
0.0
220
0.0
230
1.0
 70
     8
 71
     3
 72
    14
 73
    10
 74
     8
 42
0.0000000001
 43
0.0000000001
 44
0.00000001
 40
0.0
 40
0.0
 40
0.0
 40
0.0
 40
1.640449387360211
 40
3.265824267776883
 40
4.819414925211019
 40
5.871280895584756
 40
6.989293170548914
 40
8.593906216490112
 40
10.19588504833777
 40
10.19588504833777
 40
10.19588504833777
 40
10.19588504833777
 10
83.4319654972687
 20
-35.6656264729643
 30
0.0
 10
83.92562148768462
 20
-35.36026246442731
 30
0.0
 10
84.90839713797638
 20
-34.75234051494826
 30
0.0
 10
86.49515719938537
 20
-35.38617139884879
 30
0.0
 10
87.92119433660491
 20
-35.72635563419872
 30
0.0
 10
89.07904440978166
 20
-35.16183489672677
 30
0.0
 10
90.11156191335076
 20
-34.44853818246428
 30
0.0
 10
91.5149119104394
 20
-34.04017448270154
 30
0.0
 10
92.48013502840028
 20
-33.58261253467262
 30
0.0
 10
92.9623501221557
 20
-33.3540195041474
 30
0.0
 11
83.4319654972687
 21
-35.6656264729643
 31
0.0
 11
84.93626616107174
 21
-35.01129192139894
 31
0.0
 11
86.52528629491886
 21
-35.35313767041158
 31
0.0
 11
88.0661278726501
 21
-35.5517608392548
 31
0.0
 11
89.03940087952029
 21
-35.15281012334098
 31
0.0
 11
90.00184364571052
 21
-34.58390295272471
 31
0.0
 11
91.49690382590616
 21
-34.0011696648493
 31
0.0
 11
92.9623501221557
 21
-33.3540195041474
 31
0.0
  0
ARC
  5
34E
330
1F
100
AcDbEntity
  8
1
  6
Continuous
 62
     7
100
AcDbCircle
 10
120.6493641385186
 20
-61.14685018908679
 30
0.0
 40
0.9999999999999538
100
AcDbArc
 50
25.2641648210244
 51
85.00000000000347
  0
ARC
  5
34F
330
1F
100
AcDbEntity
  8
1
  6
Continuous
 62
     7
100
AcDbCircle
 10
120.6493641385186
 20
-64.56118881920803
 30
0.0
 40
0.9999999999999768
100
AcDbArc
 50
-85.00000000000337
 51
-25.26416482102403
  0
ARC
  5
350
330
1F
100
AcDbEntity
  8
1
  6
Continuous
 62
     7
100
AcDbCircle
 10
120.6493641385186
 20
-33.56118881920801
 30
0.0
 40
0.9999999999999839
100
AcDbArc
 50
-85.0000000000034
 51
-25.26416482102477
  0
ARC
  5
351
330
1F
100
AcDbEntity
  8
1
  6
Continuous
 62
     7
100
AcDbCircle
 10
120.6493641385186
 20
-30.14685018908677
 30
0.0
 40
0.9999999999999538
100
AcDbArc
 50
25.2641648210244
 51
85.00000000000338
  0
ARC
  5
352
330
1F
100
AcDbEntity
  8
1
  6
Continuous
 62
     7
100
AcDbCircle
 10
-32.73119371264161
 20
-25.8540195041474
 30
0.0
 40
0.2000000000000099
100
AcDbArc
 50
0.0
 51
90.0
  0
ARC
  5
353
330
1F
100
AcDbEntity
  8
1
  6
Continuous
 62
     7
100
AcDbCircle
 10
-40.33119371264159
 20
-25.8540195041474
 30
0.0
 40
0.1999999999999993
100
AcDbArc
 50
90.0
 51
180.0
  0
ARC
  5
354
330
1F
100
AcDbEntity
  8
1
  6
Continuous
 62
     7
100
AcDbCircle
 10
115.5319654972687
 20
-25.8540195041474
 30
0.0
 40
0.1999999999999993
100
AcDbArc
 50
90.0
 51
180.0
  0
ARC
  5
355
330
1F
100
AcDbEntity
  8
1
  6
Continuous
 62
     7
100
AcDbCircle
 10
121.2319654972687
 20
-25.8540195041474
 30
0.0
 40
0.2000000000000028
100
AcDbArc
 50
0.0
 51
90.0
  0
ARC
  5
356
330
1F
100
AcDbEntity
  8
1
  6
Continuous
 62
     7
100
AcDbCircle
 10
197.2688062873584
 20
-25.8540195041474
 30
0.0
 40
0.2000000000000171
100
AcDbArc
 50
0.0
 51
90.0
  0
ARC
  5
357
330
1F
100
AcDbEntity
  8
1
  6
Continuous
 62
     7
100
AcDbCircle
 10
189.6688062873584
 20
-25.8540195041474
 30
0.0
 40
0.1999999999999993
100
AcDbArc
 50
90.0
 51
180.0
  0
SOLID
  5
358
330
1F
100
AcDbEntity
  8
1
 62
     4
100
AcDbTrace
 10
16.63462923632951
 20
-32.8653314264337
 30
0.0
 11
17.55619671944129
 21
-32.8653314264337
 31
0.0
 12
17.0954129778854
 22
-36.3653314264337
 32
0.0
 13
17.0954129778854
 23
-36.3653314264337
 33
0.0
  0
LEADER
  5
359
330
1F
100
AcDbEntity
  8
1
  6
Continuous
 62
     4
100
AcDbLeader
  3
Standard
 71
     0
 76
     2
 10
17.0954129778854
 20
-36.3653314264337
 30
0.0
 10
17.0954129778854
 20
6.6209904497221
 30
0.0
  0
SOLID
  5
35A
330
1F
100
AcDbEntity
  8
1
 62
     4
100
AcDbTrace
 10
36.2023521814199
 20
-52.4790195041474
 30
0.0
 11
38.05786227583197
 21
-49.8540195041474
 31
0.0
 12
34.34684208700782
 22
-49.8540195041474
 32
0.0
 13
34.34684208700782
 23
-49.8540195041474
 33
0.0
  0
LEADER
  5
35B
330
1F
100
AcDbEntity
  8
1
  6
Continuous
 62
     4
100
AcDbLeader
  3
Standard
 71
     0
 76
     2
 10
36.2023521814199
 20
-49.8540195041474
 30
0.0
 10
36.2023521814199
 20
-63.34893101103701
 30
0.0
  0
SOLID
  5
35C
330
1F
100
AcDbEntity
  8
1
 62
     2
100
AcDbTrace
 10
-44.72054976434583
 20
-26.39217004574384
 30
0.0
 11
-45.57184834397754
 21
-26.74512521888341
 31
0.0
 12
-46.48667940815295
 22
-23.33552028861628
 32
0.0
 13
-46.48667940815295
 23
-23.33552028861628
 33
0.0
  0
LEADER
  5
35D
330
1F
100
AcDbEntity
  8
1
  6
Continuous
 62
     2
100
AcDbLeader
  3
Standard
 71
     0
 76
     2
 10
-46.48667940815295
 20
-23.33552028861628
 30
0.0
 10
-45.7200368149532
 20
-25.18459858621089
 30
0.0
  0
SOLID
  5
35E
330
1F
100
AcDbEntity
  8
1
 62
     2
100
AcDbTrace
 10
216.1493174911427
 20
-39.43316565070391
 30
0.0
 11
216.9432010824568
 21
-39.90117790414526
 31
0.0
 12
214.7688062873583
 22
-42.682244054299
 32
0.0
 13
214.7688062873583
 23
-42.682244054299
 33
0.0
  0
LEADER
  5
35F
330
1F
100
AcDbEntity
  8
1
  6
Continuous
 62
     2
100
AcDbLeader
  3
Standard
 71
     0
 76
     3
 10
214.7688062873583
 20
-42.682244054299
 30
0.0
 10
224.163490362981
 20
-26.7461537524431
 30
0.0
 10
229.163490362981
 20
-26.7461537524431
 30
0.0
  0
SOLID
  5
360
330
1F
100
AcDbEntity
  8
1
 62
     2
100
AcDbTrace
 10
83.29952912720836
 20
-29.19985129103529
 30
0.0
 11
84.06578939046936
 21
-28.68786317117689
 31
0.0
 12
85.6271271923793
 22
-31.8540195041474
 32
0.0
 13
85.6271271923793
 23
-31.8540195041474
 33
0.0
  0
LEADER
  5
361
330
1F
100
AcDbEntity
  8
1
  6
Continuous
 62
     2
100
AcDbLeader
  3
Standard
 71
     0
 76
     3
 10
85.6271271923793
 20
-31.8540195041474
 30
0.0
 10
70.0211567095661
 20
-8.49754972138943
 30
0.0
 10
65.0211567095661
 20
-8.49754972138943
 30
0.0
  0
SOLID
  5
362
330
1F
100
AcDbEntity
  8
1
 62
     4
100
AcDbTrace
 10
29.55199658519791
 20
-41.3050098164565
 30
0.0
 11
30.47356406830968
 21
-41.3050098164565
 31
0.0
 12
30.0127803267538
 22
-44.8050098164565
 32
0.0
 13
30.0127803267538
 23
-44.8050098164565
 33
0.0
  0
LEADER
  5
363
330
1F
100
AcDbEntity
  8
1
  6
Continuous
 62
     4
100
AcDbLeader
  3
Standard
 71
     0
 76
     3
 10
30.0127803267538
 20
-44.8050098164565
 30
0.0
 10
30.0127803267538
 20
-14.260818272778
 30
0.0
 10
35.1259049023475
 20
-14.260818272778
 30
0.0
  0
SOLID
  5
364
330
1F
100
AcDbEntity
  8
1
 62
     2
100
AcDbTrace
 10
62.49377191853436
 20
-52.95727007754099
 30
0.0
 11
61.6449140258603
 21
-52.598484760152
 31
0.0
 12
63.43196549726871
 22
-49.55401950414739
 32
0.0
 13
63.43196549726871
 23
-49.55401950414739
 33
0.0
  0
LEADER
  5
365
330
1F
100
AcDbEntity
  8
1
  6
Continuous
 62
     2
100
AcDbLeader
  3
Standard
 71
     0
 76
     3
 10
63.43196549726871
 20
-49.55401950414739
 30
0.0
 10
55.7256692096365
 20
-67.7865114986547
 30
0.0
 10
50.7256692096365
 20
-67.7865114986547
 30
0.0
  0
SOLID
  5
366
330
1F
100
AcDbEntity
  8
1
 62
     2
100
AcDbTrace
 10
112.9074641187142
 20
24.25027177910868
 30
0.0
 11
113.5188703123777
 21
24.93981444804144
 31
0.0
 12
115.8319654972687
 22
22.2729975585426
 32
0.0
 13
115.8319654972687
 23
22.2729975585426
 33
0.0
  0
LEADER
  5
367
330
1F
100
AcDbEntity
  8
1
  6
Continuous
 62
     2
100
AcDbLeader
  3
Standard
 71
     0
 76
     3
 10
115.8319654972687
 20
22.2729975585426
 30
0.0
 10
101.2713486772926
 20
35.1836580707812
 30
0.0
 10
96.2713486772926
 20
35.1836580707812
 30
0.0
  0
DIMENSION
  5
373
330
1F
100
AcDbEntity
  8
1
100
AcDbDimension
  2
*D1
 10
17.0447884022916
 20
-36.3540195041474
 30
0.0
 11
11.9822884022916
 21
-47.3540195041474
 31
0.0
 70
    32
  1
<>
 71
     5
 42
-1.0
 53
90.0
  3
ME10_DIM_10
100
AcDbAlignedDimension
 13
81.63196549726871
 23
-58.3540195041474
 33
0.0
 14
81.63196549726871
 24
-36.3540195041474
 34
0.0
 50
90.0
100
AcDbRotatedDimension
  0
DIMENSION
  5
37F
330
1F
100
AcDbEntity
  8
1
100
AcDbDimension
  2
*D2
 10
63.43196549726871
 20
-97.4310817556456
 30
0.0
 11
73.4319654972687
 21
-93.6810817556456
 31
0.0
 70
    32
  1
<>
 71
     5
 42
-1.0
 53
0.00013888888889
  3
ME10_DIM_11
100
AcDbAlignedDimension
 13
83.4319654972687
 23
-67.8540195041474
 33
0.0
 14
63.43196549726871
 24
-49.55401950414739
 34
0.0
100
AcDbRotatedDimension
  0
DIMENSION
  5
38C
330
1F
100
AcDbEntity
  8
1
100
AcDbDimension
  2
*D3
 10
81.4319654972687
 20
-87.31848230598669
 30
0.0
 11
70.56770479211121
 21
-83.56848230598669
 31
0.0
 70
    32
  1
<>
 71
     5
 42
-1.0
 53
0.00013888888889
  3
ME10_DIM_12
100
AcDbAlignedDimension
 13
83.4319654972687
 23
-67.8540195041474
 33
0.0
 14
81.4319654972687
 24
-58.15401950414739
 34
0.0
100
AcDbRotatedDimension
  0
DIMENSION
  5
399
330
1F
100
AcDbEntity
  8
1
100
AcDbDimension
  2
*D4
 10
83.4319654972687
 20
-14.8602817659602
 30
0.0
 11
89.9226464650795
 21
-11.1102817659602
 31
0.0
 70
    32
  1
4-4.5MIN.
 71
     5
 42
-1.0
 53
0.00013888888889
  3
ME10_DIM_13
100
AcDbAlignedDimension
 13
87.7319654972687
 23
-30.8540195041474
 33
0.0
 14
83.4319654972687
 24
-26.8540195041474
 34
0.0
100
AcDbRotatedDimension
  0
DIMENSION
  5
3A4
330
1F
100
AcDbEntity
  8
1
100
AcDbDimension
  2
*D5
 10
-57.5311937126416
 20
-97.35854959657499
 30
0.0
 11
-36.5311937126416
 21
-93.60854959657499
 31
0.0
 70
    32
  1
<>
 71
     5
 42
-1.0
 53
0.00013888888889
  3
ME10_DIM_14
100
AcDbAlignedDimension
 13
-15.5311937126416
 23
-62.68372922090328
 33
0.0
 14
-57.5311937126416
 24
-62.68372922090328
 34
0.0
100
AcDbRotatedDimension
  0
DIMENSION
  5
3AF
330
1F
100
AcDbEntity
  8
1
100
AcDbDimension
  2
*D6
 10
-52.0311937126416
 20
-87.40542910567729
 30
0.0
 11
-36.5311937126416
 21
-83.65542910567729
 31
0.0
 70
    32
  1
<>
 71
     5
 42
-1.0
 53
0.00013888888889
  3
ME10_DIM_15
100
AcDbAlignedDimension
 13
-21.0311937126416
 23
-65.25401950414741
 33
0.0
 14
-52.0311937126416
 24
-65.25401950414741
 34
0.0
100
AcDbRotatedDimension
  0
DIMENSION
  5
3BA
330
1F
100
AcDbEntity
  8
1
100
AcDbDimension
  2
*D7
 10
83.4319654972687
 20
-97.4017393453905
 30
0.0
 11
102.9319654972687
 21
-93.6517393453905
 31
0.0
 70
    32
  1
<>
 71
     5
 42
-1.0
 53
0.00013888888889
  3
ME10_DIM_16
100
AcDbAlignedDimension
 13
122.4319654972687
 23
-67.8540195041474
 33
0.0
 14
83.4319654972687
 24
-67.8540195041474
 34
0.0
100
AcDbRotatedDimension
  0
DIMENSION
  5
3C7
330
1F
100
AcDbEntity
  8
1
100
AcDbDimension
  2
*D8
 10
29.96215575116
 20
-44.85401950414741
 30
0.0
 11
24.89965575116
 21
-47.3540195041474
 31
0.0
 70
    32
  1
<>
 71
     5
 42
-1.0
 53
90.0
  3
ME10_DIM_17
100
AcDbAlignedDimension
 13
63.7319654972687
 23
-49.8540195041474
 33
0.0
 14
63.7319654972687
 24
-44.85401950414741
 34
0.0
 50
90.0
100
AcDbRotatedDimension
  0
DIMENSION
  5
3D4
330
1F
100
AcDbEntity
  8
1
100
AcDbDimension
  2
*D9
 10
-39.0311937126416
 20
-34.0191989533753
 30
0.0
 11
-32.565778024272
 21
-30.2691989533753
 31
0.0
 70
    32
  1
<>
 71
     5
 42
-1.0
 53
0.00013888888889
  3
ME10_DIM_18
100
AcDbAlignedDimension
 13
-34.5311937126416
 23
-45.8540195041474
 33
0.0
 14
-39.0311937126416
 24
-47.3540195041474
 34
0.0
100
AcDbRotatedDimension
  0
DIMENSION
  5
3DF
330
1F
100
AcDbEntity
  8
1
100
AcDbDimension
  2
*D10
 10
142.4944654972687
 20
-26.3540195041474
 30
0.0
 11
137.4319654972687
 21
3.6459804958526
 31
0.0
 70
    32
  1
300
 71
     5
 42
-1.0
 53
90.0
  3
ME10_DIM_19
100
AcDbAlignedDimension
 13
120.9319654972687
 23
33.6459804958526
 33
0.0
 14
121.9319654972687
 24
-26.3540195041474
 34
0.0
 50
90.0
100
AcDbRotatedDimension
  0
DIMENSION
  5
3EC
330
1F
100
AcDbEntity
  8
1
100
AcDbDimension
  2
*D11
 10
142.4944654972687
 20
33.6459804958526
 30
0.0
 11
138.7444654972687
 21
47.1232136123986
 31
0.0
 70
    32
  1
<>
 71
     5
 42
-1.0
 53
90.0
  3
ME10_DIM_20
100
AcDbAlignedDimension
 13
120.2944654972687
 23
39.6459804958526
 33
0.0
 14
120.9319654972687
 24
33.6459804958526
 34
0.0
 50
90.0
100
AcDbRotatedDimension
  0
DIMENSION
  5
3F7
330
1F
100
AcDbEntity
  8
1
100
AcDbDimension
  2
*D12
 10
63.43196549726871
 20
-33.68930642665021
 30
0.0
 11
70.93196549726872
 21
-29.9393064266502
 31
0.0
 70
    32
  1
<>
 71
     5
 42
-1.0
 53
0.00013888888889
  3
ME10_DIM_21
100
AcDbAlignedDimension
 13
78.43196549726872
 23
-45.8540195041474
 33
0.0
 14
63.43196549726871
 24
-45.15401950414742
 34
0.0
100
AcDbRotatedDimension
  0
INSERT
  5
3FF
330
1F
100
AcDbEntity
  8
1
100
AcDbBlockReference
  2
*D13
 10
0.0
 20
0.0
 30
0.0
  0
ENDSEC
  0
SECTION
  2
OBJECTS
  0
DICTIONARY
  5
C
330
0
100
AcDbDictionary
281
     1
  3
ACAD_GROUP
350
D
  3
ACAD_LAYOUT
350
1A
  3
ACAD_MLINESTYLE
350
17
  3
ACAD_PLOTSETTINGS
350
19
  3
ACAD_PLOTSTYLENAME
350
E
  0
DICTIONARY
  5
D
102
{ACAD_REACTORS
330
C
102
}
330
C
100
AcDbDictionary
281
     1
  0
DICTIONARY
  5
1A
102
{ACAD_REACTORS
330
C
102
}
330
C
100
AcDbDictionary
281
     1
  3
Layout1
350
1E
  3
Layout2
350
26
  3
Model
350
22
  0
DICTIONARY
  5
17
102
{ACAD_REACTORS
330
C
102
}
330
C
100
AcDbDictionary
281
     1
  3
Standard
350
18
  0
DICTIONARY
  5
19
102
{ACAD_REACTORS
330
C
102
}
330
C
100
AcDbDictionary
281
     1
  0
ACDBDICTIONARYWDFLT
  5
E
102
{ACAD_REACTORS
330
C
102
}
330
C
100
AcDbDictionary
281
     1
  3
Normal
350
F
100
AcDbDictionaryWithDefault
340
F
  0
LAYOUT
  5
1E
102
{ACAD_REACTORS
330
1A
102
}
330
1A
100
AcDbPlotSettings
  1

  2

  4

  6

 40
0.0
 41
0.0
 42
0.0
 43
0.0
 44
0.0
 45
0.0
 46
0.0
 47
0.0
 48
0.0
 49
0.0
140
0.0
141
0.0
142
1.0
143
1.0
 70
   688
 72
     0
 73
     0
 74
     5
  7

 75
    16
147
1.0
148
0.0
149
0.0
100
AcDbLayout
  1
Layout1
 70
     1
 71
     1
 10
0.0
 20
0.0
 11
0.0
 21
0.0
 12
0.0
 22
0.0
 32
0.0
 14
0.0
 24
0.0
 34
0.0
 15
0.0
 25
0.0
 35
0.0
146
0.0
 13
0.0
 23
0.0
 33
0.0
 16
1.0
 26
0.0
 36
0.0
 17
0.0
 27
1.0
 37
0.0
 76
     0
330
1B
  0
LAYOUT
  5
26
102
{ACAD_REACTORS
330
1A
102
}
330
1A
100
AcDbPlotSettings
  1

  2

  4

  6

 40
0.0
 41
0.0
 42
0.0
 43
0.0
 44
0.0
 45
0.0
 46
0.0
 47
0.0
 48
0.0
 49
0.0
140
0.0
141
0.0
142
1.0
143
1.0
 70
   688
 72
     0
 73
     0
 74
     5
  7

 75
    16
147
1.0
148
0.0
149
0.0
100
AcDbLayout
  1
Layout2
 70
     1
 71
     2
 10
0.0
 20
0.0
 11
0.0
 21
0.0
 12
0.0
 22
0.0
 32
0.0
 14
0.0
 24
0.0
 34
0.0
 15
0.0
 25
0.0
 35
0.0
146
0.0
 13
0.0
 23
0.0
 33
0.0
 16
1.0
 26
0.0
 36
0.0
 17
0.0
 27
1.0
 37
0.0
 76
     0
330
23
  0
LAYOUT
  5
22
102
{ACAD_REACTORS
330
1A
102
}
330
1A
100
AcDbPlotSettings
  1

  2

  4

  6

 40
0.0
 41
0.0
 42
0.0
 43
0.0
 44
0.0
 45
0.0
 46
0.0
 47
0.0
 48
0.0
 49
0.0
140
0.0
141
0.0
142
1.0
143
1.0
 70
  1712
 72
     0
 73
     0
 74
     0
  7

 75
     0
147
1.0
148
0.0
149
0.0
100
AcDbLayout
  1
Model
 70
     1
 71
     0
 10
0.0
 20
0.0
 11
0.0
 21
0.0
 12
0.0
 22
0.0
 32
0.0
 14
-63.35287709926444
 24
-120.2054711972681
 34
0.0
 15
255.0532171984311
 25
50.26291949475154
 35
0.0
146
0.0
 13
0.0
 23
0.0
 33
0.0
 16
1.0
 26
0.0
 36
0.0
 17
0.0
 27
1.0
 37
0.0
 76
     0
330
1F
  0
MLINESTYLE
  5
18
102
{ACAD_REACTORS
330
17
102
}
330
17
100
AcDbMlineStyle
  2
Standard
 70
     0
  3

 62
   256
 51
90.0
 52
90.0
 71
     2
 49
0.5
 62
   256
  6
BYLAYER
 49
-0.5
 62
   256
  6
BYLAYER
  0
ACDBPLACEHOLDER
  5
F
102
{ACAD_REACTORS
330
E
102
}
330
E
  0
ENDSEC
  0
EOF
