  0
SECTION
  2
HEADER
  9
$ACADVER
  1
AC1015
  9
$ACADMAINTVER
 70
     6
  9
$DWGCODEPAGE
  3
DOS932
  9
$INSBASE
 10
0.0
 20
0.0
 30
0.0
  9
$EXTMIN
 10
-91.99543978109674
 20
-120.2054711972681
 30
0.0
  9
$EXTMAX
 10
254.8077520249507
 20
45.91030134374829
 30
0.0
  9
$LIMMIN
 10
0.0
 20
0.0
  9
$LIMMAX
 10
12.0
 20
9.0
  9
$ORTHOMODE
 70
     0
  9
$REGENMODE
 70
     1
  9
$FILLMODE
 70
     1
  9
$QTEXTMODE
 70
     0
  9
$MIRRTEXT
 70
     1
  9
$LTSCALE
 40
1.0
  9
$ATTMODE
 70
     1
  9
$TEXTSIZE
 40
0.2
  9
$TRACEWID
 40
0.05
  9
$TEXTSTYLE
  7
Standard
  9
$CLAYER
  8
0
  9
$CELTYPE
  6
ByLayer
  9
$CECOLOR
 62
   256
  9
$CELTSCALE
 40
1.0
  9
$DISPSILH
 70
     0
  9
$DIMSCALE
 40
1.0
  9
$DIMASZ
 40
0.18
  9
$DIMEXO
 40
0.0625
  9
$DIMDLI
 40
0.38
  9
$DIMRND
 40
0.0
  9
$DIMDLE
 40
0.0
  9
$DIMEXE
 40
0.18
  9
$DIMTP
 40
0.0
  9
$DIMTM
 40
0.0
  9
$DIMTXT
 40
0.18
  9
$DIMCEN
 40
0.09
  9
$DIMTSZ
 40
0.0
  9
$DIMTOL
 70
     0
  9
$DIMLIM
 70
     0
  9
$DIMTIH
 70
     1
  9
$DIMTOH
 70
     1
  9
$DIMSE1
 70
     0
  9
$DIMSE2
 70
     0
  9
$DIMTAD
 70
     0
  9
$DIMZIN
 70
     0
  9
$DIMBLK
  1

  9
$DIMASO
 70
     1
  9
$DIMSHO
 70
     1
  9
$DIMPOST
  1

  9
$DIMAPOST
  1

  9
$DIMALT
 70
     0
  9
$DIMALTD
 70
     2
  9
$DIMALTF
 40
25.4
  9
$DIMLFAC
 40
1.0
  9
$DIMTOFL
 70
     0
  9
$DIMTVP
 40
0.0
  9
$DIMTIX
 70
     0
  9
$DIMSOXD
 70
     0
  9
$DIMSAH
 70
     0
  9
$DIMBLK1
  1

  9
$DIMBLK2
  1

  9
$DIMSTYLE
  2
Standard
  9
$DIMCLRD
 70
     0
  9
$DIMCLRE
 70
     0
  9
$DIMCLRT
 70
     0
  9
$DIMTFAC
 40
1.0
  9
$DIMGAP
 40
0.09
  9
$DIMJUST
 70
     0
  9
$DIMSD1
 70
     0
  9
$DIMSD2
 70
     0
  9
$DIMTOLJ
 70
     1
  9
$DIMTZIN
 70
     0
  9
$DIMALTZ
 70
     0
  9
$DIMALTTZ
 70
     0
  9
$DIMUPT
 70
     0
  9
$DIMDEC
 70
     4
  9
$DIMTDEC
 70
     4
  9
$DIMALTU
 70
     2
  9
$DIMALTTD
 70
     2
  9
$DIMTXSTY
  7
Standard
  9
$DIMAUNIT
 70
     0
  9
$DIMADEC
 70
     0
  9
$DIMALTRND
 40
0.0
  9
$DIMAZIN
 70
     0
  9
$DIMDSEP
 70
    46
  9
$DIMATFIT
 70
     3
  9
$DIMFRAC
 70
     0
  9
$DIMLDRBLK
  1

  9
$DIMLUNIT
 70
     2
  9
$DIMLWD
 70
    -2
  9
$DIMLWE
 70
    -2
  9
$DIMTMOVE
 70
     0
  9
$LUNITS
 70
     2
  9
$LUPREC
 70
     4
  9
$SKETCHINC
 40
0.1
  9
$FILLETRAD
 40
0.5
  9
$AUNITS
 70
     0
  9
$AUPREC
 70
     0
  9
$MENU
  1
.
  9
$ELEVATION
 40
0.0
  9
$PELEVATION
 40
0.0
  9
$THICKNESS
 40
0.0
  9
$LIMCHECK
 70
     0
  9
$CHAMFERA
 40
0.5
  9
$CHAMFERB
 40
0.5
  9
$CHAMFERC
 40
1.0
  9
$CHAMFERD
 40
0.0
  9
$SKPOLY
 70
     0
  9
$TDCREATE
 40
2454823.547081516
  9
$TDUCREATE
 40
2454823.172081516
  9
$TDUPDATE
 40
2454823.547081528
  9
$TDUUPDATE
 40
2454823.172081528
  9
$TDINDWG
 40
0.0000000116
  9
$TDUSRTIMER
 40
0.0000000116
  9
$USRTIMER
 70
     1
  9
$ANGBASE
 50
0.0
  9
$ANGDIR
 70
     0
  9
$PDMODE
 70
     0
  9
$PDSIZE
 40
0.0
  9
$PLINEWID
 40
0.0
  9
$SPLFRAME
 70
     0
  9
$SPLINETYPE
 70
     6
  9
$SPLINESEGS
 70
     8
  9
$HANDSEED
  5
415
  9
$SURFTAB1
 70
     6
  9
$SURFTAB2
 70
     6
  9
$SURFTYPE
 70
     6
  9
$SURFU
 70
     6
  9
$SURFV
 70
     6
  9
$UCSBASE
  2

  9
$UCSNAME
  2

  9
$UCSORG
 10
0.0
 20
0.0
 30
0.0
  9
$UCSXDIR
 10
1.0
 20
0.0
 30
0.0
  9
$UCSYDIR
 10
0.0
 20
1.0
 30
0.0
  9
$UCSORTHOREF
  2

  9
$UCSORTHOVIEW
 70
     0
  9
$UCSORGTOP
 10
0.0
 20
0.0
 30
0.0
  9
$UCSORGBOTTOM
 10
0.0
 20
0.0
 30
0.0
  9
$UCSORGLEFT
 10
0.0
 20
0.0
 30
0.0
  9
$UCSORGRIGHT
 10
0.0
 20
0.0
 30
0.0
  9
$UCSORGFRONT
 10
0.0
 20
0.0
 30
0.0
  9
$UCSORGBACK
 10
0.0
 20
0.0
 30
0.0
  9
$PUCSBASE
  2

  9
$PUCSNAME
  2

  9
$PUCSORG
 10
0.0
 20
0.0
 30
0.0
  9
$PUCSXDIR
 10
1.0
 20
0.0
 30
0.0
  9
$PUCSYDIR
 10
0.0
 20
1.0
 30
0.0
  9
$PUCSORTHOREF
  2

  9
$PUCSORTHOVIEW
 70
     0
  9
$PUCSORGTOP
 10
0.0
 20
0.0
 30
0.0
  9
$PUCSORGBOTTOM
 10
0.0
 20
0.0
 30
0.0
  9
$PUCSORGLEFT
 10
0.0
 20
0.0
 30
0.0
  9
$PUCSORGRIGHT
 10
0.0
 20
0.0
 30
0.0
  9
$PUCSORGFRONT
 10
0.0
 20
0.0
 30
0.0
  9
$PUCSORGBACK
 10
0.0
 20
0.0
 30
0.0
  9
$USERI1
 70
     0
  9
$USERI2
 70
     0
  9
$USERI3
 70
     0
  9
$USERI4
 70
     0
  9
$USERI5
 70
     0
  9
$USERR1
 40
14.5
  9
$USERR2
 40
0.0
  9
$USERR3
 40
0.0
  9
$USERR4
 40
0.0
  9
$USERR5
 40
0.0
  9
$WORLDVIEW
 70
     1
  9
$SHADEDGE
 70
     3
  9
$SHADEDIF
 70
    70
  9
$TILEMODE
 70
     1
  9
$MAXACTVP
 70
    64
  9
$PINSBASE
 10
0.0
 20
0.0
 30
0.0
  9
$PLIMCHECK
 70
     0
  9
$PEXTMIN
 10
1.00000000000000E+20
 20
1.00000000000000E+20
 30
1.00000000000000E+20
  9
$PEXTMAX
 10
-1.00000000000000E+20
 20
-1.00000000000000E+20
 30
-1.00000000000000E+20
  9
$PLIMMIN
 10
0.0
 20
0.0
  9
$PLIMMAX
 10
12.0
 20
9.0
  9
$UNITMODE
 70
     0
  9
$VISRETAIN
 70
     1
  9
$PLINEGEN
 70
     0
  9
$PSLTSCALE
 70
     1
  9
$TREEDEPTH
 70
  3020
  9
$CMLSTYLE
  2
Standard
  9
$CMLJUST
 70
     0
  9
$CMLSCALE
 40
1.0
  9
$PROXYGRAPHICS
 70
     1
  9
$MEASUREMENT
 70
     1
  9
$CELWEIGHT
370
    -1
  9
$ENDCAPS
280
     0
  9
$JOINSTYLE
280
     0
  9
$LWDISPLAY
290
     0
  9
$INSUNITS
 70
     1
  9
$HYPERLINKBASE
  1

  9
$STYLESHEET
  1

  9
$XEDIT
290
     1
  9
$CEPSNTYPE
380
     0
  9
$PSTYLEMODE
290
     1
  9
$FINGERPRINTGUID
  2
{1B307C76-1540-4924-8172-996AA27208FD}
  9
$VERSIONGUID
  2
{FAEB1C32-E019-11D5-929B-00C0DF256EC4}
  9
$EXTNAMES
290
     1
  9
$PSVPSCALE
 40
0.0
  9
$OLESTARTUP
290
     0
  0
ENDSEC
  0
SECTION
  2
CLASSES
  0
CLASS
  1
ACDBDICTIONARYWDFLT
  2
AcDbDictionaryWithDefault
  3
ObjectDBX Classes
 90
        0
280
     0
281
     0
  0
CLASS
  1

  2
exOdDbCircle
  3

 90
        0
280
     0
281
     1
  0
CLASS
  1

  2
exOdDbSpline
  3

 90
        0
280
     0
281
     1
  0
CLASS
  1
ACDBPLACEHOLDER
  2
AcDbPlaceHolder
  3
ObjectDBX Classes
 90
        0
280
     0
281
     0
  0
CLASS
  1
LAYOUT
  2
AcDbLayout
  3
ObjectDBX Classes
 90
        0
280
     0
281
     0
  0
ENDSEC
  0
SECTION
  2
TABLES
  0
TABLE
  2
VPORT
  5
8
330
0
100
AcDbSymbolTable
 70
     1
  0
VPORT
  5
29
330
8
100
AcDbSymbolTableRecord
100
AcDbViewportTableRecord
  2
*Active
 70
     0
 10
0.0
 20
0.0
 11
1.0
 21
1.0
 12
81.40615612192698
 22
-37.1475849267599
 13
0.0
 23
0.0
 14
0.5
 24
0.5
 15
0.5
 25
0.5
 16
0.0
 26
0.0
 36
1.0
 17
0.0
 27
0.0
 37
0.0
 40
238.0287088050422
 41
1.60267857142857
 42
50.0
 43
0.0
 44
0.0
 50
0.0
 51
0.0
 71
     0
 72
   100
 73
     1
 74
     3
 75
     0
 76
     0
 77
     0
 78
     0
281
     0
 65
     1
110
0.0
120
0.0
130
0.0
111
1.0
121
0.0
131
0.0
112
0.0
122
1.0
132
0.0
 79
     0
146
0.0
  0
ENDTAB
  0
TABLE
  2
LTYPE
  5
5
330
0
100
AcDbSymbolTable
 70
     8
  0
LTYPE
  5
14
330
5
100
AcDbSymbolTableRecord
100
AcDbLinetypeTableRecord
  2
ByBlock
 70
     0
  3

 72
    65
 73
     0
 40
0.0
  0
LTYPE
  5
15
330
5
100
AcDbSymbolTableRecord
100
AcDbLinetypeTableRecord
  2
ByLayer
 70
     0
  3

 72
    65
 73
     0
 40
0.0
  0
LTYPE
  5
16
330
5
100
AcDbSymbolTableRecord
100
AcDbLinetypeTableRecord
  2
Continuous
 70
     0
  3
Solid line
 72
    65
 73
     0
 40
0.0
  0
LTYPE
  5
2A
330
5
100
AcDbSymbolTableRecord
100
AcDbLinetypeTableRecord
  2
DASHED
 70
     0
  3
Dashed
 72
    65
 73
     2
 40
15.0
 49
7.0
 74
     0
 49
-8.0
 74
     0
  0
LTYPE
  5
2B
330
5
100
AcDbSymbolTableRecord
100
AcDbLinetypeTableRecord
  2
DOTTED
 70
     0
  3
Dotted
 72
    65
 73
     2
 40
1.0
 49
0.0
 74
     0
 49
-1.0
 74
     0
  0
LTYPE
  5
2C
330
5
100
AcDbSymbolTableRecord
100
AcDbLinetypeTableRecord
  2
DOT_CENTER
 70
     0
  3
Dot_Center
 72
    65
 73
     4
 40
14.0
 49
12.0
 74
     0
 49
-1.0
 74
     0
 49
0.0
 74
     0
 49
-1.0
 74
     0
  0
LTYPE
  5
2D
330
5
100
AcDbSymbolTableRecord
100
AcDbLinetypeTableRecord
  2
LONG_DASHED
 70
     0
  3
Long_Dashed
 72
    65
 73
     2
 40
15.0
 49
10.0
 74
     0
 49
-5.0
 74
     0
  0
LTYPE
  5
2E
330
5
100
AcDbSymbolTableRecord
100
AcDbLinetypeTableRecord
  2
DASH_CENTER
 70
     0
  3
Dash_Center
 72
    65
 73
     4
 40
14.0
 49
11.0
 74
     0
 49
-1.0
 74
     0
 49
1.0
 74
     0
 49
-1.0
 74
     0
  0
LTYPE
  5
2F
330
5
100
AcDbSymbolTableRecord
100
AcDbLinetypeTableRecord
  2
PHANTOM
 70
     0
  3
Phantom
 72
    65
 73
     6
 40
13.0
 49
10.0
 74
     0
 49
-1.0
 74
     0
 49
0.0
 74
     0
 49
-1.0
 74
     0
 49
0.0
 74
     0
 49
-1.0
 74
     0
  0
LTYPE
  5
30
330
5
100
AcDbSymbolTableRecord
100
AcDbLinetypeTableRecord
  2
CENTER_DASH_DASH
 70
     0
  3
Center_Dash_Dash
 72
    65
 73
     6
 40
14.0
 49
9.0
 74
     0
 49
-1.0
 74
     0
 49
1.0
 74
     0
 49
-1.0
 74
     0
 49
1.0
 74
     0
 49
-1.0
 74
     0
  0
ENDTAB
  0
TABLE
  2
LAYER
  5
2
330
0
100
AcDbSymbolTable
 70
     2
  0
LAYER
  5
10
330
2
100
AcDbSymbolTableRecord
100
AcDbLayerTableRecord
  2
0
 70
     0
 62
     7
  6
Continuous
370
    -3
390
F
  0
LAYER
  5
31
330
2
100
AcDbSymbolTableRecord
100
AcDbLayerTableRecord
  2
1
 70
     0
 62
     7
  6
Continuous
370
    -3
390
F
  0
ENDTAB
  0
TABLE
  2
STYLE
  5
3
330
0
100
AcDbSymbolTable
 70
     3
  0
STYLE
  5
11
330
3
100
AcDbSymbolTableRecord
100
AcDbTextStyleTableRecord
  2
Standard
 70
     0
 40
0.0
 41
1.0
 50
0.0
 71
     0
 42
0.2
  3
txt
  4

  0
STYLE
  5
36D
330
3
100
AcDbSymbolTableRecord
100
AcDbTextStyleTableRecord
  2
CONVERTER_11
 70
     0
 40
0.0
 41
0.95
 50
0.0
 71
     0
 42
0.2
  3
txt.shx
  4

  0
STYLE
  5
379
330
3
100
AcDbSymbolTableRecord
100
AcDbTextStyleTableRecord
  2
CONVERTER_12
 70
     0
 40
0.0
 41
0.89
 50
0.0
 71
     0
 42
0.2
  3
msmincho.ttc
  4

1001
ACAD
1000
MS Mincho
1071
    32785
  0
ENDTAB
  0
TABLE
  2
VIEW
  5
6
330
0
100
AcDbSymbolTable
 70
     0
  0
ENDTAB
  0
TABLE
  2
UCS
  5
7
330
0
100
AcDbSymbolTable
 70
     0
  0
ENDTAB
  0
TABLE
  2
APPID
  5
9
330
0
100
AcDbSymbolTable
 70
     1
  0
APPID
  5
12
330
9
100
AcDbSymbolTableRecord
100
AcDbRegAppTableRecord
  2
ACAD
 70
     0
  0
ENDTAB
  0
TABLE
  2
DIMSTYLE
  5
A
330
0
100
AcDbSymbolTable
 70
    15
100
AcDbDimStyleTable
  0
DIMSTYLE
105
27
330
A
100
AcDbSymbolTableRecord
100
AcDbDimStyleTableRecord
  2
Standard
 70
     0
340
11
  0
DIMSTYLE
105
371
102
{ACAD_REACTORS
330
372
102
}
330
A
100
AcDbSymbolTableRecord
100
AcDbDimStyleTableRecord
  2
ME10_DIM_10
 70
     0
 41
3.5
 42
1.0
 44
1.5
 47
0.5
 48
0.5
 71
     1
 73
     0
 74
     0
 77
     1
 78
     8
140
3.5
146
0.7
147
2.0
172
     1
173
     1
176
     2
177
     2
178
     2
272
     1
340
36D
  0
DIMSTYLE
105
37D
102
{ACAD_REACTORS
330
37E
102
}
330
A
100
AcDbSymbolTableRecord
100
AcDbDimStyleTableRecord
  2
ME10_DIM_11
 70
     0
  3
φ<>
 41
3.5
 42
1.0
 44
1.5
 48
0.025
 71
     1
 73
     0
 74
     0
 77
     1
 78
     8
140
3.5
146
0.7
147
2.0
172
     1
173
     1
176
     2
177
     2
178
     2
272
     0
340
379
  0
DIMSTYLE
105
388
102
{ACAD_REACTORS
330
389
102
}
330
A
100
AcDbSymbolTableRecord
100
AcDbDimStyleTableRecord
  2
ME10_DIM_12
 70
     0
 41
3.5
 42
1.0
 44
1.5
 47
0.5
 48
0.5
 71
     1
 73
     0
 74
     0
 77
     1
 78
     8
140
3.5
146
0.7
147
2.0
172
     1
173
     1
176
     2
177
     2
178
     2
272
     1
340
36D
  0
DIMSTYLE
105
395
102
{ACAD_REACTORS
330
396
102
}
330
A
100
AcDbSymbolTableRecord
100
AcDbDimStyleTableRecord
  2
ME10_DIM_13
 70
     0
 41
3.5
 42
1.0
 44
1.5
 47
0.2
 48
0.2
 71
     1
 73
     0
 74
     0
 77
     1
 78
     8
140
3.5
146
0.7
147
2.0
172
     1
173
     1
176
     2
177
     2
178
     2
272
     1
340
36D
  0
DIMSTYLE
105
3A2
102
{ACAD_REACTORS
330
3A3
102
}
330
A
100
AcDbSymbolTableRecord
100
AcDbDimStyleTableRecord
  2
ME10_DIM_14
 70
     0
 41
3.5
 42
1.0
 44
1.5
 73
     0
 74
     0
 77
     1
 78
     8
140
3.5
147
2.0
172
     1
173
     1
176
     2
177
     2
178
     3
340
36D
  0
DIMSTYLE
105
3AD
102
{ACAD_REACTORS
330
3AE
102
}
330
A
100
AcDbSymbolTableRecord
100
AcDbDimStyleTableRecord
  2
ME10_DIM_15
 70
     0
 41
3.5
 42
1.0
 44
1.5
 47
0.25
 48
0.25
 71
     1
 73
     0
 74
     0
 77
     1
 78
     8
140
3.5
146
0.7
147
2.0
172
     1
173
     1
176
     2
177
     2
178
     2
272
     2
340
36D
  0
DIMSTYLE
105
3B8
102
{ACAD_REACTORS
330
3B9
102
}
330
A
100
AcDbSymbolTableRecord
100
AcDbDimStyleTableRecord
  2
ME10_DIM_16
 70
     0
 41
3.5
 42
1.0
 44
1.5
 47
0.2
 48
0.2
 71
     1
 73
     0
 74
     0
 77
     1
 78
     8
140
3.5
146
0.7
147
2.0
172
     1
173
     1
176
     2
177
     2
178
     2
272
     1
340
36D
  0
DIMSTYLE
105
3C3
102
{ACAD_REACTORS
330
3C4
102
}
330
A
100
AcDbSymbolTableRecord
100
AcDbDimStyleTableRecord
  2
ME10_DIM_17
 70
     0
 41
3.5
 42
1.0
 44
1.5
 47
0.2
 48
0.2
 71
     1
 73
     0
 74
     0
 77
     1
 78
     8
140
3.5
146
0.7
147
2.0
172
     1
173
     1
176
     2
177
     2
178
     2
272
     1
340
36D
  0
DIMSTYLE
105
3CE
102
{ACAD_REACTORS
330
3CF
102
}
330
A
100
AcDbSymbolTableRecord
100
AcDbDimStyleTableRecord
  2
ME10_DIM_18
 70
     0
 41
3.5
 42
1.0
 44
1.5
 47
0.25
 48
0.25
 71
     1
 73
     0
 74
     0
 77
     1
 78
     8
140
3.5
146
0.7
147
2.0
172
     1
173
     1
176
     2
177
     2
178
     2
272
     2
340
36D
  0
DIMSTYLE
105
3D9
102
{ACAD_REACTORS
330
3DA
102
}
330
A
100
AcDbSymbolTableRecord
100
AcDbDimStyleTableRecord
  2
ME10_DIM_19
 70
     0
 41
3.5
 42
1.0
 44
1.5
 73
     0
 74
     0
 77
     1
 78
     8
140
3.5
147
2.0
172
     1
173
     1
176
     2
177
     2
178
     3
340
36D
  0
DIMSTYLE
105
3E6
102
{ACAD_REACTORS
330
3E7
102
}
330
A
100
AcDbSymbolTableRecord
100
AcDbDimStyleTableRecord
  2
ME10_DIM_20
 70
     0
 41
3.5
 42
1.0
 44
1.5
 73
     0
 74
     0
 77
     1
 78
     8
140
3.5
147
2.0
172
     1
173
     1
176
     2
177
     2
178
     3
340
36D
  0
DIMSTYLE
105
3F1
102
{ACAD_REACTORS
330
3F2
102
}
330
A
100
AcDbSymbolTableRecord
100
AcDbDimStyleTableRecord
  2
ME10_DIM_21
 70
     0
 41
3.5
 42
1.0
 44
1.5
 47
1.0
 48
1.0
 71
     1
 73
     0
 74
     0
 77
     1
 78
     8
140
3.5
146
0.7
147
2.0
172
     1
173
     1
176
     2
177
     2
178
     2
272
     0
340
36D
  0
DIMSTYLE
105
3FE
102
{ACAD_REACTORS
330
3FF
102
}
330
A
100
AcDbSymbolTableRecord
100
AcDbDimStyleTableRecord
  2
ME10_DIM_22
 70
     0
  3
φ<>
 41
3.5
 42
1.0
 44
1.5
 48
0.013
 71
     1
 73
     0
 74
     0
 77
     1
 78
     8
140
3.5
146
0.7
147
2.0
172
     1
173
     1
176
     2
177
     2
178
     2
272
     0
340
379
  0
DIMSTYLE
105
40B
102
{ACAD_REACTORS
330
40C
102
}
330
A
100
AcDbSymbolTableRecord
100
AcDbDimStyleTableRecord
  2
ME10_DIM_23
 70
     0
 41
3.5
 42
1.0
 44
1.5
 47
0.2
 48
0.2
 71
     1
 73
     0
 74
     0
 77
     1
 78
     8
140
3.5
146
0.7
147
2.0
172
     1
173
     1
176
     2
177
     2
178
     2
272
     1
340
36D
  0
ENDTAB
  0
TABLE
  2
BLOCK_RECORD
  5
1
330
0
100
AcDbSymbolTable
 70
    16
  0
BLOCK_RECORD
  5
1F
330
1
100
AcDbSymbolTableRecord
100
AcDbBlockTableRecord
  2
*Model_Space
340
22
  0
BLOCK_RECORD
  5
1B
330
1
100
AcDbSymbolTableRecord
100
AcDbBlockTableRecord
  2
*Paper_Space
340
1E
  0
BLOCK_RECORD
  5
23
330
1
100
AcDbSymbolTableRecord
100
AcDbBlockTableRecord
  2
*Paper_Space0
340
26
  0
BLOCK_RECORD
  5
367
330
1
100
AcDbSymbolTableRecord
100
AcDbBlockTableRecord
  2
*D1
340
0
  0
BLOCK_RECORD
  5
373
330
1
100
AcDbSymbolTableRecord
100
AcDbBlockTableRecord
  2
*D2
340
0
  0
BLOCK_RECORD
  5
37F
330
1
100
AcDbSymbolTableRecord
100
AcDbBlockTableRecord
  2
*D3
340
0
  0
BLOCK_RECORD
  5
38A
330
1
100
AcDbSymbolTableRecord
100
AcDbBlockTableRecord
  2
*D4
340
0
  0
BLOCK_RECORD
  5
397
330
1
100
AcDbSymbolTableRecord
100
AcDbBlockTableRecord
  2
*D5
340
0
  0
BLOCK_RECORD
  5
3A4
330
1
100
AcDbSymbolTableRecord
100
AcDbBlockTableRecord
  2
*D6
340
0
  0
BLOCK_RECORD
  5
3AF
330
1
100
AcDbSymbolTableRecord
100
AcDbBlockTableRecord
  2
*D7
340
0
  0
BLOCK_RECORD
  5
3BA
330
1
100
AcDbSymbolTableRecord
100
AcDbBlockTableRecord
  2
*D8
340
0
  0
BLOCK_RECORD
  5
3C5
330
1
100
AcDbSymbolTableRecord
100
AcDbBlockTableRecord
  2
*D9
340
0
  0
BLOCK_RECORD
  5
3D0
330
1
100
AcDbSymbolTableRecord
100
AcDbBlockTableRecord
  2
*D10
340
0
  0
BLOCK_RECORD
  5
3DB
330
1
100
AcDbSymbolTableRecord
100
AcDbBlockTableRecord
  2
*D11
340
0
  0
BLOCK_RECORD
  5
3E8
330
1
100
AcDbSymbolTableRecord
100
AcDbBlockTableRecord
  2
*D12
340
0
  0
BLOCK_RECORD
  5
3F3
330
1
100
AcDbSymbolTableRecord
100
AcDbBlockTableRecord
  2
*D13
340
0
  0
BLOCK_RECORD
  5
400
330
1
100
AcDbSymbolTableRecord
100
AcDbBlockTableRecord
  2
*D14
340
0
  0
BLOCK_RECORD
  5
40D
330
1
100
AcDbSymbolTableRecord
100
AcDbBlockTableRecord
  2
*D15
340
0
102
{BLKREFS
331
414
102
}
  0
ENDTAB
  0
ENDSEC
  0
SECTION
  2
BLOCKS
  0
BLOCK
  5
20
330
1F
100
AcDbEntity
  8
0
100
AcDbBlockBegin
  2
*Model_Space
 70
     0
 71
     0
 10
0.0
 20
0.0
 30
0.0
  3
*Model_Space
  1

  0
ENDBLK
  5
21
330
1F
100
AcDbEntity
  8
0
100
AcDbBlockEnd
  0
BLOCK
  5
1C
330
1B
100
AcDbEntity
 67
     1
  8
0
100
AcDbBlockBegin
  2
*Paper_Space
 70
     0
 71
     0
 10
0.0
 20
0.0
 30
0.0
  3
*Paper_Space
  1

  0
ENDBLK
  5
1D
330
1B
100
AcDbEntity
 67
     1
  8
0
100
AcDbBlockEnd
  0
BLOCK
  5
24
330
23
100
AcDbEntity
  8
0
100
AcDbBlockBegin
  2
*Paper_Space0
 70
     0
 71
     0
 10
0.0
 20
0.0
 30
0.0
  3
*Paper_Space0
  1

  0
ENDBLK
  5
25
330
23
100
AcDbEntity
  8
0
100
AcDbBlockEnd
  0
BLOCK
  5
36F
330
367
100
AcDbEntity
  8
0
100
AcDbBlockBegin
  2
*D1
 70
     1
 71
     0
 10
0.0
 20
0.0
 30
0.0
  3
*D1
  1

  0
LINE
  5
368
330
367
100
AcDbEntity
  8
1
  6
Continuous
 62
     2
100
AcDbLine
 10
61.80791369338359
 20
-33.68930642665021
 30
0.0
 11
76.8079136933836
 21
-33.68930642665021
 31
0.0
  0
LINE
  5
369
330
367
100
AcDbEntity
  8
1
  6
Continuous
 62
     2
100
AcDbLine
 10
61.80791369338359
 20
-44.15401950414743
 30
0.0
 11
61.80791369338359
 21
-32.18930642665021
 31
0.0
  0
LINE
  5
36A
330
367
100
AcDbEntity
  8
1
  6
Continuous
 62
     2
100
AcDbLine
 10
76.8079136933836
 20
-44.85401950414741
 30
0.0
 11
76.8079136933836
 21
-32.18930642665021
 31
0.0
  0
SOLID
  5
36B
330
367
100
AcDbEntity
  8
1
 62
     2
100
AcDbTrace
 10
65.3079136933836
 20
-33.22852268509432
 30
0.0
 11
65.3079136933836
 21
-34.15009016820609
 31
0.0
 12
61.80791369338359
 22
-33.68930642665021
 32
0.0
 13
61.80791369338359
 23
-33.68930642665021
 33
0.0
  0
SOLID
  5
36C
330
367
100
AcDbEntity
  8
1
 62
     2
100
AcDbTrace
 10
73.3079136933836
 20
-34.15009016820609
 30
0.0
 11
73.3079136933836
 21
-33.22852268509432
 31
0.0
 12
76.8079136933836
 22
-33.68930642665021
 32
0.0
 13
76.8079136933836
 23
-33.68930642665021
 33
0.0
  0
MTEXT
  5
36E
330
367
100
AcDbEntity
  8
1
 62
     2
100
AcDbMText
 10
62.88129604632478
 20
-31.68930642665021
 30
0.0
 40
3.5
 41
0.0
 71
     7
 72
     1
  1
\C2;15\C2;\H2.45;{\Fgdt;`}0.5
  7
CONVERTER_11
 11
0.9999999999970621
 21
2.424068405545307E-6
 31
0.0
 73
     1
 44
0.60024009603842
  0
ENDBLK
  5
370
330
367
100
AcDbEntity
  8
0
100
AcDbBlockEnd
  0
BLOCK
  5
37B
330
373
100
AcDbEntity
  8
0
100
AcDbBlockBegin
  2
*D2
 70
     1
 71
     0
 10
0.0
 20
0.0
 30
0.0
  3
*D2
  1

  0
LINE
  5
374
330
373
100
AcDbEntity
  8
1
  6
Continuous
 62
     2
100
AcDbLine
 10
15.42073659840648
 20
-58.3540195041474
 30
0.0
 11
15.42073659840648
 21
-36.3540195041474
 31
0.0
  0
LINE
  5
375
330
373
100
AcDbEntity
  8
1
  6
Continuous
 62
     2
100
AcDbLine
 10
79.00791369338359
 20
-58.3540195041474
 30
0.0
 11
13.92073659840648
 21
-58.3540195041474
 31
0.0
  0
LINE
  5
376
330
373
100
AcDbEntity
  8
1
  6
Continuous
 62
     2
100
AcDbLine
 10
79.00791369338359
 20
-36.3540195041474
 30
0.0
 11
13.92073659840648
 21
-36.3540195041474
 31
0.0
  0
SOLID
  5
377
330
373
100
AcDbEntity
  8
1
 62
     2
100
AcDbTrace
 10
15.88152033996237
 20
-39.8540195041474
 30
0.0
 11
14.9599528568506
 21
-39.8540195041474
 31
0.0
 12
15.42073659840648
 22
-36.3540195041474
 32
0.0
 13
15.42073659840648
 23
-36.3540195041474
 33
0.0
  0
SOLID
  5
378
330
373
100
AcDbEntity
  8
1
 62
     2
100
AcDbTrace
 10
14.9599528568506
 20
-54.8540195041474
 30
0.0
 11
15.88152033996237
 21
-54.8540195041474
 31
0.0
 12
15.42073659840648
 22
-58.3540195041474
 32
0.0
 13
15.42073659840648
 23
-58.3540195041474
 33
0.0
  0
MTEXT
  5
37A
330
373
100
AcDbEntity
  8
1
 62
     2
100
AcDbMText
 10
12.10823659840648
 20
-60.48405218388596
 30
0.0
 40
3.5
 41
0.0
 71
     7
 72
     1
  1
\C2;φ\C2;\C2;22\C2;\H2.45;\S 0^ -0.025;
  7
CONVERTER_12
 11
0.0
 21
1.0
 31
0.0
 73
     1
 44
0.60024009603842
  0
ENDBLK
  5
37C
330
373
100
AcDbEntity
  8
0
100
AcDbBlockEnd
  0
BLOCK
  5
386
330
37F
100
AcDbEntity
  8
0
100
AcDbBlockBegin
  2
*D3
 70
     1
 71
     0
 10
0.0
 20
0.0
 30
0.0
  3
*D3
  1

  0
LINE
  5
380
330
37F
100
AcDbEntity
  8
1
  6
Continuous
 62
     2
100
AcDbLine
 10
61.80791369338359
 20
-97.4310817556456
 30
0.0
 11
81.80791369338358
 21
-97.4310817556456
 31
0.0
  0
LINE
  5
381
330
37F
100
AcDbEntity
  8
1
  6
Continuous
 62
     2
100
AcDbLine
 10
61.80791369338359
 20
-50.55401950414739
 30
0.0
 11
61.80791369338359
 21
-98.9310817556456
 31
0.0
  0
LINE
  5
382
330
37F
100
AcDbEntity
  8
1
  6
Continuous
 62
     2
100
AcDbLine
 10
81.80791369338358
 20
-68.8540195041474
 30
0.0
 11
81.80791369338358
 21
-98.9310817556456
 31
0.0
  0
SOLID
  5
383
330
37F
100
AcDbEntity
  8
1
 62
     2
100
AcDbTrace
 10
65.3079136933836
 20
-96.9702980140897
 30
0.0
 11
65.3079136933836
 21
-97.89186549720148
 31
0.0
 12
61.80791369338359
 22
-97.4310817556456
 32
0.0
 13
61.80791369338359
 23
-97.4310817556456
 33
0.0
  0
SOLID
  5
384
330
37F
100
AcDbEntity
  8
1
 62
     2
100
AcDbTrace
 10
78.30791369338358
 20
-97.89186549720148
 30
0.0
 11
78.30791369338358
 21
-96.9702980140897
 31
0.0
 12
81.80791369338358
 22
-97.4310817556456
 32
0.0
 13
81.80791369338358
 23
-97.4310817556456
 33
0.0
  0
MTEXT
  5
385
330
37F
100
AcDbEntity
  8
1
 62
     2
100
AcDbMText
 10
64.91806075220711
 20
-95.4310817556456
 30
0.0
 40
3.5
 41
0.0
 71
     7
 72
     1
  1
\C2;20\C2;\H2.45;{\Fgdt;`}0.5
  7
CONVERTER_11
 11
0.9999999999970621
 21
2.424068405545307E-6
 31
0.0
 73
     1
 44
0.60024009603842
  0
ENDBLK
  5
387
330
37F
100
AcDbEntity
  8
0
100
AcDbBlockEnd
  0
BLOCK
  5
393
330
38A
100
AcDbEntity
  8
0
100
AcDbBlockBegin
  2
*D4
 70
     1
 71
     0
 10
0.0
 20
0.0
 30
0.0
  3
*D4
  1

  0
LINE
  5
38B
330
38A
100
AcDbEntity
  8
1
  6
Continuous
 62
     2
100
AcDbLine
 10
79.80791369338358
 20
-87.31848230598669
 30
0.0
 11
63.01630004704963
 21
-87.31848230598669
 31
0.0
  0
LINE
  5
38C
330
38A
100
AcDbEntity
  8
1
  6
Continuous
 62
     2
100
AcDbLine
 10
79.80791369338358
 20
-87.31848230598669
 30
0.0
 11
81.80791369338358
 21
-87.31848230598669
 31
0.0
  0
LINE
  5
38D
330
38A
100
AcDbEntity
  8
1
  6
Continuous
 62
     2
100
AcDbLine
 10
88.80791369338358
 20
-87.31848230598669
 30
0.0
 11
81.80791369338358
 21
-87.31848230598669
 31
0.0
  0
LINE
  5
38E
330
38A
100
AcDbEntity
  8
1
  6
Continuous
 62
     2
100
AcDbLine
 10
81.80791369338358
 20
-68.85401950414739
 30
0.0
 11
81.80791369338358
 21
-88.81848230598669
 31
0.0
  0
LINE
  5
38F
330
38A
100
AcDbEntity
  8
1
  6
Continuous
 62
     2
100
AcDbLine
 10
79.80791369338358
 20
-59.15401950414739
 30
0.0
 11
79.80791369338358
 21
-88.81848230598669
 31
0.0
  0
SOLID
  5
390
330
38A
100
AcDbEntity
  8
1
 62
     2
100
AcDbTrace
 10
76.30791369338358
 20
-87.77926604754258
 30
0.0
 11
76.30791369338358
 21
-86.8576985644308
 31
0.0
 12
79.80791369338358
 22
-87.31848230598669
 32
0.0
 13
79.80791369338358
 23
-87.31848230598669
 33
0.0
  0
SOLID
  5
391
330
38A
100
AcDbEntity
  8
1
 62
     2
100
AcDbTrace
 10
85.30791369338358
 20
-86.8576985644308
 30
0.0
 11
85.30791369338358
 21
-87.77926604754258
 31
0.0
 12
81.80791369338358
 22
-87.31848230598669
 32
0.0
 13
81.80791369338358
 23
-87.31848230598669
 33
0.0
  0
MTEXT
  5
392
330
38A
100
AcDbEntity
  8
1
 62
     2
100
AcDbMText
 10
63.62880004704962
 20
-85.31848230598669
 30
0.0
 40
3.5
 41
0.0
 71
     7
 72
     1
  1
\C2;2\C2;\H2.45;{\Fgdt;`}0.2
  7
CONVERTER_11
 11
0.9999999999970621
 21
2.424068405545307E-6
 31
0.0
 73
     1
 44
0.60024009603842
  0
ENDBLK
  5
394
330
38A
100
AcDbEntity
  8
0
100
AcDbBlockEnd
  0
BLOCK
  5
3A0
330
397
100
AcDbEntity
  8
0
100
AcDbBlockBegin
  2
*D5
 70
     1
 71
     0
 10
0.0
 20
0.0
 30
0.0
  3
*D5
  1

  0
LINE
  5
398
330
397
100
AcDbEntity
  8
1
  6
Continuous
 62
     2
100
AcDbLine
 10
81.80791369338358
 20
-14.8602817659602
 30
0.0
 11
86.10791369338358
 21
-14.8602817659602
 31
0.0
  0
LINE
  5
399
330
397
100
AcDbEntity
  8
1
  6
Continuous
 62
     2
100
AcDbLine
 10
81.80791369338358
 20
-14.8602817659602
 30
0.0
 11
74.80791369338358
 21
-14.8602817659602
 31
0.0
  0
LINE
  5
39A
330
397
100
AcDbEntity
  8
1
  6
Continuous
 62
     2
100
AcDbLine
 10
86.10791369338358
 20
-14.8602817659602
 30
0.0
 11
93.10791369338358
 21
-14.8602817659602
 31
0.0
  0
LINE
  5
39B
330
397
100
AcDbEntity
  8
1
  6
Continuous
 62
     2
100
AcDbLine
 10
81.80791369338358
 20
-25.8540195041474
 30
0.0
 11
81.80791369338358
 21
-13.3602817659602
 31
0.0
  0
LINE
  5
39C
330
397
100
AcDbEntity
  8
1
  6
Continuous
 62
     2
100
AcDbLine
 10
86.10791369338358
 20
-29.8540195041474
 30
0.0
 11
86.10791369338358
 21
-13.3602817659602
 31
0.0
  0
SOLID
  5
39D
330
397
100
AcDbEntity
  8
1
 62
     2
100
AcDbTrace
 10
78.30791369338358
 20
-15.32106550751609
 30
0.0
 11
78.30791369338358
 21
-14.39949802440431
 31
0.0
 12
81.80791369338358
 22
-14.8602817659602
 32
0.0
 13
81.80791369338358
 23
-14.8602817659602
 33
0.0
  0
SOLID
  5
39E
330
397
100
AcDbEntity
  8
1
 62
     2
100
AcDbTrace
 10
89.60791369338358
 20
-14.39949802440431
 30
0.0
 11
89.60791369338358
 21
-15.32106550751609
 31
0.0
 12
86.10791369338358
 22
-14.8602817659602
 32
0.0
 13
86.10791369338358
 23
-14.8602817659602
 33
0.0
  0
MTEXT
  5
39F
330
397
100
AcDbEntity
  8
1
 62
     3
100
AcDbMText
 10
76.76918289648849
 20
-12.8602817659602
 30
0.0
 40
3.5
 41
0.0
 71
     7
 72
     1
  1
4-4.5MIN.
  7
CONVERTER_11
 11
0.9999999999970621
 21
2.424068405545307E-6
 31
0.0
 73
     1
 44
0.60024009603842
  0
ENDBLK
  5
3A1
330
397
100
AcDbEntity
  8
0
100
AcDbBlockEnd
  0
BLOCK
  5
3AB
330
3A4
100
AcDbEntity
  8
0
100
AcDbBlockBegin
  2
*D6
 70
     1
 71
     0
 10
0.0
 20
0.0
 30
0.0
  3
*D6
  1

  0
LINE
  5
3A5
330
3A4
100
AcDbEntity
  8
1
  6
Continuous
 62
     2
100
AcDbLine
 10
-65.24543978109674
 20
-97.35854959657499
 30
0.0
 11
-23.24543978109674
 21
-97.35854959657499
 31
0.0
  0
LINE
  5
3A6
330
3A4
100
AcDbEntity
  8
1
  6
Continuous
 62
     2
100
AcDbLine
 10
-23.24543978109674
 20
-63.68372922090327
 30
0.0
 11
-23.24543978109674
 21
-98.85854959657499
 31
0.0
  0
LINE
  5
3A7
330
3A4
100
AcDbEntity
  8
1
  6
Continuous
 62
     2
100
AcDbLine
 10
-65.24543978109674
 20
-63.68372922090327
 30
0.0
 11
-65.24543978109674
 21
-98.85854959657499
 31
0.0
  0
SOLID
  5
3A8
330
3A4
100
AcDbEntity
  8
1
 62
     2
100
AcDbTrace
 10
-61.74543978109674
 20
-96.8977658550191
 30
0.0
 11
-61.74543978109674
 21
-97.81933333813087
 31
0.0
 12
-65.24543978109674
 22
-97.35854959657499
 32
0.0
 13
-65.24543978109674
 23
-97.35854959657499
 33
0.0
  0
SOLID
  5
3A9
330
3A4
100
AcDbEntity
  8
1
 62
     2
100
AcDbTrace
 10
-26.74543978109674
 20
-97.81933333813087
 30
0.0
 11
-26.74543978109674
 21
-96.8977658550191
 31
0.0
 12
-23.24543978109674
 22
-97.35854959657499
 32
0.0
 13
-23.24543978109674
 23
-97.35854959657499
 33
0.0
  0
MTEXT
  5
3AA
330
3A4
100
AcDbEntity
  8
1
 62
     2
100
AcDbMText
 10
-52.39117507521439
 20
-95.35854959657499
 30
0.0
 40
3.5
 41
0.0
 71
     7
 72
     1
  1
\C2;42\C2;\H2.45;{\Fgdt;`}0.25
  7
CONVERTER_11
 11
0.9999999999970621
 21
2.424068405545307E-6
 31
0.0
 73
     1
 44
0.60024009603842
  0
ENDBLK
  5
3AC
330
3A4
100
AcDbEntity
  8
0
100
AcDbBlockEnd
  0
BLOCK
  5
3B6
330
3AF
100
AcDbEntity
  8
0
100
AcDbBlockBegin
  2
*D7
 70
     1
 71
     0
 10
0.0
 20
0.0
 30
0.0
  3
*D7
  1

  0
LINE
  5
3B0
330
3AF
100
AcDbEntity
  8
1
  6
Continuous
 62
     2
100
AcDbLine
 10
-59.74543978109674
 20
-87.40542910567729
 30
0.0
 11
-28.74543978109674
 21
-87.40542910567729
 31
0.0
  0
LINE
  5
3B1
330
3AF
100
AcDbEntity
  8
1
  6
Continuous
 62
     2
100
AcDbLine
 10
-28.74543978109674
 20
-66.2540195041474
 30
0.0
 11
-28.74543978109674
 21
-88.90542910567729
 31
0.0
  0
LINE
  5
3B2
330
3AF
100
AcDbEntity
  8
1
  6
Continuous
 62
     2
100
AcDbLine
 10
-59.74543978109674
 20
-66.2540195041474
 30
0.0
 11
-59.74543978109674
 21
-88.90542910567729
 31
0.0
  0
SOLID
  5
3B3
330
3AF
100
AcDbEntity
  8
1
 62
     2
100
AcDbTrace
 10
-56.24543978109674
 20
-86.9446453641214
 30
0.0
 11
-56.24543978109674
 21
-87.86621284723317
 31
0.0
 12
-59.74543978109674
 22
-87.40542910567729
 32
0.0
 13
-59.74543978109674
 23
-87.40542910567729
 33
0.0
  0
SOLID
  5
3B4
330
3AF
100
AcDbEntity
  8
1
 62
     2
100
AcDbTrace
 10
-32.24543978109674
 20
-87.86621284723317
 30
0.0
 11
-32.24543978109674
 21
-86.9446453641214
 31
0.0
 12
-28.74543978109674
 22
-87.40542910567729
 32
0.0
 13
-28.74543978109674
 23
-87.40542910567729
 33
0.0
  0
MTEXT
  5
3B5
330
3AF
100
AcDbEntity
  8
1
 62
     2
100
AcDbMText
 10
-50.58970448697909
 20
-85.40542910567729
 30
0.0
 40
3.5
 41
0.0
 71
     7
 72
     1
  1
\C2;31\C2;\H2.45;{\Fgdt;`}0.2
  7
CONVERTER_11
 11
0.9999999999970621
 21
2.424068405545307E-6
 31
0.0
 73
     1
 44
0.60024009603842
  0
ENDBLK
  5
3B7
330
3AF
100
AcDbEntity
  8
0
100
AcDbBlockEnd
  0
BLOCK
  5
3C1
330
3BA
100
AcDbEntity
  8
0
100
AcDbBlockBegin
  2
*D8
 70
     1
 71
     0
 10
0.0
 20
0.0
 30
0.0
  3
*D8
  1

  0
LINE
  5
3BB
330
3BA
100
AcDbEntity
  8
1
  6
Continuous
 62
     2
100
AcDbLine
 10
-76.49543978109674
 20
-31.8540195041474
 30
0.0
 11
-76.49543978109674
 21
-62.8540195041474
 31
0.0
  0
LINE
  5
3BC
330
3BA
100
AcDbEntity
  8
1
  6
Continuous
 62
     2
100
AcDbLine
 10
-63.14543978109675
 20
-62.8540195041474
 30
0.0
 11
-77.99543978109674
 21
-62.8540195041474
 31
0.0
  0
LINE
  5
3BD
330
3BA
100
AcDbEntity
  8
1
  6
Continuous
 62
     2
100
AcDbLine
 10
-63.14543978109675
 20
-31.8540195041474
 30
0.0
 11
-77.99543978109674
 21
-31.8540195041474
 31
0.0
  0
SOLID
  5
3BE
330
3BA
100
AcDbEntity
  8
1
 62
     2
100
AcDbTrace
 10
-76.03465603954085
 20
-35.3540195041474
 30
0.0
 11
-76.95622352265262
 21
-35.3540195041474
 31
0.0
 12
-76.49543978109674
 22
-31.8540195041474
 32
0.0
 13
-76.49543978109674
 23
-31.8540195041474
 33
0.0
  0
SOLID
  5
3BF
330
3BA
100
AcDbEntity
  8
1
 62
     2
100
AcDbTrace
 10
-76.95622352265262
 20
-59.3540195041474
 30
0.0
 11
-76.03465603954085
 21
-59.3540195041474
 31
0.0
 12
-76.49543978109674
 22
-62.8540195041474
 32
0.0
 13
-76.49543978109674
 23
-62.8540195041474
 33
0.0
  0
MTEXT
  5
3C0
330
3BA
100
AcDbEntity
  8
1
 62
     2
100
AcDbMText
 10
-78.49543978109674
 20
-53.69828421002975
 30
0.0
 40
3.5
 41
0.0
 71
     7
 72
     1
  1
\C2;31\C2;\H2.45;{\Fgdt;`}0.2
  7
CONVERTER_11
 11
0.0
 21
1.0
 31
0.0
 73
     1
 44
0.60024009603842
  0
ENDBLK
  5
3C2
330
3BA
100
AcDbEntity
  8
0
100
AcDbBlockEnd
  0
BLOCK
  5
3CC
330
3C5
100
AcDbEntity
  8
0
100
AcDbBlockBegin
  2
*D9
 70
     1
 71
     0
 10
0.0
 20
0.0
 30
0.0
  3
*D9
  1

  0
LINE
  5
3C6
330
3C5
100
AcDbEntity
  8
1
  6
Continuous
 62
     2
100
AcDbLine
 10
-86.49543978109674
 20
-26.3540195041474
 30
0.0
 11
-86.49543978109674
 21
-68.3540195041474
 31
0.0
  0
LINE
  5
3C7
330
3C5
100
AcDbEntity
  8
1
  6
Continuous
 62
     2
100
AcDbLine
 10
-60.57514949785264
 20
-68.3540195041474
 30
0.0
 11
-87.99543978109674
 21
-68.3540195041474
 31
0.0
  0
LINE
  5
3C8
330
3C5
100
AcDbEntity
  8
1
  6
Continuous
 62
     2
100
AcDbLine
 10
-60.57514949785264
 20
-26.3540195041474
 30
0.0
 11
-87.99543978109674
 21
-26.3540195041474
 31
0.0
  0
SOLID
  5
3C9
330
3C5
100
AcDbEntity
  8
1
 62
     2
100
AcDbTrace
 10
-86.03465603954085
 20
-29.8540195041474
 30
0.0
 11
-86.95622352265262
 21
-29.8540195041474
 31
0.0
 12
-86.49543978109674
 22
-26.3540195041474
 32
0.0
 13
-86.49543978109674
 23
-26.3540195041474
 33
0.0
  0
SOLID
  5
3CA
330
3C5
100
AcDbEntity
  8
1
 62
     2
100
AcDbTrace
 10
-86.95622352265262
 20
-64.8540195041474
 30
0.0
 11
-86.03465603954085
 21
-64.8540195041474
 31
0.0
 12
-86.49543978109674
 22
-68.3540195041474
 32
0.0
 13
-86.49543978109674
 23
-68.3540195041474
 33
0.0
  0
MTEXT
  5
3CB
330
3C5
100
AcDbEntity
  8
1
 62
     2
100
AcDbMText
 10
-88.49543978109674
 20
-55.49975479826504
 30
0.0
 40
3.5
 41
0.0
 71
     7
 72
     1
  1
\C2;42\C2;\H2.45;{\Fgdt;`}0.25
  7
CONVERTER_11
 11
0.0
 21
1.0
 31
0.0
 73
     1
 44
0.60024009603842
  0
ENDBLK
  5
3CD
330
3C5
100
AcDbEntity
  8
0
100
AcDbBlockEnd
  0
BLOCK
  5
3D7
330
3D0
100
AcDbEntity
  8
0
100
AcDbBlockBegin
  2
*D10
 70
     1
 71
     0
 10
0.0
 20
0.0
 30
0.0
  3
*D10
  1

  0
LINE
  5
3D1
330
3D0
100
AcDbEntity
  8
1
  6
Continuous
 62
     2
100
AcDbLine
 10
142.0579136933836
 20
35.8367362876015
 30
0.0
 11
142.0579136933836
 21
-26.3540195041474
 31
0.0
  0
LINE
  5
3D2
330
3D0
100
AcDbEntity
  8
1
  6
Continuous
 62
     2
100
AcDbLine
 10
115.3079136933836
 20
-26.3540195041474
 30
0.0
 11
143.5579136933836
 21
-26.3540195041474
 31
0.0
  0
LINE
  5
3D3
330
3D0
100
AcDbEntity
  8
1
  6
Continuous
 62
     2
100
AcDbLine
 10
113.6704136933836
 20
35.8367362876015
 30
0.0
 11
143.5579136933836
 21
35.8367362876015
 31
0.0
  0
SOLID
  5
3D4
330
3D0
100
AcDbEntity
  8
1
 62
     2
100
AcDbTrace
 10
142.5186974349395
 20
32.3367362876015
 30
0.0
 11
141.5971299518277
 21
32.3367362876015
 31
0.0
 12
142.0579136933836
 22
35.8367362876015
 32
0.0
 13
142.0579136933836
 23
35.8367362876015
 33
0.0
  0
SOLID
  5
3D5
330
3D0
100
AcDbEntity
  8
1
 62
     2
100
AcDbTrace
 10
141.5971299518277
 20
-22.8540195041474
 30
0.0
 11
142.5186974349395
 21
-22.8540195041474
 31
0.0
 12
142.0579136933836
 22
-26.3540195041474
 32
0.0
 13
142.0579136933836
 23
-26.3540195041474
 33
0.0
  0
MTEXT
  5
3D6
330
3D0
100
AcDbEntity
  8
1
 62
     3
100
AcDbMText
 10
140.0579136933836
 20
-4.52334749062589
 30
0.0
 40
3.5
 41
0.0
 71
     7
 72
     1
  1
300MIN.
  7
CONVERTER_11
 11
0.0
 21
1.0
 31
0.0
 73
     1
 44
0.60024009603842
  0
ENDBLK
  5
3D8
330
3D0
100
AcDbEntity
  8
0
100
AcDbBlockEnd
  0
BLOCK
  5
3E4
330
3DB
100
AcDbEntity
  8
0
100
AcDbBlockBegin
  2
*D11
 70
     1
 71
     0
 10
0.0
 20
0.0
 30
0.0
  3
*D11
  1

  0
LINE
  5
3DC
330
3DB
100
AcDbEntity
  8
1
  6
Continuous
 62
     2
100
AcDbLine
 10
132.0579136933836
 20
42.8367362876015
 30
0.0
 11
132.0579136933836
 21
35.8367362876015
 31
0.0
  0
LINE
  5
3DD
330
3DB
100
AcDbEntity
  8
1
  6
Continuous
 62
     2
100
AcDbLine
 10
132.0579136933836
 20
35.8367362876015
 30
0.0
 11
132.0579136933836
 21
31.5020239383464
 31
0.0
  0
LINE
  5
3DE
330
3DB
100
AcDbEntity
  8
1
  6
Continuous
 62
     2
100
AcDbLine
 10
132.0579136933836
 20
31.5020239383464
 30
0.0
 11
132.0579136933836
 21
13.99765320186123
 31
0.0
  0
LINE
  5
3DF
330
3DB
100
AcDbEntity
  8
1
  6
Continuous
 62
     2
100
AcDbLine
 10
114.3079136933836
 20
31.5020239383464
 30
0.0
 11
133.5579136933836
 21
31.5020239383464
 31
0.0
  0
LINE
  5
3E0
330
3DB
100
AcDbEntity
  8
1
  6
Continuous
 62
     2
100
AcDbLine
 10
113.6704136933836
 20
35.8367362876015
 30
0.0
 11
133.5579136933836
 21
35.8367362876015
 31
0.0
  0
SOLID
  5
3E1
330
3DB
100
AcDbEntity
  8
1
 62
     2
100
AcDbTrace
 10
131.5971299518277
 20
39.3367362876015
 30
0.0
 11
132.5186974349395
 21
39.3367362876015
 31
0.0
 12
132.0579136933836
 22
35.8367362876015
 32
0.0
 13
132.0579136933836
 23
35.8367362876015
 33
0.0
  0
SOLID
  5
3E2
330
3DB
100
AcDbEntity
  8
1
 62
     2
100
AcDbTrace
 10
132.5186974349395
 20
28.0020239383464
 30
0.0
 11
131.5971299518277
 21
28.0020239383464
 31
0.0
 12
132.0579136933836
 22
31.5020239383464
 32
0.0
 13
132.0579136933836
 23
31.5020239383464
 33
0.0
  0
MTEXT
  5
3E3
330
3DB
100
AcDbEntity
  8
1
 62
     3
100
AcDbMText
 10
130.0579136933836
 20
13.99765320186123
 30
0.0
 40
3.5
 41
0.0
 71
     7
 72
     1
  1
5~10
  7
CONVERTER_11
 11
0.0
 21
1.0
 31
0.0
 73
     1
 44
0.60024009603842
  0
ENDBLK
  5
3E5
330
3DB
100
AcDbEntity
  8
0
100
AcDbBlockEnd
  0
BLOCK
  5
3EF
330
3E8
100
AcDbEntity
  8
0
100
AcDbBlockBegin
  2
*D12
 70
     1
 71
     0
 10
0.0
 20
0.0
 30
0.0
  3
*D12
  1

  0
LINE
  5
3E9
330
3E8
100
AcDbEntity
  8
1
  6
Continuous
 62
     2
100
AcDbLine
 10
81.80791369338358
 20
-97.4017393453905
 30
0.0
 11
114.8079136933836
 21
-97.4017393453905
 31
0.0
  0
LINE
  5
3EA
330
3E8
100
AcDbEntity
  8
1
  6
Continuous
 62
     2
100
AcDbLine
 10
81.80791369338358
 20
-68.8540195041474
 30
0.0
 11
81.80791369338358
 21
-98.9017393453905
 31
0.0
  0
LINE
  5
3EB
330
3E8
100
AcDbEntity
  8
1
  6
Continuous
 62
     2
100
AcDbLine
 10
114.8079136933836
 20
-68.8540195041474
 30
0.0
 11
114.8079136933836
 21
-98.9017393453905
 31
0.0
  0
SOLID
  5
3EC
330
3E8
100
AcDbEntity
  8
1
 62
     2
100
AcDbTrace
 10
85.30791369338358
 20
-96.94095560383461
 30
0.0
 11
85.30791369338358
 21
-97.86252308694638
 31
0.0
 12
81.80791369338358
 22
-97.4017393453905
 32
0.0
 13
81.80791369338358
 23
-97.4017393453905
 33
0.0
  0
SOLID
  5
3ED
330
3E8
100
AcDbEntity
  8
1
 62
     2
100
AcDbTrace
 10
111.3079136933836
 20
-97.86252308694638
 30
0.0
 11
111.3079136933836
 21
-96.94095560383461
 31
0.0
 12
114.8079136933836
 22
-97.4017393453905
 32
0.0
 13
114.8079136933836
 23
-97.4017393453905
 33
0.0
  0
MTEXT
  5
3EE
330
3E8
100
AcDbEntity
  8
1
 62
     2
100
AcDbMText
 10
93.43570781103064
 20
-95.4017393453905
 30
0.0
 40
3.5
 41
0.0
 71
     7
 72
     1
  1
\C2;33\C2;\H2.45;{\Fgdt;`}1
  7
CONVERTER_11
 11
0.9999999999970621
 21
2.424068405545307E-6
 31
0.0
 73
     1
 44
0.60024009603842
  0
ENDBLK
  5
3F0
330
3E8
100
AcDbEntity
  8
0
100
AcDbBlockEnd
  0
BLOCK
  5
3FC
330
3F3
100
AcDbEntity
  8
0
100
AcDbBlockBegin
  2
*D13
 70
     1
 71
     0
 10
0.0
 20
0.0
 30
0.0
  3
*D13
  1

  0
LINE
  5
3F4
330
3F3
100
AcDbEntity
  8
1
  6
Continuous
 62
     2
100
AcDbLine
 10
28.33810394727488
 20
-49.8540195041474
 30
0.0
 11
28.33810394727488
 21
-44.85401950414741
 31
0.0
  0
LINE
  5
3F5
330
3F3
100
AcDbEntity
  8
1
  6
Continuous
 62
     2
100
AcDbLine
 10
28.33810394727488
 20
-49.8540195041474
 30
0.0
 11
28.33810394727488
 21
-56.8540195041474
 31
0.0
  0
LINE
  5
3F6
330
3F3
100
AcDbEntity
  8
1
  6
Continuous
 62
     2
100
AcDbLine
 10
28.33810394727488
 20
-44.85401950414741
 30
0.0
 11
28.33810394727488
 21
-37.85401950414741
 31
0.0
  0
LINE
  5
3F7
330
3F3
100
AcDbEntity
  8
1
  6
Continuous
 62
     2
100
AcDbLine
 10
61.10791369338359
 20
-49.8540195041474
 30
0.0
 11
26.83810394727488
 21
-49.8540195041474
 31
0.0
  0
LINE
  5
3F8
330
3F3
100
AcDbEntity
  8
1
  6
Continuous
 62
     2
100
AcDbLine
 10
61.10791369338359
 20
-44.85401950414741
 30
0.0
 11
26.83810394727488
 21
-44.85401950414741
 31
0.0
  0
SOLID
  5
3F9
330
3F3
100
AcDbEntity
  8
1
 62
     2
100
AcDbTrace
 10
27.87732020571899
 20
-41.35401950414741
 30
0.0
 11
28.79888768883077
 21
-41.35401950414741
 31
0.0
 12
28.33810394727488
 22
-44.85401950414741
 32
0.0
 13
28.33810394727488
 23
-44.85401950414741
 33
0.0
  0
SOLID
  5
3FA
330
3F3
100
AcDbEntity
  8
1
 62
     2
100
AcDbTrace
 10
28.79888768883076
 20
-53.3540195041474
 30
0.0
 11
27.87732020571899
 21
-53.3540195041474
 31
0.0
 12
28.33810394727488
 22
-49.8540195041474
 32
0.0
 13
28.33810394727488
 23
-49.8540195041474
 33
0.0
  0
MTEXT
  5
3FB
330
3F3
100
AcDbEntity
  8
1
 62
     2
100
AcDbMText
 10
25.02560394727488
 20
-58.55390512506244
 30
0.0
 40
3.5
 41
0.0
 71
     7
 72
     1
  1
\C2;φ\C2;\C2;5\C2;\H2.45;\S 0^ -0.013;
  7
CONVERTER_12
 11
0.0
 21
1.0
 31
0.0
 73
     1
 44
0.60024009603842
  0
ENDBLK
  5
3FD
330
3F3
100
AcDbEntity
  8
0
100
AcDbBlockEnd
  0
BLOCK
  5
409
330
400
100
AcDbEntity
  8
0
100
AcDbBlockBegin
  2
*D14
 70
     1
 71
     0
 10
0.0
 20
0.0
 30
0.0
  3
*D14
  1

  0
LINE
  5
401
330
400
100
AcDbEntity
  8
1
  6
Continuous
 62
     2
100
AcDbLine
 10
-46.74543978109674
 20
-34.0191989533753
 30
0.0
 11
-42.24543978109674
 21
-34.0191989533753
 31
0.0
  0
LINE
  5
402
330
400
100
AcDbEntity
  8
1
  6
Continuous
 62
     2
100
AcDbLine
 10
-46.74543978109674
 20
-34.0191989533753
 30
0.0
 11
-53.74543978109674
 21
-34.0191989533753
 31
0.0
  0
LINE
  5
403
330
400
100
AcDbEntity
  8
1
  6
Continuous
 62
     2
100
AcDbLine
 10
-42.24543978109674
 20
-34.0191989533753
 30
0.0
 11
-35.24543978109674
 21
-34.0191989533753
 31
0.0
  0
LINE
  5
404
330
400
100
AcDbEntity
  8
1
  6
Continuous
 62
     2
100
AcDbLine
 10
-46.74543978109674
 20
-46.3540195041474
 30
0.0
 11
-46.74543978109674
 21
-32.5191989533753
 31
0.0
  0
LINE
  5
405
330
400
100
AcDbEntity
  8
1
  6
Continuous
 62
     2
100
AcDbLine
 10
-42.24543978109674
 20
-44.8540195041474
 30
0.0
 11
-42.24543978109674
 21
-32.5191989533753
 31
0.0
  0
SOLID
  5
406
330
400
100
AcDbEntity
  8
1
 62
     2
100
AcDbTrace
 10
-50.24543978109674
 20
-34.47998269493119
 30
0.0
 11
-50.24543978109674
 21
-33.55841521181942
 31
0.0
 12
-46.74543978109674
 22
-34.0191989533753
 32
0.0
 13
-46.74543978109674
 23
-34.0191989533753
 33
0.0
  0
SOLID
  5
407
330
400
100
AcDbEntity
  8
1
 62
     2
100
AcDbTrace
 10
-38.74543978109674
 20
-33.55841521181942
 30
0.0
 11
-38.74543978109674
 21
-34.47998269493119
 31
0.0
 12
-42.24543978109674
 22
-34.0191989533753
 32
0.0
 13
-42.24543978109674
 23
-34.0191989533753
 33
0.0
  0
MTEXT
  5
408
330
400
100
AcDbEntity
  8
1
 62
     2
100
AcDbMText
 10
-47.96252409272714
 20
-32.0191989533753
 30
0.0
 40
3.5
 41
0.0
 71
     7
 72
     1
  1
\C2;4.5\C2;\H2.45;{\Fgdt;`}0.2
  7
CONVERTER_11
 11
0.9999999999970621
 21
2.424068405545307E-6
 31
0.0
 73
     1
 44
0.60024009603842
  0
ENDBLK
  5
40A
330
400
100
AcDbEntity
  8
0
100
AcDbBlockEnd
  0
BLOCK
  5
412
330
40D
100
AcDbEntity
  8
0
100
AcDbBlockBegin
  2
*D15
 70
     1
 71
     0
 10
0.0
 20
0.0
 30
0.0
  3
*D15
  1

  0
LINE
  5
40E
330
40D
100
AcDbEntity
  8
1
  6
Continuous
 62
     2
100
AcDbLine
 10
-56.72807088013789
 20
-17.23850951764497
 30
0.0
 11
-71.06712316771959
 21
-17.23850951764497
 31
0.0
  0
LINE
  5
40F
330
40D
100
AcDbEntity
  8
1
  6
Continuous
 62
     2
100
AcDbLine
 10
-34.28996722331959
 20
-71.37252416516544
 30
0.0
 11
-56.72807088013789
 21
-17.23850951764497
 31
0.0
  0
SOLID
  5
410
330
40D
100
AcDbEntity
  8
1
 62
     2
100
AcDbTrace
 10
-36.05579377703118
 20
-68.31569930287954
 30
0.0
 11
-35.20446020439415
 21
-67.96282854179265
 31
0.0
 12
-34.28996722331959
 22
-71.37252416516544
 32
0.0
 13
-34.28996722331959
 23
-71.37252416516544
 33
0.0
  0
MTEXT
  5
411
330
40D
100
AcDbEntity
  8
1
 62
     2
100
AcDbMText
 10
-72.82101205659161
 20
-15.23852343179762
 30
0.0
 40
3.5
 41
0.0
 71
     7
 72
     1
  1
\C2;φ\C2;52
  7
CONVERTER_12
 11
0.9999999999970621
 21
2.424068405545307E-6
 31
0.0
 73
     1
 44
0.60024009603842
  0
ENDBLK
  5
413
330
40D
100
AcDbEntity
  8
0
100
AcDbBlockEnd
  0
ENDSEC
  0
SECTION
  2
ENTITIES
  0
LINE
  5
32
330
1F
100
AcDbEntity
  8
1
  6
Continuous
 62
     4
100
AcDbLine
 10
77.44524423416888
 20
-117.5221378639348
 30
0.0
 11
79.09230305769829
 21
-117.5221378639348
 31
0.0
  0
LINE
  5
33
330
1F
100
AcDbEntity
  8
1
  6
Continuous
 62
     4
100
AcDbLine
 10
78.26877364593358
 20
-114.9554711972681
 30
0.0
 11
79.40112658711006
 21
-118.4554711972681
 31
0.0
  0
LINE
  5
34
330
1F
100
AcDbEntity
  8
1
  6
Continuous
 62
     4
100
AcDbLine
 10
77.13642070475711
 20
-118.4554711972681
 30
0.0
 11
78.26877364593358
 21
-114.9554711972681
 31
0.0
  0
LINE
  5
35
330
1F
100
AcDbEntity
  8
1
  6
Continuous
 62
     4
100
AcDbLine
 10
71.6393618812277
 20
-118.2221378639348
 30
0.0
 11
71.39230305769829
 21
-117.9888045306014
 31
0.0
  0
LINE
  5
36
330
1F
100
AcDbEntity
  8
1
  6
Continuous
 62
     4
100
AcDbLine
 10
71.96877364593358
 20
-118.4554711972681
 30
0.0
 11
71.6393618812277
 21
-118.2221378639348
 31
0.0
  0
LINE
  5
37
330
1F
100
AcDbEntity
  8
1
  6
Continuous
 62
     4
100
AcDbLine
 10
72.54524423416888
 20
-118.4554711972681
 30
0.0
 11
71.96877364593358
 21
-118.4554711972681
 31
0.0
  0
LINE
  5
38
330
1F
100
AcDbEntity
  8
1
  6
Continuous
 62
     4
100
AcDbLine
 10
72.79230305769829
 20
-118.2221378639348
 30
0.0
 11
72.54524423416888
 21
-118.4554711972681
 31
0.0
  0
LINE
  5
39
330
1F
100
AcDbEntity
  8
1
  6
Continuous
 62
     4
100
AcDbLine
 10
72.95700894005122
 20
-117.9888045306014
 30
0.0
 11
72.79230305769829
 21
-118.2221378639348
 31
0.0
  0
LINE
  5
3A
330
1F
100
AcDbEntity
  8
1
  6
Continuous
 62
     4
100
AcDbLine
 10
73.03936188122769
 20
-117.4054711972681
 30
0.0
 11
72.95700894005122
 21
-117.9888045306014
 31
0.0
  0
LINE
  5
3B
330
1F
100
AcDbEntity
  8
1
  6
Continuous
 62
     4
100
AcDbLine
 10
72.95700894005122
 20
-116.8221378639348
 30
0.0
 11
73.03936188122769
 21
-117.4054711972681
 31
0.0
  0
LINE
  5
3C
330
1F
100
AcDbEntity
  8
1
  6
Continuous
 62
     4
100
AcDbLine
 10
72.79230305769829
 20
-116.5888045306014
 30
0.0
 11
72.95700894005122
 21
-116.8221378639348
 31
0.0
  0
LINE
  5
3D
330
1F
100
AcDbEntity
  8
1
  6
Continuous
 62
     4
100
AcDbLine
 10
72.54524423416888
 20
-116.3554711972681
 30
0.0
 11
72.79230305769829
 21
-116.5888045306014
 31
0.0
  0
LINE
  5
3E
330
1F
100
AcDbEntity
  8
1
  6
Continuous
 62
     4
100
AcDbLine
 10
72.215832469463
 20
-116.2388045306014
 30
0.0
 11
72.54524423416888
 21
-116.3554711972681
 31
0.0
  0
LINE
  5
3F
330
1F
100
AcDbEntity
  8
1
  6
Continuous
 62
     4
100
AcDbLine
 10
71.88642070475711
 20
-116.3554711972681
 30
0.0
 11
72.215832469463
 21
-116.2388045306014
 31
0.0
  0
LINE
  5
40
330
1F
100
AcDbEntity
  8
1
  6
Continuous
 62
     4
100
AcDbLine
 10
71.47465599887475
 20
-116.7054711972681
 30
0.0
 11
71.88642070475711
 21
-116.3554711972681
 31
0.0
  0
LINE
  5
41
330
1F
100
AcDbEntity
  8
1
  6
Continuous
 62
     4
100
AcDbLine
 10
71.55700894005123
 20
-114.9554711972681
 30
0.0
 11
71.47465599887475
 21
-116.7054711972681
 31
0.0
  0
LINE
  5
42
330
1F
100
AcDbEntity
  8
1
  6
Continuous
 62
     4
100
AcDbLine
 10
72.95700894005122
 20
-114.9554711972681
 30
0.0
 11
71.55700894005123
 21
-114.9554711972681
 31
0.0
  0
LINE
  5
43
330
1F
100
AcDbEntity
  8
1
  6
Continuous
 62
     4
100
AcDbLine
 10
69.74524423416888
 20
-117.6388045306014
 30
0.0
 11
69.74524423416888
 21
-118.4554711972681
 31
0.0
  0
LINE
  5
44
330
1F
100
AcDbEntity
  8
1
  6
Continuous
 62
     4
100
AcDbLine
 10
69.90995011652181
 20
-116.5888045306014
 30
0.0
 11
69.74524423416888
 21
-117.6388045306014
 31
0.0
  0
LINE
  5
45
330
1F
100
AcDbEntity
  8
1
  6
Continuous
 62
     4
100
AcDbLine
 10
70.56877364593358
 20
-114.9554711972681
 30
0.0
 11
69.90995011652181
 21
-116.5888045306014
 31
0.0
  0
LINE
  5
46
330
1F
100
AcDbEntity
  8
1
  6
Continuous
 62
     4
100
AcDbLine
 10
68.92171482240417
 20
-114.9554711972681
 30
0.0
 11
70.56877364593358
 21
-114.9554711972681
 31
0.0
  0
LINE
  5
47
330
1F
100
AcDbEntity
  8
1
  6
Continuous
 62
     4
100
AcDbLine
 10
67.68642070475711
 20
-115.1888045306014
 30
0.0
 11
67.19230305769828
 21
-114.9554711972681
 31
0.0
  0
LINE
  5
48
330
1F
100
AcDbEntity
  8
1
  6
Continuous
 62
     4
100
AcDbLine
 10
68.01583246946299
 20
-115.7721378639348
 30
0.0
 11
67.68642070475711
 21
-115.1888045306014
 31
0.0
  0
LINE
  5
49
330
1F
100
AcDbEntity
  8
1
  6
Continuous
 62
     4
100
AcDbLine
 10
68.09818541063946
 20
-116.7054711972681
 30
0.0
 11
68.01583246946299
 21
-115.7721378639348
 31
0.0
  0
LINE
  5
4A
330
1F
100
AcDbEntity
  8
1
  6
Continuous
 62
     4
100
AcDbLine
 10
68.01583246946299
 20
-117.6388045306014
 30
0.0
 11
68.09818541063946
 21
-116.7054711972681
 31
0.0
  0
LINE
  5
4B
330
1F
100
AcDbEntity
  8
1
  6
Continuous
 62
     4
100
AcDbLine
 10
67.68642070475711
 20
-118.2221378639348
 30
0.0
 11
68.01583246946299
 21
-117.6388045306014
 31
0.0
  0
LINE
  5
4C
330
1F
100
AcDbEntity
  8
1
  6
Continuous
 62
     4
100
AcDbLine
 10
67.19230305769828
 20
-118.4554711972681
 30
0.0
 11
67.68642070475711
 21
-118.2221378639348
 31
0.0
  0
LINE
  5
4D
330
1F
100
AcDbEntity
  8
1
  6
Continuous
 62
     4
100
AcDbLine
 10
66.69818541063945
 20
-118.2221378639348
 30
0.0
 11
67.19230305769828
 21
-118.4554711972681
 31
0.0
  0
LINE
  5
4E
330
1F
100
AcDbEntity
  8
1
  6
Continuous
 62
     4
100
AcDbLine
 10
66.45112658711005
 20
-117.6388045306014
 30
0.0
 11
66.69818541063945
 21
-118.2221378639348
 31
0.0
  0
LINE
  5
4F
330
1F
100
AcDbEntity
  8
1
  6
Continuous
 62
     4
100
AcDbLine
 10
66.2864207047571
 20
-116.7054711972681
 30
0.0
 11
66.45112658711005
 21
-117.6388045306014
 31
0.0
  0
LINE
  5
50
330
1F
100
AcDbEntity
  8
1
  6
Continuous
 62
     4
100
AcDbLine
 10
66.45112658711005
 20
-115.7721378639348
 30
0.0
 11
66.2864207047571
 21
-116.7054711972681
 31
0.0
  0
LINE
  5
51
330
1F
100
AcDbEntity
  8
1
  6
Continuous
 62
     4
100
AcDbLine
 10
66.69818541063945
 20
-115.1888045306014
 30
0.0
 11
66.45112658711005
 21
-115.7721378639348
 31
0.0
  0
LINE
  5
52
330
1F
100
AcDbEntity
  8
1
  6
Continuous
 62
     4
100
AcDbLine
 10
67.19230305769828
 20
-114.9554711972681
 30
0.0
 11
66.69818541063945
 21
-115.1888045306014
 31
0.0
  0
LINE
  5
53
330
1F
100
AcDbEntity
  8
1
  6
Continuous
 62
     4
100
AcDbLine
 10
65.21583246946298
 20
-118.1054711972681
 30
0.0
 11
65.29818541063946
 21
-117.9888045306014
 31
0.0
  0
LINE
  5
54
330
1F
100
AcDbEntity
  8
1
  6
Continuous
 62
     4
100
AcDbLine
 10
65.29818541063946
 20
-118.2221378639348
 30
0.0
 11
65.21583246946298
 21
-118.1054711972681
 31
0.0
  0
LINE
  5
55
330
1F
100
AcDbEntity
  8
1
  6
Continuous
 62
     4
100
AcDbLine
 10
65.38053835181593
 20
-118.1054711972681
 30
0.0
 11
65.29818541063946
 21
-118.2221378639348
 31
0.0
  0
LINE
  5
56
330
1F
100
AcDbEntity
  8
1
  6
Continuous
 62
     4
100
AcDbLine
 10
65.29818541063946
 20
-117.9888045306014
 30
0.0
 11
65.38053835181593
 21
-118.1054711972681
 31
0.0
  0
LINE
  5
57
330
1F
100
AcDbEntity
  8
1
  6
Continuous
 62
     4
100
AcDbLine
 10
65.21583246946298
 20
-117.9888045306014
 30
0.0
 11
65.38053835181593
 21
-117.9888045306014
 31
0.0
  0
LINE
  5
58
330
1F
100
AcDbEntity
  8
1
  6
Continuous
 62
     4
100
AcDbLine
 10
65.21583246946298
 20
-118.2221378639348
 30
0.0
 11
65.21583246946298
 21
-117.9888045306014
 31
0.0
  0
LINE
  5
59
330
1F
100
AcDbEntity
  8
1
  6
Continuous
 62
     4
100
AcDbLine
 10
65.38053835181593
 20
-118.2221378639348
 30
0.0
 11
65.21583246946298
 21
-118.2221378639348
 31
0.0
  0
LINE
  5
5A
330
1F
100
AcDbEntity
  8
1
  6
Continuous
 62
     4
100
AcDbLine
 10
65.38053835181593
 20
-117.9888045306014
 30
0.0
 11
65.38053835181593
 21
-118.2221378639348
 31
0.0
  0
LINE
  5
5B
330
1F
100
AcDbEntity
  8
1
  6
Continuous
 62
     4
100
AcDbLine
 10
65.13347952828651
 20
-118.1054711972681
 30
0.0
 11
65.29818541063946
 21
-117.8721378639348
 31
0.0
  0
LINE
  5
5C
330
1F
100
AcDbEntity
  8
1
  6
Continuous
 62
     4
100
AcDbLine
 10
65.29818541063946
 20
-118.3388045306014
 30
0.0
 11
65.13347952828651
 21
-118.1054711972681
 31
0.0
  0
LINE
  5
5D
330
1F
100
AcDbEntity
  8
1
  6
Continuous
 62
     4
100
AcDbLine
 10
65.4628912929924
 20
-118.1054711972681
 30
0.0
 11
65.29818541063946
 21
-118.3388045306014
 31
0.0
  0
LINE
  5
5E
330
1F
100
AcDbEntity
  8
1
  6
Continuous
 62
     4
100
AcDbLine
 10
65.29818541063946
 20
-117.8721378639348
 30
0.0
 11
65.4628912929924
 21
-118.1054711972681
 31
0.0
  0
LINE
  5
5F
330
1F
100
AcDbEntity
  8
1
  6
Continuous
 62
     4
100
AcDbLine
 10
63.89818541063946
 20
-115.1888045306014
 30
0.0
 11
63.40406776358064
 21
-114.9554711972681
 31
0.0
  0
LINE
  5
60
330
1F
100
AcDbEntity
  8
1
  6
Continuous
 62
     4
100
AcDbLine
 10
64.22759717534535
 20
-115.7721378639348
 30
0.0
 11
63.89818541063946
 21
-115.1888045306014
 31
0.0
  0
LINE
  5
61
330
1F
100
AcDbEntity
  8
1
  6
Continuous
 62
     4
100
AcDbLine
 10
64.30995011652182
 20
-116.7054711972681
 30
0.0
 11
64.22759717534535
 21
-115.7721378639348
 31
0.0
  0
LINE
  5
62
330
1F
100
AcDbEntity
  8
1
  6
Continuous
 62
     4
100
AcDbLine
 10
64.22759717534535
 20
-117.6388045306014
 30
0.0
 11
64.30995011652182
 21
-116.7054711972681
 31
0.0
  0
LINE
  5
63
330
1F
100
AcDbEntity
  8
1
  6
Continuous
 62
     4
100
AcDbLine
 10
63.89818541063946
 20
-118.2221378639348
 30
0.0
 11
64.22759717534535
 21
-117.6388045306014
 31
0.0
  0
LINE
  5
64
330
1F
100
AcDbEntity
  8
1
  6
Continuous
 62
     4
100
AcDbLine
 10
63.40406776358064
 20
-118.4554711972681
 30
0.0
 11
63.89818541063946
 21
-118.2221378639348
 31
0.0
  0
LINE
  5
65
330
1F
100
AcDbEntity
  8
1
  6
Continuous
 62
     4
100
AcDbLine
 10
62.90995011652182
 20
-118.2221378639348
 30
0.0
 11
63.40406776358064
 21
-118.4554711972681
 31
0.0
  0
LINE
  5
66
330
1F
100
AcDbEntity
  8
1
  6
Continuous
 62
     4
100
AcDbLine
 10
62.66289129299241
 20
-117.6388045306014
 30
0.0
 11
62.90995011652182
 21
-118.2221378639348
 31
0.0
  0
LINE
  5
67
330
1F
100
AcDbEntity
  8
1
  6
Continuous
 62
     4
100
AcDbLine
 10
62.49818541063947
 20
-116.7054711972681
 30
0.0
 11
62.66289129299241
 21
-117.6388045306014
 31
0.0
  0
LINE
  5
68
330
1F
100
AcDbEntity
  8
1
  6
Continuous
 62
     4
100
AcDbLine
 10
62.66289129299241
 20
-115.7721378639348
 30
0.0
 11
62.49818541063947
 21
-116.7054711972681
 31
0.0
  0
LINE
  5
69
330
1F
100
AcDbEntity
  8
1
  6
Continuous
 62
     4
100
AcDbLine
 10
62.90995011652182
 20
-115.1888045306014
 30
0.0
 11
62.66289129299241
 21
-115.7721378639348
 31
0.0
  0
LINE
  5
6A
330
1F
100
AcDbEntity
  8
1
  6
Continuous
 62
     4
100
AcDbLine
 10
63.40406776358064
 20
-114.9554711972681
 30
0.0
 11
62.90995011652182
 21
-115.1888045306014
 31
0.0
  0
LINE
  5
6B
330
1F
100
AcDbEntity
  8
1
  6
Continuous
 62
     4
100
AcDbLine
 10
74.76877364593355
 20
-113.2054711972681
 30
0.0
 11
74.76877364593355
 21
-120.2054711972681
 31
0.0
  0
LINE
  5
6C
330
1F
100
AcDbEntity
  8
1
  6
Continuous
 62
     4
100
AcDbLine
 10
81.76877364593355
 20
-120.2054711972681
 30
0.0
 11
81.76877364593355
 21
-113.2054711972681
 31
0.0
  0
LINE
  5
6D
330
1F
100
AcDbEntity
  8
1
  6
Continuous
 62
     4
100
AcDbLine
 10
53.76877364593356
 20
-113.2054711972681
 30
0.0
 11
53.76877364593356
 21
-120.2054711972681
 31
0.0
  0
LINE
  5
6E
330
1F
100
AcDbEntity
  8
1
  6
Continuous
 62
     4
100
AcDbLine
 10
81.76877364593355
 20
-113.2054711972681
 30
0.0
 11
53.76877364593356
 21
-113.2054711972681
 31
0.0
  0
LINE
  5
6F
330
1F
100
AcDbEntity
  8
1
  6
Continuous
 62
     4
100
AcDbLine
 10
60.76877364593356
 20
-120.2054711972681
 30
0.0
 11
60.76877364593356
 21
-113.2054711972681
 31
0.0
  0
LINE
  5
70
330
1F
100
AcDbEntity
  8
1
  6
Continuous
 62
     4
100
AcDbLine
 10
53.76877364593356
 20
-120.2054711972681
 30
0.0
 11
81.76877364593355
 21
-120.2054711972681
 31
0.0
  0
LINE
  5
71
330
1F
100
AcDbEntity
  8
1
  6
Continuous
 62
     4
100
AcDbLine
 10
57.26877364593356
 20
-119.3304711972681
 30
0.0
 11
57.26877364593356
 21
-114.0804711972681
 31
0.0
  0
LINE
  5
72
330
1F
100
AcDbEntity
  8
1
  6
Continuous
 62
     4
100
AcDbLine
 10
54.64377364593356
 20
-119.3304711972681
 30
0.0
 11
59.89377364593356
 21
-119.3304711972681
 31
0.0
  0
LINE
  5
73
330
1F
100
AcDbEntity
  8
1
  6
Continuous
 62
     2
100
AcDbLine
 10
92.6074527073671
 20
40.35696357256887
 30
0.0
 11
91.98980564854357
 21
40.5902969059022
 31
0.0
  0
LINE
  5
74
330
1F
100
AcDbEntity
  8
1
  6
Continuous
 62
     2
100
AcDbLine
 10
93.01921741324945
 20
39.77363023923553
 30
0.0
 11
92.6074527073671
 21
40.35696357256887
 31
0.0
  0
LINE
  5
75
330
1F
100
AcDbEntity
  8
1
  6
Continuous
 62
     2
100
AcDbLine
 10
93.12215858972004
 20
38.8402969059022
 30
0.0
 11
93.01921741324945
 21
39.77363023923553
 31
0.0
  0
LINE
  5
76
330
1F
100
AcDbEntity
  8
1
  6
Continuous
 62
     2
100
AcDbLine
 10
93.01921741324945
 20
37.90696357256887
 30
0.0
 11
93.12215858972004
 21
38.8402969059022
 31
0.0
  0
LINE
  5
77
330
1F
100
AcDbEntity
  8
1
  6
Continuous
 62
     2
100
AcDbLine
 10
92.6074527073671
 20
37.32363023923553
 30
0.0
 11
93.01921741324945
 21
37.90696357256887
 31
0.0
  0
LINE
  5
78
330
1F
100
AcDbEntity
  8
1
  6
Continuous
 62
     2
100
AcDbLine
 10
91.98980564854357
 20
37.0902969059022
 30
0.0
 11
92.6074527073671
 21
37.32363023923553
 31
0.0
  0
LINE
  5
79
330
1F
100
AcDbEntity
  8
1
  6
Continuous
 62
     2
100
AcDbLine
 10
91.37215858972004
 20
37.32363023923553
 30
0.0
 11
91.98980564854357
 21
37.0902969059022
 31
0.0
  0
LINE
  5
7A
330
1F
100
AcDbEntity
  8
1
  6
Continuous
 62
     2
100
AcDbLine
 10
91.06333506030828
 20
37.90696357256887
 30
0.0
 11
91.37215858972004
 21
37.32363023923553
 31
0.0
  0
LINE
  5
7B
330
1F
100
AcDbEntity
  8
1
  6
Continuous
 62
     2
100
AcDbLine
 10
90.8574527073671
 20
38.8402969059022
 30
0.0
 11
91.06333506030828
 21
37.90696357256887
 31
0.0
  0
LINE
  5
7C
330
1F
100
AcDbEntity
  8
1
  6
Continuous
 62
     2
100
AcDbLine
 10
91.06333506030828
 20
39.77363023923553
 30
0.0
 11
90.8574527073671
 21
38.8402969059022
 31
0.0
  0
LINE
  5
7D
330
1F
100
AcDbEntity
  8
1
  6
Continuous
 62
     2
100
AcDbLine
 10
91.37215858972004
 20
40.35696357256887
 30
0.0
 11
91.06333506030828
 21
39.77363023923553
 31
0.0
  0
LINE
  5
7E
330
1F
100
AcDbEntity
  8
1
  6
Continuous
 62
     2
100
AcDbLine
 10
91.98980564854357
 20
40.5902969059022
 30
0.0
 11
91.37215858972004
 21
40.35696357256887
 31
0.0
  0
LINE
  5
7F
330
1F
100
AcDbEntity
  8
1
  6
Continuous
 62
     2
100
AcDbLine
 10
87.76921741324945
 20
37.4402969059022
 30
0.0
 11
87.56333506030828
 21
37.67363023923554
 31
0.0
  0
LINE
  5
80
330
1F
100
AcDbEntity
  8
1
  6
Continuous
 62
     2
100
AcDbLine
 10
88.18098211913181
 20
37.20696357256887
 30
0.0
 11
87.76921741324945
 21
37.4402969059022
 31
0.0
  0
LINE
  5
81
330
1F
100
AcDbEntity
  8
1
  6
Continuous
 62
     2
100
AcDbLine
 10
88.69568800148474
 20
37.0902969059022
 30
0.0
 11
88.18098211913181
 21
37.20696357256887
 31
0.0
  0
LINE
  5
82
330
1F
100
AcDbEntity
  8
1
  6
Continuous
 62
     2
100
AcDbLine
 10
89.31333506030828
 20
37.20696357256887
 30
0.0
 11
88.69568800148474
 21
37.0902969059022
 31
0.0
  0
LINE
  5
83
330
1F
100
AcDbEntity
  8
1
  6
Continuous
 62
     2
100
AcDbLine
 10
89.62215858972004
 20
37.4402969059022
 30
0.0
 11
89.31333506030828
 21
37.20696357256887
 31
0.0
  0
LINE
  5
84
330
1F
100
AcDbEntity
  8
1
  6
Continuous
 62
     2
100
AcDbLine
 10
89.82804094266122
 20
38.02363023923553
 30
0.0
 11
89.62215858972004
 21
37.4402969059022
 31
0.0
  0
LINE
  5
85
330
1F
100
AcDbEntity
  8
1
  6
Continuous
 62
     2
100
AcDbLine
 10
89.62215858972004
 20
38.60696357256887
 30
0.0
 11
89.82804094266122
 21
38.02363023923553
 31
0.0
  0
LINE
  5
86
330
1F
100
AcDbEntity
  8
1
  6
Continuous
 62
     2
100
AcDbLine
 10
89.1074527073671
 20
38.95696357256887
 30
0.0
 11
89.62215858972004
 21
38.60696357256887
 31
0.0
  0
LINE
  5
87
330
1F
100
AcDbEntity
  8
1
  6
Continuous
 62
     2
100
AcDbLine
 10
88.59274682501416
 20
38.95696357256887
 30
0.0
 11
89.1074527073671
 21
38.95696357256887
 31
0.0
  0
LINE
  5
88
330
1F
100
AcDbEntity
  8
1
  6
Continuous
 62
     2
100
AcDbLine
 10
89.1074527073671
 20
38.95696357256887
 30
0.0
 11
88.59274682501416
 21
38.95696357256887
 31
0.0
  0
LINE
  5
89
330
1F
100
AcDbEntity
  8
1
  6
Continuous
 62
     2
100
AcDbLine
 10
89.51921741324945
 20
39.1902969059022
 30
0.0
 11
89.1074527073671
 21
38.95696357256887
 31
0.0
  0
LINE
  5
8A
330
1F
100
AcDbEntity
  8
1
  6
Continuous
 62
     2
100
AcDbLine
 10
89.72509976619062
 20
39.65696357256887
 30
0.0
 11
89.51921741324945
 21
39.1902969059022
 31
0.0
  0
LINE
  5
8B
330
1F
100
AcDbEntity
  8
1
  6
Continuous
 62
     2
100
AcDbLine
 10
89.62215858972004
 20
40.00696357256886
 30
0.0
 11
89.72509976619062
 21
39.65696357256887
 31
0.0
  0
LINE
  5
8C
330
1F
100
AcDbEntity
  8
1
  6
Continuous
 62
     2
100
AcDbLine
 10
89.31333506030828
 20
40.47363023923553
 30
0.0
 11
89.62215858972004
 21
40.00696357256886
 31
0.0
  0
LINE
  5
8D
330
1F
100
AcDbEntity
  8
1
  6
Continuous
 62
     2
100
AcDbLine
 10
88.69568800148474
 20
40.5902969059022
 30
0.0
 11
89.31333506030828
 21
40.47363023923553
 31
0.0
  0
LINE
  5
8E
330
1F
100
AcDbEntity
  8
1
  6
Continuous
 62
     2
100
AcDbLine
 10
88.07804094266122
 20
40.47363023923553
 30
0.0
 11
88.69568800148474
 21
40.5902969059022
 31
0.0
  0
LINE
  5
8F
330
1F
100
AcDbEntity
  8
1
  6
Continuous
 62
     2
100
AcDbLine
 10
87.66627623677887
 20
40.00696357256886
 30
0.0
 11
88.07804094266122
 21
40.47363023923553
 31
0.0
  0
LINE
  5
90
330
1F
100
AcDbEntity
  8
1
  6
Continuous
 62
     2
100
AcDbLine
 10
85.91627623677887
 20
37.0902969059022
 30
0.0
 11
85.91627623677887
 21
38.72363023923553
 31
0.0
  0
LINE
  5
91
330
1F
100
AcDbEntity
  8
1
  6
Continuous
 62
     2
100
AcDbLine
 10
84.06333506030828
 20
37.90696357256887
 30
0.0
 11
86.53392329560239
 21
37.90696357256887
 31
0.0
  0
LINE
  5
92
330
1F
100
AcDbEntity
  8
1
  6
Continuous
 62
     2
100
AcDbLine
 10
85.91627623677887
 20
40.5902969059022
 30
0.0
 11
84.06333506030828
 21
37.90696357256887
 31
0.0
  0
LINE
  5
93
330
1F
100
AcDbEntity
  8
1
  6
Continuous
 62
     2
100
AcDbLine
 10
82.51921741324946
 20
40.5902969059022
 30
0.0
 11
82.51921741324946
 21
37.0902969059022
 31
0.0
  0
LINE
  5
94
330
1F
100
AcDbEntity
  8
1
  6
Continuous
 62
     2
100
AcDbLine
 10
82.00451153089652
 20
40.2402969059022
 30
0.0
 11
82.51921741324946
 21
40.5902969059022
 31
0.0
  0
LINE
  5
95
330
1F
100
AcDbEntity
  8
1
  6
Continuous
 62
     2
100
AcDbLine
 10
78.40157035442593
 20
37.0902969059022
 30
0.0
 11
80.4603938838377
 21
37.0902969059022
 31
0.0
  0
LINE
  5
96
330
1F
100
AcDbEntity
  8
1
  6
Continuous
 62
     2
100
AcDbLine
 10
78.40157035442593
 20
40.5902969059022
 30
0.0
 11
78.40157035442593
 21
37.0902969059022
 31
0.0
  0
LINE
  5
97
330
1F
100
AcDbEntity
  8
1
  6
Continuous
 62
     2
100
AcDbLine
 10
77.37215858972004
 20
37.7902969059022
 30
0.0
 11
77.37215858972004
 21
40.5902969059022
 31
0.0
  0
LINE
  5
98
330
1F
100
AcDbEntity
  8
1
  6
Continuous
 62
     2
100
AcDbLine
 10
77.16627623677887
 20
37.4402969059022
 30
0.0
 11
77.37215858972004
 21
37.7902969059022
 31
0.0
  0
LINE
  5
99
330
1F
100
AcDbEntity
  8
1
  6
Continuous
 62
     2
100
AcDbLine
 10
76.8574527073671
 20
37.20696357256887
 30
0.0
 11
77.16627623677887
 21
37.4402969059022
 31
0.0
  0
LINE
  5
9A
330
1F
100
AcDbEntity
  8
1
  6
Continuous
 62
     2
100
AcDbLine
 10
76.34274682501416
 20
37.0902969059022
 30
0.0
 11
76.8574527073671
 21
37.20696357256887
 31
0.0
  0
LINE
  5
9B
330
1F
100
AcDbEntity
  8
1
  6
Continuous
 62
     2
100
AcDbLine
 10
75.93098211913181
 20
37.20696357256887
 30
0.0
 11
76.34274682501416
 21
37.0902969059022
 31
0.0
  0
LINE
  5
9C
330
1F
100
AcDbEntity
  8
1
  6
Continuous
 62
     2
100
AcDbLine
 10
75.51921741324946
 20
37.4402969059022
 30
0.0
 11
75.93098211913181
 21
37.20696357256887
 31
0.0
  0
LINE
  5
9D
330
1F
100
AcDbEntity
  8
1
  6
Continuous
 62
     2
100
AcDbLine
 10
75.41627623677887
 20
37.7902969059022
 30
0.0
 11
75.51921741324946
 21
37.4402969059022
 31
0.0
  0
LINE
  5
9E
330
1F
100
AcDbEntity
  8
1
  6
Continuous
 62
     2
100
AcDbLine
 10
75.41627623677887
 20
40.5902969059022
 30
0.0
 11
75.41627623677887
 21
37.7902969059022
 31
0.0
  0
LINE
  5
9F
330
1F
100
AcDbEntity
  8
1
  6
Continuous
 62
     2
100
AcDbLine
 10
88.81691787469056
 20
44.16030134374829
 30
0.0
 11
88.61103552174939
 21
43.46030134374828
 31
0.0
  0
LINE
  5
A0
330
1F
100
AcDbEntity
  8
1
  6
Continuous
 62
     2
100
AcDbLine
 10
89.12574140410233
 20
44.51030134374829
 30
0.0
 11
88.81691787469056
 21
44.16030134374829
 31
0.0
  0
LINE
  5
A1
330
1F
100
AcDbEntity
  8
1
  6
Continuous
 62
     2
100
AcDbLine
 10
89.53750610998468
 20
44.62696801041496
 30
0.0
 11
89.12574140410233
 21
44.51030134374829
 31
0.0
  0
LINE
  5
A2
330
1F
100
AcDbEntity
  8
1
  6
Continuous
 62
     2
100
AcDbLine
 10
89.94927081586704
 20
44.51030134374829
 30
0.0
 11
89.53750610998468
 21
44.62696801041496
 31
0.0
  0
LINE
  5
A3
330
1F
100
AcDbEntity
  8
1
  6
Continuous
 62
     2
100
AcDbLine
 10
90.36103552174939
 20
44.16030134374829
 30
0.0
 11
89.94927081586704
 21
44.51030134374829
 31
0.0
  0
LINE
  5
A4
330
1F
100
AcDbEntity
  8
1
  6
Continuous
 62
     2
100
AcDbLine
 10
90.46397669821998
 20
43.92696801041495
 30
0.0
 11
90.36103552174939
 21
44.16030134374829
 31
0.0
  0
LINE
  5
A5
330
1F
100
AcDbEntity
  8
1
  6
Continuous
 62
     2
100
AcDbLine
 10
90.56691787469056
 20
43.46030134374828
 30
0.0
 11
90.46397669821998
 21
43.92696801041495
 31
0.0
  0
LINE
  5
A6
330
1F
100
AcDbEntity
  8
1
  6
Continuous
 62
     2
100
AcDbLine
 10
90.36103552174939
 20
42.87696801041496
 30
0.0
 11
90.56691787469056
 21
43.46030134374828
 31
0.0
  0
LINE
  5
A7
330
1F
100
AcDbEntity
  8
1
  6
Continuous
 62
     2
100
AcDbLine
 10
90.05221199233762
 20
42.52696801041495
 30
0.0
 11
90.36103552174939
 21
42.87696801041496
 31
0.0
  0
LINE
  5
A8
330
1F
100
AcDbEntity
  8
1
  6
Continuous
 62
     2
100
AcDbLine
 10
89.53750610998468
 20
42.41030134374829
 30
0.0
 11
90.05221199233762
 21
42.52696801041495
 31
0.0
  0
LINE
  5
A9
330
1F
100
AcDbEntity
  8
1
  6
Continuous
 62
     2
100
AcDbLine
 10
88.91985905116115
 20
42.64363467708162
 30
0.0
 11
89.53750610998468
 21
42.41030134374829
 31
0.0
  0
LINE
  5
AA
330
1F
100
AcDbEntity
  8
1
  6
Continuous
 62
     2
100
AcDbLine
 10
88.71397669821998
 20
42.99363467708162
 30
0.0
 11
88.91985905116115
 21
42.64363467708162
 31
0.0
  0
LINE
  5
AB
330
1F
100
AcDbEntity
  8
1
  6
Continuous
 62
     2
100
AcDbLine
 10
88.61103552174939
 20
43.46030134374828
 30
0.0
 11
88.71397669821998
 21
42.99363467708162
 31
0.0
  0
LINE
  5
AC
330
1F
100
AcDbEntity
  8
1
  6
Continuous
 62
     2
100
AcDbLine
 10
88.61103552174939
 20
44.86030134374829
 30
0.0
 11
88.61103552174939
 21
43.46030134374828
 31
0.0
  0
LINE
  5
AD
330
1F
100
AcDbEntity
  8
1
  6
Continuous
 62
     2
100
AcDbLine
 10
88.71397669821998
 20
45.32696801041495
 30
0.0
 11
88.61103552174939
 21
44.86030134374829
 31
0.0
  0
LINE
  5
AE
330
1F
100
AcDbEntity
  8
1
  6
Continuous
 62
     2
100
AcDbLine
 10
89.02280022763173
 20
45.67696801041495
 30
0.0
 11
88.71397669821998
 21
45.32696801041495
 31
0.0
  0
LINE
  5
AF
330
1F
100
AcDbEntity
  8
1
  6
Continuous
 62
     2
100
AcDbLine
 10
89.22868258057292
 20
45.79363467708162
 30
0.0
 11
89.02280022763173
 21
45.67696801041495
 31
0.0
  0
LINE
  5
B0
330
1F
100
AcDbEntity
  8
1
  6
Continuous
 62
     2
100
AcDbLine
 10
89.53750610998468
 20
45.91030134374829
 30
0.0
 11
89.22868258057292
 21
45.79363467708162
 31
0.0
  0
LINE
  5
B1
330
1F
100
AcDbEntity
  8
1
  6
Continuous
 62
     2
100
AcDbLine
 10
89.94927081586704
 20
45.79363467708162
 30
0.0
 11
89.53750610998468
 21
45.91030134374829
 31
0.0
  0
LINE
  5
B2
330
1F
100
AcDbEntity
  8
1
  6
Continuous
 62
     2
100
AcDbLine
 10
90.25809434527879
 20
45.67696801041495
 30
0.0
 11
89.94927081586704
 21
45.79363467708162
 31
0.0
  0
LINE
  5
B3
330
1F
100
AcDbEntity
  8
1
  6
Continuous
 62
     2
100
AcDbLine
 10
90.56691787469056
 20
45.32696801041495
 30
0.0
 11
90.25809434527879
 21
45.67696801041495
 31
0.0
  0
LINE
  5
B4
330
1F
100
AcDbEntity
  8
1
  6
Continuous
 62
     2
100
AcDbLine
 10
85.31691787469056
 20
42.41030134374829
 30
0.0
 11
87.5816237570435
 21
42.41030134374829
 31
0.0
  0
LINE
  5
B5
330
1F
100
AcDbEntity
  8
1
  6
Continuous
 62
     2
100
AcDbLine
 10
85.52280022763173
 20
42.99363467708162
 30
0.0
 11
85.31691787469056
 21
42.41030134374829
 31
0.0
  0
LINE
  5
B6
330
1F
100
AcDbEntity
  8
1
  6
Continuous
 62
     2
100
AcDbLine
 10
85.72868258057291
 20
43.34363467708162
 30
0.0
 11
85.52280022763173
 21
42.99363467708162
 31
0.0
  0
LINE
  5
B7
330
1F
100
AcDbEntity
  8
1
  6
Continuous
 62
     2
100
AcDbLine
 10
86.14044728645527
 20
43.69363467708162
 30
0.0
 11
85.72868258057291
 21
43.34363467708162
 31
0.0
  0
LINE
  5
B8
330
1F
100
AcDbEntity
  8
1
  6
Continuous
 62
     2
100
AcDbLine
 10
86.55221199233762
 20
43.92696801041495
 30
0.0
 11
86.14044728645527
 21
43.69363467708162
 31
0.0
  0
LINE
  5
B9
330
1F
100
AcDbEntity
  8
1
  6
Continuous
 62
     2
100
AcDbLine
 10
87.06691787469056
 20
44.27696801041495
 30
0.0
 11
86.55221199233762
 21
43.92696801041495
 31
0.0
  0
LINE
  5
BA
330
1F
100
AcDbEntity
  8
1
  6
Continuous
 62
     2
100
AcDbLine
 10
87.37574140410233
 20
44.74363467708162
 30
0.0
 11
87.06691787469056
 21
44.27696801041495
 31
0.0
  0
LINE
  5
BB
330
1F
100
AcDbEntity
  8
1
  6
Continuous
 62
     2
100
AcDbLine
 10
87.47868258057291
 20
45.21030134374828
 30
0.0
 11
87.37574140410233
 21
44.74363467708162
 31
0.0
  0
LINE
  5
BC
330
1F
100
AcDbEntity
  8
1
  6
Continuous
 62
     2
100
AcDbLine
 10
87.06691787469056
 20
45.67696801041495
 30
0.0
 11
87.47868258057291
 21
45.21030134374828
 31
0.0
  0
LINE
  5
BD
330
1F
100
AcDbEntity
  8
1
  6
Continuous
 62
     2
100
AcDbLine
 10
86.44927081586702
 20
45.91030134374829
 30
0.0
 11
87.06691787469056
 21
45.67696801041495
 31
0.0
  0
LINE
  5
BE
330
1F
100
AcDbEntity
  8
1
  6
Continuous
 62
     2
100
AcDbLine
 10
85.8316237570435
 20
45.67696801041495
 30
0.0
 11
86.44927081586702
 21
45.91030134374829
 31
0.0
  0
LINE
  5
BF
330
1F
100
AcDbEntity
  8
1
  6
Continuous
 62
     2
100
AcDbLine
 10
85.41985905116115
 20
45.21030134374828
 30
0.0
 11
85.8316237570435
 21
45.67696801041495
 31
0.0
  0
LINE
  5
C0
330
1F
100
AcDbEntity
  8
1
  6
Continuous
 62
     2
100
AcDbLine
 10
84.28750610998468
 20
44.04363467708162
 30
0.0
 11
83.36103552174939
 21
44.04363467708162
 31
0.0
  0
LINE
  5
C1
330
1F
100
AcDbEntity
  8
1
  6
Continuous
 62
     2
100
AcDbLine
 10
84.28750610998468
 20
43.34363467708162
 30
0.0
 11
84.28750610998468
 21
44.04363467708162
 31
0.0
  0
LINE
  5
C2
330
1F
100
AcDbEntity
  8
1
  6
Continuous
 62
     2
100
AcDbLine
 10
84.18456493351408
 20
42.99363467708162
 30
0.0
 11
84.28750610998468
 21
43.34363467708162
 31
0.0
  0
LINE
  5
C3
330
1F
100
AcDbEntity
  8
1
  6
Continuous
 62
     2
100
AcDbLine
 10
83.97868258057291
 20
42.76030134374829
 30
0.0
 11
84.18456493351408
 21
42.99363467708162
 31
0.0
  0
LINE
  5
C4
330
1F
100
AcDbEntity
  8
1
  6
Continuous
 62
     2
100
AcDbLine
 10
83.66985905116114
 20
42.52696801041495
 30
0.0
 11
83.97868258057291
 21
42.76030134374829
 31
0.0
  0
LINE
  5
C5
330
1F
100
AcDbEntity
  8
1
  6
Continuous
 62
     2
100
AcDbLine
 10
83.1551531688082
 20
42.41030134374829
 30
0.0
 11
83.66985905116114
 21
42.52696801041495
 31
0.0
  0
LINE
  5
C6
330
1F
100
AcDbEntity
  8
1
  6
Continuous
 62
     2
100
AcDbLine
 10
82.64044728645527
 20
42.52696801041495
 30
0.0
 11
83.1551531688082
 21
42.41030134374829
 31
0.0
  0
LINE
  5
C7
330
1F
100
AcDbEntity
  8
1
  6
Continuous
 62
     2
100
AcDbLine
 10
82.3316237570435
 20
42.99363467708162
 30
0.0
 11
82.64044728645527
 21
42.52696801041495
 31
0.0
  0
LINE
  5
C8
330
1F
100
AcDbEntity
  8
1
  6
Continuous
 62
     2
100
AcDbLine
 10
82.22868258057291
 20
43.22696801041496
 30
0.0
 11
82.3316237570435
 21
42.99363467708162
 31
0.0
  0
LINE
  5
C9
330
1F
100
AcDbEntity
  8
1
  6
Continuous
 62
     2
100
AcDbLine
 10
82.02280022763173
 20
44.16030134374829
 30
0.0
 11
82.22868258057291
 21
43.22696801041496
 31
0.0
  0
LINE
  5
CA
330
1F
100
AcDbEntity
  8
1
  6
Continuous
 62
     2
100
AcDbLine
 10
82.12574140410233
 20
44.62696801041496
 30
0.0
 11
82.02280022763173
 21
44.16030134374829
 31
0.0
  0
LINE
  5
CB
330
1F
100
AcDbEntity
  8
1
  6
Continuous
 62
     2
100
AcDbLine
 10
82.3316237570435
 20
45.32696801041495
 30
0.0
 11
82.12574140410233
 21
44.62696801041496
 31
0.0
  0
LINE
  5
CC
330
1F
100
AcDbEntity
  8
1
  6
Continuous
 62
     2
100
AcDbLine
 10
82.43456493351408
 20
45.56030134374829
 30
0.0
 11
82.3316237570435
 21
45.32696801041495
 31
0.0
  0
LINE
  5
CD
330
1F
100
AcDbEntity
  8
1
  6
Continuous
 62
     2
100
AcDbLine
 10
82.74338846292585
 20
45.79363467708162
 30
0.0
 11
82.43456493351408
 21
45.56030134374829
 31
0.0
  0
LINE
  5
CE
330
1F
100
AcDbEntity
  8
1
  6
Continuous
 62
     2
100
AcDbLine
 10
83.1551531688082
 20
45.91030134374829
 30
0.0
 11
82.74338846292585
 21
45.79363467708162
 31
0.0
  0
LINE
  5
CF
330
1F
100
AcDbEntity
  8
1
  6
Continuous
 62
     2
100
AcDbLine
 10
83.66985905116114
 20
45.79363467708162
 30
0.0
 11
83.1551531688082
 21
45.91030134374829
 31
0.0
  0
LINE
  5
D0
330
1F
100
AcDbEntity
  8
1
  6
Continuous
 62
     2
100
AcDbLine
 10
83.87574140410233
 20
45.67696801041495
 30
0.0
 11
83.66985905116114
 21
45.79363467708162
 31
0.0
  0
LINE
  5
D1
330
1F
100
AcDbEntity
  8
1
  6
Continuous
 62
     2
100
AcDbLine
 10
84.0816237570435
 20
45.44363467708162
 30
0.0
 11
83.87574140410233
 21
45.67696801041495
 31
0.0
  0
LINE
  5
D2
330
1F
100
AcDbEntity
  8
1
  6
Continuous
 62
     2
100
AcDbLine
 10
84.28750610998468
 20
45.09363467708162
 30
0.0
 11
84.0816237570435
 21
45.44363467708162
 31
0.0
  0
LINE
  5
D3
330
1F
100
AcDbEntity
  8
1
  6
Continuous
 62
     2
100
AcDbLine
 10
80.27280022763175
 20
42.41030134374829
 30
0.0
 11
80.99338846292586
 21
45.91030134374829
 31
0.0
  0
LINE
  5
D4
330
1F
100
AcDbEntity
  8
1
  6
Continuous
 62
     2
100
AcDbLine
 10
79.44927081586704
 20
45.79363467708162
 30
0.0
 11
80.27280022763175
 21
42.41030134374829
 31
0.0
  0
LINE
  5
D5
330
1F
100
AcDbEntity
  8
1
  6
Continuous
 62
     2
100
AcDbLine
 10
78.72868258057292
 20
42.41030134374829
 30
0.0
 11
79.44927081586704
 21
45.79363467708162
 31
0.0
  0
LINE
  5
D6
330
1F
100
AcDbEntity
  8
1
  6
Continuous
 62
     2
100
AcDbLine
 10
77.90515316880821
 20
45.91030134374829
 30
0.0
 11
78.72868258057292
 21
42.41030134374829
 31
0.0
  0
LINE
  5
D7
330
1F
100
AcDbEntity
  8
1
  6
Continuous
 62
     2
100
AcDbLine
 10
74.91985905116115
 20
43.34363467708162
 30
0.0
 11
76.56691787469056
 21
43.34363467708162
 31
0.0
  0
LINE
  5
D8
330
1F
100
AcDbEntity
  8
1
  6
Continuous
 62
     2
100
AcDbLine
 10
75.74338846292585
 20
45.91030134374829
 30
0.0
 11
76.87574140410233
 21
42.41030134374829
 31
0.0
  0
LINE
  5
D9
330
1F
100
AcDbEntity
  8
1
  6
Continuous
 62
     2
100
AcDbLine
 10
74.61103552174939
 20
42.41030134374829
 30
0.0
 11
75.74338846292585
 21
45.91030134374829
 31
0.0
  0
LINE
  5
DA
330
1F
100
AcDbEntity
  8
1
  6
Continuous
 62
     4
100
AcDbLine
 10
39.14783176223556
 20
5.80432378305543
 30
0.0
 11
40.79489058576496
 21
5.80432378305543
 31
0.0
  0
LINE
  5
DB
330
1F
100
AcDbEntity
  8
1
  6
Continuous
 62
     4
100
AcDbLine
 10
39.97136117400026
 20
8.3709904497221
 30
0.0
 11
41.10371411517673
 21
4.8709904497221
 31
0.0
  0
LINE
  5
DC
330
1F
100
AcDbEntity
  8
1
  6
Continuous
 62
     4
100
AcDbLine
 10
38.83900823282379
 20
4.8709904497221
 30
0.0
 11
39.97136117400026
 21
8.3709904497221
 31
0.0
  0
LINE
  5
DD
330
1F
100
AcDbEntity
  8
1
  6
Continuous
 62
     4
100
AcDbLine
 10
34.41253764458852
 20
5.10432378305543
 30
0.0
 11
34.18091999752969
 21
5.33765711638877
 31
0.0
  0
LINE
  5
DE
330
1F
100
AcDbEntity
  8
1
  6
Continuous
 62
     4
100
AcDbLine
 10
34.72136117400028
 20
4.8709904497221
 30
0.0
 11
34.41253764458852
 21
5.10432378305543
 31
0.0
  0
LINE
  5
DF
330
1F
100
AcDbEntity
  8
1
  6
Continuous
 62
     4
100
AcDbLine
 10
35.26180235047087
 20
4.8709904497221
 30
0.0
 11
34.72136117400028
 21
4.8709904497221
 31
0.0
  0
LINE
  5
E0
330
1F
100
AcDbEntity
  8
1
  6
Continuous
 62
     4
100
AcDbLine
 10
35.49341999752969
 20
5.10432378305543
 30
0.0
 11
35.26180235047087
 21
4.8709904497221
 31
0.0
  0
LINE
  5
E1
330
1F
100
AcDbEntity
  8
1
  6
Continuous
 62
     4
100
AcDbLine
 10
35.64783176223558
 20
5.33765711638877
 30
0.0
 11
35.49341999752969
 21
5.10432378305543
 31
0.0
  0
LINE
  5
E2
330
1F
100
AcDbEntity
  8
1
  6
Continuous
 62
     4
100
AcDbLine
 10
35.72503764458852
 20
5.9209904497221
 30
0.0
 11
35.64783176223558
 21
5.33765711638877
 31
0.0
  0
LINE
  5
E3
330
1F
100
AcDbEntity
  8
1
  6
Continuous
 62
     4
100
AcDbLine
 10
35.64783176223558
 20
6.50432378305544
 30
0.0
 11
35.72503764458852
 21
5.9209904497221
 31
0.0
  0
LINE
  5
E4
330
1F
100
AcDbEntity
  8
1
  6
Continuous
 62
     4
100
AcDbLine
 10
35.49341999752969
 20
6.73765711638877
 30
0.0
 11
35.64783176223558
 21
6.50432378305544
 31
0.0
  0
LINE
  5
E5
330
1F
100
AcDbEntity
  8
1
  6
Continuous
 62
     4
100
AcDbLine
 10
35.26180235047087
 20
6.9709904497221
 30
0.0
 11
35.49341999752969
 21
6.73765711638877
 31
0.0
  0
LINE
  5
E6
330
1F
100
AcDbEntity
  8
1
  6
Continuous
 62
     4
100
AcDbLine
 10
34.95297882105911
 20
7.08765711638877
 30
0.0
 11
35.26180235047087
 21
6.9709904497221
 31
0.0
  0
LINE
  5
E7
330
1F
100
AcDbEntity
  8
1
  6
Continuous
 62
     4
100
AcDbLine
 10
34.64415529164734
 20
6.9709904497221
 30
0.0
 11
34.95297882105911
 21
7.08765711638877
 31
0.0
  0
LINE
  5
E8
330
1F
100
AcDbEntity
  8
1
  6
Continuous
 62
     4
100
AcDbLine
 10
34.25812587988263
 20
6.6209904497221
 30
0.0
 11
34.64415529164734
 21
6.9709904497221
 31
0.0
  0
LINE
  5
E9
330
1F
100
AcDbEntity
  8
1
  6
Continuous
 62
     4
100
AcDbLine
 10
34.33533176223558
 20
8.3709904497221
 30
0.0
 11
34.25812587988263
 21
6.6209904497221
 31
0.0
  0
LINE
  5
EA
330
1F
100
AcDbEntity
  8
1
  6
Continuous
 62
     4
100
AcDbLine
 10
35.64783176223558
 20
8.3709904497221
 30
0.0
 11
34.33533176223558
 21
8.3709904497221
 31
0.0
  0
LINE
  5
EB
330
1F
100
AcDbEntity
  8
1
  6
Continuous
 62
     4
100
AcDbLine
 10
32.63680235047087
 20
5.68765711638877
 30
0.0
 11
32.63680235047087
 21
4.8709904497221
 31
0.0
  0
LINE
  5
EC
330
1F
100
AcDbEntity
  8
1
  6
Continuous
 62
     4
100
AcDbLine
 10
32.79121411517676
 20
6.73765711638877
 30
0.0
 11
32.63680235047087
 21
5.68765711638877
 31
0.0
  0
LINE
  5
ED
330
1F
100
AcDbEntity
  8
1
  6
Continuous
 62
     4
100
AcDbLine
 10
33.40886117400029
 20
8.3709904497221
 30
0.0
 11
32.79121411517676
 21
6.73765711638877
 31
0.0
  0
LINE
  5
EE
330
1F
100
AcDbEntity
  8
1
  6
Continuous
 62
     4
100
AcDbLine
 10
31.86474352694146
 20
8.3709904497221
 30
0.0
 11
33.40886117400029
 21
8.3709904497221
 31
0.0
  0
LINE
  5
EF
330
1F
100
AcDbEntity
  8
1
  6
Continuous
 62
     4
100
AcDbLine
 10
30.70665529164734
 20
8.13765711638877
 30
0.0
 11
30.24341999752969
 21
8.3709904497221
 31
0.0
  0
LINE
  5
F0
330
1F
100
AcDbEntity
  8
1
  6
Continuous
 62
     4
100
AcDbLine
 10
31.01547882105911
 20
7.55432378305543
 30
0.0
 11
30.70665529164734
 21
8.13765711638877
 31
0.0
  0
LINE
  5
F1
330
1F
100
AcDbEntity
  8
1
  6
Continuous
 62
     4
100
AcDbLine
 10
31.09268470341205
 20
6.6209904497221
 30
0.0
 11
31.01547882105911
 21
7.55432378305543
 31
0.0
  0
LINE
  5
F2
330
1F
100
AcDbEntity
  8
1
  6
Continuous
 62
     4
100
AcDbLine
 10
31.01547882105911
 20
5.68765711638877
 30
0.0
 11
31.09268470341205
 21
6.6209904497221
 31
0.0
  0
LINE
  5
F3
330
1F
100
AcDbEntity
  8
1
  6
Continuous
 62
     4
100
AcDbLine
 10
30.70665529164734
 20
5.10432378305543
 30
0.0
 11
31.01547882105911
 21
5.68765711638877
 31
0.0
  0
LINE
  5
F4
330
1F
100
AcDbEntity
  8
1
  6
Continuous
 62
     4
100
AcDbLine
 10
30.24341999752969
 20
4.8709904497221
 30
0.0
 11
30.70665529164734
 21
5.10432378305543
 31
0.0
  0
LINE
  5
F5
330
1F
100
AcDbEntity
  8
1
  6
Continuous
 62
     4
100
AcDbLine
 10
29.78018470341205
 20
5.10432378305543
 30
0.0
 11
30.24341999752969
 21
4.8709904497221
 31
0.0
  0
LINE
  5
F6
330
1F
100
AcDbEntity
  8
1
  6
Continuous
 62
     4
100
AcDbLine
 10
29.54856705635323
 20
5.68765711638877
 30
0.0
 11
29.78018470341205
 21
5.10432378305543
 31
0.0
  0
LINE
  5
F7
330
1F
100
AcDbEntity
  8
1
  6
Continuous
 62
     4
100
AcDbLine
 10
29.39415529164734
 20
6.6209904497221
 30
0.0
 11
29.54856705635323
 21
5.68765711638877
 31
0.0
  0
LINE
  5
F8
330
1F
100
AcDbEntity
  8
1
  6
Continuous
 62
     4
100
AcDbLine
 10
29.54856705635323
 20
7.55432378305543
 30
0.0
 11
29.39415529164734
 21
6.6209904497221
 31
0.0
  0
LINE
  5
F9
330
1F
100
AcDbEntity
  8
1
  6
Continuous
 62
     4
100
AcDbLine
 10
29.78018470341205
 20
8.13765711638877
 30
0.0
 11
29.54856705635323
 21
7.55432378305543
 31
0.0
  0
LINE
  5
FA
330
1F
100
AcDbEntity
  8
1
  6
Continuous
 62
     4
100
AcDbLine
 10
30.24341999752969
 20
8.3709904497221
 30
0.0
 11
29.78018470341205
 21
8.13765711638877
 31
0.0
  0
LINE
  5
FB
330
1F
100
AcDbEntity
  8
1
  6
Continuous
 62
     4
100
AcDbLine
 10
28.39047882105911
 20
5.2209904497221
 30
0.0
 11
28.46768470341205
 21
5.33765711638877
 31
0.0
  0
LINE
  5
FC
330
1F
100
AcDbEntity
  8
1
  6
Continuous
 62
     4
100
AcDbLine
 10
28.46768470341205
 20
5.10432378305543
 30
0.0
 11
28.39047882105911
 21
5.2209904497221
 31
0.0
  0
LINE
  5
FD
330
1F
100
AcDbEntity
  8
1
  6
Continuous
 62
     4
100
AcDbLine
 10
28.54489058576499
 20
5.2209904497221
 30
0.0
 11
28.46768470341205
 21
5.10432378305543
 31
0.0
  0
LINE
  5
FE
330
1F
100
AcDbEntity
  8
1
  6
Continuous
 62
     4
100
AcDbLine
 10
28.46768470341205
 20
5.33765711638877
 30
0.0
 11
28.54489058576499
 21
5.2209904497221
 31
0.0
  0
LINE
  5
FF
330
1F
100
AcDbEntity
  8
1
  6
Continuous
 62
     4
100
AcDbLine
 10
28.39047882105911
 20
5.33765711638877
 30
0.0
 11
28.54489058576499
 21
5.33765711638877
 31
0.0
  0
LINE
  5
100
330
1F
100
AcDbEntity
  8
1
  6
Continuous
 62
     4
100
AcDbLine
 10
28.39047882105911
 20
5.10432378305543
 30
0.0
 11
28.39047882105911
 21
5.33765711638877
 31
0.0
  0
LINE
  5
101
330
1F
100
AcDbEntity
  8
1
  6
Continuous
 62
     4
100
AcDbLine
 10
28.54489058576499
 20
5.10432378305543
 30
0.0
 11
28.39047882105911
 21
5.10432378305543
 31
0.0
  0
LINE
  5
102
330
1F
100
AcDbEntity
  8
1
  6
Continuous
 62
     4
100
AcDbLine
 10
28.54489058576499
 20
5.33765711638877
 30
0.0
 11
28.54489058576499
 21
5.10432378305543
 31
0.0
  0
LINE
  5
103
330
1F
100
AcDbEntity
  8
1
  6
Continuous
 62
     4
100
AcDbLine
 10
28.31327293870616
 20
5.2209904497221
 30
0.0
 11
28.46768470341205
 21
5.45432378305543
 31
0.0
  0
LINE
  5
104
330
1F
100
AcDbEntity
  8
1
  6
Continuous
 62
     4
100
AcDbLine
 10
28.46768470341205
 20
4.98765711638877
 30
0.0
 11
28.31327293870616
 21
5.2209904497221
 31
0.0
  0
LINE
  5
105
330
1F
100
AcDbEntity
  8
1
  6
Continuous
 62
     4
100
AcDbLine
 10
28.62209646811793
 20
5.2209904497221
 30
0.0
 11
28.46768470341205
 21
4.98765711638877
 31
0.0
  0
LINE
  5
106
330
1F
100
AcDbEntity
  8
1
  6
Continuous
 62
     4
100
AcDbLine
 10
28.46768470341205
 20
5.45432378305543
 30
0.0
 11
28.62209646811793
 21
5.2209904497221
 31
0.0
  0
LINE
  5
107
330
1F
100
AcDbEntity
  8
1
  6
Continuous
 62
     4
100
AcDbLine
 10
27.15518470341205
 20
8.13765711638877
 30
0.0
 11
26.6919494092944
 21
8.3709904497221
 31
0.0
  0
LINE
  5
108
330
1F
100
AcDbEntity
  8
1
  6
Continuous
 62
     4
100
AcDbLine
 10
27.46400823282381
 20
7.55432378305543
 30
0.0
 11
27.15518470341205
 21
8.13765711638877
 31
0.0
  0
LINE
  5
109
330
1F
100
AcDbEntity
  8
1
  6
Continuous
 62
     4
100
AcDbLine
 10
27.54121411517675
 20
6.6209904497221
 30
0.0
 11
27.46400823282381
 21
7.55432378305543
 31
0.0
  0
LINE
  5
10A
330
1F
100
AcDbEntity
  8
1
  6
Continuous
 62
     4
100
AcDbLine
 10
27.46400823282381
 20
5.68765711638877
 30
0.0
 11
27.54121411517675
 21
6.6209904497221
 31
0.0
  0
LINE
  5
10B
330
1F
100
AcDbEntity
  8
1
  6
Continuous
 62
     4
100
AcDbLine
 10
27.15518470341205
 20
5.10432378305543
 30
0.0
 11
27.46400823282381
 21
5.68765711638877
 31
0.0
  0
LINE
  5
10C
330
1F
100
AcDbEntity
  8
1
  6
Continuous
 62
     4
100
AcDbLine
 10
26.6919494092944
 20
4.8709904497221
 30
0.0
 11
27.15518470341205
 21
5.10432378305543
 31
0.0
  0
LINE
  5
10D
330
1F
100
AcDbEntity
  8
1
  6
Continuous
 62
     4
100
AcDbLine
 10
26.22871411517675
 20
5.10432378305543
 30
0.0
 11
26.6919494092944
 21
4.8709904497221
 31
0.0
  0
LINE
  5
10E
330
1F
100
AcDbEntity
  8
1
  6
Continuous
 62
     4
100
AcDbLine
 10
25.99709646811793
 20
5.68765711638877
 30
0.0
 11
26.22871411517675
 21
5.10432378305543
 31
0.0
  0
LINE
  5
10F
330
1F
100
AcDbEntity
  8
1
  6
Continuous
 62
     4
100
AcDbLine
 10
25.84268470341205
 20
6.6209904497221
 30
0.0
 11
25.99709646811793
 21
5.68765711638877
 31
0.0
  0
LINE
  5
110
330
1F
100
AcDbEntity
  8
1
  6
Continuous
 62
     4
100
AcDbLine
 10
25.99709646811793
 20
7.55432378305543
 30
0.0
 11
25.84268470341205
 21
6.6209904497221
 31
0.0
  0
LINE
  5
111
330
1F
100
AcDbEntity
  8
1
  6
Continuous
 62
     4
100
AcDbLine
 10
26.22871411517675
 20
8.13765711638877
 30
0.0
 11
25.99709646811793
 21
7.55432378305543
 31
0.0
  0
LINE
  5
112
330
1F
100
AcDbEntity
  8
1
  6
Continuous
 62
     4
100
AcDbLine
 10
26.6919494092944
 20
8.3709904497221
 30
0.0
 11
26.22871411517675
 21
8.13765711638877
 31
0.0
  0
LINE
  5
113
330
1F
100
AcDbEntity
  8
1
  6
Continuous
 62
     4
100
AcDbLine
 10
24.74893470341205
 20
7.2772404497221
 30
0.0
 11
24.53018470341205
 21
7.3866154497221
 31
0.0
  0
LINE
  5
114
330
1F
100
AcDbEntity
  8
1
  6
Continuous
 62
     4
100
AcDbLine
 10
24.89476803674538
 20
6.8397404497221
 30
0.0
 11
24.74893470341205
 21
7.2772404497221
 31
0.0
  0
LINE
  5
115
330
1F
100
AcDbEntity
  8
1
  6
Continuous
 62
     4
100
AcDbLine
 10
24.89476803674538
 20
6.4022404497221
 30
0.0
 11
24.89476803674538
 21
6.8397404497221
 31
0.0
  0
LINE
  5
116
330
1F
100
AcDbEntity
  8
1
  6
Continuous
 62
     4
100
AcDbLine
 10
24.67601803674538
 20
5.8553654497221
 30
0.0
 11
24.89476803674538
 21
6.4022404497221
 31
0.0
  0
LINE
  5
117
330
1F
100
AcDbEntity
  8
1
  6
Continuous
 62
     4
100
AcDbLine
 10
24.38435137007872
 20
5.6366154497221
 30
0.0
 11
24.67601803674538
 21
5.8553654497221
 31
0.0
  0
LINE
  5
118
330
1F
100
AcDbEntity
  8
1
  6
Continuous
 62
     4
100
AcDbLine
 10
24.09268470341205
 20
5.6366154497221
 30
0.0
 11
24.38435137007872
 21
5.6366154497221
 31
0.0
  0
LINE
  5
119
330
1F
100
AcDbEntity
  8
1
  6
Continuous
 62
     4
100
AcDbLine
 10
23.87393470341205
 20
5.7459904497221
 30
0.0
 11
24.09268470341205
 21
5.6366154497221
 31
0.0
  0
LINE
  5
11A
330
1F
100
AcDbEntity
  8
1
  6
Continuous
 62
     4
100
AcDbLine
 10
23.72810137007872
 20
6.1834904497221
 30
0.0
 11
23.87393470341205
 21
5.7459904497221
 31
0.0
  0
LINE
  5
11B
330
1F
100
AcDbEntity
  8
1
  6
Continuous
 62
     4
100
AcDbLine
 10
23.72810137007872
 20
6.6209904497221
 30
0.0
 11
23.72810137007872
 21
6.1834904497221
 31
0.0
  0
LINE
  5
11C
330
1F
100
AcDbEntity
  8
1
  6
Continuous
 62
     4
100
AcDbLine
 10
23.94685137007872
 20
7.1678654497221
 30
0.0
 11
23.72810137007872
 21
6.6209904497221
 31
0.0
  0
LINE
  5
11D
330
1F
100
AcDbEntity
  8
1
  6
Continuous
 62
     4
100
AcDbLine
 10
24.23851803674538
 20
7.3866154497221
 30
0.0
 11
23.94685137007872
 21
7.1678654497221
 31
0.0
  0
LINE
  5
11E
330
1F
100
AcDbEntity
  8
1
  6
Continuous
 62
     4
100
AcDbLine
 10
24.53018470341205
 20
7.3866154497221
 30
0.0
 11
24.23851803674538
 21
7.3866154497221
 31
0.0
  0
LINE
  5
11F
330
1F
100
AcDbEntity
  8
1
  6
Continuous
 62
     4
100
AcDbLine
 10
23.94685137007872
 20
4.8709904497221
 30
0.0
 11
24.67601803674538
 21
8.2616154497221
 31
0.0
  0
LINE
  5
120
330
1F
100
AcDbEntity
  8
1
  6
Continuous
 62
     4
100
AcDbLine
 10
36.47136117400028
 20
10.1209904497221
 30
0.0
 11
36.47136117400028
 21
3.1209904497221
 31
0.0
  0
LINE
  5
121
330
1F
100
AcDbEntity
  8
1
  6
Continuous
 62
     4
100
AcDbLine
 10
43.47136117400028
 20
3.1209904497221
 30
0.0
 11
43.47136117400028
 21
10.1209904497221
 31
0.0
  0
LINE
  5
122
330
1F
100
AcDbEntity
  8
1
  6
Continuous
 62
     4
100
AcDbLine
 10
15.47136117400028
 20
10.1209904497221
 30
0.0
 11
15.47136117400028
 21
3.1209904497221
 31
0.0
  0
LINE
  5
123
330
1F
100
AcDbEntity
  8
1
  6
Continuous
 62
     4
100
AcDbLine
 10
43.47136117400028
 20
10.1209904497221
 30
0.0
 11
15.47136117400028
 21
10.1209904497221
 31
0.0
  0
LINE
  5
124
330
1F
100
AcDbEntity
  8
1
  6
Continuous
 62
     4
100
AcDbLine
 10
22.47136117400028
 20
3.1209904497221
 30
0.0
 11
22.47136117400028
 21
10.1209904497221
 31
0.0
  0
LINE
  5
125
330
1F
100
AcDbEntity
  8
1
  6
Continuous
 62
     4
100
AcDbLine
 10
15.47136117400028
 20
3.1209904497221
 30
0.0
 11
43.47136117400028
 21
3.1209904497221
 31
0.0
  0
LINE
  5
126
330
1F
100
AcDbEntity
  8
1
  6
Continuous
 62
     4
100
AcDbLine
 10
16.52136117400028
 20
7.67099044972209
 30
0.0
 11
16.34636117400028
 21
6.9709904497221
 31
0.0
  0
LINE
  5
127
330
1F
100
AcDbEntity
  8
1
  6
Continuous
 62
     4
100
AcDbLine
 10
16.87136117400028
 20
8.1959904497221
 30
0.0
 11
16.52136117400028
 21
7.67099044972209
 31
0.0
  0
LINE
  5
128
330
1F
100
AcDbEntity
  8
1
  6
Continuous
 62
     4
100
AcDbLine
 10
17.39636117400028
 20
8.72099044972209
 30
0.0
 11
16.87136117400028
 21
8.1959904497221
 31
0.0
  0
LINE
  5
129
330
1F
100
AcDbEntity
  8
1
  6
Continuous
 62
     4
100
AcDbLine
 10
17.92136117400028
 20
9.0709904497221
 30
0.0
 11
17.39636117400028
 21
8.72099044972209
 31
0.0
  0
LINE
  5
12A
330
1F
100
AcDbEntity
  8
1
  6
Continuous
 62
     4
100
AcDbLine
 10
18.62136117400028
 20
9.2459904497221
 30
0.0
 11
17.92136117400028
 21
9.0709904497221
 31
0.0
  0
LINE
  5
12B
330
1F
100
AcDbEntity
  8
1
  6
Continuous
 62
     4
100
AcDbLine
 10
19.32136117400028
 20
9.2459904497221
 30
0.0
 11
18.62136117400028
 21
9.2459904497221
 31
0.0
  0
LINE
  5
12C
330
1F
100
AcDbEntity
  8
1
  6
Continuous
 62
     4
100
AcDbLine
 10
20.02136117400028
 20
9.0709904497221
 30
0.0
 11
19.32136117400028
 21
9.2459904497221
 31
0.0
  0
LINE
  5
12D
330
1F
100
AcDbEntity
  8
1
  6
Continuous
 62
     4
100
AcDbLine
 10
20.54636117400028
 20
8.72099044972209
 30
0.0
 11
20.02136117400028
 21
9.0709904497221
 31
0.0
  0
LINE
  5
12E
330
1F
100
AcDbEntity
  8
1
  6
Continuous
 62
     4
100
AcDbLine
 10
21.07136117400028
 20
8.1959904497221
 30
0.0
 11
20.54636117400028
 21
8.72099044972209
 31
0.0
  0
LINE
  5
12F
330
1F
100
AcDbEntity
  8
1
  6
Continuous
 62
     4
100
AcDbLine
 10
21.42136117400028
 20
7.67099044972209
 30
0.0
 11
21.07136117400028
 21
8.1959904497221
 31
0.0
  0
LINE
  5
130
330
1F
100
AcDbEntity
  8
1
  6
Continuous
 62
     4
100
AcDbLine
 10
21.59636117400028
 20
6.9709904497221
 30
0.0
 11
21.42136117400028
 21
7.67099044972209
 31
0.0
  0
LINE
  5
131
330
1F
100
AcDbEntity
  8
1
  6
Continuous
 62
     4
100
AcDbLine
 10
21.59636117400028
 20
6.2709904497221
 30
0.0
 11
21.59636117400028
 21
6.9709904497221
 31
0.0
  0
LINE
  5
132
330
1F
100
AcDbEntity
  8
1
  6
Continuous
 62
     4
100
AcDbLine
 10
21.42136117400028
 20
5.57099044972209
 30
0.0
 11
21.59636117400028
 21
6.2709904497221
 31
0.0
  0
LINE
  5
133
330
1F
100
AcDbEntity
  8
1
  6
Continuous
 62
     4
100
AcDbLine
 10
21.07136117400028
 20
5.0459904497221
 30
0.0
 11
21.42136117400028
 21
5.57099044972209
 31
0.0
  0
LINE
  5
134
330
1F
100
AcDbEntity
  8
1
  6
Continuous
 62
     4
100
AcDbLine
 10
20.54636117400028
 20
4.5209904497221
 30
0.0
 11
21.07136117400028
 21
5.0459904497221
 31
0.0
  0
LINE
  5
135
330
1F
100
AcDbEntity
  8
1
  6
Continuous
 62
     4
100
AcDbLine
 10
20.02136117400028
 20
4.17099044972209
 30
0.0
 11
20.54636117400028
 21
4.5209904497221
 31
0.0
  0
LINE
  5
136
330
1F
100
AcDbEntity
  8
1
  6
Continuous
 62
     4
100
AcDbLine
 10
19.32136117400028
 20
3.9959904497221
 30
0.0
 11
20.02136117400028
 21
4.17099044972209
 31
0.0
  0
LINE
  5
137
330
1F
100
AcDbEntity
  8
1
  6
Continuous
 62
     4
100
AcDbLine
 10
18.62136117400028
 20
3.9959904497221
 30
0.0
 11
19.32136117400028
 21
3.9959904497221
 31
0.0
  0
LINE
  5
138
330
1F
100
AcDbEntity
  8
1
  6
Continuous
 62
     4
100
AcDbLine
 10
17.92136117400028
 20
4.17099044972209
 30
0.0
 11
18.62136117400028
 21
3.9959904497221
 31
0.0
  0
LINE
  5
139
330
1F
100
AcDbEntity
  8
1
  6
Continuous
 62
     4
100
AcDbLine
 10
17.39636117400028
 20
4.5209904497221
 30
0.0
 11
17.92136117400028
 21
4.17099044972209
 31
0.0
  0
LINE
  5
13A
330
1F
100
AcDbEntity
  8
1
  6
Continuous
 62
     4
100
AcDbLine
 10
16.87136117400028
 20
5.0459904497221
 30
0.0
 11
17.39636117400028
 21
4.5209904497221
 31
0.0
  0
LINE
  5
13B
330
1F
100
AcDbEntity
  8
1
  6
Continuous
 62
     4
100
AcDbLine
 10
16.52136117400028
 20
5.57099044972209
 30
0.0
 11
16.87136117400028
 21
5.0459904497221
 31
0.0
  0
LINE
  5
13C
330
1F
100
AcDbEntity
  8
1
  6
Continuous
 62
     4
100
AcDbLine
 10
16.34636117400028
 20
6.2709904497221
 30
0.0
 11
16.52136117400028
 21
5.57099044972209
 31
0.0
  0
LINE
  5
13D
330
1F
100
AcDbEntity
  8
1
  6
Continuous
 62
     4
100
AcDbLine
 10
16.34636117400028
 20
6.9709904497221
 30
0.0
 11
16.34636117400028
 21
6.2709904497221
 31
0.0
  0
LINE
  5
13E
330
1F
100
AcDbEntity
  8
1
  6
Continuous
 62
     4
100
AcDbLine
 10
17.57136117400028
 20
7.67099044972209
 30
0.0
 11
17.22136117400028
 21
6.9709904497221
 31
0.0
  0
LINE
  5
13F
330
1F
100
AcDbEntity
  8
1
  6
Continuous
 62
     4
100
AcDbLine
 10
17.92136117400028
 20
8.0209904497221
 30
0.0
 11
17.57136117400028
 21
7.67099044972209
 31
0.0
  0
LINE
  5
140
330
1F
100
AcDbEntity
  8
1
  6
Continuous
 62
     4
100
AcDbLine
 10
18.62136117400028
 20
8.3709904497221
 30
0.0
 11
17.92136117400028
 21
8.0209904497221
 31
0.0
  0
LINE
  5
141
330
1F
100
AcDbEntity
  8
1
  6
Continuous
 62
     4
100
AcDbLine
 10
19.32136117400028
 20
8.3709904497221
 30
0.0
 11
18.62136117400028
 21
8.3709904497221
 31
0.0
  0
LINE
  5
142
330
1F
100
AcDbEntity
  8
1
  6
Continuous
 62
     4
100
AcDbLine
 10
20.02136117400028
 20
8.0209904497221
 30
0.0
 11
19.32136117400028
 21
8.3709904497221
 31
0.0
  0
LINE
  5
143
330
1F
100
AcDbEntity
  8
1
  6
Continuous
 62
     4
100
AcDbLine
 10
20.37136117400028
 20
7.67099044972209
 30
0.0
 11
20.02136117400028
 21
8.0209904497221
 31
0.0
  0
LINE
  5
144
330
1F
100
AcDbEntity
  8
1
  6
Continuous
 62
     4
100
AcDbLine
 10
20.72136117400028
 20
6.9709904497221
 30
0.0
 11
20.37136117400028
 21
7.67099044972209
 31
0.0
  0
LINE
  5
145
330
1F
100
AcDbEntity
  8
1
  6
Continuous
 62
     4
100
AcDbLine
 10
20.72136117400028
 20
6.2709904497221
 30
0.0
 11
20.72136117400028
 21
6.9709904497221
 31
0.0
  0
LINE
  5
146
330
1F
100
AcDbEntity
  8
1
  6
Continuous
 62
     4
100
AcDbLine
 10
20.37136117400028
 20
5.57099044972209
 30
0.0
 11
20.72136117400028
 21
6.2709904497221
 31
0.0
  0
LINE
  5
147
330
1F
100
AcDbEntity
  8
1
  6
Continuous
 62
     4
100
AcDbLine
 10
20.02136117400028
 20
5.22099044972209
 30
0.0
 11
20.37136117400028
 21
5.57099044972209
 31
0.0
  0
LINE
  5
148
330
1F
100
AcDbEntity
  8
1
  6
Continuous
 62
     4
100
AcDbLine
 10
19.32136117400028
 20
4.8709904497221
 30
0.0
 11
20.02136117400028
 21
5.22099044972209
 31
0.0
  0
LINE
  5
149
330
1F
100
AcDbEntity
  8
1
  6
Continuous
 62
     4
100
AcDbLine
 10
18.62136117400028
 20
4.8709904497221
 30
0.0
 11
19.32136117400028
 21
4.8709904497221
 31
0.0
  0
LINE
  5
14A
330
1F
100
AcDbEntity
  8
1
  6
Continuous
 62
     4
100
AcDbLine
 10
17.92136117400028
 20
5.22099044972209
 30
0.0
 11
18.62136117400028
 21
4.8709904497221
 31
0.0
  0
LINE
  5
14B
330
1F
100
AcDbEntity
  8
1
  6
Continuous
 62
     4
100
AcDbLine
 10
17.57136117400028
 20
5.57099044972209
 30
0.0
 11
17.92136117400028
 21
5.22099044972209
 31
0.0
  0
LINE
  5
14C
330
1F
100
AcDbEntity
  8
1
  6
Continuous
 62
     4
100
AcDbLine
 10
17.22136117400028
 20
6.2709904497221
 30
0.0
 11
17.57136117400028
 21
5.57099044972209
 31
0.0
  0
LINE
  5
14D
330
1F
100
AcDbEntity
  8
1
  6
Continuous
 62
     4
100
AcDbLine
 10
17.22136117400028
 20
6.9709904497221
 30
0.0
 11
17.22136117400028
 21
6.2709904497221
 31
0.0
  0
LINE
  5
14E
330
1F
100
AcDbEntity
  8
1
  6
Continuous
 62
     4
100
AcDbLine
 10
33.75477096577006
 20
-67.67219416087997
 30
0.0
 11
35.40182978929947
 21
-67.67219416087997
 31
0.0
  0
LINE
  5
14F
330
1F
100
AcDbEntity
  8
1
  6
Continuous
 62
     4
100
AcDbLine
 10
34.57830037753477
 20
-65.1055274942133
 30
0.0
 11
35.71065331871124
 21
-68.6055274942133
 31
0.0
  0
LINE
  5
150
330
1F
100
AcDbEntity
  8
1
  6
Continuous
 62
     4
100
AcDbLine
 10
33.4459474363583
 20
-68.6055274942133
 30
0.0
 11
34.57830037753477
 21
-65.1055274942133
 31
0.0
  0
LINE
  5
151
330
1F
100
AcDbEntity
  8
1
  6
Continuous
 62
     4
100
AcDbLine
 10
31.07830037753477
 20
-63.35552749421331
 30
0.0
 11
31.07830037753477
 21
-70.3555274942133
 31
0.0
  0
LINE
  5
152
330
1F
100
AcDbEntity
  8
1
  6
Continuous
 62
     4
100
AcDbLine
 10
38.07830037753477
 20
-63.35552749421331
 30
0.0
 11
31.07830037753477
 21
-63.35552749421331
 31
0.0
  0
LINE
  5
153
330
1F
100
AcDbEntity
  8
1
  6
Continuous
 62
     4
100
AcDbLine
 10
38.07830037753477
 20
-70.3555274942133
 30
0.0
 11
38.07830037753477
 21
-63.35552749421331
 31
0.0
  0
LINE
  5
154
330
1F
100
AcDbEntity
  8
1
  6
Continuous
 62
     4
100
AcDbLine
 10
31.07830037753477
 20
-70.3555274942133
 30
0.0
 11
38.07830037753477
 21
-70.3555274942133
 31
0.0
  0
LINE
  5
155
330
1F
100
AcDbEntity
  8
1
  6
Continuous
 62
     2
100
AcDbLine
 10
52.15172400681877
 20
-66.39345876514665
 30
0.0
 11
51.842900477407
 21
-66.16012543181331
 31
0.0
  0
LINE
  5
156
330
1F
100
AcDbEntity
  8
1
  6
Continuous
 62
     2
100
AcDbLine
 10
52.56348871270112
 20
-66.62679209847998
 30
0.0
 11
52.15172400681877
 21
-66.39345876514665
 31
0.0
  0
LINE
  5
157
330
1F
100
AcDbEntity
  8
1
  6
Continuous
 62
     2
100
AcDbLine
 10
53.28407694799523
 20
-66.62679209847998
 30
0.0
 11
52.56348871270112
 21
-66.62679209847998
 31
0.0
  0
LINE
  5
158
330
1F
100
AcDbEntity
  8
1
  6
Continuous
 62
     2
100
AcDbLine
 10
53.592900477407
 20
-66.39345876514665
 30
0.0
 11
53.28407694799523
 21
-66.62679209847998
 31
0.0
  0
LINE
  5
159
330
1F
100
AcDbEntity
  8
1
  6
Continuous
 62
     2
100
AcDbLine
 10
53.79878283034817
 20
-66.16012543181331
 30
0.0
 11
53.592900477407
 21
-66.39345876514665
 31
0.0
  0
LINE
  5
15A
330
1F
100
AcDbEntity
  8
1
  6
Continuous
 62
     2
100
AcDbLine
 10
53.90172400681877
 20
-65.57679209847998
 30
0.0
 11
53.79878283034817
 21
-66.16012543181331
 31
0.0
  0
LINE
  5
15B
330
1F
100
AcDbEntity
  8
1
  6
Continuous
 62
     2
100
AcDbLine
 10
53.79878283034817
 20
-64.99345876514664
 30
0.0
 11
53.90172400681877
 21
-65.57679209847998
 31
0.0
  0
LINE
  5
15C
330
1F
100
AcDbEntity
  8
1
  6
Continuous
 62
     2
100
AcDbLine
 10
53.592900477407
 20
-64.76012543181332
 30
0.0
 11
53.79878283034817
 21
-64.99345876514664
 31
0.0
  0
LINE
  5
15D
330
1F
100
AcDbEntity
  8
1
  6
Continuous
 62
     2
100
AcDbLine
 10
53.28407694799523
 20
-64.52679209847999
 30
0.0
 11
53.592900477407
 21
-64.76012543181332
 31
0.0
  0
LINE
  5
15E
330
1F
100
AcDbEntity
  8
1
  6
Continuous
 62
     2
100
AcDbLine
 10
52.87231224211288
 20
-64.41012543181331
 30
0.0
 11
53.28407694799523
 21
-64.52679209847999
 31
0.0
  0
LINE
  5
15F
330
1F
100
AcDbEntity
  8
1
  6
Continuous
 62
     2
100
AcDbLine
 10
52.46054753623053
 20
-64.52679209847999
 30
0.0
 11
52.87231224211288
 21
-64.41012543181331
 31
0.0
  0
LINE
  5
160
330
1F
100
AcDbEntity
  8
1
  6
Continuous
 62
     2
100
AcDbLine
 10
51.94584165387759
 20
-64.87679209847998
 30
0.0
 11
52.46054753623053
 21
-64.52679209847999
 31
0.0
  0
LINE
  5
161
330
1F
100
AcDbEntity
  8
1
  6
Continuous
 62
     2
100
AcDbLine
 10
52.04878283034817
 20
-63.12679209847998
 30
0.0
 11
51.94584165387759
 21
-64.87679209847998
 31
0.0
  0
LINE
  5
162
330
1F
100
AcDbEntity
  8
1
  6
Continuous
 62
     2
100
AcDbLine
 10
53.79878283034817
 20
-63.12679209847998
 30
0.0
 11
52.04878283034817
 21
-63.12679209847998
 31
0.0
  0
LINE
  5
163
330
1F
100
AcDbEntity
  8
1
  6
Continuous
 62
     2
100
AcDbLine
 10
50.50466518328935
 20
-66.27679209847999
 30
0.0
 11
50.60760635975993
 21
-66.16012543181331
 31
0.0
  0
LINE
  5
164
330
1F
100
AcDbEntity
  8
1
  6
Continuous
 62
     2
100
AcDbLine
 10
50.60760635975993
 20
-66.39345876514665
 30
0.0
 11
50.50466518328935
 21
-66.27679209847999
 31
0.0
  0
LINE
  5
165
330
1F
100
AcDbEntity
  8
1
  6
Continuous
 62
     2
100
AcDbLine
 10
50.71054753623053
 20
-66.27679209847999
 30
0.0
 11
50.60760635975993
 21
-66.39345876514665
 31
0.0
  0
LINE
  5
166
330
1F
100
AcDbEntity
  8
1
  6
Continuous
 62
     2
100
AcDbLine
 10
50.60760635975993
 20
-66.16012543181331
 30
0.0
 11
50.71054753623053
 21
-66.27679209847999
 31
0.0
  0
LINE
  5
167
330
1F
100
AcDbEntity
  8
1
  6
Continuous
 62
     2
100
AcDbLine
 10
50.50466518328935
 20
-66.16012543181331
 30
0.0
 11
50.71054753623053
 21
-66.16012543181331
 31
0.0
  0
LINE
  5
168
330
1F
100
AcDbEntity
  8
1
  6
Continuous
 62
     2
100
AcDbLine
 10
50.50466518328935
 20
-66.39345876514665
 30
0.0
 11
50.50466518328935
 21
-66.16012543181331
 31
0.0
  0
LINE
  5
169
330
1F
100
AcDbEntity
  8
1
  6
Continuous
 62
     2
100
AcDbLine
 10
50.71054753623053
 20
-66.39345876514665
 30
0.0
 11
50.50466518328935
 21
-66.39345876514665
 31
0.0
  0
LINE
  5
16A
330
1F
100
AcDbEntity
  8
1
  6
Continuous
 62
     2
100
AcDbLine
 10
50.71054753623053
 20
-66.16012543181331
 30
0.0
 11
50.71054753623053
 21
-66.39345876514665
 31
0.0
  0
LINE
  5
16B
330
1F
100
AcDbEntity
  8
1
  6
Continuous
 62
     2
100
AcDbLine
 10
50.40172400681876
 20
-66.27679209847999
 30
0.0
 11
50.60760635975993
 21
-66.04345876514665
 31
0.0
  0
LINE
  5
16C
330
1F
100
AcDbEntity
  8
1
  6
Continuous
 62
     2
100
AcDbLine
 10
50.60760635975993
 20
-66.51012543181332
 30
0.0
 11
50.40172400681876
 21
-66.27679209847999
 31
0.0
  0
LINE
  5
16D
330
1F
100
AcDbEntity
  8
1
  6
Continuous
 62
     2
100
AcDbLine
 10
50.81348871270112
 20
-66.27679209847999
 30
0.0
 11
50.60760635975993
 21
-66.51012543181332
 31
0.0
  0
LINE
  5
16E
330
1F
100
AcDbEntity
  8
1
  6
Continuous
 62
     2
100
AcDbLine
 10
50.60760635975993
 20
-66.04345876514665
 30
0.0
 11
50.81348871270112
 21
-66.27679209847999
 31
0.0
  0
LINE
  5
16F
330
1F
100
AcDbEntity
  8
1
  6
Continuous
 62
     2
100
AcDbLine
 10
48.85760635975994
 20
-63.36012543181332
 30
0.0
 11
48.23995930093641
 21
-63.12679209847998
 31
0.0
  0
LINE
  5
170
330
1F
100
AcDbEntity
  8
1
  6
Continuous
 62
     2
100
AcDbLine
 10
49.2693710656423
 20
-63.94345876514664
 30
0.0
 11
48.85760635975994
 21
-63.36012543181332
 31
0.0
  0
LINE
  5
171
330
1F
100
AcDbEntity
  8
1
  6
Continuous
 62
     2
100
AcDbLine
 10
49.37231224211288
 20
-64.87679209847998
 30
0.0
 11
49.2693710656423
 21
-63.94345876514664
 31
0.0
  0
LINE
  5
172
330
1F
100
AcDbEntity
  8
1
  6
Continuous
 62
     2
100
AcDbLine
 10
49.2693710656423
 20
-65.81012543181332
 30
0.0
 11
49.37231224211288
 21
-64.87679209847998
 31
0.0
  0
LINE
  5
173
330
1F
100
AcDbEntity
  8
1
  6
Continuous
 62
     2
100
AcDbLine
 10
48.85760635975994
 20
-66.39345876514665
 30
0.0
 11
49.2693710656423
 21
-65.81012543181332
 31
0.0
  0
LINE
  5
174
330
1F
100
AcDbEntity
  8
1
  6
Continuous
 62
     2
100
AcDbLine
 10
48.23995930093641
 20
-66.62679209847998
 30
0.0
 11
48.85760635975994
 21
-66.39345876514665
 31
0.0
  0
LINE
  5
175
330
1F
100
AcDbEntity
  8
1
  6
Continuous
 62
     2
100
AcDbLine
 10
47.62231224211288
 20
-66.39345876514665
 30
0.0
 11
48.23995930093641
 21
-66.62679209847998
 31
0.0
  0
LINE
  5
176
330
1F
100
AcDbEntity
  8
1
  6
Continuous
 62
     2
100
AcDbLine
 10
47.31348871270112
 20
-65.81012543181332
 30
0.0
 11
47.62231224211288
 21
-66.39345876514665
 31
0.0
  0
LINE
  5
177
330
1F
100
AcDbEntity
  8
1
  6
Continuous
 62
     2
100
AcDbLine
 10
47.10760635975994
 20
-64.87679209847998
 30
0.0
 11
47.31348871270112
 21
-65.81012543181332
 31
0.0
  0
LINE
  5
178
330
1F
100
AcDbEntity
  8
1
  6
Continuous
 62
     2
100
AcDbLine
 10
47.31348871270112
 20
-63.94345876514664
 30
0.0
 11
47.10760635975994
 21
-64.87679209847998
 31
0.0
  0
LINE
  5
179
330
1F
100
AcDbEntity
  8
1
  6
Continuous
 62
     2
100
AcDbLine
 10
47.62231224211288
 20
-63.36012543181332
 30
0.0
 11
47.31348871270112
 21
-63.94345876514664
 31
0.0
  0
LINE
  5
17A
330
1F
100
AcDbEntity
  8
1
  6
Continuous
 62
     2
100
AcDbLine
 10
48.23995930093641
 20
-63.12679209847998
 30
0.0
 11
47.62231224211288
 21
-63.36012543181332
 31
0.0
  0
LINE
  5
17B
330
1F
100
AcDbEntity
  8
1
  6
Continuous
 62
     2
100
AcDbLine
 10
45.87231224211288
 20
-66.16012543181331
 30
0.0
 11
46.07819459505406
 21
-65.81012543181332
 31
0.0
  0
LINE
  5
17C
330
1F
100
AcDbEntity
  8
1
  6
Continuous
 62
     2
100
AcDbLine
 10
45.46054753623053
 20
-66.51012543181332
 30
0.0
 11
45.87231224211288
 21
-66.16012543181331
 31
0.0
  0
LINE
  5
17D
330
1F
100
AcDbEntity
  8
1
  6
Continuous
 62
     2
100
AcDbLine
 10
44.94584165387759
 20
-66.62679209847998
 30
0.0
 11
45.46054753623053
 21
-66.51012543181332
 31
0.0
  0
LINE
  5
17E
330
1F
100
AcDbEntity
  8
1
  6
Continuous
 62
     2
100
AcDbLine
 10
44.32819459505406
 20
-66.39345876514665
 30
0.0
 11
44.94584165387759
 21
-66.62679209847998
 31
0.0
  0
LINE
  5
17F
330
1F
100
AcDbEntity
  8
1
  6
Continuous
 62
     2
100
AcDbLine
 10
44.01937106564229
 20
-65.69345876514664
 30
0.0
 11
44.32819459505406
 21
-66.39345876514665
 31
0.0
  0
LINE
  5
180
330
1F
100
AcDbEntity
  8
1
  6
Continuous
 62
     2
100
AcDbLine
 10
43.9164298891717
 20
-64.87679209847998
 30
0.0
 11
44.01937106564229
 21
-65.69345876514664
 31
0.0
  0
LINE
  5
181
330
1F
100
AcDbEntity
  8
1
  6
Continuous
 62
     2
100
AcDbLine
 10
44.01937106564229
 20
-64.06012543181332
 30
0.0
 11
43.9164298891717
 21
-64.87679209847998
 31
0.0
  0
LINE
  5
182
330
1F
100
AcDbEntity
  8
1
  6
Continuous
 62
     2
100
AcDbLine
 10
44.32819459505406
 20
-63.47679209847998
 30
0.0
 11
44.01937106564229
 21
-64.06012543181332
 31
0.0
  0
LINE
  5
183
330
1F
100
AcDbEntity
  8
1
  6
Continuous
 62
     2
100
AcDbLine
 10
44.94584165387759
 20
-63.12679209847998
 30
0.0
 11
44.32819459505406
 21
-63.47679209847998
 31
0.0
  0
LINE
  5
184
330
1F
100
AcDbEntity
  8
1
  6
Continuous
 62
     2
100
AcDbLine
 10
45.46054753623053
 20
-63.24345876514665
 30
0.0
 11
44.94584165387759
 21
-63.12679209847998
 31
0.0
  0
LINE
  5
185
330
1F
100
AcDbEntity
  8
1
  6
Continuous
 62
     2
100
AcDbLine
 10
45.76937106564229
 20
-63.47679209847998
 30
0.0
 11
45.46054753623053
 21
-63.24345876514665
 31
0.0
  0
LINE
  5
186
330
1F
100
AcDbEntity
  8
1
  6
Continuous
 62
     2
100
AcDbLine
 10
46.07819459505406
 20
-63.82679209847998
 30
0.0
 11
45.76937106564229
 21
-63.47679209847998
 31
0.0
  0
LINE
  5
187
330
1F
100
AcDbEntity
  8
1
  6
Continuous
 62
     2
100
AcDbLine
 10
60.03512046141712
 20
-6.86762884432206
 30
0.0
 11
59.82923810847595
 21
-6.63429551098873
 31
0.0
  0
LINE
  5
188
330
1F
100
AcDbEntity
  8
1
  6
Continuous
 62
     2
100
AcDbLine
 10
60.44688516729948
 20
-7.10096217765539
 30
0.0
 11
60.03512046141712
 21
-6.86762884432206
 31
0.0
  0
LINE
  5
189
330
1F
100
AcDbEntity
  8
1
  6
Continuous
 62
     2
100
AcDbLine
 10
60.96159104965242
 20
-7.21762884432206
 30
0.0
 11
60.44688516729948
 21
-7.10096217765539
 31
0.0
  0
LINE
  5
18A
330
1F
100
AcDbEntity
  8
1
  6
Continuous
 62
     2
100
AcDbLine
 10
61.57923810847595
 20
-7.10096217765539
 30
0.0
 11
60.96159104965242
 21
-7.21762884432206
 31
0.0
  0
LINE
  5
18B
330
1F
100
AcDbEntity
  8
1
  6
Continuous
 62
     2
100
AcDbLine
 10
61.88806163788772
 20
-6.86762884432206
 30
0.0
 11
61.57923810847595
 21
-7.10096217765539
 31
0.0
  0
LINE
  5
18C
330
1F
100
AcDbEntity
  8
1
  6
Continuous
 62
     2
100
AcDbLine
 10
62.09394399082889
 20
-6.28429551098873
 30
0.0
 11
61.88806163788772
 21
-6.86762884432206
 31
0.0
  0
LINE
  5
18D
330
1F
100
AcDbEntity
  8
1
  6
Continuous
 62
     2
100
AcDbLine
 10
61.88806163788772
 20
-5.70096217765539
 30
0.0
 11
62.09394399082889
 21
-6.28429551098873
 31
0.0
  0
LINE
  5
18E
330
1F
100
AcDbEntity
  8
1
  6
Continuous
 62
     2
100
AcDbLine
 10
61.37335575553477
 20
-5.35096217765539
 30
0.0
 11
61.88806163788772
 21
-5.70096217765539
 31
0.0
  0
LINE
  5
18F
330
1F
100
AcDbEntity
  8
1
  6
Continuous
 62
     2
100
AcDbLine
 10
60.85864987318183
 20
-5.35096217765539
 30
0.0
 11
61.37335575553477
 21
-5.35096217765539
 31
0.0
  0
LINE
  5
190
330
1F
100
AcDbEntity
  8
1
  6
Continuous
 62
     2
100
AcDbLine
 10
61.37335575553477
 20
-5.35096217765539
 30
0.0
 11
60.85864987318183
 21
-5.35096217765539
 31
0.0
  0
LINE
  5
191
330
1F
100
AcDbEntity
  8
1
  6
Continuous
 62
     2
100
AcDbLine
 10
61.78512046141712
 20
-5.11762884432206
 30
0.0
 11
61.37335575553477
 21
-5.35096217765539
 31
0.0
  0
LINE
  5
192
330
1F
100
AcDbEntity
  8
1
  6
Continuous
 62
     2
100
AcDbLine
 10
61.9910028143583
 20
-4.65096217765539
 30
0.0
 11
61.78512046141712
 21
-5.11762884432206
 31
0.0
  0
LINE
  5
193
330
1F
100
AcDbEntity
  8
1
  6
Continuous
 62
     2
100
AcDbLine
 10
61.88806163788772
 20
-4.30096217765539
 30
0.0
 11
61.9910028143583
 21
-4.65096217765539
 31
0.0
  0
LINE
  5
194
330
1F
100
AcDbEntity
  8
1
  6
Continuous
 62
     2
100
AcDbLine
 10
61.57923810847595
 20
-3.83429551098873
 30
0.0
 11
61.88806163788772
 21
-4.30096217765539
 31
0.0
  0
LINE
  5
195
330
1F
100
AcDbEntity
  8
1
  6
Continuous
 62
     2
100
AcDbLine
 10
60.96159104965242
 20
-3.71762884432206
 30
0.0
 11
61.57923810847595
 21
-3.83429551098873
 31
0.0
  0
LINE
  5
196
330
1F
100
AcDbEntity
  8
1
  6
Continuous
 62
     2
100
AcDbLine
 10
60.34394399082889
 20
-3.83429551098873
 30
0.0
 11
60.96159104965242
 21
-3.71762884432206
 31
0.0
  0
LINE
  5
197
330
1F
100
AcDbEntity
  8
1
  6
Continuous
 62
     2
100
AcDbLine
 10
59.93217928494654
 20
-4.30096217765539
 30
0.0
 11
60.34394399082889
 21
-3.83429551098873
 31
0.0
  0
LINE
  5
198
330
1F
100
AcDbEntity
  8
1
  6
Continuous
 62
     2
100
AcDbLine
 10
58.79982634377007
 20
-3.71762884432206
 30
0.0
 11
58.79982634377007
 21
-7.21762884432206
 31
0.0
  0
LINE
  5
199
330
1F
100
AcDbEntity
  8
1
  6
Continuous
 62
     2
100
AcDbLine
 10
57.46159104965242
 20
-7.10096217765539
 30
0.0
 11
58.79982634377007
 21
-3.71762884432206
 31
0.0
  0
LINE
  5
19A
330
1F
100
AcDbEntity
  8
1
  6
Continuous
 62
     2
100
AcDbLine
 10
56.12335575553477
 20
-3.71762884432206
 30
0.0
 11
57.46159104965242
 21
-7.10096217765539
 31
0.0
  0
LINE
  5
19B
330
1F
100
AcDbEntity
  8
1
  6
Continuous
 62
     2
100
AcDbLine
 10
56.12335575553477
 20
-7.21762884432206
 30
0.0
 11
56.12335575553477
 21
-3.71762884432206
 31
0.0
  0
LINE
  5
19C
330
1F
100
AcDbEntity
  8
1
  6
Continuous
 62
     2
100
AcDbLine
 10
53.2410028143583
 20
-5.46762884432206
 30
0.0
 11
55.09394399082888
 21
-5.46762884432206
 31
0.0
  0
LINE
  5
19D
330
1F
100
AcDbEntity
  8
1
  6
Continuous
 62
     2
100
AcDbLine
 10
51.59394399082888
 20
-7.21762884432206
 30
0.0
 11
51.59394399082888
 21
-5.58429551098873
 31
0.0
  0
LINE
  5
19E
330
1F
100
AcDbEntity
  8
1
  6
Continuous
 62
     2
100
AcDbLine
 10
49.7410028143583
 20
-6.40096217765539
 30
0.0
 11
52.21159104965241
 21
-6.40096217765539
 31
0.0
  0
LINE
  5
19F
330
1F
100
AcDbEntity
  8
1
  6
Continuous
 62
     2
100
AcDbLine
 10
51.59394399082888
 20
-3.71762884432206
 30
0.0
 11
49.7410028143583
 21
-6.40096217765539
 31
0.0
  0
LINE
  5
1A0
330
1F
100
AcDbEntity
  8
1
  6
Continuous
 62
     2
100
AcDbLine
 10
75.45492046126924
 20
-6.94883805404941
 30
0.0
 11
75.14609693185747
 21
-6.71550472071607
 31
0.0
  0
LINE
  5
1A1
330
1F
100
AcDbEntity
  8
1
  6
Continuous
 62
     2
100
AcDbLine
 10
75.86668516715159
 20
-7.18217138738274
 30
0.0
 11
75.45492046126924
 21
-6.94883805404941
 31
0.0
  0
LINE
  5
1A2
330
1F
100
AcDbEntity
  8
1
  6
Continuous
 62
     2
100
AcDbLine
 10
76.5872734024457
 20
-7.18217138738274
 30
0.0
 11
75.86668516715159
 21
-7.18217138738274
 31
0.0
  0
LINE
  5
1A3
330
1F
100
AcDbEntity
  8
1
  6
Continuous
 62
     2
100
AcDbLine
 10
76.89609693185747
 20
-6.94883805404941
 30
0.0
 11
76.5872734024457
 21
-7.18217138738274
 31
0.0
  0
LINE
  5
1A4
330
1F
100
AcDbEntity
  8
1
  6
Continuous
 62
     2
100
AcDbLine
 10
77.10197928479865
 20
-6.71550472071607
 30
0.0
 11
76.89609693185747
 21
-6.94883805404941
 31
0.0
  0
LINE
  5
1A5
330
1F
100
AcDbEntity
  8
1
  6
Continuous
 62
     2
100
AcDbLine
 10
77.20492046126924
 20
-6.13217138738274
 30
0.0
 11
77.10197928479865
 21
-6.71550472071607
 31
0.0
  0
LINE
  5
1A6
330
1F
100
AcDbEntity
  8
1
  6
Continuous
 62
     2
100
AcDbLine
 10
77.10197928479865
 20
-5.54883805404941
 30
0.0
 11
77.20492046126924
 21
-6.13217138738274
 31
0.0
  0
LINE
  5
1A7
330
1F
100
AcDbEntity
  8
1
  6
Continuous
 62
     2
100
AcDbLine
 10
76.89609693185747
 20
-5.31550472071607
 30
0.0
 11
77.10197928479865
 21
-5.54883805404941
 31
0.0
  0
LINE
  5
1A8
330
1F
100
AcDbEntity
  8
1
  6
Continuous
 62
     2
100
AcDbLine
 10
76.5872734024457
 20
-5.08217138738274
 30
0.0
 11
76.89609693185747
 21
-5.31550472071607
 31
0.0
  0
LINE
  5
1A9
330
1F
100
AcDbEntity
  8
1
  6
Continuous
 62
     2
100
AcDbLine
 10
76.17550869656336
 20
-4.96550472071607
 30
0.0
 11
76.5872734024457
 21
-5.08217138738274
 31
0.0
  0
LINE
  5
1AA
330
1F
100
AcDbEntity
  8
1
  6
Continuous
 62
     2
100
AcDbLine
 10
75.76374399068101
 20
-5.08217138738274
 30
0.0
 11
76.17550869656336
 21
-4.96550472071607
 31
0.0
  0
LINE
  5
1AB
330
1F
100
AcDbEntity
  8
1
  6
Continuous
 62
     2
100
AcDbLine
 10
75.24903810832807
 20
-5.43217138738274
 30
0.0
 11
75.76374399068101
 21
-5.08217138738274
 31
0.0
  0
LINE
  5
1AC
330
1F
100
AcDbEntity
  8
1
  6
Continuous
 62
     2
100
AcDbLine
 10
75.35197928479865
 20
-3.68217138738274
 30
0.0
 11
75.24903810832807
 21
-5.43217138738274
 31
0.0
  0
LINE
  5
1AD
330
1F
100
AcDbEntity
  8
1
  6
Continuous
 62
     2
100
AcDbLine
 10
77.10197928479865
 20
-3.68217138738274
 30
0.0
 11
75.35197928479865
 21
-3.68217138738274
 31
0.0
  0
LINE
  5
1AE
330
1F
100
AcDbEntity
  8
1
  6
Continuous
 62
     2
100
AcDbLine
 10
73.80786163773983
 20
-6.83217138738274
 30
0.0
 11
73.91080281421041
 21
-6.71550472071607
 31
0.0
  0
LINE
  5
1AF
330
1F
100
AcDbEntity
  8
1
  6
Continuous
 62
     2
100
AcDbLine
 10
73.91080281421041
 20
-6.94883805404941
 30
0.0
 11
73.80786163773983
 21
-6.83217138738274
 31
0.0
  0
LINE
  5
1B0
330
1F
100
AcDbEntity
  8
1
  6
Continuous
 62
     2
100
AcDbLine
 10
74.01374399068101
 20
-6.83217138738274
 30
0.0
 11
73.91080281421041
 21
-6.94883805404941
 31
0.0
  0
LINE
  5
1B1
330
1F
100
AcDbEntity
  8
1
  6
Continuous
 62
     2
100
AcDbLine
 10
73.91080281421041
 20
-6.71550472071607
 30
0.0
 11
74.01374399068101
 21
-6.83217138738274
 31
0.0
  0
LINE
  5
1B2
330
1F
100
AcDbEntity
  8
1
  6
Continuous
 62
     2
100
AcDbLine
 10
73.80786163773983
 20
-6.71550472071607
 30
0.0
 11
74.01374399068101
 21
-6.71550472071607
 31
0.0
  0
LINE
  5
1B3
330
1F
100
AcDbEntity
  8
1
  6
Continuous
 62
     2
100
AcDbLine
 10
73.80786163773983
 20
-6.94883805404941
 30
0.0
 11
73.80786163773983
 21
-6.71550472071607
 31
0.0
  0
LINE
  5
1B4
330
1F
100
AcDbEntity
  8
1
  6
Continuous
 62
     2
100
AcDbLine
 10
74.01374399068101
 20
-6.94883805404941
 30
0.0
 11
73.80786163773983
 21
-6.94883805404941
 31
0.0
  0
LINE
  5
1B5
330
1F
100
AcDbEntity
  8
1
  6
Continuous
 62
     2
100
AcDbLine
 10
74.01374399068101
 20
-6.71550472071607
 30
0.0
 11
74.01374399068101
 21
-6.94883805404941
 31
0.0
  0
LINE
  5
1B6
330
1F
100
AcDbEntity
  8
1
  6
Continuous
 62
     2
100
AcDbLine
 10
73.70492046126924
 20
-6.83217138738274
 30
0.0
 11
73.91080281421041
 21
-6.59883805404941
 31
0.0
  0
LINE
  5
1B7
330
1F
100
AcDbEntity
  8
1
  6
Continuous
 62
     2
100
AcDbLine
 10
73.91080281421041
 20
-7.06550472071607
 30
0.0
 11
73.70492046126924
 21
-6.83217138738274
 31
0.0
  0
LINE
  5
1B8
330
1F
100
AcDbEntity
  8
1
  6
Continuous
 62
     2
100
AcDbLine
 10
74.11668516715159
 20
-6.83217138738274
 30
0.0
 11
73.91080281421041
 21
-7.06550472071607
 31
0.0
  0
LINE
  5
1B9
330
1F
100
AcDbEntity
  8
1
  6
Continuous
 62
     2
100
AcDbLine
 10
73.91080281421041
 20
-6.59883805404941
 30
0.0
 11
74.11668516715159
 21
-6.83217138738274
 31
0.0
  0
LINE
  5
1BA
330
1F
100
AcDbEntity
  8
1
  6
Continuous
 62
     2
100
AcDbLine
 10
72.16080281421041
 20
-3.91550472071607
 30
0.0
 11
71.54315575538688
 21
-3.68217138738274
 31
0.0
  0
LINE
  5
1BB
330
1F
100
AcDbEntity
  8
1
  6
Continuous
 62
     2
100
AcDbLine
 10
72.57256752009276
 20
-4.49883805404941
 30
0.0
 11
72.16080281421041
 21
-3.91550472071607
 31
0.0
  0
LINE
  5
1BC
330
1F
100
AcDbEntity
  8
1
  6
Continuous
 62
     2
100
AcDbLine
 10
72.67550869656336
 20
-5.43217138738274
 30
0.0
 11
72.57256752009276
 21
-4.49883805404941
 31
0.0
  0
LINE
  5
1BD
330
1F
100
AcDbEntity
  8
1
  6
Continuous
 62
     2
100
AcDbLine
 10
72.57256752009276
 20
-6.36550472071607
 30
0.0
 11
72.67550869656336
 21
-5.43217138738274
 31
0.0
  0
LINE
  5
1BE
330
1F
100
AcDbEntity
  8
1
  6
Continuous
 62
     2
100
AcDbLine
 10
72.16080281421041
 20
-6.94883805404941
 30
0.0
 11
72.57256752009276
 21
-6.36550472071607
 31
0.0
  0
LINE
  5
1BF
330
1F
100
AcDbEntity
  8
1
  6
Continuous
 62
     2
100
AcDbLine
 10
71.54315575538688
 20
-7.18217138738274
 30
0.0
 11
72.16080281421041
 21
-6.94883805404941
 31
0.0
  0
LINE
  5
1C0
330
1F
100
AcDbEntity
  8
1
  6
Continuous
 62
     2
100
AcDbLine
 10
70.92550869656336
 20
-6.94883805404941
 30
0.0
 11
71.54315575538688
 21
-7.18217138738274
 31
0.0
  0
LINE
  5
1C1
330
1F
100
AcDbEntity
  8
1
  6
Continuous
 62
     2
100
AcDbLine
 10
70.61668516715159
 20
-6.36550472071607
 30
0.0
 11
70.92550869656336
 21
-6.94883805404941
 31
0.0
  0
LINE
  5
1C2
330
1F
100
AcDbEntity
  8
1
  6
Continuous
 62
     2
100
AcDbLine
 10
70.41080281421041
 20
-5.43217138738274
 30
0.0
 11
70.61668516715159
 21
-6.36550472071607
 31
0.0
  0
LINE
  5
1C3
330
1F
100
AcDbEntity
  8
1
  6
Continuous
 62
     2
100
AcDbLine
 10
70.61668516715159
 20
-4.49883805404941
 30
0.0
 11
70.41080281421041
 21
-5.43217138738274
 31
0.0
  0
LINE
  5
1C4
330
1F
100
AcDbEntity
  8
1
  6
Continuous
 62
     2
100
AcDbLine
 10
70.92550869656336
 20
-3.91550472071607
 30
0.0
 11
70.61668516715159
 21
-4.49883805404941
 31
0.0
  0
LINE
  5
1C5
330
1F
100
AcDbEntity
  8
1
  6
Continuous
 62
     2
100
AcDbLine
 10
71.54315575538688
 20
-3.68217138738274
 30
0.0
 11
70.92550869656336
 21
-3.91550472071607
 31
0.0
  0
LINE
  5
1C6
330
1F
100
AcDbEntity
  8
1
  6
Continuous
 62
     2
100
AcDbLine
 10
67.73433222597512
 20
-5.78217138738274
 30
0.0
 11
69.38139104950453
 21
-5.78217138738274
 31
0.0
  0
LINE
  5
1C7
330
1F
100
AcDbEntity
  8
1
  6
Continuous
 62
     2
100
AcDbLine
 10
67.73433222597512
 20
-4.96550472071607
 30
0.0
 11
69.38139104950453
 21
-4.96550472071607
 31
0.0
  0
LINE
  5
1C8
330
1F
100
AcDbEntity
  8
1
  6
Continuous
 62
     2
100
AcDbLine
 10
65.98433222597512
 20
-5.43217138738274
 30
0.0
 11
64.64609693185747
 21
-5.43217138738274
 31
0.0
  0
LINE
  5
1C9
330
1F
100
AcDbEntity
  8
1
  6
Continuous
 62
     2
100
AcDbLine
 10
66.39609693185747
 20
-5.19883805404941
 30
0.0
 11
65.98433222597512
 21
-5.43217138738274
 31
0.0
  0
LINE
  5
1CA
330
1F
100
AcDbEntity
  8
1
  6
Continuous
 62
     2
100
AcDbLine
 10
66.60197928479865
 20
-4.96550472071607
 30
0.0
 11
66.39609693185747
 21
-5.19883805404941
 31
0.0
  0
LINE
  5
1CB
330
1F
100
AcDbEntity
  8
1
  6
Continuous
 62
     2
100
AcDbLine
 10
66.70492046126924
 20
-4.49883805404941
 30
0.0
 11
66.60197928479865
 21
-4.96550472071607
 31
0.0
  0
LINE
  5
1CC
330
1F
100
AcDbEntity
  8
1
  6
Continuous
 62
     2
100
AcDbLine
 10
66.60197928479865
 20
-4.26550472071607
 30
0.0
 11
66.70492046126924
 21
-4.49883805404941
 31
0.0
  0
LINE
  5
1CD
330
1F
100
AcDbEntity
  8
1
  6
Continuous
 62
     2
100
AcDbLine
 10
66.39609693185747
 20
-3.91550472071607
 30
0.0
 11
66.60197928479865
 21
-4.26550472071607
 31
0.0
  0
LINE
  5
1CE
330
1F
100
AcDbEntity
  8
1
  6
Continuous
 62
     2
100
AcDbLine
 10
65.98433222597512
 20
-3.68217138738274
 30
0.0
 11
66.39609693185747
 21
-3.91550472071607
 31
0.0
  0
LINE
  5
1CF
330
1F
100
AcDbEntity
  8
1
  6
Continuous
 62
     2
100
AcDbLine
 10
64.64609693185747
 20
-3.68217138738274
 30
0.0
 11
65.98433222597512
 21
-3.68217138738274
 31
0.0
  0
LINE
  5
1D0
330
1F
100
AcDbEntity
  8
1
  6
Continuous
 62
     2
100
AcDbLine
 10
64.64609693185747
 20
-7.18217138738274
 30
0.0
 11
64.64609693185747
 21
-3.68217138738274
 31
0.0
  0
LINE
  5
1D1
330
1F
100
AcDbEntity
  8
1
  6
Continuous
 62
     4
100
AcDbLine
 10
54.50185309846238
 20
-17.760818272778
 30
0.0
 11
54.50185309846238
 21
-10.760818272778
 31
0.0
  0
LINE
  5
1D2
330
1F
100
AcDbEntity
  8
1
  6
Continuous
 62
     4
100
AcDbLine
 10
33.50185309846238
 20
-10.760818272778
 30
0.0
 11
33.50185309846238
 21
-17.760818272778
 31
0.0
  0
LINE
  5
1D3
330
1F
100
AcDbEntity
  8
1
  6
Continuous
 62
     4
100
AcDbLine
 10
54.50185309846238
 20
-10.760818272778
 30
0.0
 11
33.50185309846238
 21
-10.760818272778
 31
0.0
  0
LINE
  5
1D4
330
1F
100
AcDbEntity
  8
1
  6
Continuous
 62
     4
100
AcDbLine
 10
40.50185309846238
 20
-17.760818272778
 30
0.0
 11
40.50185309846238
 21
-10.760818272778
 31
0.0
  0
LINE
  5
1D5
330
1F
100
AcDbEntity
  8
1
  6
Continuous
 62
     4
100
AcDbLine
 10
33.50185309846238
 20
-17.760818272778
 30
0.0
 11
54.50185309846238
 21
-17.760818272778
 31
0.0
  0
LINE
  5
1D6
330
1F
100
AcDbEntity
  8
1
  6
Continuous
 62
     4
100
AcDbLine
 10
37.70185309846238
 20
-13.560818272778
 30
0.0
 11
34.37685309846238
 21
-16.885818272778
 31
0.0
  0
LINE
  5
1D7
330
1F
100
AcDbEntity
  8
1
  6
Continuous
 62
     4
100
AcDbLine
 10
39.62685309846238
 20
-11.635818272778
 30
0.0
 11
37.00185309846238
 21
-12.860818272778
 31
0.0
  0
LINE
  5
1D8
330
1F
100
AcDbEntity
  8
1
  6
Continuous
 62
     4
100
AcDbLine
 10
38.40185309846238
 20
-14.260818272778
 30
0.0
 11
39.62685309846238
 21
-11.635818272778
 31
0.0
  0
LINE
  5
1D9
330
1F
100
AcDbEntity
  8
1
  6
Continuous
 62
     4
100
AcDbLine
 10
37.00185309846238
 20
-12.860818272778
 30
0.0
 11
38.40185309846238
 21
-14.260818272778
 31
0.0
  0
LINE
  5
1DA
330
1F
100
AcDbEntity
  8
1
  6
Continuous
 62
     4
100
AcDbLine
 10
50.7959707455212
 20
-15.77748493944467
 30
0.0
 11
50.48714721610944
 21
-15.54415160611133
 31
0.0
  0
LINE
  5
1DB
330
1F
100
AcDbEntity
  8
1
  6
Continuous
 62
     4
100
AcDbLine
 10
51.20773545140355
 20
-16.010818272778
 30
0.0
 11
50.7959707455212
 21
-15.77748493944467
 31
0.0
  0
LINE
  5
1DC
330
1F
100
AcDbEntity
  8
1
  6
Continuous
 62
     4
100
AcDbLine
 10
51.92832368669767
 20
-16.010818272778
 30
0.0
 11
51.20773545140355
 21
-16.010818272778
 31
0.0
  0
LINE
  5
1DD
330
1F
100
AcDbEntity
  8
1
  6
Continuous
 62
     4
100
AcDbLine
 10
52.23714721610944
 20
-15.77748493944467
 30
0.0
 11
51.92832368669767
 21
-16.010818272778
 31
0.0
  0
LINE
  5
1DE
330
1F
100
AcDbEntity
  8
1
  6
Continuous
 62
     4
100
AcDbLine
 10
52.44302956905061
 20
-15.54415160611133
 30
0.0
 11
52.23714721610944
 21
-15.77748493944467
 31
0.0
  0
LINE
  5
1DF
330
1F
100
AcDbEntity
  8
1
  6
Continuous
 62
     4
100
AcDbLine
 10
52.5459707455212
 20
-14.960818272778
 30
0.0
 11
52.44302956905061
 21
-15.54415160611133
 31
0.0
  0
LINE
  5
1E0
330
1F
100
AcDbEntity
  8
1
  6
Continuous
 62
     4
100
AcDbLine
 10
52.44302956905061
 20
-14.37748493944467
 30
0.0
 11
52.5459707455212
 21
-14.960818272778
 31
0.0
  0
LINE
  5
1E1
330
1F
100
AcDbEntity
  8
1
  6
Continuous
 62
     4
100
AcDbLine
 10
52.23714721610944
 20
-14.14415160611133
 30
0.0
 11
52.44302956905061
 21
-14.37748493944467
 31
0.0
  0
LINE
  5
1E2
330
1F
100
AcDbEntity
  8
1
  6
Continuous
 62
     4
100
AcDbLine
 10
51.92832368669767
 20
-13.910818272778
 30
0.0
 11
52.23714721610944
 21
-14.14415160611133
 31
0.0
  0
LINE
  5
1E3
330
1F
100
AcDbEntity
  8
1
  6
Continuous
 62
     4
100
AcDbLine
 10
51.51655898081532
 20
-13.79415160611133
 30
0.0
 11
51.92832368669767
 21
-13.910818272778
 31
0.0
  0
LINE
  5
1E4
330
1F
100
AcDbEntity
  8
1
  6
Continuous
 62
     4
100
AcDbLine
 10
51.10479427493296
 20
-13.910818272778
 30
0.0
 11
51.51655898081532
 21
-13.79415160611133
 31
0.0
  0
LINE
  5
1E5
330
1F
100
AcDbEntity
  8
1
  6
Continuous
 62
     4
100
AcDbLine
 10
50.59008839258002
 20
-14.260818272778
 30
0.0
 11
51.10479427493296
 21
-13.910818272778
 31
0.0
  0
LINE
  5
1E6
330
1F
100
AcDbEntity
  8
1
  6
Continuous
 62
     4
100
AcDbLine
 10
50.69302956905061
 20
-12.510818272778
 30
0.0
 11
50.59008839258002
 21
-14.260818272778
 31
0.0
  0
LINE
  5
1E7
330
1F
100
AcDbEntity
  8
1
  6
Continuous
 62
     4
100
AcDbLine
 10
52.44302956905061
 20
-12.510818272778
 30
0.0
 11
50.69302956905061
 21
-12.510818272778
 31
0.0
  0
LINE
  5
1E8
330
1F
100
AcDbEntity
  8
1
  6
Continuous
 62
     4
100
AcDbLine
 10
48.94302956905061
 20
-12.74415160611133
 30
0.0
 11
48.32538251022708
 21
-12.510818272778
 31
0.0
  0
LINE
  5
1E9
330
1F
100
AcDbEntity
  8
1
  6
Continuous
 62
     4
100
AcDbLine
 10
49.35479427493296
 20
-13.32748493944467
 30
0.0
 11
48.94302956905061
 21
-12.74415160611133
 31
0.0
  0
LINE
  5
1EA
330
1F
100
AcDbEntity
  8
1
  6
Continuous
 62
     4
100
AcDbLine
 10
49.45773545140355
 20
-14.260818272778
 30
0.0
 11
49.35479427493296
 21
-13.32748493944467
 31
0.0
  0
LINE
  5
1EB
330
1F
100
AcDbEntity
  8
1
  6
Continuous
 62
     4
100
AcDbLine
 10
49.35479427493296
 20
-15.19415160611133
 30
0.0
 11
49.45773545140355
 21
-14.260818272778
 31
0.0
  0
LINE
  5
1EC
330
1F
100
AcDbEntity
  8
1
  6
Continuous
 62
     4
100
AcDbLine
 10
48.94302956905061
 20
-15.77748493944467
 30
0.0
 11
49.35479427493296
 21
-15.19415160611133
 31
0.0
  0
LINE
  5
1ED
330
1F
100
AcDbEntity
  8
1
  6
Continuous
 62
     4
100
AcDbLine
 10
48.32538251022708
 20
-16.010818272778
 30
0.0
 11
48.94302956905061
 21
-15.77748493944467
 31
0.0
  0
LINE
  5
1EE
330
1F
100
AcDbEntity
  8
1
  6
Continuous
 62
     4
100
AcDbLine
 10
47.70773545140355
 20
-15.77748493944467
 30
0.0
 11
48.32538251022708
 21
-16.010818272778
 31
0.0
  0
LINE
  5
1EF
330
1F
100
AcDbEntity
  8
1
  6
Continuous
 62
     4
100
AcDbLine
 10
47.39891192199178
 20
-15.19415160611133
 30
0.0
 11
47.70773545140355
 21
-15.77748493944467
 31
0.0
  0
LINE
  5
1F0
330
1F
100
AcDbEntity
  8
1
  6
Continuous
 62
     4
100
AcDbLine
 10
47.19302956905061
 20
-14.260818272778
 30
0.0
 11
47.39891192199178
 21
-15.19415160611133
 31
0.0
  0
LINE
  5
1F1
330
1F
100
AcDbEntity
  8
1
  6
Continuous
 62
     4
100
AcDbLine
 10
47.39891192199178
 20
-13.32748493944467
 30
0.0
 11
47.19302956905061
 21
-14.260818272778
 31
0.0
  0
LINE
  5
1F2
330
1F
100
AcDbEntity
  8
1
  6
Continuous
 62
     4
100
AcDbLine
 10
47.70773545140355
 20
-12.74415160611133
 30
0.0
 11
47.39891192199178
 21
-13.32748493944467
 31
0.0
  0
LINE
  5
1F3
330
1F
100
AcDbEntity
  8
1
  6
Continuous
 62
     4
100
AcDbLine
 10
48.32538251022708
 20
-12.510818272778
 30
0.0
 11
47.70773545140355
 21
-12.74415160611133
 31
0.0
  0
LINE
  5
1F4
330
1F
100
AcDbEntity
  8
1
  6
Continuous
 62
     4
100
AcDbLine
 10
45.85479427493296
 20
-15.660818272778
 30
0.0
 11
45.95773545140355
 21
-15.54415160611133
 31
0.0
  0
LINE
  5
1F5
330
1F
100
AcDbEntity
  8
1
  6
Continuous
 62
     4
100
AcDbLine
 10
45.95773545140355
 20
-15.77748493944467
 30
0.0
 11
45.85479427493296
 21
-15.660818272778
 31
0.0
  0
LINE
  5
1F6
330
1F
100
AcDbEntity
  8
1
  6
Continuous
 62
     4
100
AcDbLine
 10
46.06067662787415
 20
-15.660818272778
 30
0.0
 11
45.95773545140355
 21
-15.77748493944467
 31
0.0
  0
LINE
  5
1F7
330
1F
100
AcDbEntity
  8
1
  6
Continuous
 62
     4
100
AcDbLine
 10
45.95773545140355
 20
-15.54415160611133
 30
0.0
 11
46.06067662787415
 21
-15.660818272778
 31
0.0
  0
LINE
  5
1F8
330
1F
100
AcDbEntity
  8
1
  6
Continuous
 62
     4
100
AcDbLine
 10
45.85479427493296
 20
-15.54415160611133
 30
0.0
 11
46.06067662787415
 21
-15.54415160611133
 31
0.0
  0
LINE
  5
1F9
330
1F
100
AcDbEntity
  8
1
  6
Continuous
 62
     4
100
AcDbLine
 10
45.85479427493296
 20
-15.77748493944467
 30
0.0
 11
45.85479427493296
 21
-15.54415160611133
 31
0.0
  0
LINE
  5
1FA
330
1F
100
AcDbEntity
  8
1
  6
Continuous
 62
     4
100
AcDbLine
 10
46.06067662787415
 20
-15.77748493944467
 30
0.0
 11
45.85479427493296
 21
-15.77748493944467
 31
0.0
  0
LINE
  5
1FB
330
1F
100
AcDbEntity
  8
1
  6
Continuous
 62
     4
100
AcDbLine
 10
46.06067662787415
 20
-15.54415160611133
 30
0.0
 11
46.06067662787415
 21
-15.77748493944467
 31
0.0
  0
LINE
  5
1FC
330
1F
100
AcDbEntity
  8
1
  6
Continuous
 62
     4
100
AcDbLine
 10
45.75185309846238
 20
-15.660818272778
 30
0.0
 11
45.95773545140355
 21
-15.42748493944467
 31
0.0
  0
LINE
  5
1FD
330
1F
100
AcDbEntity
  8
1
  6
Continuous
 62
     4
100
AcDbLine
 10
45.95773545140355
 20
-15.89415160611133
 30
0.0
 11
45.75185309846238
 21
-15.660818272778
 31
0.0
  0
LINE
  5
1FE
330
1F
100
AcDbEntity
  8
1
  6
Continuous
 62
     4
100
AcDbLine
 10
46.16361780434473
 20
-15.660818272778
 30
0.0
 11
45.95773545140355
 21
-15.89415160611133
 31
0.0
  0
LINE
  5
1FF
330
1F
100
AcDbEntity
  8
1
  6
Continuous
 62
     4
100
AcDbLine
 10
45.95773545140355
 20
-15.42748493944467
 30
0.0
 11
46.16361780434473
 21
-15.660818272778
 31
0.0
  0
LINE
  5
200
330
1F
100
AcDbEntity
  8
1
  6
Continuous
 62
     4
100
AcDbLine
 10
44.20773545140355
 20
-12.74415160611133
 30
0.0
 11
43.59008839258002
 21
-12.510818272778
 31
0.0
  0
LINE
  5
201
330
1F
100
AcDbEntity
  8
1
  6
Continuous
 62
     4
100
AcDbLine
 10
44.61950015728591
 20
-13.32748493944467
 30
0.0
 11
44.20773545140355
 21
-12.74415160611133
 31
0.0
  0
LINE
  5
202
330
1F
100
AcDbEntity
  8
1
  6
Continuous
 62
     4
100
AcDbLine
 10
44.72244133375649
 20
-14.260818272778
 30
0.0
 11
44.61950015728591
 21
-13.32748493944467
 31
0.0
  0
LINE
  5
203
330
1F
100
AcDbEntity
  8
1
  6
Continuous
 62
     4
100
AcDbLine
 10
44.61950015728591
 20
-15.19415160611133
 30
0.0
 11
44.72244133375649
 21
-14.260818272778
 31
0.0
  0
LINE
  5
204
330
1F
100
AcDbEntity
  8
1
  6
Continuous
 62
     4
100
AcDbLine
 10
44.20773545140355
 20
-15.77748493944467
 30
0.0
 11
44.61950015728591
 21
-15.19415160611133
 31
0.0
  0
LINE
  5
205
330
1F
100
AcDbEntity
  8
1
  6
Continuous
 62
     4
100
AcDbLine
 10
43.59008839258002
 20
-16.010818272778
 30
0.0
 11
44.20773545140355
 21
-15.77748493944467
 31
0.0
  0
LINE
  5
206
330
1F
100
AcDbEntity
  8
1
  6
Continuous
 62
     4
100
AcDbLine
 10
42.97244133375649
 20
-15.77748493944467
 30
0.0
 11
43.59008839258002
 21
-16.010818272778
 31
0.0
  0
LINE
  5
207
330
1F
100
AcDbEntity
  8
1
  6
Continuous
 62
     4
100
AcDbLine
 10
42.66361780434473
 20
-15.19415160611133
 30
0.0
 11
42.97244133375649
 21
-15.77748493944467
 31
0.0
  0
LINE
  5
208
330
1F
100
AcDbEntity
  8
1
  6
Continuous
 62
     4
100
AcDbLine
 10
42.45773545140355
 20
-14.260818272778
 30
0.0
 11
42.66361780434473
 21
-15.19415160611133
 31
0.0
  0
LINE
  5
209
330
1F
100
AcDbEntity
  8
1
  6
Continuous
 62
     4
100
AcDbLine
 10
42.66361780434473
 20
-13.32748493944467
 30
0.0
 11
42.45773545140355
 21
-14.260818272778
 31
0.0
  0
LINE
  5
20A
330
1F
100
AcDbEntity
  8
1
  6
Continuous
 62
     4
100
AcDbLine
 10
42.97244133375649
 20
-12.74415160611133
 30
0.0
 11
42.66361780434473
 21
-13.32748493944467
 31
0.0
  0
LINE
  5
20B
330
1F
100
AcDbEntity
  8
1
  6
Continuous
 62
     4
100
AcDbLine
 10
43.59008839258002
 20
-12.510818272778
 30
0.0
 11
42.97244133375649
 21
-12.74415160611133
 31
0.0
  0
LINE
  5
20C
330
1F
100
AcDbEntity
  8
1
  6
Continuous
 62
     2
100
AcDbLine
 10
253.1606932014213
 20
-23.43134515919303
 30
0.0
 11
254.6430461425977
 21
-23.43134515919303
 31
0.0
  0
LINE
  5
20D
330
1F
100
AcDbEntity
  8
1
  6
Continuous
 62
     2
100
AcDbLine
 10
253.1606932014213
 20
-25.2980118258597
 30
0.0
 11
254.8077520249507
 21
-25.2980118258597
 31
0.0
  0
LINE
  5
20E
330
1F
100
AcDbEntity
  8
1
  6
Continuous
 62
     2
100
AcDbLine
 10
253.1606932014213
 20
-21.7980118258597
 30
0.0
 11
253.1606932014213
 21
-25.2980118258597
 31
0.0
  0
LINE
  5
20F
330
1F
100
AcDbEntity
  8
1
  6
Continuous
 62
     2
100
AcDbLine
 10
254.8077520249507
 20
-21.7980118258597
 30
0.0
 11
253.1606932014213
 21
-21.7980118258597
 31
0.0
  0
LINE
  5
210
330
1F
100
AcDbEntity
  8
1
  6
Continuous
 62
     2
100
AcDbLine
 10
251.4312814367154
 20
-21.7980118258597
 30
0.0
 11
251.4312814367154
 21
-25.2980118258597
 31
0.0
  0
LINE
  5
211
330
1F
100
AcDbEntity
  8
1
  6
Continuous
 62
     2
100
AcDbLine
 10
250.5253990837742
 20
-21.7980118258597
 30
0.0
 11
252.3371637896565
 21
-21.7980118258597
 31
0.0
  0
LINE
  5
212
330
1F
100
AcDbEntity
  8
1
  6
Continuous
 62
     2
100
AcDbLine
 10
248.1371637896565
 20
-24.36467849252637
 30
0.0
 11
249.4548108484801
 21
-24.36467849252637
 31
0.0
  0
LINE
  5
213
330
1F
100
AcDbEntity
  8
1
  6
Continuous
 62
     2
100
AcDbLine
 10
248.7959873190683
 20
-21.7980118258597
 30
0.0
 11
249.7018696720095
 21
-25.2980118258597
 31
0.0
  0
LINE
  5
214
330
1F
100
AcDbEntity
  8
1
  6
Continuous
 62
     2
100
AcDbLine
 10
247.8901049661271
 20
-25.2980118258597
 30
0.0
 11
248.7959873190683
 21
-21.7980118258597
 31
0.0
  0
LINE
  5
215
330
1F
100
AcDbEntity
  8
1
  6
Continuous
 62
     2
100
AcDbLine
 10
245.419516730833
 20
-25.2980118258597
 30
0.0
 11
247.0665755543624
 21
-25.2980118258597
 31
0.0
  0
LINE
  5
216
330
1F
100
AcDbEntity
  8
1
  6
Continuous
 62
     2
100
AcDbLine
 10
245.419516730833
 20
-21.7980118258597
 30
0.0
 11
245.419516730833
 21
-25.2980118258597
 31
0.0
  0
LINE
  5
217
330
1F
100
AcDbEntity
  8
1
  6
Continuous
 62
     2
100
AcDbLine
 10
244.019516730833
 20
-23.5480118258597
 30
0.0
 11
242.9489284955389
 21
-23.5480118258597
 31
0.0
  0
LINE
  5
218
330
1F
100
AcDbEntity
  8
1
  6
Continuous
 62
     2
100
AcDbLine
 10
244.3489284955389
 20
-23.31467849252637
 30
0.0
 11
244.019516730833
 21
-23.5480118258597
 31
0.0
  0
LINE
  5
219
330
1F
100
AcDbEntity
  8
1
  6
Continuous
 62
     2
100
AcDbLine
 10
244.5136343778918
 20
-23.08134515919304
 30
0.0
 11
244.3489284955389
 21
-23.31467849252637
 31
0.0
  0
LINE
  5
21A
330
1F
100
AcDbEntity
  8
1
  6
Continuous
 62
     2
100
AcDbLine
 10
244.5959873190683
 20
-22.61467849252637
 30
0.0
 11
244.5136343778918
 21
-23.08134515919304
 31
0.0
  0
LINE
  5
21B
330
1F
100
AcDbEntity
  8
1
  6
Continuous
 62
     2
100
AcDbLine
 10
244.5136343778918
 20
-22.38134515919303
 30
0.0
 11
244.5959873190683
 21
-22.61467849252637
 31
0.0
  0
LINE
  5
21C
330
1F
100
AcDbEntity
  8
1
  6
Continuous
 62
     2
100
AcDbLine
 10
244.3489284955389
 20
-22.03134515919303
 30
0.0
 11
244.5136343778918
 21
-22.38134515919303
 31
0.0
  0
LINE
  5
21D
330
1F
100
AcDbEntity
  8
1
  6
Continuous
 62
     2
100
AcDbLine
 10
244.019516730833
 20
-21.7980118258597
 30
0.0
 11
244.3489284955389
 21
-22.03134515919303
 31
0.0
  0
LINE
  5
21E
330
1F
100
AcDbEntity
  8
1
  6
Continuous
 62
     2
100
AcDbLine
 10
242.9489284955389
 20
-21.7980118258597
 30
0.0
 11
244.019516730833
 21
-21.7980118258597
 31
0.0
  0
LINE
  5
21F
330
1F
100
AcDbEntity
  8
1
  6
Continuous
 62
     2
100
AcDbLine
 10
242.9489284955389
 20
-25.2980118258597
 30
0.0
 11
242.9489284955389
 21
-21.7980118258597
 31
0.0
  0
LINE
  5
220
330
1F
100
AcDbEntity
  8
1
  6
Continuous
 62
     2
100
AcDbLine
 10
238.0901049661271
 20
-23.43134515919303
 30
0.0
 11
239.5724579073036
 21
-23.43134515919303
 31
0.0
  0
LINE
  5
221
330
1F
100
AcDbEntity
  8
1
  6
Continuous
 62
     2
100
AcDbLine
 10
238.0901049661271
 20
-25.2980118258597
 30
0.0
 11
239.7371637896565
 21
-25.2980118258597
 31
0.0
  0
LINE
  5
222
330
1F
100
AcDbEntity
  8
1
  6
Continuous
 62
     2
100
AcDbLine
 10
238.0901049661271
 20
-21.7980118258597
 30
0.0
 11
238.0901049661271
 21
-25.2980118258597
 31
0.0
  0
LINE
  5
223
330
1F
100
AcDbEntity
  8
1
  6
Continuous
 62
     2
100
AcDbLine
 10
239.7371637896565
 20
-21.7980118258597
 30
0.0
 11
238.0901049661271
 21
-21.7980118258597
 31
0.0
  0
LINE
  5
224
330
1F
100
AcDbEntity
  8
1
  6
Continuous
 62
     2
100
AcDbLine
 10
237.2665755543624
 20
-21.7980118258597
 30
0.0
 11
237.2665755543624
 21
-25.2980118258597
 31
0.0
  0
LINE
  5
225
330
1F
100
AcDbEntity
  8
1
  6
Continuous
 62
     2
100
AcDbLine
 10
236.1959873190683
 20
-25.18134515919303
 30
0.0
 11
237.2665755543624
 21
-21.7980118258597
 31
0.0
  0
LINE
  5
226
330
1F
100
AcDbEntity
  8
1
  6
Continuous
 62
     2
100
AcDbLine
 10
235.1253990837742
 20
-21.7980118258597
 30
0.0
 11
236.1959873190683
 21
-25.18134515919303
 31
0.0
  0
LINE
  5
227
330
1F
100
AcDbEntity
  8
1
  6
Continuous
 62
     2
100
AcDbLine
 10
235.1253990837742
 20
-25.2980118258597
 30
0.0
 11
235.1253990837742
 21
-21.7980118258597
 31
0.0
  0
LINE
  5
228
330
1F
100
AcDbEntity
  8
1
  6
Continuous
 62
     2
100
AcDbLine
 10
232.7371637896565
 20
-24.36467849252637
 30
0.0
 11
234.0548108484801
 21
-24.36467849252637
 31
0.0
  0
LINE
  5
229
330
1F
100
AcDbEntity
  8
1
  6
Continuous
 62
     2
100
AcDbLine
 10
233.3959873190683
 20
-21.7980118258597
 30
0.0
 11
234.3018696720095
 21
-25.2980118258597
 31
0.0
  0
LINE
  5
22A
330
1F
100
AcDbEntity
  8
1
  6
Continuous
 62
     2
100
AcDbLine
 10
232.4901049661271
 20
-25.2980118258597
 30
0.0
 11
233.3959873190683
 21
-21.7980118258597
 31
0.0
  0
LINE
  5
22B
330
1F
100
AcDbEntity
  8
1
  6
Continuous
 62
     2
100
AcDbLine
 10
231.6665755543624
 20
-25.2980118258597
 30
0.0
 11
231.6665755543624
 21
-21.7980118258597
 31
0.0
  0
LINE
  5
22C
330
1F
100
AcDbEntity
  8
1
  6
Continuous
 62
     2
100
AcDbLine
 10
230.019516730833
 20
-21.7980118258597
 30
0.0
 11
231.6665755543624
 21
-25.2980118258597
 31
0.0
  0
LINE
  5
22D
330
1F
100
AcDbEntity
  8
1
  6
Continuous
 62
     2
100
AcDbLine
 10
230.019516730833
 20
-25.2980118258597
 30
0.0
 11
230.019516730833
 21
-21.7980118258597
 31
0.0
  0
LINE
  5
22E
330
1F
100
AcDbEntity
  8
1
  6
Continuous
 62
     7
100
AcDbLine
 10
61.8079136933836
 20
-45.15401950414742
 30
0.0
 11
61.8079136933836
 21
-49.55401950414739
 31
0.0
  0
LINE
  5
22F
330
1F
100
AcDbEntity
  8
1
  6
Continuous
 62
     1
100
AcDbLine
 10
-65.54543978109675
 20
-59.3540195041474
 30
0.0
 11
-65.24543978109675
 21
-59.3540195041474
 31
0.0
  0
LINE
  5
230
330
1F
100
AcDbEntity
  8
1
  6
Continuous
 62
     1
100
AcDbLine
 10
-65.54543978109675
 20
-35.3540195041474
 30
0.0
 11
-65.54543978109675
 21
-59.3540195041474
 31
0.0
  0
LINE
  5
231
330
1F
100
AcDbEntity
  8
1
  6
Continuous
 62
     1
100
AcDbLine
 10
-65.54543978109675
 20
-35.3540195041474
 30
0.0
 11
-65.54543978109675
 21
-59.3540195041474
 31
0.0
  0
LINE
  5
232
330
1F
100
AcDbEntity
  8
1
  6
Continuous
 62
     1
100
AcDbLine
 10
-65.24543978109675
 20
-35.3540195041474
 30
0.0
 11
-65.54543978109675
 21
-35.3540195041474
 31
0.0
  0
LINE
  5
233
330
1F
100
AcDbEntity
  8
1
  6
Continuous
 62
     1
100
AcDbLine
 10
220.8590005519283
 20
-59.3540195041474
 30
0.0
 11
220.5590005519283
 21
-59.3540195041474
 31
0.0
  0
LINE
  5
234
330
1F
100
AcDbEntity
  8
1
  6
Continuous
 62
     1
100
AcDbLine
 10
220.8590005519283
 20
-35.3540195041474
 30
0.0
 11
220.8590005519283
 21
-59.3540195041474
 31
0.0
  0
LINE
  5
235
330
1F
100
AcDbEntity
  8
1
  6
Continuous
 62
     1
100
AcDbLine
 10
220.5590005519283
 20
-35.3540195041474
 30
0.0
 11
220.8590005519283
 21
-35.3540195041474
 31
0.0
  0
LINE
  5
236
330
1F
100
AcDbEntity
  8
1
  6
DASH_CENTER
 62
     3
100
AcDbLine
 10
173.5590005519284
 20
-47.3540195041474
 30
0.0
 11
225.5590005519284
 21
-47.3540195041474
 31
0.0
  0
LINE
  5
237
330
1F
100
AcDbEntity
  8
1
  6
DASH_CENTER
 62
     3
100
AcDbLine
 10
199.5590005519284
 20
-18.36461054564838
 30
0.0
 11
199.5590005519284
 21
-73.3540195041474
 31
0.0
  0
LINE
  5
238
330
1F
100
AcDbEntity
  8
1
  6
Continuous
 62
     7
100
AcDbLine
 10
184.0590005519284
 20
-35.6540195041474
 30
0.0
 11
178.5590005519284
 21
-35.6540195041474
 31
0.0
  0
LINE
  5
239
330
1F
100
AcDbEntity
  8
1
  6
Continuous
 62
     7
100
AcDbLine
 10
187.8590005519284
 20
-26.3540195041474
 30
0.0
 11
187.8590005519284
 21
-31.8540195041474
 31
0.0
  0
LINE
  5
23A
330
1F
100
AcDbEntity
  8
1
  6
Continuous
 62
     7
100
AcDbLine
 10
187.8590005519284
 20
-62.8540195041474
 30
0.0
 11
187.8590005519284
 21
-68.3540195041474
 31
0.0
  0
LINE
  5
23B
330
1F
100
AcDbEntity
  8
1
  6
Continuous
 62
     7
100
AcDbLine
 10
178.5590005519284
 20
-59.05401950414739
 30
0.0
 11
184.0590005519284
 21
-59.05401950414739
 31
0.0
  0
LINE
  5
23C
330
1F
100
AcDbEntity
  8
1
  6
Continuous
 62
     7
100
AcDbLine
 10
211.2590005519284
 20
-62.8540195041474
 30
0.0
 11
211.2590005519284
 21
-68.3540195041474
 31
0.0
  0
LINE
  5
23D
330
1F
100
AcDbEntity
  8
1
  6
Continuous
 62
     7
100
AcDbLine
 10
220.5590005519284
 20
-59.05401950414739
 30
0.0
 11
215.0590005519284
 21
-59.05401950414739
 31
0.0
  0
LINE
  5
23E
330
1F
100
AcDbEntity
  8
1
  6
Continuous
 62
     7
100
AcDbLine
 10
220.5590005519284
 20
-35.6540195041474
 30
0.0
 11
215.0590005519284
 21
-35.6540195041474
 31
0.0
  0
LINE
  5
23F
330
1F
100
AcDbEntity
  8
1
  6
Continuous
 62
     7
100
AcDbLine
 10
211.2590005519284
 20
-26.3540195041474
 30
0.0
 11
211.2590005519284
 21
-31.8540195041474
 31
0.0
  0
LINE
  5
240
330
1F
100
AcDbEntity
  8
1
  6
Continuous
 62
     7
100
AcDbLine
 10
211.8590005519284
 20
-26.3540195041474
 30
0.0
 11
211.8590005519284
 21
-31.8540195041474
 31
0.0
  0
LINE
  5
241
330
1F
100
AcDbEntity
  8
1
  6
Continuous
 62
     7
100
AcDbLine
 10
211.8590005519284
 20
-62.8540195041474
 30
0.0
 11
211.8590005519284
 21
-68.3540195041474
 31
0.0
  0
LINE
  5
242
330
1F
100
AcDbEntity
  8
1
  6
Continuous
 62
     7
100
AcDbLine
 10
187.2590005519284
 20
-62.8540195041474
 30
0.0
 11
187.2590005519284
 21
-68.3540195041474
 31
0.0
  0
LINE
  5
243
330
1F
100
AcDbEntity
  8
1
  6
Continuous
 62
     7
100
AcDbLine
 10
187.2590005519284
 20
-26.3540195041474
 30
0.0
 11
187.2590005519284
 21
-31.8540195041474
 31
0.0
  0
LINE
  5
244
330
1F
100
AcDbEntity
  8
1
  6
Continuous
 62
     7
100
AcDbLine
 10
178.5590005519284
 20
-35.05401950414739
 30
0.0
 11
184.0590005519284
 21
-35.05401950414739
 31
0.0
  0
LINE
  5
245
330
1F
100
AcDbEntity
  8
1
  6
Continuous
 62
     7
100
AcDbLine
 10
178.5590005519284
 20
-59.65401950414739
 30
0.0
 11
184.0590005519284
 21
-59.65401950414739
 31
0.0
  0
LINE
  5
246
330
1F
100
AcDbEntity
  8
1
  6
Continuous
 62
     7
100
AcDbLine
 10
215.0590005519284
 20
-59.65401950414739
 30
0.0
 11
220.5590005519284
 21
-59.65401950414739
 31
0.0
  0
LINE
  5
247
330
1F
100
AcDbEntity
  8
1
  6
Continuous
 62
     7
100
AcDbLine
 10
215.0590005519284
 20
-35.05401950414739
 30
0.0
 11
220.5590005519284
 21
-35.05401950414739
 31
0.0
  0
LINE
  5
248
330
1F
100
AcDbEntity
  8
1
  6
Continuous
 62
     7
100
AcDbLine
 10
220.5590005519284
 20
-32.0243097873915
 30
0.0
 11
220.5590005519284
 21
-62.68372922090328
 31
0.0
  0
LINE
  5
249
330
1F
100
AcDbEntity
  8
1
  6
DASH_CENTER
 62
     3
100
AcDbLine
 10
215.0590005519284
 20
-28.2540195041474
 30
0.0
 11
215.0590005519284
 21
-35.4540195041474
 31
0.0
  0
LINE
  5
24A
330
1F
100
AcDbEntity
  8
1
  6
DASH_CENTER
 62
     3
100
AcDbLine
 10
184.0590005519284
 20
-35.4540195041474
 30
0.0
 11
184.0590005519284
 21
-28.2540195041474
 31
0.0
  0
LINE
  5
24B
330
1F
100
AcDbEntity
  8
1
  6
DASH_CENTER
 62
     3
100
AcDbLine
 10
180.4590005519284
 20
-31.8540195041474
 30
0.0
 11
187.6590005519284
 21
-31.8540195041474
 31
0.0
  0
LINE
  5
24C
330
1F
100
AcDbEntity
  8
1
  6
Continuous
 62
     7
100
AcDbLine
 10
184.8223865766108
 20
-30.56280233522399
 30
0.0
 11
184.2737240500228
 21
-31.09263957830731
 31
0.0
  0
LINE
  5
24D
330
1F
100
AcDbEntity
  8
1
  6
Continuous
 62
     7
100
AcDbLine
 10
184.2737240500228
 20
-31.09263957830731
 30
0.0
 11
184.0590005519284
 21
-31.17506420670274
 31
0.0
  0
LINE
  5
24E
330
1F
100
AcDbEntity
  8
1
  6
Continuous
 62
     7
100
AcDbLine
 10
183.8442770538341
 20
-31.09263957830731
 30
0.0
 11
183.2956145272461
 21
-30.56280233522399
 31
0.0
  0
LINE
  5
24F
330
1F
100
AcDbEntity
  8
1
  6
Continuous
 62
     7
100
AcDbLine
 10
184.0590005519284
 20
-31.17506420670274
 30
0.0
 11
183.8442770538341
 21
-31.09263957830731
 31
0.0
  0
LINE
  5
250
330
1F
100
AcDbEntity
  8
1
  6
Continuous
 62
     7
100
AcDbLine
 10
182.767783383005
 20
-31.09063347946502
 30
0.0
 11
183.2976206260883
 21
-31.63929600605302
 31
0.0
  0
LINE
  5
251
330
1F
100
AcDbEntity
  8
1
  6
Continuous
 62
     7
100
AcDbLine
 10
183.2976206260883
 20
-31.63929600605302
 30
0.0
 11
183.3800452544838
 21
-31.85401950414737
 31
0.0
  0
LINE
  5
252
330
1F
100
AcDbEntity
  8
1
  6
Continuous
 62
     7
100
AcDbLine
 10
183.2976206260883
 20
-32.06874300224173
 30
0.0
 11
182.767783383005
 21
-32.61740552882975
 31
0.0
  0
LINE
  5
253
330
1F
100
AcDbEntity
  8
1
  6
Continuous
 62
     7
100
AcDbLine
 10
183.3800452544838
 20
-31.85401950414737
 30
0.0
 11
183.2976206260883
 21
-32.06874300224173
 31
0.0
  0
LINE
  5
254
330
1F
100
AcDbEntity
  8
1
  6
Continuous
 62
     7
100
AcDbLine
 10
183.295614527246
 20
-33.1452366730708
 30
0.0
 11
183.844277053834
 21
-32.61539942998746
 31
0.0
  0
LINE
  5
255
330
1F
100
AcDbEntity
  8
1
  6
Continuous
 62
     7
100
AcDbLine
 10
183.844277053834
 20
-32.61539942998746
 30
0.0
 11
184.0590005519284
 21
-32.53297480159203
 31
0.0
  0
LINE
  5
256
330
1F
100
AcDbEntity
  8
1
  6
Continuous
 62
     7
100
AcDbLine
 10
184.2737240500228
 20
-32.61539942998746
 30
0.0
 11
184.8223865766108
 21
-33.1452366730708
 31
0.0
  0
LINE
  5
257
330
1F
100
AcDbEntity
  8
1
  6
Continuous
 62
     7
100
AcDbLine
 10
184.0590005519284
 20
-32.53297480159203
 30
0.0
 11
184.2737240500228
 21
-32.61539942998746
 31
0.0
  0
LINE
  5
258
330
1F
100
AcDbEntity
  8
1
  6
Continuous
 62
     7
100
AcDbLine
 10
185.3502177208518
 20
-32.61740552882976
 30
0.0
 11
184.8203804777685
 21
-32.06874300224175
 31
0.0
  0
LINE
  5
259
330
1F
100
AcDbEntity
  8
1
  6
Continuous
 62
     7
100
AcDbLine
 10
184.8203804777685
 20
-32.06874300224175
 30
0.0
 11
184.737955849373
 21
-31.8540195041474
 31
0.0
  0
LINE
  5
25A
330
1F
100
AcDbEntity
  8
1
  6
Continuous
 62
     7
100
AcDbLine
 10
184.8203804777685
 20
-31.63929600605304
 30
0.0
 11
185.3502177208518
 21
-31.09063347946503
 31
0.0
  0
LINE
  5
25B
330
1F
100
AcDbEntity
  8
1
  6
Continuous
 62
     7
100
AcDbLine
 10
184.737955849373
 20
-31.8540195041474
 30
0.0
 11
184.8203804777685
 21
-31.63929600605304
 31
0.0
  0
LINE
  5
25C
330
1F
100
AcDbEntity
  8
1
  6
DASH_CENTER
 62
     3
100
AcDbLine
 10
184.0590005519284
 20
-66.4540195041474
 30
0.0
 11
184.0590005519284
 21
-59.2540195041474
 31
0.0
  0
LINE
  5
25D
330
1F
100
AcDbEntity
  8
1
  6
DASH_CENTER
 62
     3
100
AcDbLine
 10
180.4590005519284
 20
-62.8540195041474
 30
0.0
 11
187.6590005519284
 21
-62.8540195041474
 31
0.0
  0
LINE
  5
25E
330
1F
100
AcDbEntity
  8
1
  6
DASH_CENTER
 62
     3
100
AcDbLine
 10
215.0590005519284
 20
-66.4540195041474
 30
0.0
 11
215.0590005519284
 21
-59.2540195041474
 31
0.0
  0
LINE
  5
25F
330
1F
100
AcDbEntity
  8
1
  6
DASH_CENTER
 62
     3
100
AcDbLine
 10
211.4590005519284
 20
-62.8540195041474
 30
0.0
 11
218.6590005519284
 21
-62.8540195041474
 31
0.0
  0
LINE
  5
260
330
1F
100
AcDbEntity
  8
1
  6
DASH_CENTER
 62
     3
100
AcDbLine
 10
211.4590005519284
 20
-31.8540195041474
 30
0.0
 11
218.6590005519284
 21
-31.8540195041474
 31
0.0
  0
LINE
  5
261
330
1F
100
AcDbEntity
  8
1
  6
Continuous
 62
     7
100
AcDbLine
 10
184.8223865766108
 20
-61.56280233522399
 30
0.0
 11
184.2737240500228
 21
-62.09263957830733
 31
0.0
  0
LINE
  5
262
330
1F
100
AcDbEntity
  8
1
  6
Continuous
 62
     7
100
AcDbLine
 10
184.2737240500228
 20
-62.09263957830733
 30
0.0
 11
184.0590005519284
 21
-62.17506420670276
 31
0.0
  0
LINE
  5
263
330
1F
100
AcDbEntity
  8
1
  6
Continuous
 62
     7
100
AcDbLine
 10
183.8442770538341
 20
-62.09263957830733
 30
0.0
 11
183.2956145272461
 21
-61.56280233522399
 31
0.0
  0
LINE
  5
264
330
1F
100
AcDbEntity
  8
1
  6
Continuous
 62
     7
100
AcDbLine
 10
184.0590005519284
 20
-62.17506420670276
 30
0.0
 11
183.8442770538341
 21
-62.09263957830733
 31
0.0
  0
LINE
  5
265
330
1F
100
AcDbEntity
  8
1
  6
Continuous
 62
     7
100
AcDbLine
 10
182.767783383005
 20
-62.09063347946503
 30
0.0
 11
183.2976206260883
 21
-62.63929600605304
 31
0.0
  0
LINE
  5
266
330
1F
100
AcDbEntity
  8
1
  6
Continuous
 62
     7
100
AcDbLine
 10
183.2976206260883
 20
-62.63929600605304
 30
0.0
 11
183.3800452544838
 21
-62.85401950414738
 31
0.0
  0
LINE
  5
267
330
1F
100
AcDbEntity
  8
1
  6
Continuous
 62
     7
100
AcDbLine
 10
183.2976206260883
 20
-63.06874300224173
 30
0.0
 11
182.767783383005
 21
-63.61740552882976
 31
0.0
  0
LINE
  5
268
330
1F
100
AcDbEntity
  8
1
  6
Continuous
 62
     7
100
AcDbLine
 10
183.3800452544838
 20
-62.85401950414738
 30
0.0
 11
183.2976206260883
 21
-63.06874300224173
 31
0.0
  0
LINE
  5
269
330
1F
100
AcDbEntity
  8
1
  6
Continuous
 62
     7
100
AcDbLine
 10
183.295614527246
 20
-64.1452366730708
 30
0.0
 11
183.844277053834
 21
-63.61539942998746
 31
0.0
  0
LINE
  5
26A
330
1F
100
AcDbEntity
  8
1
  6
Continuous
 62
     7
100
AcDbLine
 10
183.844277053834
 20
-63.61539942998746
 30
0.0
 11
184.0590005519284
 21
-63.53297480159203
 31
0.0
  0
LINE
  5
26B
330
1F
100
AcDbEntity
  8
1
  6
Continuous
 62
     7
100
AcDbLine
 10
184.2737240500228
 20
-63.61539942998746
 30
0.0
 11
184.8223865766108
 21
-64.1452366730708
 31
0.0
  0
LINE
  5
26C
330
1F
100
AcDbEntity
  8
1
  6
Continuous
 62
     7
100
AcDbLine
 10
184.0590005519284
 20
-63.53297480159203
 30
0.0
 11
184.2737240500228
 21
-63.61539942998746
 31
0.0
  0
LINE
  5
26D
330
1F
100
AcDbEntity
  8
1
  6
Continuous
 62
     7
100
AcDbLine
 10
185.3502177208518
 20
-63.61740552882977
 30
0.0
 11
184.8203804777685
 21
-63.06874300224175
 31
0.0
  0
LINE
  5
26E
330
1F
100
AcDbEntity
  8
1
  6
Continuous
 62
     7
100
AcDbLine
 10
184.8203804777685
 20
-63.06874300224175
 30
0.0
 11
184.737955849373
 21
-62.8540195041474
 31
0.0
  0
LINE
  5
26F
330
1F
100
AcDbEntity
  8
1
  6
Continuous
 62
     7
100
AcDbLine
 10
184.8203804777685
 20
-62.63929600605305
 30
0.0
 11
185.3502177208518
 21
-62.09063347946505
 31
0.0
  0
LINE
  5
270
330
1F
100
AcDbEntity
  8
1
  6
Continuous
 62
     7
100
AcDbLine
 10
184.737955849373
 20
-62.8540195041474
 30
0.0
 11
184.8203804777685
 21
-62.63929600605305
 31
0.0
  0
LINE
  5
271
330
1F
100
AcDbEntity
  8
1
  6
Continuous
 62
     7
100
AcDbLine
 10
215.8223865766108
 20
-61.56280233522399
 30
0.0
 11
215.2737240500228
 21
-62.09263957830733
 31
0.0
  0
LINE
  5
272
330
1F
100
AcDbEntity
  8
1
  6
Continuous
 62
     7
100
AcDbLine
 10
215.2737240500228
 20
-62.09263957830733
 30
0.0
 11
215.0590005519284
 21
-62.17506420670276
 31
0.0
  0
LINE
  5
273
330
1F
100
AcDbEntity
  8
1
  6
Continuous
 62
     7
100
AcDbLine
 10
214.8442770538341
 20
-62.09263957830733
 30
0.0
 11
214.2956145272461
 21
-61.56280233522399
 31
0.0
  0
LINE
  5
274
330
1F
100
AcDbEntity
  8
1
  6
Continuous
 62
     7
100
AcDbLine
 10
215.0590005519284
 20
-62.17506420670276
 30
0.0
 11
214.8442770538341
 21
-62.09263957830733
 31
0.0
  0
LINE
  5
275
330
1F
100
AcDbEntity
  8
1
  6
Continuous
 62
     7
100
AcDbLine
 10
213.767783383005
 20
-62.09063347946503
 30
0.0
 11
214.2976206260883
 21
-62.63929600605305
 31
0.0
  0
LINE
  5
276
330
1F
100
AcDbEntity
  8
1
  6
Continuous
 62
     7
100
AcDbLine
 10
214.2976206260883
 20
-62.63929600605305
 30
0.0
 11
214.3800452544838
 21
-62.8540195041474
 31
0.0
  0
LINE
  5
277
330
1F
100
AcDbEntity
  8
1
  6
Continuous
 62
     7
100
AcDbLine
 10
214.2976206260883
 20
-63.06874300224175
 30
0.0
 11
213.767783383005
 21
-63.61740552882976
 31
0.0
  0
LINE
  5
278
330
1F
100
AcDbEntity
  8
1
  6
Continuous
 62
     7
100
AcDbLine
 10
214.3800452544838
 20
-62.8540195041474
 30
0.0
 11
214.2976206260883
 21
-63.06874300224175
 31
0.0
  0
LINE
  5
279
330
1F
100
AcDbEntity
  8
1
  6
Continuous
 62
     7
100
AcDbLine
 10
214.295614527246
 20
-64.1452366730708
 30
0.0
 11
214.844277053834
 21
-63.61539942998746
 31
0.0
  0
LINE
  5
27A
330
1F
100
AcDbEntity
  8
1
  6
Continuous
 62
     7
100
AcDbLine
 10
214.844277053834
 20
-63.61539942998746
 30
0.0
 11
215.0590005519284
 21
-63.53297480159205
 31
0.0
  0
LINE
  5
27B
330
1F
100
AcDbEntity
  8
1
  6
Continuous
 62
     7
100
AcDbLine
 10
215.2737240500228
 20
-63.61539942998746
 30
0.0
 11
215.8223865766108
 21
-64.1452366730708
 31
0.0
  0
LINE
  5
27C
330
1F
100
AcDbEntity
  8
1
  6
Continuous
 62
     7
100
AcDbLine
 10
215.0590005519284
 20
-63.53297480159205
 30
0.0
 11
215.2737240500228
 21
-63.61539942998746
 31
0.0
  0
LINE
  5
27D
330
1F
100
AcDbEntity
  8
1
  6
Continuous
 62
     7
100
AcDbLine
 10
216.3502177208518
 20
-63.61740552882977
 30
0.0
 11
215.8203804777685
 21
-63.06874300224177
 31
0.0
  0
LINE
  5
27E
330
1F
100
AcDbEntity
  8
1
  6
Continuous
 62
     7
100
AcDbLine
 10
215.8203804777685
 20
-63.06874300224177
 30
0.0
 11
215.737955849373
 21
-62.85401950414742
 31
0.0
  0
LINE
  5
27F
330
1F
100
AcDbEntity
  8
1
  6
Continuous
 62
     7
100
AcDbLine
 10
215.8203804777685
 20
-62.63929600605305
 30
0.0
 11
216.3502177208518
 21
-62.09063347946505
 31
0.0
  0
LINE
  5
280
330
1F
100
AcDbEntity
  8
1
  6
Continuous
 62
     7
100
AcDbLine
 10
215.737955849373
 20
-62.85401950414742
 30
0.0
 11
215.8203804777685
 21
-62.63929600605305
 31
0.0
  0
LINE
  5
281
330
1F
100
AcDbEntity
  8
1
  6
Continuous
 62
     7
100
AcDbLine
 10
215.8223865766108
 20
-30.562802335224
 30
0.0
 11
215.2737240500228
 21
-31.09263957830733
 31
0.0
  0
LINE
  5
282
330
1F
100
AcDbEntity
  8
1
  6
Continuous
 62
     7
100
AcDbLine
 10
215.2737240500228
 20
-31.09263957830733
 30
0.0
 11
215.0590005519284
 21
-31.17506420670275
 31
0.0
  0
LINE
  5
283
330
1F
100
AcDbEntity
  8
1
  6
Continuous
 62
     7
100
AcDbLine
 10
214.8442770538341
 20
-31.09263957830733
 30
0.0
 11
214.2956145272461
 21
-30.562802335224
 31
0.0
  0
LINE
  5
284
330
1F
100
AcDbEntity
  8
1
  6
Continuous
 62
     7
100
AcDbLine
 10
215.0590005519284
 20
-31.17506420670275
 30
0.0
 11
214.8442770538341
 21
-31.09263957830733
 31
0.0
  0
LINE
  5
285
330
1F
100
AcDbEntity
  8
1
  6
Continuous
 62
     7
100
AcDbLine
 10
213.767783383005
 20
-31.09063347946502
 30
0.0
 11
214.2976206260883
 21
-31.63929600605304
 31
0.0
  0
LINE
  5
286
330
1F
100
AcDbEntity
  8
1
  6
Continuous
 62
     7
100
AcDbLine
 10
214.2976206260883
 20
-31.63929600605304
 30
0.0
 11
214.3800452544837
 21
-31.8540195041474
 31
0.0
  0
LINE
  5
287
330
1F
100
AcDbEntity
  8
1
  6
Continuous
 62
     7
100
AcDbLine
 10
214.2976206260883
 20
-32.06874300224175
 30
0.0
 11
213.767783383005
 21
-32.61740552882976
 31
0.0
  0
LINE
  5
288
330
1F
100
AcDbEntity
  8
1
  6
Continuous
 62
     7
100
AcDbLine
 10
214.3800452544837
 20
-31.8540195041474
 30
0.0
 11
214.2976206260883
 21
-32.06874300224175
 31
0.0
  0
LINE
  5
289
330
1F
100
AcDbEntity
  8
1
  6
Continuous
 62
     7
100
AcDbLine
 10
214.295614527246
 20
-33.14523667307081
 30
0.0
 11
214.844277053834
 21
-32.61539942998748
 31
0.0
  0
LINE
  5
28A
330
1F
100
AcDbEntity
  8
1
  6
Continuous
 62
     7
100
AcDbLine
 10
214.844277053834
 20
-32.61539942998748
 30
0.0
 11
215.0590005519284
 21
-32.53297480159205
 31
0.0
  0
LINE
  5
28B
330
1F
100
AcDbEntity
  8
1
  6
Continuous
 62
     7
100
AcDbLine
 10
215.2737240500228
 20
-32.61539942998748
 30
0.0
 11
215.8223865766108
 21
-33.14523667307081
 31
0.0
  0
LINE
  5
28C
330
1F
100
AcDbEntity
  8
1
  6
Continuous
 62
     7
100
AcDbLine
 10
215.0590005519284
 20
-32.53297480159205
 30
0.0
 11
215.2737240500228
 21
-32.61539942998748
 31
0.0
  0
LINE
  5
28D
330
1F
100
AcDbEntity
  8
1
  6
Continuous
 62
     7
100
AcDbLine
 10
216.3502177208518
 20
-32.61740552882978
 30
0.0
 11
215.8203804777685
 21
-32.06874300224176
 31
0.0
  0
LINE
  5
28E
330
1F
100
AcDbEntity
  8
1
  6
Continuous
 62
     7
100
AcDbLine
 10
215.8203804777685
 20
-32.06874300224176
 30
0.0
 11
215.737955849373
 21
-31.85401950414741
 31
0.0
  0
LINE
  5
28F
330
1F
100
AcDbEntity
  8
1
  6
Continuous
 62
     7
100
AcDbLine
 10
215.8203804777685
 20
-31.63929600605305
 30
0.0
 11
216.3502177208518
 21
-31.09063347946504
 31
0.0
  0
LINE
  5
290
330
1F
100
AcDbEntity
  8
1
  6
Continuous
 62
     7
100
AcDbLine
 10
215.737955849373
 20
-31.85401950414741
 30
0.0
 11
215.8203804777685
 21
-31.63929600605305
 31
0.0
  0
LINE
  5
291
330
1F
100
AcDbEntity
  8
1
  6
Continuous
 62
     7
100
AcDbLine
 10
184.2292908351725
 20
-68.3540195041474
 30
0.0
 11
214.8887102686843
 21
-68.3540195041474
 31
0.0
  0
LINE
  5
292
330
1F
100
AcDbEntity
  8
1
  6
Continuous
 62
     7
100
AcDbLine
 10
214.8887102686843
 20
-26.3540195041474
 30
0.0
 11
184.2292908351725
 21
-26.3540195041474
 31
0.0
  0
LINE
  5
293
330
1F
100
AcDbEntity
  8
1
  6
Continuous
 62
     7
100
AcDbLine
 10
178.5590005519284
 20
-32.0243097873915
 30
0.0
 11
178.5590005519284
 21
-62.68372922090328
 31
0.0
  0
LINE
  5
294
330
1F
100
AcDbEntity
  8
1
  6
Continuous
 62
     7
100
AcDbLine
 10
79.80791369338358
 20
-36.55401950414739
 30
0.0
 11
80.00791369338359
 21
-36.3540195041474
 31
0.0
  0
LINE
  5
295
330
1F
100
AcDbEntity
  8
1
  6
Continuous
 62
     7
100
AcDbLine
 10
79.80791369338358
 20
-58.15401950414739
 30
0.0
 11
80.00791369338359
 21
-58.3540195041474
 31
0.0
  0
LINE
  5
296
330
1F
100
AcDbEntity
  8
1
  6
DASH_CENTER
 62
     3
100
AcDbLine
 10
55.97419813270169
 20
-47.3540195041474
 30
0.0
 11
118.1617776171456
 21
-47.3540195041474
 31
0.0
  0
LINE
  5
297
330
1F
100
AcDbEntity
  8
1
  6
Continuous
 62
     7
100
AcDbLine
 10
61.8079136933836
 20
-49.55401950414739
 30
0.0
 11
62.10791369338358
 21
-49.8540195041474
 31
0.0
  0
LINE
  5
298
330
1F
100
AcDbEntity
  8
1
  6
Continuous
 62
     7
100
AcDbLine
 10
91.33829831827057
 20
-33.3540195041474
 30
0.0
 11
86.60791369338358
 21
-33.3540195041474
 31
0.0
  0
LINE
  5
299
330
1F
100
AcDbEntity
  8
1
  6
Continuous
 62
     3
100
AcDbLine
 10
86.60791369338358
 20
-30.3540195041474
 30
0.0
 11
81.80791369338358
 21
-30.3540195041474
 31
0.0
  0
LINE
  5
29A
330
1F
100
AcDbEntity
  8
1
  6
Continuous
 62
     3
100
AcDbLine
 10
86.60791369338358
 20
-33.3540195041474
 30
0.0
 11
81.8079136933836
 21
-33.3540195041474
 31
0.0
  0
LINE
  5
29B
330
1F
100
AcDbEntity
  8
1
  6
Continuous
 62
     7
100
AcDbLine
 10
81.8079136933836
 20
-32.8540195041474
 30
0.0
 11
81.80791369338358
 21
-30.8540195041474
 31
0.0
  0
LINE
  5
29C
330
1F
100
AcDbEntity
  8
1
  6
Continuous
 62
     7
100
AcDbLine
 10
86.10791369338358
 20
-32.8540195041474
 30
0.0
 11
81.8079136933836
 21
-32.8540195041474
 31
0.0
  0
LINE
  5
29D
330
1F
100
AcDbEntity
  8
1
  6
Continuous
 62
     7
100
AcDbLine
 10
86.10791369338358
 20
-30.8540195041474
 30
0.0
 11
81.80791369338358
 21
-30.8540195041474
 31
0.0
  0
LINE
  5
29E
330
1F
100
AcDbEntity
  8
1
  6
Continuous
 62
     7
100
AcDbLine
 10
86.60791369338358
 20
-30.3540195041474
 30
0.0
 11
86.10791369338358
 21
-30.8540195041474
 31
0.0
  0
LINE
  5
29F
330
1F
100
AcDbEntity
  8
1
  6
Continuous
 62
     7
100
AcDbLine
 10
86.10791369338358
 20
-30.8540195041474
 30
0.0
 11
86.10791369338358
 21
-32.8540195041474
 31
0.0
  0
LINE
  5
2A0
330
1F
100
AcDbEntity
  8
1
  6
Continuous
 62
     7
100
AcDbLine
 10
86.10791369338358
 20
-32.8540195041474
 30
0.0
 11
86.60791369338358
 21
-33.3540195041474
 31
0.0
  0
LINE
  5
2A1
330
1F
100
AcDbEntity
  8
1
  6
Continuous
 62
     7
100
AcDbLine
 10
86.60791369338358
 20
-30.3540195041474
 30
0.0
 11
86.60791369338358
 21
-33.3540195041474
 31
0.0
  0
LINE
  5
2A2
330
1F
100
AcDbEntity
  8
1
  6
Continuous
 62
     3
100
AcDbLine
 10
86.10791369338358
 20
-32.8540195041474
 30
0.0
 11
91.71380708048208
 21
-32.8540195041474
 31
0.0
  0
LINE
  5
2A3
330
1F
100
AcDbEntity
  8
1
  6
Continuous
 62
     7
100
AcDbLine
 10
91.92526688316389
 20
-30.3540195041474
 30
0.0
 11
86.60791369338358
 21
-30.3540195041474
 31
0.0
  0
LINE
  5
2A4
330
1F
100
AcDbEntity
  8
1
  6
Continuous
 62
     3
100
AcDbLine
 10
86.10791369338358
 20
-30.8540195041474
 30
0.0
 11
91.51753910622178
 21
-30.8540195041474
 31
0.0
  0
LINE
  5
2A5
330
1F
100
AcDbEntity
  8
1
  6
DASH_CENTER
 62
     3
100
AcDbLine
 10
93.58828359433438
 20
-31.8540195041474
 30
0.0
 11
80.76272418853668
 21
-31.8540195041474
 31
0.0
  0
LINE
  5
2A6
330
1F
100
AcDbEntity
  8
1
  6
Continuous
 62
     7
100
AcDbLine
 10
91.43067138958288
 20
-32.0243097873915
 30
0.0
 11
94.30791369338358
 21
-32.0243097873915
 31
0.0
  0
LINE
  5
2A7
330
1F
100
AcDbEntity
  8
1
  6
Continuous
 62
     7
100
AcDbLine
 10
112.0079136933836
 20
-65.65401950414741
 30
0.0
 11
112.0079136933836
 21
-60.0540195041474
 31
0.0
  0
LINE
  5
2A8
330
1F
100
AcDbEntity
  8
1
  6
Continuous
 62
     7
100
AcDbLine
 10
113.1124680773811
 20
-60.15065549099504
 30
0.0
 11
112.0079136933836
 21
-60.0540195041474
 31
0.0
  0
LINE
  5
2A9
330
1F
100
AcDbEntity
  8
1
  6
Continuous
 62
     7
100
AcDbLine
 10
112.0079136933836
 20
-65.65401950414741
 30
0.0
 11
113.1124680773811
 21
-65.55738351729975
 31
0.0
  0
LINE
  5
2AA
330
1F
100
AcDbEntity
  8
1
  6
DASH_CENTER
 62
     3
100
AcDbLine
 10
110.5079136933836
 20
-62.8540195041474
 30
0.0
 11
115.9079136933836
 21
-62.8540195041474
 31
0.0
  0
LINE
  5
2AB
330
1F
100
AcDbEntity
  8
1
  6
Continuous
 62
     7
100
AcDbLine
 10
112.0079136933836
 20
-34.6540195041474
 30
0.0
 11
112.0079136933836
 21
-29.05401950414739
 31
0.0
  0
LINE
  5
2AC
330
1F
100
AcDbEntity
  8
1
  6
Continuous
 62
     7
100
AcDbLine
 10
112.0079136933836
 20
-34.6540195041474
 30
0.0
 11
113.1124680773811
 21
-34.55738351729975
 31
0.0
  0
LINE
  5
2AD
330
1F
100
AcDbEntity
  8
1
  6
Continuous
 62
     7
100
AcDbLine
 10
113.1124680773811
 20
-29.15065549099504
 30
0.0
 11
112.0079136933836
 21
-29.05401950414739
 31
0.0
  0
LINE
  5
2AE
330
1F
100
AcDbEntity
  8
1
  6
DASH_CENTER
 62
     3
100
AcDbLine
 10
115.9079136933836
 20
-31.8540195041474
 30
0.0
 11
110.5079136933836
 21
-31.8540195041474
 31
0.0
  0
LINE
  5
2AF
330
1F
100
AcDbEntity
  8
1
  6
Continuous
 62
     7
100
AcDbLine
 10
112.0079136933836
 20
-26.8540195041474
 30
0.0
 11
112.0079136933836
 21
-35.05401950414739
 31
0.0
  0
LINE
  5
2B0
330
1F
100
AcDbEntity
  8
1
  6
Continuous
 62
     7
100
AcDbLine
 10
102.3079136933836
 20
-62.68372922090328
 30
0.0
 11
112.0079136933836
 21
-62.68372922090328
 31
0.0
  0
LINE
  5
2B1
330
1F
100
AcDbEntity
  8
1
  6
Continuous
 62
     7
100
AcDbLine
 10
102.3079136933836
 20
-32.0243097873915
 30
0.0
 11
112.0079136933836
 21
-32.0243097873915
 31
0.0
  0
LINE
  5
2B2
330
1F
100
AcDbEntity
  8
1
  6
Continuous
 62
     7
100
AcDbLine
 10
112.0079136933836
 20
-67.8540195041474
 30
0.0
 11
112.0079136933836
 21
-59.65401950414739
 31
0.0
  0
LINE
  5
2B3
330
1F
100
AcDbEntity
  8
1
  6
Continuous
 62
     7
100
AcDbLine
 10
112.0079136933836
 20
-59.65401950414739
 30
0.0
 11
114.8079136933836
 21
-59.05401950414739
 31
0.0
  0
LINE
  5
2B4
330
1F
100
AcDbEntity
  8
1
  6
Continuous
 62
     7
100
AcDbLine
 10
112.0079136933836
 20
-35.05401950414739
 30
0.0
 11
114.8079136933836
 21
-35.6540195041474
 31
0.0
  0
LINE
  5
2B5
330
1F
100
AcDbEntity
  8
1
  6
Continuous
 62
     7
100
AcDbLine
 10
104.3079136933836
 20
-34.28935953789686
 30
0.0
 11
92.30791369338358
 21
-34.28935953789686
 31
0.0
  0
LINE
  5
2B6
330
1F
100
AcDbEntity
  8
1
  6
Continuous
 62
     7
100
AcDbLine
 10
104.3079136933836
 20
-60.91867947039795
 30
0.0
 11
102.3079136933836
 21
-60.91867947039795
 31
0.0
  0
LINE
  5
2B7
330
1F
100
AcDbEntity
  8
1
  6
Continuous
 62
     7
100
AcDbLine
 10
104.3079136933836
 20
-33.78935953789686
 30
0.0
 11
104.3079136933836
 21
-60.91867947039795
 31
0.0
  0
LINE
  5
2B8
330
1F
100
AcDbEntity
  8
1
  6
Continuous
 62
     7
100
AcDbLine
 10
92.30791369338358
 20
-60.91867947039795
 30
0.0
 11
92.30791369338358
 21
-33.78935953789686
 31
0.0
  0
LINE
  5
2B9
330
1F
100
AcDbEntity
  8
1
  6
Continuous
 62
     7
100
AcDbLine
 10
92.30791369338358
 20
-60.41867947039795
 30
0.0
 11
104.3079136933836
 21
-60.41867947039795
 31
0.0
  0
LINE
  5
2BA
330
1F
100
AcDbEntity
  8
1
  6
Continuous
 62
     7
100
AcDbLine
 10
81.80791369338358
 20
-62.68372922090328
 30
0.0
 11
94.30791369338358
 21
-62.68372922090328
 31
0.0
  0
LINE
  5
2BB
330
1F
100
AcDbEntity
  8
1
  6
Continuous
 62
     7
100
AcDbLine
 10
114.8079136933836
 20
-67.8540195041474
 30
0.0
 11
114.8079136933836
 21
-26.8540195041474
 31
0.0
  0
LINE
  5
2BC
330
1F
100
AcDbEntity
  8
1
  6
Continuous
 62
     7
100
AcDbLine
 10
102.3079136933836
 20
-33.78935953789686
 30
0.0
 11
102.3079136933836
 21
-26.3540195041474
 31
0.0
  0
LINE
  5
2BD
330
1F
100
AcDbEntity
  8
1
  6
Continuous
 62
     7
100
AcDbLine
 10
102.3079136933836
 20
-60.91867947039795
 30
0.0
 11
102.3079136933836
 21
-68.3540195041474
 31
0.0
  0
LINE
  5
2BE
330
1F
100
AcDbEntity
  8
1
  6
Continuous
 62
     7
100
AcDbLine
 10
104.3079136933836
 20
-60.91867947039795
 30
0.0
 11
102.3079136933836
 21
-60.91867947039795
 31
0.0
  0
LINE
  5
2BF
330
1F
100
AcDbEntity
  8
1
  6
Continuous
 62
     7
100
AcDbLine
 10
94.30791369338358
 20
-60.91867947039795
 30
0.0
 11
94.30791369338358
 21
-68.3540195041474
 31
0.0
  0
LINE
  5
2C0
330
1F
100
AcDbEntity
  8
1
  6
Continuous
 62
     7
100
AcDbLine
 10
92.30791369338358
 20
-60.91867947039795
 30
0.0
 11
94.30791369338358
 21
-60.91867947039795
 31
0.0
  0
LINE
  5
2C1
330
1F
100
AcDbEntity
  8
1
  6
Continuous
 62
     7
100
AcDbLine
 10
102.3079136933836
 20
-33.78935953789686
 30
0.0
 11
104.3079136933836
 21
-33.78935953789686
 31
0.0
  0
LINE
  5
2C2
330
1F
100
AcDbEntity
  8
1
  6
Continuous
 62
     7
100
AcDbLine
 10
94.30791369338358
 20
-33.78935953789686
 30
0.0
 11
92.30791369338358
 21
-33.78935953789686
 31
0.0
  0
LINE
  5
2C3
330
1F
100
AcDbEntity
  8
1
  6
Continuous
 62
     7
100
AcDbLine
 10
94.30791369338358
 20
-26.3540195041474
 30
0.0
 11
94.30791369338358
 21
-33.78935953789686
 31
0.0
  0
LINE
  5
2C4
330
1F
100
AcDbEntity
  8
1
  6
Continuous
 62
     7
100
AcDbLine
 10
79.80791369338358
 20
-49.8540195041474
 30
0.0
 11
62.10791369338358
 21
-49.8540195041474
 31
0.0
  0
LINE
  5
2C5
330
1F
100
AcDbEntity
  8
1
  6
Continuous
 62
     7
100
AcDbLine
 10
81.80791369338358
 20
-26.8540195041474
 30
0.0
 11
81.80791369338358
 21
-67.8540195041474
 31
0.0
  0
LINE
  5
2C6
330
1F
100
AcDbEntity
  8
1
  6
Continuous
 62
     7
100
AcDbLine
 10
114.3079136933836
 20
-26.3540195041474
 30
0.0
 11
114.8079136933836
 21
-26.8540195041474
 31
0.0
  0
LINE
  5
2C7
330
1F
100
AcDbEntity
  8
1
  6
Continuous
 62
     7
100
AcDbLine
 10
114.3079136933836
 20
-68.3540195041474
 30
0.0
 11
114.8079136933836
 21
-67.8540195041474
 31
0.0
  0
LINE
  5
2C8
330
1F
100
AcDbEntity
  8
1
  6
Continuous
 62
     7
100
AcDbLine
 10
82.30791369338358
 20
-68.3540195041474
 30
0.0
 11
81.80791369338358
 21
-67.8540195041474
 31
0.0
  0
LINE
  5
2C9
330
1F
100
AcDbEntity
  8
1
  6
Continuous
 62
     7
100
AcDbLine
 10
82.30791369338358
 20
-26.3540195041474
 30
0.0
 11
81.80791369338358
 21
-26.8540195041474
 31
0.0
  0
LINE
  5
2CA
330
1F
100
AcDbEntity
  8
1
  6
Continuous
 62
     7
100
AcDbLine
 10
111.5079136933836
 20
-26.3540195041474
 30
0.0
 11
112.0079136933836
 21
-26.8540195041474
 31
0.0
  0
LINE
  5
2CB
330
1F
100
AcDbEntity
  8
1
  6
Continuous
 62
     7
100
AcDbLine
 10
111.5079136933836
 20
-68.3540195041474
 30
0.0
 11
112.0079136933836
 21
-67.8540195041474
 31
0.0
  0
LINE
  5
2CC
330
1F
100
AcDbEntity
  8
1
  6
Continuous
 62
     7
100
AcDbLine
 10
82.30791369338358
 20
-68.3540195041474
 30
0.0
 11
114.3079136933836
 21
-68.3540195041474
 31
0.0
  0
LINE
  5
2CD
330
1F
100
AcDbEntity
  8
1
  6
Continuous
 62
     7
100
AcDbLine
 10
79.80791369338358
 20
-36.55401950414739
 30
0.0
 11
79.80791369338358
 21
-58.15401950414739
 31
0.0
  0
LINE
  5
2CE
330
1F
100
AcDbEntity
  8
1
  6
Continuous
 62
     7
100
AcDbLine
 10
80.00791369338359
 20
-36.3540195041474
 30
0.0
 11
81.80791369338358
 21
-36.3540195041474
 31
0.0
  0
LINE
  5
2CF
330
1F
100
AcDbEntity
  8
1
  6
Continuous
 62
     7
100
AcDbLine
 10
80.00791369338359
 20
-58.3540195041474
 30
0.0
 11
81.80791369338358
 21
-58.3540195041474
 31
0.0
  0
LINE
  5
2D0
330
1F
100
AcDbEntity
  8
1
  6
Continuous
 62
     7
100
AcDbLine
 10
-65.24543978109674
 20
-62.68372922090328
 30
0.0
 11
-65.24543978109674
 21
-32.0243097873915
 31
0.0
  0
LINE
  5
2D1
330
1F
100
AcDbEntity
  8
1
  6
DASH_CENTER
 62
     3
100
AcDbLine
 10
-70.24543978109674
 20
-47.3540195041474
 30
0.0
 11
-46.74543978109674
 21
-47.3540195041474
 31
0.0
  0
LINE
  5
2D2
330
1F
100
AcDbEntity
  8
1
  6
DASH_CENTER
 62
     3
100
AcDbLine
 10
-28.74543978109674
 20
-65.25401950414741
 30
0.0
 11
-28.74543978109674
 21
-60.4540195041474
 31
0.0
  0
LINE
  5
2D3
330
1F
100
AcDbEntity
  8
1
  6
DASH_CENTER
 62
     3
100
AcDbLine
 10
-31.14543978109673
 20
-62.8540195041474
 30
0.0
 11
-26.34543978109674
 21
-62.8540195041474
 31
0.0
  0
LINE
  5
2D4
330
1F
100
AcDbEntity
  8
1
  6
DASH_CENTER
 62
     3
100
AcDbLine
 10
-59.74543978109674
 20
-65.25401950414741
 30
0.0
 11
-59.74543978109674
 21
-60.4540195041474
 31
0.0
  0
LINE
  5
2D5
330
1F
100
AcDbEntity
  8
1
  6
DASH_CENTER
 62
     3
100
AcDbLine
 10
-62.14543978109675
 20
-62.8540195041474
 30
0.0
 11
-57.34543978109672
 21
-62.8540195041474
 31
0.0
  0
LINE
  5
2D6
330
1F
100
AcDbEntity
  8
1
  6
DASH_CENTER
 62
     3
100
AcDbLine
 10
-59.74543978109674
 20
-34.25401950414739
 30
0.0
 11
-59.74543978109674
 21
-29.45401950414739
 31
0.0
  0
LINE
  5
2D7
330
1F
100
AcDbEntity
  8
1
  6
DASH_CENTER
 62
     3
100
AcDbLine
 10
-62.14543978109675
 20
-31.8540195041474
 30
0.0
 11
-57.34543978109672
 21
-31.8540195041474
 31
0.0
  0
LINE
  5
2D8
330
1F
100
AcDbEntity
  8
1
  6
DASH_CENTER
 62
     3
100
AcDbLine
 10
-28.74543978109674
 20
-34.25401950414739
 30
0.0
 11
-28.74543978109674
 21
-29.45401950414739
 31
0.0
  0
LINE
  5
2D9
330
1F
100
AcDbEntity
  8
1
  6
DASH_CENTER
 62
     3
100
AcDbLine
 10
-31.14543978109673
 20
-31.8540195041474
 30
0.0
 11
-26.34543978109674
 21
-31.8540195041474
 31
0.0
  0
LINE
  5
2DA
330
1F
100
AcDbEntity
  8
1
  6
Continuous
 62
     7
100
AcDbLine
 10
-59.57514949785264
 20
-68.3540195041474
 30
0.0
 11
-28.91573006434084
 21
-68.3540195041474
 31
0.0
  0
LINE
  5
2DB
330
1F
100
AcDbEntity
  8
1
  6
Continuous
 62
     7
100
AcDbLine
 10
-23.24543978109674
 20
-32.0243097873915
 30
0.0
 11
-23.24543978109674
 21
-62.68372922090328
 31
0.0
  0
LINE
  5
2DC
330
1F
100
AcDbEntity
  8
1
  6
Continuous
 62
     7
100
AcDbLine
 10
-40.24543978109674
 20
-25.8540195041474
 30
0.0
 11
-40.24543978109674
 21
-26.3540195041474
 31
0.0
  0
LINE
  5
2DD
330
1F
100
AcDbEntity
  8
1
  6
Continuous
 62
     7
100
AcDbLine
 10
-59.57514949785264
 20
-26.3540195041474
 30
0.0
 11
-28.91573006434084
 21
-26.3540195041474
 31
0.0
  0
LINE
  5
2DE
330
1F
100
AcDbEntity
  8
1
  6
Continuous
 62
     7
100
AcDbLine
 10
-48.24543978109674
 20
-26.3540195041474
 30
0.0
 11
-48.24543978109674
 21
-25.8540195041474
 31
0.0
  0
LINE
  5
2DF
330
1F
100
AcDbEntity
  8
1
  6
Continuous
 62
     3
100
AcDbLine
 10
-46.54543978109674
 20
-18.9537240070315
 30
0.0
 11
-46.54543978109674
 21
-25.6540195041474
 31
0.0
  0
LINE
  5
2E0
330
1F
100
AcDbEntity
  8
1
  6
Continuous
 62
     3
100
AcDbLine
 10
-45.39543978109674
 20
-18.4923483326749
 30
0.0
 11
-45.39543978109674
 21
-25.6540195041474
 31
0.0
  0
LINE
  5
2E1
330
1F
100
AcDbEntity
  8
1
  6
Continuous
 62
     3
100
AcDbLine
 10
-43.09543978109674
 20
-18.76278552834206
 30
0.0
 11
-43.09543978109674
 21
-25.6540195041474
 31
0.0
  0
LINE
  5
2E2
330
1F
100
AcDbEntity
  8
1
  6
Continuous
 62
     3
100
AcDbLine
 10
-41.94543978109675
 20
-19.0761184862208
 30
0.0
 11
-41.94543978109675
 21
-25.6540195041474
 31
0.0
  0
LINE
  5
2E3
330
1F
100
AcDbEntity
  8
1
  6
Continuous
 62
     7
100
AcDbLine
 10
-40.44543978109675
 20
-25.6540195041474
 30
0.0
 11
-48.04543978109673
 21
-25.6540195041474
 31
0.0
  0
LINE
  5
2E4
330
1F
100
AcDbEntity
  8
1
  6
DASH_CENTER
 62
     3
100
AcDbLine
 10
-46.24543978109674
 20
-47.3540195041474
 30
0.0
 11
-18.24543978109674
 21
-47.3540195041474
 31
0.0
  0
LINE
  5
2E5
330
1F
100
AcDbEntity
  8
1
  6
DASH_CENTER
 62
     3
100
AcDbLine
 10
-44.24543978109674
 20
-44.8540195041474
 30
0.0
 11
-44.24543978109674
 21
-45.3540195041474
 31
0.0
  0
LINE
  5
2E6
330
1F
100
AcDbEntity
  8
1
  6
Continuous
 62
     3
100
AcDbLine
 10
-42.24543978109674
 20
-45.8540195041474
 30
0.0
 11
-42.24543978109674
 21
-48.8540195041474
 31
0.0
  0
LINE
  5
2E7
330
1F
100
AcDbEntity
  8
1
  6
Continuous
 62
     7
100
AcDbLine
 10
107.7079136933836
 20
-25.8540195041474
 30
0.0
 11
107.7079136933836
 21
-26.3540195041474
 31
0.0
  0
LINE
  5
2E8
330
1F
100
AcDbEntity
  8
1
  6
Continuous
 62
     7
100
AcDbLine
 10
113.8079136933836
 20
-25.8540195041474
 30
0.0
 11
113.8079136933836
 21
-26.3540195041474
 31
0.0
  0
LINE
  5
2E9
330
1F
100
AcDbEntity
  8
1
  6
Continuous
 62
     7
100
AcDbLine
 10
82.30791369338358
 20
-26.3540195041474
 30
0.0
 11
114.3079136933836
 21
-26.3540195041474
 31
0.0
  0
LINE
  5
2EA
330
1F
100
AcDbEntity
  8
1
  6
Continuous
 62
     3
100
AcDbLine
 10
108.2079136933836
 20
2.26104268635065
 30
0.0
 11
108.2079136933836
 21
-25.6540195041474
 31
0.0
  0
LINE
  5
2EB
330
1F
100
AcDbEntity
  8
1
  6
Continuous
 62
     3
100
AcDbLine
 10
113.3079136933836
 20
2.06854199362769
 30
0.0
 11
113.3079136933836
 21
-25.6540195041474
 31
0.0
  0
LINE
  5
2EC
330
1F
100
AcDbEntity
  8
1
  6
Continuous
 62
     3
100
AcDbLine
 10
109.4829136933836
 20
2.98454217200572
 30
0.0
 11
109.4829136933836
 21
-25.6540195041474
 31
0.0
  0
LINE
  5
2ED
330
1F
100
AcDbEntity
  8
1
  6
Continuous
 62
     3
100
AcDbLine
 10
112.0329136933836
 20
1.63310800633879
 30
0.0
 11
112.0329136933836
 21
-25.6540195041474
 31
0.0
  0
LINE
  5
2EE
330
1F
100
AcDbEntity
  8
1
  6
Continuous
 62
     3
100
AcDbLine
 10
108.2079136933836
 20
31.5020239383464
 30
0.0
 11
108.2079136933836
 21
3.60673706287816
 31
0.0
  0
LINE
  5
2EF
330
1F
100
AcDbEntity
  8
1
  6
Continuous
 62
     3
100
AcDbLine
 10
113.3079136933836
 20
31.5020239383464
 30
0.0
 11
113.3079136933836
 21
3.4142363701552
 31
0.0
  0
LINE
  5
2F0
330
1F
100
AcDbEntity
  8
1
  6
DOT_CENTER
 62
     3
100
AcDbLine
 10
110.7579136933836
 20
38.1359845467208
 30
0.0
 11
110.7579136933836
 21
-25.6540195041474
 31
0.0
  0
LINE
  5
2F1
330
1F
100
AcDbEntity
  8
1
  6
Continuous
 62
     7
100
AcDbLine
 10
107.9079136933836
 20
-25.6540195041474
 30
0.0
 11
113.6079136933836
 21
-25.6540195041474
 31
0.0
  0
LINE
  5
2F2
330
1F
100
AcDbEntity
  8
1
  6
Continuous
 62
     3
100
AcDbLine
 10
109.4829136933836
 20
31.5020239383464
 30
0.0
 11
109.4829136933836
 21
4.33023654853323
 31
0.0
  0
LINE
  5
2F3
330
1F
100
AcDbEntity
  8
1
  6
Continuous
 62
     3
100
AcDbLine
 10
112.0329136933836
 20
31.5020239383464
 30
0.0
 11
112.0329136933836
 21
2.9788023828663
 31
0.0
  0
LINE
  5
2F4
330
1F
100
AcDbEntity
  8
1
  6
Continuous
 62
     7
100
AcDbLine
 10
108.8454136933836
 20
35.8367362876015
 30
0.0
 11
108.8454136933836
 21
31.5020239383464
 31
0.0
  0
LINE
  5
2F5
330
1F
100
AcDbEntity
  8
1
  6
Continuous
 62
     3
100
AcDbLine
 10
108.2079136933836
 20
31.5020239383464
 30
0.0
 11
113.3079136933836
 21
31.5020239383464
 31
0.0
  0
LINE
  5
2F6
330
1F
100
AcDbEntity
  8
1
  6
Continuous
 62
     7
100
AcDbLine
 10
110.1204136933836
 20
35.8367362876015
 30
0.0
 11
110.1204136933836
 21
31.5020239383464
 31
0.0
  0
LINE
  5
2F7
330
1F
100
AcDbEntity
  8
1
  6
Continuous
 62
     7
100
AcDbLine
 10
111.3954136933836
 20
35.8367362876015
 30
0.0
 11
111.3954136933836
 21
31.5020239383464
 31
0.0
  0
LINE
  5
2F8
330
1F
100
AcDbEntity
  8
1
  6
Continuous
 62
     7
100
AcDbLine
 10
112.6704136933836
 20
35.8367362876015
 30
0.0
 11
112.6704136933836
 21
31.5020239383464
 31
0.0
  0
LINE
  5
2F9
330
1F
100
AcDbEntity
  8
1
  6
DASH_CENTER
 62
     3
100
AcDbLine
 10
199.5590005519284
 20
-17.26816789393229
 30
0.0
 11
199.5590005519284
 21
-25.6540195041474
 31
0.0
  0
LINE
  5
2FA
330
1F
100
AcDbEntity
  8
1
  6
Continuous
 62
     7
100
AcDbLine
 10
203.5590005519284
 20
-25.8540195041474
 30
0.0
 11
203.5590005519284
 21
-26.3540195041474
 31
0.0
  0
LINE
  5
2FB
330
1F
100
AcDbEntity
  8
1
  6
Continuous
 62
     7
100
AcDbLine
 10
195.5590005519284
 20
-26.3540195041474
 30
0.0
 11
195.5590005519284
 21
-25.8540195041474
 31
0.0
  0
LINE
  5
2FC
330
1F
100
AcDbEntity
  8
1
  6
Continuous
 62
     3
100
AcDbLine
 10
197.2590005519284
 20
-18.9537240070315
 30
0.0
 11
197.2590005519284
 21
-25.6540195041474
 31
0.0
  0
LINE
  5
2FD
330
1F
100
AcDbEntity
  8
1
  6
Continuous
 62
     3
100
AcDbLine
 10
198.4090005519284
 20
-18.4923483326749
 30
0.0
 11
198.4090005519284
 21
-25.6540195041474
 31
0.0
  0
LINE
  5
2FE
330
1F
100
AcDbEntity
  8
1
  6
Continuous
 62
     3
100
AcDbLine
 10
200.7090005519284
 20
-18.76278552834206
 30
0.0
 11
200.7090005519284
 21
-25.6540195041474
 31
0.0
  0
LINE
  5
2FF
330
1F
100
AcDbEntity
  8
1
  6
Continuous
 62
     3
100
AcDbLine
 10
201.8590005519284
 20
-19.0761184862208
 30
0.0
 11
201.8590005519284
 21
-25.6540195041474
 31
0.0
  0
LINE
  5
300
330
1F
100
AcDbEntity
  8
1
  6
Continuous
 62
     7
100
AcDbLine
 10
203.3590005519284
 20
-25.6540195041474
 30
0.0
 11
195.7590005519284
 21
-25.6540195041474
 31
0.0
  0
LINE
  5
301
330
1F
100
AcDbEntity
  8
1
  6
DASH_CENTER
 62
     3
100
AcDbLine
 10
-44.24543978109674
 20
-73.495333752334
 30
0.0
 11
-44.24543978109674
 21
-17.26816789393229
 31
0.0
  0
LINE
  5
302
330
1F
100
AcDbEntity
  8
1
  6
Continuous
 62
     7
100
AcDbLine
 10
62.10791369338358
 20
-44.85401950414741
 30
0.0
 11
79.80791369338358
 21
-44.8540195041474
 31
0.0
  0
LINE
  5
303
330
1F
100
AcDbEntity
  8
1
  6
Continuous
 62
     3
100
AcDbLine
 10
62.10791369338358
 20
-44.85401950414741
 30
0.0
 11
62.10791369338358
 21
-45.8540195041474
 31
0.0
  0
LINE
  5
304
330
1F
100
AcDbEntity
  8
1
  6
Continuous
 62
     7
100
AcDbLine
 10
62.10791369338358
 20
-44.85401950414741
 30
0.0
 11
61.8079136933836
 21
-45.15401950414742
 31
0.0
  0
LINE
  5
305
330
1F
100
AcDbEntity
  8
1
  6
Continuous
 62
     7
100
AcDbLine
 10
61.8079136933836
 20
-45.8540195041474
 30
0.0
 11
76.8079136933836
 21
-45.8540195041474
 31
0.0
  0
LINE
  5
306
330
1F
100
AcDbEntity
  8
1
  6
Continuous
 62
     7
100
AcDbLine
 10
76.8079136933836
 20
-48.8540195041474
 30
0.0
 11
61.8079136933836
 21
-48.8540195041474
 31
0.0
  0
LINE
  5
307
330
1F
100
AcDbEntity
  8
1
  6
Continuous
 62
     7
100
AcDbLine
 10
76.8079136933836
 20
-45.8540195041474
 30
0.0
 11
76.8079136933836
 21
-48.8540195041474
 31
0.0
  0
LINE
  5
308
330
1F
100
AcDbEntity
  8
1
  6
Continuous
 62
     3
100
AcDbLine
 10
62.10791369338358
 20
-48.8540195041474
 30
0.0
 11
62.10791369338358
 21
-49.8540195041474
 31
0.0
  0
LINE
  5
309
330
1F
100
AcDbEntity
  8
1
  6
Continuous
 62
     7
100
AcDbLine
 10
61.8079136933836
 20
-45.8540195041474
 30
0.0
 11
76.8079136933836
 21
-48.8540195041474
 31
0.0
  0
LINE
  5
30A
330
1F
100
AcDbEntity
  8
1
  6
Continuous
 62
     7
100
AcDbLine
 10
61.8079136933836
 20
-48.8540195041474
 30
0.0
 11
76.8079136933836
 21
-45.8540195041474
 31
0.0
  0
LINE
  5
30B
330
1F
100
AcDbEntity
  8
1
  6
Continuous
 62
     2
100
AcDbLine
 10
81.77510640625978
 20
-98.2512757990343
 30
0.0
 11
81.77510640625978
 21
-119.990033890961
 31
0.0
  0
ARC
  5
30C
330
1F
100
AcDbEntity
  8
1
  6
Continuous
 62
     7
100
AcDbCircle
 10
184.0590005519284
 20
-31.8540195041474
 30
0.0
 40
3.800000000000001
100
AcDbArc
 50
-90.0
 51
0.0
  0
ARC
  5
30D
330
1F
100
AcDbEntity
  8
1
  6
Continuous
 62
     7
100
AcDbCircle
 10
184.0590005519284
 20
-62.8540195041474
 30
0.0
 40
3.800000000000011
100
AcDbArc
 50
0.0
 51
90.0
  0
ARC
  5
30E
330
1F
100
AcDbEntity
  8
1
  6
Continuous
 62
     7
100
AcDbCircle
 10
215.0590005519284
 20
-62.8540195041474
 30
0.0
 40
3.800000000000011
100
AcDbArc
 50
90.0
 51
180.0
  0
ARC
  5
30F
330
1F
100
AcDbEntity
  8
1
  6
Continuous
 62
     7
100
AcDbCircle
 10
215.0590005519284
 20
-31.8540195041474
 30
0.0
 40
3.799999999999983
100
AcDbArc
 50
180.0
 51
-90.0
  0
ARC
  5
310
330
1F
100
AcDbEntity
  8
1
  6
Continuous
 62
     7
100
AcDbCircle
 10
184.0590005519284
 20
-31.8540195041474
 30
0.0
 40
3.199999999999992
100
AcDbArc
 50
-90.0
 51
0.0
  0
ARC
  5
311
330
1F
100
AcDbEntity
  8
1
  6
Continuous
 62
     7
100
AcDbCircle
 10
184.0590005519284
 20
-62.8540195041474
 30
0.0
 40
3.200000000000017
100
AcDbArc
 50
0.0
 51
90.0
  0
ARC
  5
312
330
1F
100
AcDbEntity
  8
1
  6
Continuous
 62
     7
100
AcDbCircle
 10
215.0590005519284
 20
-62.8540195041474
 30
0.0
 40
3.20000000000001
100
AcDbArc
 50
90.0
 51
180.0
  0
ARC
  5
313
330
1F
100
AcDbEntity
  8
1
  6
Continuous
 62
     7
100
AcDbCircle
 10
215.0590005519284
 20
-31.8540195041474
 30
0.0
 40
3.199999999999989
100
AcDbArc
 50
180.0
 51
-90.0
  0
ARC
  5
314
330
1F
100
AcDbEntity
  8
1
  6
Continuous
 62
     7
100
AcDbCircle
 10
203.4829895630651
 20
-53.25227437427507
 30
0.0
 40
0.773971114993787
100
AcDbArc
 50
-147.7904948493165
 51
-52.61108306271159
  0
ARC
  5
315
330
1F
100
AcDbEntity
  8
1
  6
Continuous
 62
     7
100
AcDbCircle
 10
201.7911180349135
 20
-54.31809475866862
 30
0.0
 40
1.225629435005858
100
AcDbArc
 50
32.2095051506766
 51
-132.028679241272
  0
ARC
  5
316
330
1F
100
AcDbEntity
  8
1
  6
Continuous
 62
     7
100
AcDbCircle
 10
197.3268830689433
 20
-54.31809475866862
 30
0.0
 40
1.225629435005726
100
AcDbArc
 50
-47.97132075872405
 51
147.7904948493178
  0
ARC
  5
317
330
1F
100
AcDbEntity
  8
1
  6
Continuous
 62
     7
100
AcDbCircle
 10
195.6350115407918
 20
-53.25227437427507
 30
0.0
 40
0.7739711149938043
100
AcDbArc
 50
-127.3889169372934
 51
-32.20950515067904
  0
ARC
  5
318
330
1F
100
AcDbEntity
  8
1
  6
Continuous
 62
     7
100
AcDbCircle
 10
199.5590005519284
 20
-48.11785173452263
 30
0.0
 40
7.23616776962475
100
AcDbArc
 50
-52.61108306270325
 51
-127.3889169372966
  0
ARC
  5
319
330
1F
100
AcDbEntity
  8
1
  6
Continuous
 62
     7
100
AcDbCircle
 10
184.0590005519284
 20
-31.8540195041474
 30
0.0
 40
1.500000000000966
100
AcDbArc
 50
30.59218556465235
 51
59.40781443534677
  0
ARC
  5
31A
330
1F
100
AcDbEntity
  8
1
  6
Continuous
 62
     7
100
AcDbCircle
 10
184.0590005519284
 20
-31.8540195041474
 30
0.0
 40
1.500000000000939
100
AcDbArc
 50
120.5921855646495
 51
149.4078144353473
  0
ARC
  5
31B
330
1F
100
AcDbEntity
  8
1
  6
Continuous
 62
     7
100
AcDbCircle
 10
184.0590005519284
 20
-31.8540195041474
 30
0.0
 40
1.500000000000957
100
AcDbArc
 50
-149.4078144353483
 51
-120.5921855646535
  0
ARC
  5
31C
330
1F
100
AcDbEntity
  8
1
  6
Continuous
 62
     7
100
AcDbCircle
 10
184.0590005519284
 20
-31.8540195041474
 30
0.0
 40
1.500000000000987
100
AcDbArc
 50
-59.40781443534655
 51
-30.592185564652
  0
ARC
  5
31D
330
1F
100
AcDbEntity
  8
1
  6
Continuous
 62
     7
100
AcDbCircle
 10
184.0590005519284
 20
-62.8540195041474
 30
0.0
 40
1.500000000000959
100
AcDbArc
 50
30.59218556465187
 51
59.40781443534677
  0
ARC
  5
31E
330
1F
100
AcDbEntity
  8
1
  6
Continuous
 62
     7
100
AcDbCircle
 10
184.0590005519284
 20
-62.8540195041474
 30
0.0
 40
1.500000000000939
100
AcDbArc
 50
120.5921855646495
 51
149.4078144353477
  0
ARC
  5
31F
330
1F
100
AcDbEntity
  8
1
  6
Continuous
 62
     7
100
AcDbCircle
 10
184.0590005519284
 20
-62.8540195041474
 30
0.0
 40
1.500000000000959
100
AcDbArc
 50
-149.4078144353481
 51
-120.5921855646535
  0
ARC
  5
320
330
1F
100
AcDbEntity
  8
1
  6
Continuous
 62
     7
100
AcDbCircle
 10
184.0590005519284
 20
-62.8540195041474
 30
0.0
 40
1.500000000000985
100
AcDbArc
 50
-59.40781443534649
 51
-30.59218556465235
  0
ARC
  5
321
330
1F
100
AcDbEntity
  8
1
  6
Continuous
 62
     7
100
AcDbCircle
 10
215.0590005519284
 20
-62.8540195041474
 30
0.0
 40
1.500000000000959
100
AcDbArc
 50
30.59218556465187
 51
59.40781443534677
  0
ARC
  5
322
330
1F
100
AcDbEntity
  8
1
  6
Continuous
 62
     7
100
AcDbCircle
 10
215.0590005519284
 20
-62.8540195041474
 30
0.0
 40
1.500000000000939
100
AcDbArc
 50
120.5921855646495
 51
149.4078144353477
  0
ARC
  5
323
330
1F
100
AcDbEntity
  8
1
  6
Continuous
 62
     7
100
AcDbCircle
 10
215.0590005519284
 20
-62.8540195041474
 30
0.0
 40
1.500000000000959
100
AcDbArc
 50
-149.4078144353481
 51
-120.5921855646535
  0
ARC
  5
324
330
1F
100
AcDbEntity
  8
1
  6
Continuous
 62
     7
100
AcDbCircle
 10
215.0590005519284
 20
-62.8540195041474
 30
0.0
 40
1.500000000000985
100
AcDbArc
 50
-59.40781443534649
 51
-30.59218556465235
  0
ARC
  5
325
330
1F
100
AcDbEntity
  8
1
  6
Continuous
 62
     7
100
AcDbCircle
 10
215.0590005519284
 20
-31.8540195041474
 30
0.0
 40
1.500000000000961
100
AcDbArc
 50
30.592185564652
 51
59.40781443534655
  0
ARC
  5
326
330
1F
100
AcDbEntity
  8
1
  6
Continuous
 62
     7
100
AcDbCircle
 10
215.0590005519284
 20
-31.8540195041474
 30
0.0
 40
1.50000000000093
100
AcDbArc
 50
120.5921855646497
 51
149.4078144353473
  0
ARC
  5
327
330
1F
100
AcDbEntity
  8
1
  6
Continuous
 62
     7
100
AcDbCircle
 10
215.0590005519284
 20
-31.8540195041474
 30
0.0
 40
1.500000000000961
100
AcDbArc
 50
-149.407814435348
 51
-120.5921855646532
  0
ARC
  5
328
330
1F
100
AcDbEntity
  8
1
  6
Continuous
 62
     7
100
AcDbCircle
 10
215.0590005519284
 20
-31.8540195041474
 30
0.0
 40
1.500000000001
100
AcDbArc
 50
-59.40781443534684
 51
-30.5921855646527
  0
ARC
  5
329
330
1F
100
AcDbEntity
  8
1
  6
Continuous
 62
     7
100
AcDbCircle
 10
199.5590005519284
 20
-47.3540195041474
 30
0.0
 40
25.99999999999999
100
AcDbArc
 50
-143.8710725280618
 51
-126.1289274719382
  0
ARC
  5
32A
330
1F
100
AcDbEntity
  8
1
  6
Continuous
 62
     7
100
AcDbCircle
 10
199.5590005519284
 20
-47.3540195041474
 30
0.0
 40
26.0
100
AcDbArc
 50
-53.87107252806178
 51
-36.12892747193819
  0
ARC
  5
32B
330
1F
100
AcDbEntity
  8
1
  6
Continuous
 62
     7
100
AcDbCircle
 10
199.5590005519284
 20
-47.3540195041474
 30
0.0
 40
26.0
100
AcDbArc
 50
36.12892747193823
 51
53.87107252806178
  0
ARC
  5
32C
330
1F
100
AcDbEntity
  8
1
  6
Continuous
 62
     7
100
AcDbCircle
 10
199.5590005519284
 20
-47.3540195041474
 30
0.0
 40
26.00000000000001
100
AcDbArc
 50
126.1289274719382
 51
143.8710725280618
  0
ARC
  5
32D
330
1F
100
AcDbEntity
  8
1
  6
Continuous
 62
     7
100
AcDbCircle
 10
109.4079136933836
 20
-62.8540195041474
 30
0.0
 40
5.000000000000105
100
AcDbArc
 50
-25.2641648210234
 51
25.26416482102332
  0
ARC
  5
32E
330
1F
100
AcDbEntity
  8
1
  6
Continuous
 62
     7
100
AcDbCircle
 10
109.4079136933837
 20
-31.8540195041474
 30
0.0
 40
5.000000000000016
100
AcDbArc
 50
-25.26416482102392
 51
25.26416482102399
  0
ARC
  5
32F
330
1F
100
AcDbEntity
  8
1
  6
Continuous
 62
     2
100
AcDbCircle
 10
-44.24543978109674
 20
-47.3540195041474
 30
0.0
 40
26.0
100
AcDbArc
 50
-69.01959658593064
 51
-58.10167866826417
  0
ARC
  5
330
330
1F
100
AcDbEntity
  8
1
  6
Continuous
 62
     2
100
AcDbCircle
 10
-44.24543978109674
 20
-47.3540195041474
 30
0.0
 40
26.00000000000001
100
AcDbArc
 50
110.3944157364452
 51
122.5365189493492
  0
ARC
  5
331
330
1F
100
AcDbEntity
  8
1
  6
Continuous
 62
     7
100
AcDbCircle
 10
-44.24543978109674
 20
-47.3540195041474
 30
0.0
 40
25.99999999999999
100
AcDbArc
 50
-143.8710725280618
 51
-126.1289274719382
  0
ARC
  5
332
330
1F
100
AcDbEntity
  8
1
  6
Continuous
 62
     7
100
AcDbCircle
 10
-44.24543978109674
 20
-47.3540195041474
 30
0.0
 40
26.00000000000001
100
AcDbArc
 50
126.1289274719382
 51
143.8710725280618
  0
ARC
  5
333
330
1F
100
AcDbEntity
  8
1
  6
Continuous
 62
     7
100
AcDbCircle
 10
-44.24543978109674
 20
-47.3540195041474
 30
0.0
 40
26.00000000000001
100
AcDbArc
 50
-53.87107252806177
 51
-36.12892747193818
  0
ARC
  5
334
330
1F
100
AcDbEntity
  8
1
  6
Continuous
 62
     7
100
AcDbCircle
 10
-44.24543978109674
 20
-47.3540195041474
 30
0.0
 40
26.00000000000001
100
AcDbArc
 50
36.12892747193822
 51
53.87107252806177
  0
CIRCLE
  5
335
330
1F
100
AcDbEntity
  8
1
  6
Continuous
 62
     7
100
AcDbCircle
 10
199.5590005519284
 20
-47.3540195041474
 30
0.0
 40
8.0
  0
CIRCLE
  5
336
330
1F
100
AcDbEntity
  8
1
  6
Continuous
 62
     7
100
AcDbCircle
 10
-44.24543978109674
 20
-47.3540195041474
 30
0.0
 40
2.5
  0
CIRCLE
  5
337
330
1F
100
AcDbEntity
  8
1
  6
Continuous
 62
     7
100
AcDbCircle
 10
201.7911180349135
 20
-54.31809475866862
 30
0.0
 40
0.5832850249458303
  0
CIRCLE
  5
338
330
1F
100
AcDbEntity
  8
1
  6
Continuous
 62
     7
100
AcDbCircle
 10
197.3268830689433
 20
-54.31809475866862
 30
0.0
 40
0.5832850249458303
  0
CIRCLE
  5
339
330
1F
100
AcDbEntity
  8
1
  6
Continuous
 62
     7
100
AcDbCircle
 10
199.5590005519284
 20
-47.3540195041474
 30
0.0
 40
2.0
  0
CIRCLE
  5
33A
330
1F
100
AcDbEntity
  8
1
  6
Continuous
 62
     7
100
AcDbCircle
 10
199.5590005519284
 20
-47.3540195041474
 30
0.0
 40
2.5
  0
CIRCLE
  5
33B
330
1F
100
AcDbEntity
  8
1
  6
Continuous
 62
     7
100
AcDbCircle
 10
184.0590005519284
 20
-31.8540195041474
 30
0.0
 40
2.800000000000011
  0
CIRCLE
  5
33C
330
1F
100
AcDbEntity
  8
1
  6
Continuous
 62
     7
100
AcDbCircle
 10
184.0590005519284
 20
-62.8540195041474
 30
0.0
 40
2.800000000000011
  0
CIRCLE
  5
33D
330
1F
100
AcDbEntity
  8
1
  6
Continuous
 62
     7
100
AcDbCircle
 10
215.0590005519284
 20
-62.8540195041474
 30
0.0
 40
2.800000000000011
  0
CIRCLE
  5
33E
330
1F
100
AcDbEntity
  8
1
  6
Continuous
 62
     7
100
AcDbCircle
 10
215.0590005519284
 20
-31.8540195041474
 30
0.0
 40
2.800000000000011
  0
CIRCLE
  5
33F
330
1F
100
AcDbEntity
  8
1
  6
Continuous
 62
     7
100
AcDbCircle
 10
-44.24543978109674
 20
-47.3540195041474
 30
0.0
 40
6.5
  0
CIRCLE
  5
340
330
1F
100
AcDbEntity
  8
1
  6
Continuous
 62
     7
100
AcDbCircle
 10
-44.24543978109674
 20
-47.3540195041474
 30
0.0
 40
11.0
  0
CIRCLE
  5
341
330
1F
100
AcDbEntity
  8
1
  6
Continuous
 62
     3
100
AcDbCircle
 10
-28.74543978109674
 20
-62.8540195041474
 30
0.0
 40
1.5
  0
CIRCLE
  5
342
330
1F
100
AcDbEntity
  8
1
  6
Continuous
 62
     7
100
AcDbCircle
 10
-28.74543978109674
 20
-62.8540195041474
 30
0.0
 40
1.199999999999999
  0
CIRCLE
  5
343
330
1F
100
AcDbEntity
  8
1
  6
Continuous
 62
     3
100
AcDbCircle
 10
-59.74543978109674
 20
-62.8540195041474
 30
0.0
 40
1.5
  0
CIRCLE
  5
344
330
1F
100
AcDbEntity
  8
1
  6
Continuous
 62
     7
100
AcDbCircle
 10
-59.74543978109674
 20
-62.8540195041474
 30
0.0
 40
1.199999999999996
  0
CIRCLE
  5
345
330
1F
100
AcDbEntity
  8
1
  6
Continuous
 62
     3
100
AcDbCircle
 10
-59.74543978109674
 20
-31.8540195041474
 30
0.0
 40
1.5
  0
CIRCLE
  5
346
330
1F
100
AcDbEntity
  8
1
  6
Continuous
 62
     7
100
AcDbCircle
 10
-59.74543978109674
 20
-31.8540195041474
 30
0.0
 40
1.199999999999996
  0
CIRCLE
  5
347
330
1F
100
AcDbEntity
  8
1
  6
Continuous
 62
     3
100
AcDbCircle
 10
-28.74543978109674
 20
-31.8540195041474
 30
0.0
 40
1.5
  0
CIRCLE
  5
348
330
1F
100
AcDbEntity
  8
1
  6
Continuous
 62
     7
100
AcDbCircle
 10
-28.74543978109674
 20
-31.8540195041474
 30
0.0
 40
1.199999999999999
  0
CIRCLE
  5
349
330
1F
100
AcDbEntity
  8
1
  6
Continuous
 62
     3
100
AcDbCircle
 10
-44.24543978109674
 20
-47.3540195041474
 30
0.0
 40
2.0
  0
SPLINE
  5
34A
330
1F
100
AcDbEntity
  8
1
  6
Continuous
 62
     7
100
AcDbSpline
210
0.0
220
0.0
230
1.0
 70
     8
 71
     3
 72
    11
 73
     7
 74
     5
 42
0.0000000001
 43
0.0000000001
 44
0.00000001
 40
0.0
 40
0.0
 40
0.0
 40
0.0
 40
1.061413362334736
 40
2.153354230730923
 40
3.492978298362275
 40
4.833550222058507
 40
4.833550222058507
 40
4.833550222058507
 40
4.833550222058507
 10
91.92526688316389
 20
-30.3540195041474
 30
0.0
 10
91.80953992077045
 20
-30.01161390002993
 30
0.0
 10
91.57475755141027
 20
-29.3169547008745
 30
0.0
 10
90.42714023809347
 20
-28.66843755395627
 30
0.0
 10
90.75341669720974
 20
-27.13370172833602
 30
0.0
 10
91.48484845499925
 20
-26.61397484632141
 30
0.0
 10
91.85069366996308
 20
-26.3540195041474
 30
0.0
 11
91.92526688316389
 21
-30.3540195041474
 31
0.0
 11
91.46323749394804
 21
-29.39844262642193
 31
0.0
 11
90.71203733286868
 21
-28.60595718297949
 31
0.0
 11
90.87814746137457
 21
-27.27667163510615
 31
0.0
 11
91.85069366996308
 21
-26.3540195041474
 31
0.0
  0
SPLINE
  5
34B
330
1F
100
AcDbEntity
  8
1
  6
Continuous
 62
     7
100
AcDbSpline
210
0.0
220
0.0
230
1.0
 70
     8
 71
     3
 72
    21
 73
    17
 74
    15
 42
0.0000000001
 43
0.0000000001
 44
0.00000001
 40
0.0
 40
0.0
 40
0.0
 40
0.0
 40
0.3919505886038236
 40
0.6546459664020388
 40
0.7873240542615596
 40
0.9285874441794166
 40
1.226392561073394
 40
1.536775334736708
 40
1.713771760116312
 40
1.886808737220455
 40
2.216780242915895
 40
2.557142480906897
 40
2.834263098157345
 40
3.090146331137349
 40
3.262196977089365
 40
3.480001493501833
 40
3.480001493501833
 40
3.480001493501833
 40
3.480001493501833
 10
91.33829831827057
 20
-33.3540195041474
 30
0.0
 10
91.443217332567
 20
-33.27200971170782
 30
0.0
 10
91.61845577206698
 20
-33.13503484450001
 30
0.0
 10
91.7164711680264
 20
-32.87951307353438
 30
0.0
 10
91.72532204234105
 20
-32.70058015764312
 30
0.0
 10
91.7092806270168
 20
-32.50920622595344
 30
0.0
 10
91.60067469986421
 20
-32.2778815503589
 30
0.0
 10
91.45196763086473
 20
-32.06366010896042
 30
0.0
 10
91.34014126634943
 20
-31.8735941467492
 30
0.0
 10
91.25460300112925
 20
-31.66184768817654
 30
0.0
 10
91.24799861278457
 20
-31.37203108613216
 30
0.0
 10
91.34526083754682
 20
-31.06732454052904
 30
0.0
 10
91.50480007625117
 20
-30.81941622033564
 30
0.0
 10
91.67710418300476
 20
-30.65934565356383
 30
0.0
 10
91.89135639964792
 20
-30.57058862099614
 30
0.0
 10
91.91311228952955
 20
-30.43164474967966
 30
0.0
 10
91.92526688316389
 20
-30.3540195041474
 30
0.0
 11
91.33829831827057
 21
-33.3540195041474
 31
0.0
 11
91.6194524925986
 21
-33.08093051834825
 31
0.0
 11
91.7138070804821
 21
-32.83576511854256
 31
0.0
 11
91.7223176548799
 21
-32.70336026545372
 31
0.0
 11
91.70836162782628
 21
-32.56278795438229
 31
0.0
 11
91.5960115473891
 21
-32.28698848543067
 31
0.0
 11
91.43067138958288
 21
-32.02430978739151
 31
0.0
 11
91.34336730537353
 21
-31.87034313035979
 31
0.0
 11
91.28136550141588
 21
-31.7087957015615
 31
0.0
 11
91.2660262523665
 21
-31.37918092335895
 31
0.0
 11
91.36676472669798
 21
-31.05406830773229
 31
0.0
 11
91.51757114600807
 21
-30.8215747370682
 31
0.0
 11
91.71096574996886
 21
-30.65401950414739
 31
0.0
 11
91.85521987892697
 21
-30.56025292667416
 31
0.0
 11
91.92526688316389
 21
-30.3540195041474
 31
0.0
  0
SPLINE
  5
34C
330
1F
100
AcDbEntity
  8
1
  6
Continuous
 62
     7
100
AcDbSpline
210
0.0
220
0.0
230
1.0
 70
     8
 71
     3
 72
    14
 73
    10
 74
     8
 42
0.0000000001
 43
0.0000000001
 44
0.00000001
 40
0.0
 40
0.0
 40
0.0
 40
0.0
 40
1.640449387360221
 40
3.265824267776865
 40
4.819414925211028
 40
5.87128089558475
 40
6.989293170548899
 40
8.593906216490112
 40
10.19588504833777
 40
10.19588504833777
 40
10.19588504833777
 40
10.19588504833777
 10
81.80791369338358
 20
-35.66562647296429
 30
0.0
 10
82.30156968379947
 20
-35.36026246442729
 30
0.0
 10
83.28434533409123
 20
-34.75234051494824
 30
0.0
 10
84.87110539550031
 20
-35.38617139884883
 30
0.0
 10
86.29714253271976
 20
-35.7263556341987
 30
0.0
 10
87.45499260589654
 20
-35.16183489672677
 30
0.0
 10
88.4875101094656
 20
-34.44853818246427
 30
0.0
 10
89.89086010655429
 20
-34.04017448270153
 30
0.0
 10
90.85608322451515
 20
-33.58261253467262
 30
0.0
 10
91.33829831827057
 20
-33.3540195041474
 30
0.0
 11
81.80791369338358
 21
-35.66562647296429
 31
0.0
 11
83.31221435718663
 21
-35.01129192139894
 31
0.0
 11
84.90123449103372
 21
-35.35313767041158
 31
0.0
 11
86.44207606876499
 21
-35.5517608392548
 31
0.0
 11
87.41534907563516
 21
-35.15281012334098
 31
0.0
 11
88.37779184182538
 21
-34.5839029527247
 31
0.0
 11
89.87285202202104
 21
-34.00116966484929
 31
0.0
 11
91.33829831827057
 21
-33.3540195041474
 31
0.0
  0
ARC
  5
34D
330
1F
100
AcDbEntity
  8
1
  6
Continuous
 62
     7
100
AcDbCircle
 10
113.0253123346335
 20
-61.14685018908679
 30
0.0
 40
0.9999999999999667
100
AcDbArc
 50
25.26416482102405
 51
85.00000000000347
  0
ARC
  5
34E
330
1F
100
AcDbEntity
  8
1
  6
Continuous
 62
     7
100
AcDbCircle
 10
113.0253123346335
 20
-64.56118881920803
 30
0.0
 40
0.9999999999999768
100
AcDbArc
 50
-85.00000000000337
 51
-25.26416482102369
  0
ARC
  5
34F
330
1F
100
AcDbEntity
  8
1
  6
Continuous
 62
     7
100
AcDbCircle
 10
113.0253123346335
 20
-33.56118881920801
 30
0.0
 40
0.9999999999999839
100
AcDbArc
 50
-85.0000000000034
 51
-25.26416482102442
  0
ARC
  5
350
330
1F
100
AcDbEntity
  8
1
  6
Continuous
 62
     7
100
AcDbCircle
 10
113.0253123346335
 20
-30.14685018908677
 30
0.0
 40
0.9999999999999667
100
AcDbArc
 50
25.26416482102405
 51
85.00000000000338
  0
ARC
  5
351
330
1F
100
AcDbEntity
  8
1
  6
Continuous
 62
     7
100
AcDbCircle
 10
-40.44543978109675
 20
-25.8540195041474
 30
0.0
 40
0.2000000000000099
100
AcDbArc
 50
0.0
 51
90.0
  0
ARC
  5
352
330
1F
100
AcDbEntity
  8
1
  6
Continuous
 62
     7
100
AcDbCircle
 10
-48.04543978109673
 20
-25.8540195041474
 30
0.0
 40
0.1999999999999993
100
AcDbArc
 50
90.0
 51
180.0
  0
ARC
  5
353
330
1F
100
AcDbEntity
  8
1
  6
Continuous
 62
     7
100
AcDbCircle
 10
107.9079136933836
 20
-25.8540195041474
 30
0.0
 40
0.1999999999999993
100
AcDbArc
 50
90.0
 51
180.0
  0
ARC
  5
354
330
1F
100
AcDbEntity
  8
1
  6
Continuous
 62
     7
100
AcDbCircle
 10
113.6079136933836
 20
-25.8540195041474
 30
0.0
 40
0.2000000000000028
100
AcDbArc
 50
0.0
 51
90.0
  0
ARC
  5
355
330
1F
100
AcDbEntity
  8
1
  6
Continuous
 62
     7
100
AcDbCircle
 10
203.3590005519284
 20
-25.8540195041474
 30
0.0
 40
0.1999999999999886
100
AcDbArc
 50
0.0
 51
90.0
  0
ARC
  5
356
330
1F
100
AcDbEntity
  8
1
  6
Continuous
 62
     7
100
AcDbCircle
 10
195.7590005519284
 20
-25.8540195041474
 30
0.0
 40
0.1999999999999993
100
AcDbArc
 50
90.0
 51
180.0
  0
SOLID
  5
357
330
1F
100
AcDbEntity
  8
1
 62
     4
100
AcDbTrace
 10
15.01057743244439
 20
-32.8653314264337
 30
0.0
 11
15.93214491555617
 21
-32.8653314264337
 31
0.0
 12
15.47136117400028
 22
-36.3653314264337
 32
0.0
 13
15.47136117400028
 23
-36.3653314264337
 33
0.0
  0
LEADER
  5
358
330
1F
100
AcDbEntity
  8
1
  6
Continuous
 62
     4
100
AcDbLeader
  3
Standard
 71
     0
 76
     2
 10
15.47136117400028
 20
-36.3653314264337
 30
0.0
 10
15.47136117400028
 20
6.6209904497221
 30
0.0
  0
SOLID
  5
359
330
1F
100
AcDbEntity
  8
1
 62
     4
100
AcDbTrace
 10
34.57830037753477
 20
-52.4790195041474
 30
0.0
 11
36.43381047194684
 21
-49.8540195041474
 31
0.0
 12
32.72279028312269
 22
-49.8540195041474
 32
0.0
 13
32.72279028312269
 23
-49.8540195041474
 33
0.0
  0
LEADER
  5
35A
330
1F
100
AcDbEntity
  8
1
  6
Continuous
 62
     4
100
AcDbLeader
  3
Standard
 71
     0
 76
     2
 10
34.57830037753477
 20
-49.8540195041474
 30
0.0
 10
34.57830037753477
 20
-63.34893101103701
 30
0.0
  0
SOLID
  5
35B
330
1F
100
AcDbEntity
  8
1
 62
     2
100
AcDbTrace
 10
-52.43479583280099
 20
-26.39217004574385
 30
0.0
 11
-53.28609441243271
 21
-26.74512521888342
 31
0.0
 12
-54.20092547660809
 22
-23.33552028861628
 32
0.0
 13
-54.20092547660809
 23
-23.33552028861628
 33
0.0
  0
LEADER
  5
35C
330
1F
100
AcDbEntity
  8
1
  6
Continuous
 62
     2
100
AcDbLeader
  3
Standard
 71
     0
 76
     2
 10
-54.20092547660809
 20
-23.33552028861628
 30
0.0
 10
-53.43428288340834
 20
-25.18459858621089
 30
0.0
  0
SOLID
  5
35D
330
1F
100
AcDbEntity
  8
1
 62
     2
100
AcDbTrace
 10
222.2395117557127
 20
-39.43316565070391
 30
0.0
 11
223.0333953470268
 21
-39.90117790414526
 31
0.0
 12
220.8590005519283
 22
-42.682244054299
 32
0.0
 13
220.8590005519283
 23
-42.682244054299
 33
0.0
  0
LEADER
  5
35E
330
1F
100
AcDbEntity
  8
1
  6
Continuous
 62
     2
100
AcDbLeader
  3
Standard
 71
     0
 76
     3
 10
220.8590005519283
 20
-42.682244054299
 30
0.0
 10
230.253684627551
 20
-26.7461537524431
 30
0.0
 10
235.253684627551
 20
-26.7461537524431
 30
0.0
  0
SOLID
  5
35F
330
1F
100
AcDbEntity
  8
1
 62
     2
100
AcDbTrace
 10
81.67547732332324
 20
-29.19985129103529
 30
0.0
 11
82.44173758658424
 21
-28.68786317117689
 31
0.0
 12
84.00307538849418
 22
-31.8540195041474
 32
0.0
 13
84.00307538849418
 23
-31.8540195041474
 33
0.0
  0
LEADER
  5
360
330
1F
100
AcDbEntity
  8
1
  6
Continuous
 62
     2
100
AcDbLeader
  3
Standard
 71
     0
 76
     3
 10
84.00307538849418
 20
-31.8540195041474
 30
0.0
 10
68.39710490568098
 20
-8.49754972138943
 30
0.0
 10
63.39710490568098
 20
-8.49754972138943
 30
0.0
  0
SOLID
  5
361
330
1F
100
AcDbEntity
  8
1
 62
     4
100
AcDbTrace
 10
27.92794478131279
 20
-41.3050098164565
 30
0.0
 11
28.84951226442456
 21
-41.3050098164565
 31
0.0
 12
28.38872852286867
 22
-44.8050098164565
 32
0.0
 13
28.38872852286867
 23
-44.8050098164565
 33
0.0
  0
LEADER
  5
362
330
1F
100
AcDbEntity
  8
1
  6
Continuous
 62
     4
100
AcDbLeader
  3
Standard
 71
     0
 76
     3
 10
28.38872852286867
 20
-44.8050098164565
 30
0.0
 10
28.38872852286867
 20
-14.260818272778
 30
0.0
 10
33.50185309846238
 20
-14.260818272778
 30
0.0
  0
SOLID
  5
363
330
1F
100
AcDbEntity
  8
1
 62
     2
100
AcDbTrace
 10
60.86972011464924
 20
-52.95727007754099
 30
0.0
 11
60.02086222197518
 21
-52.598484760152
 31
0.0
 12
61.8079136933836
 22
-49.55401950414739
 32
0.0
 13
61.8079136933836
 23
-49.55401950414739
 33
0.0
  0
LEADER
  5
364
330
1F
100
AcDbEntity
  8
1
  6
Continuous
 62
     2
100
AcDbLeader
  3
Standard
 71
     0
 76
     3
 10
61.8079136933836
 20
-49.55401950414739
 30
0.0
 10
54.10161740575138
 20
-67.7865114986547
 30
0.0
 10
49.10161740575138
 20
-67.7865114986547
 30
0.0
  0
SOLID
  5
365
330
1F
100
AcDbEntity
  8
1
 62
     2
100
AcDbTrace
 10
105.2834123148291
 20
24.25027177910868
 30
0.0
 11
105.8948185084926
 21
24.93981444804144
 31
0.0
 12
108.2079136933836
 22
22.2729975585426
 32
0.0
 13
108.2079136933836
 23
22.2729975585426
 33
0.0
  0
LEADER
  5
366
330
1F
100
AcDbEntity
  8
1
  6
Continuous
 62
     2
100
AcDbLeader
  3
Standard
 71
     0
 76
     3
 10
108.2079136933836
 20
22.2729975585426
 30
0.0
 10
93.64729687340747
 20
35.1836580707812
 30
0.0
 10
88.64729687340747
 20
35.1836580707812
 30
0.0
  0
DIMENSION
  5
372
330
1F
100
AcDbEntity
  8
1
100
AcDbDimension
  2
*D1
 10
61.80791369338359
 20
-33.68930642665021
 30
0.0
 11
69.3079136933836
 21
-29.93930642665021
 31
0.0
 70
    32
  1
<>
 71
     5
 42
-1.0
 53
0.00013888888889
  3
ME10_DIM_10
100
AcDbAlignedDimension
 13
76.8079136933836
 23
-45.8540195041474
 33
0.0
 14
61.8079136933836
 24
-45.15401950414742
 34
0.0
100
AcDbRotatedDimension
  0
DIMENSION
  5
37E
330
1F
100
AcDbEntity
  8
1
100
AcDbDimension
  2
*D2
 10
15.42073659840648
 20
-36.3540195041474
 30
0.0
 11
10.35823659840648
 21
-47.3540195041474
 31
0.0
 70
    32
  1
<>
 71
     5
 42
-1.0
 53
90.0
  3
ME10_DIM_11
100
AcDbAlignedDimension
 13
80.00791369338359
 23
-58.3540195041474
 33
0.0
 14
80.00791369338359
 24
-36.3540195041474
 34
0.0
 50
90.0
100
AcDbRotatedDimension
  0
DIMENSION
  5
389
330
1F
100
AcDbEntity
  8
1
100
AcDbDimension
  2
*D3
 10
61.80791369338359
 20
-97.4310817556456
 30
0.0
 11
71.80791369338358
 21
-93.6810817556456
 31
0.0
 70
    32
  1
<>
 71
     5
 42
-1.0
 53
0.00013888888889
  3
ME10_DIM_12
100
AcDbAlignedDimension
 13
81.80791369338358
 23
-67.8540195041474
 33
0.0
 14
61.8079136933836
 24
-49.55401950414739
 34
0.0
100
AcDbRotatedDimension
  0
DIMENSION
  5
396
330
1F
100
AcDbEntity
  8
1
100
AcDbDimension
  2
*D4
 10
79.80791369338358
 20
-87.31848230598669
 30
0.0
 11
68.94365298822609
 21
-83.56848230598669
 31
0.0
 70
    32
  1
<>
 71
     5
 42
-1.0
 53
0.00013888888889
  3
ME10_DIM_13
100
AcDbAlignedDimension
 13
81.80791369338358
 23
-67.8540195041474
 33
0.0
 14
79.80791369338358
 24
-58.15401950414739
 34
0.0
100
AcDbRotatedDimension
  0
DIMENSION
  5
3A3
330
1F
100
AcDbEntity
  8
1
100
AcDbDimension
  2
*D5
 10
81.80791369338358
 20
-14.8602817659602
 30
0.0
 11
88.29859466119437
 21
-11.1102817659602
 31
0.0
 70
    32
  1
4-4.5MIN.
 71
     5
 42
-1.0
 53
0.00013888888889
  3
ME10_DIM_14
100
AcDbAlignedDimension
 13
86.10791369338358
 23
-30.8540195041474
 33
0.0
 14
81.80791369338358
 24
-26.8540195041474
 34
0.0
100
AcDbRotatedDimension
  0
DIMENSION
  5
3AE
330
1F
100
AcDbEntity
  8
1
100
AcDbDimension
  2
*D6
 10
-65.24543978109674
 20
-97.35854959657499
 30
0.0
 11
-44.24543978109674
 21
-93.60854959657499
 31
0.0
 70
    32
  1
<>
 71
     5
 42
-1.0
 53
0.00013888888889
  3
ME10_DIM_15
100
AcDbAlignedDimension
 13
-23.24543978109674
 23
-62.68372922090328
 33
0.0
 14
-65.24543978109674
 24
-62.68372922090328
 34
0.0
100
AcDbRotatedDimension
  0
DIMENSION
  5
3B9
330
1F
100
AcDbEntity
  8
1
100
AcDbDimension
  2
*D7
 10
-59.74543978109674
 20
-87.40542910567729
 30
0.0
 11
-44.24543978109674
 21
-83.65542910567729
 31
0.0
 70
    32
  1
<>
 71
     5
 42
-1.0
 53
0.00013888888889
  3
ME10_DIM_16
100
AcDbAlignedDimension
 13
-28.74543978109674
 23
-65.25401950414741
 33
0.0
 14
-59.74543978109674
 24
-65.25401950414741
 34
0.0
100
AcDbRotatedDimension
  0
DIMENSION
  5
3C4
330
1F
100
AcDbEntity
  8
1
100
AcDbDimension
  2
*D8
 10
-76.49543978109674
 20
-31.8540195041474
 30
0.0
 11
-80.24543978109674
 21
-47.3540195041474
 31
0.0
 70
    33
  1
<>
 71
     5
 42
-1.0
 53
90.0
  3
ME10_DIM_17
100
AcDbAlignedDimension
 13
-62.14543978109675
 23
-62.8540195041474
 33
0.0
 14
-62.14543978109675
 24
-31.8540195041474
 34
0.0
  0
DIMENSION
  5
3CF
330
1F
100
AcDbEntity
  8
1
100
AcDbDimension
  2
*D9
 10
-86.49543978109674
 20
-26.3540195041474
 30
0.0
 11
-90.24543978109674
 21
-47.3540195041474
 31
0.0
 70
    32
  1
42
 71
     5
 42
-1.0
 53
90.0
  3
ME10_DIM_18
100
AcDbAlignedDimension
 13
-59.57514949785264
 23
-68.3540195041474
 33
0.0
 14
-59.57514949785264
 24
-26.3540195041474
 34
0.0
 50
90.0
100
AcDbRotatedDimension
  0
DIMENSION
  5
3DA
330
1F
100
AcDbEntity
  8
1
100
AcDbDimension
  2
*D10
 10
142.0579136933836
 20
35.8367362876015
 30
0.0
 11
138.3079136933836
 21
4.74135839172705
 31
0.0
 70
    32
  1
300MIN.
 71
     5
 42
-1.0
 53
90.0
  3
ME10_DIM_19
100
AcDbAlignedDimension
 13
114.3079136933836
 23
-26.3540195041474
 33
0.0
 14
112.6704136933836
 24
35.8367362876015
 34
0.0
 50
90.0
100
AcDbRotatedDimension
  0
DIMENSION
  5
3E7
330
1F
100
AcDbEntity
  8
1
100
AcDbDimension
  2
*D11
 10
132.0579136933836
 20
35.8367362876015
 30
0.0
 11
128.3079136933836
 21
19.5050061430377
 31
0.0
 70
    32
  1
5~10
 71
     5
 42
-1.0
 53
90.0
  3
ME10_DIM_20
100
AcDbAlignedDimension
 13
113.3079136933836
 23
31.5020239383464
 33
0.0
 14
112.6704136933836
 24
35.8367362876015
 34
0.0
 50
90.0
100
AcDbRotatedDimension
  0
DIMENSION
  5
3F2
330
1F
100
AcDbEntity
  8
1
100
AcDbDimension
  2
*D12
 10
81.80791369338358
 20
-97.4017393453905
 30
0.0
 11
98.30791369338358
 21
-93.6517393453905
 31
0.0
 70
    32
  1
<>
 71
     5
 42
-1.0
 53
0.00013888888889
  3
ME10_DIM_21
100
AcDbAlignedDimension
 13
114.8079136933836
 23
-67.8540195041474
 33
0.0
 14
81.80791369338358
 24
-67.8540195041474
 34
0.0
100
AcDbRotatedDimension
  0
DIMENSION
  5
3FF
330
1F
100
AcDbEntity
  8
1
100
AcDbDimension
  2
*D13
 10
28.33810394727488
 20
-44.85401950414741
 30
0.0
 11
23.27560394727488
 21
-47.3540195041474
 31
0.0
 70
    32
  1
<>
 71
     5
 42
-1.0
 53
90.0
  3
ME10_DIM_22
100
AcDbAlignedDimension
 13
62.10791369338358
 23
-49.8540195041474
 33
0.0
 14
62.10791369338358
 24
-44.85401950414741
 34
0.0
 50
90.0
100
AcDbRotatedDimension
  0
DIMENSION
  5
40C
330
1F
100
AcDbEntity
  8
1
100
AcDbDimension
  2
*D14
 10
-46.74543978109674
 20
-34.0191989533753
 30
0.0
 11
-40.28002409272714
 21
-30.2691989533753
 31
0.0
 70
    32
  1
<>
 71
     5
 42
-1.0
 53
0.00013888888889
  3
ME10_DIM_23
100
AcDbAlignedDimension
 13
-42.24543978109674
 23
-45.8540195041474
 33
0.0
 14
-46.74543978109674
 24
-47.3540195041474
 34
0.0
100
AcDbRotatedDimension
  0
INSERT
  5
414
330
1F
100
AcDbEntity
  8
1
100
AcDbBlockReference
  2
*D15
 10
0.0
 20
0.0
 30
0.0
  0
ENDSEC
  0
SECTION
  2
OBJECTS
  0
DICTIONARY
  5
C
330
0
100
AcDbDictionary
281
     1
  3
ACAD_GROUP
350
D
  3
ACAD_LAYOUT
350
1A
  3
ACAD_MLINESTYLE
350
17
  3
ACAD_PLOTSETTINGS
350
19
  3
ACAD_PLOTSTYLENAME
350
E
  0
DICTIONARY
  5
D
102
{ACAD_REACTORS
330
C
102
}
330
C
100
AcDbDictionary
281
     1
  0
DICTIONARY
  5
1A
102
{ACAD_REACTORS
330
C
102
}
330
C
100
AcDbDictionary
281
     1
  3
Layout1
350
1E
  3
Layout2
350
26
  3
Model
350
22
  0
DICTIONARY
  5
17
102
{ACAD_REACTORS
330
C
102
}
330
C
100
AcDbDictionary
281
     1
  3
Standard
350
18
  0
DICTIONARY
  5
19
102
{ACAD_REACTORS
330
C
102
}
330
C
100
AcDbDictionary
281
     1
  0
ACDBDICTIONARYWDFLT
  5
E
102
{ACAD_REACTORS
330
C
102
}
330
C
100
AcDbDictionary
281
     1
  3
Normal
350
F
100
AcDbDictionaryWithDefault
340
F
  0
LAYOUT
  5
1E
102
{ACAD_REACTORS
330
1A
102
}
330
1A
100
AcDbPlotSettings
  1

  2

  4

  6

 40
0.0
 41
0.0
 42
0.0
 43
0.0
 44
0.0
 45
0.0
 46
0.0
 47
0.0
 48
0.0
 49
0.0
140
0.0
141
0.0
142
1.0
143
1.0
 70
   688
 72
     0
 73
     0
 74
     5
  7

 75
    16
147
1.0
148
0.0
149
0.0
100
AcDbLayout
  1
Layout1
 70
     1
 71
     1
 10
0.0
 20
0.0
 11
0.0
 21
0.0
 12
0.0
 22
0.0
 32
0.0
 14
0.0
 24
0.0
 34
0.0
 15
0.0
 25
0.0
 35
0.0
146
0.0
 13
0.0
 23
0.0
 33
0.0
 16
1.0
 26
0.0
 36
0.0
 17
0.0
 27
1.0
 37
0.0
 76
     0
330
1B
  0
LAYOUT
  5
26
102
{ACAD_REACTORS
330
1A
102
}
330
1A
100
AcDbPlotSettings
  1

  2

  4

  6

 40
0.0
 41
0.0
 42
0.0
 43
0.0
 44
0.0
 45
0.0
 46
0.0
 47
0.0
 48
0.0
 49
0.0
140
0.0
141
0.0
142
1.0
143
1.0
 70
   688
 72
     0
 73
     0
 74
     5
  7

 75
    16
147
1.0
148
0.0
149
0.0
100
AcDbLayout
  1
Layout2
 70
     1
 71
     2
 10
0.0
 20
0.0
 11
0.0
 21
0.0
 12
0.0
 22
0.0
 32
0.0
 14
0.0
 24
0.0
 34
0.0
 15
0.0
 25
0.0
 35
0.0
146
0.0
 13
0.0
 23
0.0
 33
0.0
 16
1.0
 26
0.0
 36
0.0
 17
0.0
 27
1.0
 37
0.0
 76
     0
330
23
  0
LAYOUT
  5
22
102
{ACAD_REACTORS
330
1A
102
}
330
1A
100
AcDbPlotSettings
  1

  2

  4

  6

 40
0.0
 41
0.0
 42
0.0
 43
0.0
 44
0.0
 45
0.0
 46
0.0
 47
0.0
 48
0.0
 49
0.0
140
0.0
141
0.0
142
1.0
143
1.0
 70
  1712
 72
     0
 73
     0
 74
     0
  7

 75
     0
147
1.0
148
0.0
149
0.0
100
AcDbLayout
  1
Model
 70
     1
 71
     0
 10
0.0
 20
0.0
 11
0.0
 21
0.0
 12
0.0
 22
0.0
 32
0.0
 14
-91.99543978109674
 24
-120.2054711972681
 34
0.0
 15
254.8077520249507
 25
45.91030134374829
 35
0.0
146
0.0
 13
0.0
 23
0.0
 33
0.0
 16
1.0
 26
0.0
 36
0.0
 17
0.0
 27
1.0
 37
0.0
 76
     0
330
1F
  0
MLINESTYLE
  5
18
102
{ACAD_REACTORS
330
17
102
}
330
17
100
AcDbMlineStyle
  2
Standard
 70
     0
  3

 62
   256
 51
90.0
 52
90.0
 71
     2
 49
0.5
 62
   256
  6
BYLAYER
 49
-0.5
 62
   256
  6
BYLAYER
  0
ACDBPLACEHOLDER
  5
F
102
{ACAD_REACTORS
330
E
102
}
330
E
  0
ENDSEC
  0
EOF
