  0
SECTION
  2
HEADER
  9
$ACADVER
  1
AC1015
  9
$ACADMAINTVER
 70
     6
  9
$DWGCODEPAGE
  3
DOS932
  9
$INSBASE
 10
0.0
 20
0.0
 30
0.0
  9
$EXTMIN
 10
-321.370746455297
 20
30.5655454877698
 30
0.0
  9
$EXTMAX
 10
23.053933121272
 20
202.963461759477
 30
0.0
  9
$LIMMIN
 10
0.0
 20
0.0
  9
$LIMMAX
 10
12.0
 20
9.0
  9
$ORTHOMODE
 70
     0
  9
$REGENMODE
 70
     1
  9
$FILLMODE
 70
     1
  9
$QTEXTMODE
 70
     0
  9
$MIRRTEXT
 70
     1
  9
$LTSCALE
 40
1.0
  9
$ATTMODE
 70
     1
  9
$TEXTSIZE
 40
0.2
  9
$TRACEWID
 40
0.05
  9
$TEXTSTYLE
  7
Standard
  9
$CLAYER
  8
0
  9
$CELTYPE
  6
ByLayer
  9
$CECOLOR
 62
   256
  9
$CELTSCALE
 40
1.0
  9
$DISPSILH
 70
     0
  9
$DIMSCALE
 40
1.0
  9
$DIMASZ
 40
0.18
  9
$DIMEXO
 40
0.0625
  9
$DIMDLI
 40
0.38
  9
$DIMRND
 40
0.0
  9
$DIMDLE
 40
0.0
  9
$DIMEXE
 40
0.18
  9
$DIMTP
 40
0.0
  9
$DIMTM
 40
0.0
  9
$DIMTXT
 40
0.18
  9
$DIMCEN
 40
0.09
  9
$DIMTSZ
 40
0.0
  9
$DIMTOL
 70
     0
  9
$DIMLIM
 70
     0
  9
$DIMTIH
 70
     1
  9
$DIMTOH
 70
     1
  9
$DIMSE1
 70
     0
  9
$DIMSE2
 70
     0
  9
$DIMTAD
 70
     0
  9
$DIMZIN
 70
     0
  9
$DIMBLK
  1

  9
$DIMASO
 70
     1
  9
$DIMSHO
 70
     1
  9
$DIMPOST
  1

  9
$DIMAPOST
  1

  9
$DIMALT
 70
     0
  9
$DIMALTD
 70
     2
  9
$DIMALTF
 40
25.4
  9
$DIMLFAC
 40
1.0
  9
$DIMTOFL
 70
     0
  9
$DIMTVP
 40
0.0
  9
$DIMTIX
 70
     0
  9
$DIMSOXD
 70
     0
  9
$DIMSAH
 70
     0
  9
$DIMBLK1
  1

  9
$DIMBLK2
  1

  9
$DIMSTYLE
  2
Standard
  9
$DIMCLRD
 70
     0
  9
$DIMCLRE
 70
     0
  9
$DIMCLRT
 70
     0
  9
$DIMTFAC
 40
1.0
  9
$DIMGAP
 40
0.09
  9
$DIMJUST
 70
     0
  9
$DIMSD1
 70
     0
  9
$DIMSD2
 70
     0
  9
$DIMTOLJ
 70
     1
  9
$DIMTZIN
 70
     0
  9
$DIMALTZ
 70
     0
  9
$DIMALTTZ
 70
     0
  9
$DIMUPT
 70
     0
  9
$DIMDEC
 70
     4
  9
$DIMTDEC
 70
     4
  9
$DIMALTU
 70
     2
  9
$DIMALTTD
 70
     2
  9
$DIMTXSTY
  7
Standard
  9
$DIMAUNIT
 70
     0
  9
$DIMADEC
 70
     0
  9
$DIMALTRND
 40
0.0
  9
$DIMAZIN
 70
     0
  9
$DIMDSEP
 70
    46
  9
$DIMATFIT
 70
     3
  9
$DIMFRAC
 70
     0
  9
$DIMLDRBLK
  1

  9
$DIMLUNIT
 70
     2
  9
$DIMLWD
 70
    -2
  9
$DIMLWE
 70
    -2
  9
$DIMTMOVE
 70
     0
  9
$LUNITS
 70
     2
  9
$LUPREC
 70
     4
  9
$SKETCHINC
 40
0.1
  9
$FILLETRAD
 40
0.5
  9
$AUNITS
 70
     0
  9
$AUPREC
 70
     0
  9
$MENU
  1
.
  9
$ELEVATION
 40
0.0
  9
$PELEVATION
 40
0.0
  9
$THICKNESS
 40
0.0
  9
$LIMCHECK
 70
     0
  9
$CHAMFERA
 40
0.5
  9
$CHAMFERB
 40
0.5
  9
$CHAMFERC
 40
1.0
  9
$CHAMFERD
 40
0.0
  9
$SKPOLY
 70
     0
  9
$TDCREATE
 40
2454823.568119572
  9
$TDUCREATE
 40
2454823.193119572
  9
$TDUPDATE
 40
2454823.568119583
  9
$TDUUPDATE
 40
2454823.193119583
  9
$TDINDWG
 40
0.0000000116
  9
$TDUSRTIMER
 40
0.0000000116
  9
$USRTIMER
 70
     1
  9
$ANGBASE
 50
0.0
  9
$ANGDIR
 70
     0
  9
$PDMODE
 70
     0
  9
$PDSIZE
 40
0.0
  9
$PLINEWID
 40
0.0
  9
$SPLFRAME
 70
     0
  9
$SPLINETYPE
 70
     6
  9
$SPLINESEGS
 70
     8
  9
$HANDSEED
  5
3CC
  9
$SURFTAB1
 70
     6
  9
$SURFTAB2
 70
     6
  9
$SURFTYPE
 70
     6
  9
$SURFU
 70
     6
  9
$SURFV
 70
     6
  9
$UCSBASE
  2

  9
$UCSNAME
  2

  9
$UCSORG
 10
0.0
 20
0.0
 30
0.0
  9
$UCSXDIR
 10
1.0
 20
0.0
 30
0.0
  9
$UCSYDIR
 10
0.0
 20
1.0
 30
0.0
  9
$UCSORTHOREF
  2

  9
$UCSORTHOVIEW
 70
     0
  9
$UCSORGTOP
 10
0.0
 20
0.0
 30
0.0
  9
$UCSORGBOTTOM
 10
0.0
 20
0.0
 30
0.0
  9
$UCSORGLEFT
 10
0.0
 20
0.0
 30
0.0
  9
$UCSORGRIGHT
 10
0.0
 20
0.0
 30
0.0
  9
$UCSORGFRONT
 10
0.0
 20
0.0
 30
0.0
  9
$UCSORGBACK
 10
0.0
 20
0.0
 30
0.0
  9
$PUCSBASE
  2

  9
$PUCSNAME
  2

  9
$PUCSORG
 10
0.0
 20
0.0
 30
0.0
  9
$PUCSXDIR
 10
1.0
 20
0.0
 30
0.0
  9
$PUCSYDIR
 10
0.0
 20
1.0
 30
0.0
  9
$PUCSORTHOREF
  2

  9
$PUCSORTHOVIEW
 70
     0
  9
$PUCSORGTOP
 10
0.0
 20
0.0
 30
0.0
  9
$PUCSORGBOTTOM
 10
0.0
 20
0.0
 30
0.0
  9
$PUCSORGLEFT
 10
0.0
 20
0.0
 30
0.0
  9
$PUCSORGRIGHT
 10
0.0
 20
0.0
 30
0.0
  9
$PUCSORGFRONT
 10
0.0
 20
0.0
 30
0.0
  9
$PUCSORGBACK
 10
0.0
 20
0.0
 30
0.0
  9
$USERI1
 70
     0
  9
$USERI2
 70
     0
  9
$USERI3
 70
     0
  9
$USERI4
 70
     0
  9
$USERI5
 70
     0
  9
$USERR1
 40
14.5
  9
$USERR2
 40
0.0
  9
$USERR3
 40
0.0
  9
$USERR4
 40
0.0
  9
$USERR5
 40
0.0
  9
$WORLDVIEW
 70
     1
  9
$SHADEDGE
 70
     3
  9
$SHADEDIF
 70
    70
  9
$TILEMODE
 70
     1
  9
$MAXACTVP
 70
    64
  9
$PINSBASE
 10
0.0
 20
0.0
 30
0.0
  9
$PLIMCHECK
 70
     0
  9
$PEXTMIN
 10
1.00000000000000E+20
 20
1.00000000000000E+20
 30
1.00000000000000E+20
  9
$PEXTMAX
 10
-1.00000000000000E+20
 20
-1.00000000000000E+20
 30
-1.00000000000000E+20
  9
$PLIMMIN
 10
0.0
 20
0.0
  9
$PLIMMAX
 10
12.0
 20
9.0
  9
$UNITMODE
 70
     0
  9
$VISRETAIN
 70
     1
  9
$PLINEGEN
 70
     0
  9
$PSLTSCALE
 70
     1
  9
$TREEDEPTH
 70
  3020
  9
$CMLSTYLE
  2
Standard
  9
$CMLJUST
 70
     0
  9
$CMLSCALE
 40
1.0
  9
$PROXYGRAPHICS
 70
     1
  9
$MEASUREMENT
 70
     1
  9
$CELWEIGHT
370
    -1
  9
$ENDCAPS
280
     0
  9
$JOINSTYLE
280
     0
  9
$LWDISPLAY
290
     0
  9
$INSUNITS
 70
     1
  9
$HYPERLINKBASE
  1

  9
$STYLESHEET
  1

  9
$XEDIT
290
     1
  9
$CEPSNTYPE
380
     0
  9
$PSTYLEMODE
290
     1
  9
$FINGERPRINTGUID
  2
{42DACB8D-12B5-4F4E-AE2C-C82E78C98C0C}
  9
$VERSIONGUID
  2
{FAEB1C32-E019-11D5-929B-00C0DF256EC4}
  9
$EXTNAMES
290
     1
  9
$PSVPSCALE
 40
0.0
  9
$OLESTARTUP
290
     0
  0
ENDSEC
  0
SECTION
  2
CLASSES
  0
CLASS
  1
ACDBDICTIONARYWDFLT
  2
AcDbDictionaryWithDefault
  3
ObjectDBX Classes
 90
        0
280
     0
281
     0
  0
CLASS
  1

  2
exOdDbCircle
  3

 90
        0
280
     0
281
     1
  0
CLASS
  1

  2
exOdDbSpline
  3

 90
        0
280
     0
281
     1
  0
CLASS
  1

  2
exOdDbPolyline
  3

 90
        0
280
     0
281
     1
  0
CLASS
  1
ACDBPLACEHOLDER
  2
AcDbPlaceHolder
  3
ObjectDBX Classes
 90
        0
280
     0
281
     0
  0
CLASS
  1
LAYOUT
  2
AcDbLayout
  3
ObjectDBX Classes
 90
        0
280
     0
281
     0
  0
ENDSEC
  0
SECTION
  2
TABLES
  0
TABLE
  2
VPORT
  5
8
330
0
100
AcDbSymbolTable
 70
     1
  0
VPORT
  5
29
330
8
100
AcDbSymbolTableRecord
100
AcDbViewportTableRecord
  2
*Active
 70
     0
 10
0.0
 20
0.0
 11
1.0
 21
1.0
 12
-149.1584066670125
 22
116.7645036236234
 13
0.0
 23
0.0
 14
0.5
 24
0.5
 15
0.5
 25
0.5
 16
0.0
 26
0.0
 36
1.0
 17
0.0
 27
0.0
 37
0.0
 40
236.3962146174559
 41
1.60267857142857
 42
50.0
 43
0.0
 44
0.0
 50
0.0
 51
0.0
 71
     0
 72
   100
 73
     1
 74
     3
 75
     0
 76
     0
 77
     0
 78
     0
281
     0
 65
     1
110
0.0
120
0.0
130
0.0
111
1.0
121
0.0
131
0.0
112
0.0
122
1.0
132
0.0
 79
     0
146
0.0
  0
ENDTAB
  0
TABLE
  2
LTYPE
  5
5
330
0
100
AcDbSymbolTable
 70
     8
  0
LTYPE
  5
14
330
5
100
AcDbSymbolTableRecord
100
AcDbLinetypeTableRecord
  2
ByBlock
 70
     0
  3

 72
    65
 73
     0
 40
0.0
  0
LTYPE
  5
15
330
5
100
AcDbSymbolTableRecord
100
AcDbLinetypeTableRecord
  2
ByLayer
 70
     0
  3

 72
    65
 73
     0
 40
0.0
  0
LTYPE
  5
16
330
5
100
AcDbSymbolTableRecord
100
AcDbLinetypeTableRecord
  2
Continuous
 70
     0
  3
Solid line
 72
    65
 73
     0
 40
0.0
  0
LTYPE
  5
2A
330
5
100
AcDbSymbolTableRecord
100
AcDbLinetypeTableRecord
  2
DASHED
 70
     0
  3
Dashed
 72
    65
 73
     2
 40
15.0
 49
7.0
 74
     0
 49
-8.0
 74
     0
  0
LTYPE
  5
2B
330
5
100
AcDbSymbolTableRecord
100
AcDbLinetypeTableRecord
  2
DOTTED
 70
     0
  3
Dotted
 72
    65
 73
     2
 40
1.0
 49
0.0
 74
     0
 49
-1.0
 74
     0
  0
LTYPE
  5
2C
330
5
100
AcDbSymbolTableRecord
100
AcDbLinetypeTableRecord
  2
DOT_CENTER
 70
     0
  3
Dot_Center
 72
    65
 73
     4
 40
14.0
 49
12.0
 74
     0
 49
-1.0
 74
     0
 49
0.0
 74
     0
 49
-1.0
 74
     0
  0
LTYPE
  5
2D
330
5
100
AcDbSymbolTableRecord
100
AcDbLinetypeTableRecord
  2
LONG_DASHED
 70
     0
  3
Long_Dashed
 72
    65
 73
     2
 40
15.0
 49
10.0
 74
     0
 49
-5.0
 74
     0
  0
LTYPE
  5
2E
330
5
100
AcDbSymbolTableRecord
100
AcDbLinetypeTableRecord
  2
DASH_CENTER
 70
     0
  3
Dash_Center
 72
    65
 73
     4
 40
14.0
 49
11.0
 74
     0
 49
-1.0
 74
     0
 49
1.0
 74
     0
 49
-1.0
 74
     0
  0
LTYPE
  5
2F
330
5
100
AcDbSymbolTableRecord
100
AcDbLinetypeTableRecord
  2
PHANTOM
 70
     0
  3
Phantom
 72
    65
 73
     6
 40
13.0
 49
10.0
 74
     0
 49
-1.0
 74
     0
 49
0.0
 74
     0
 49
-1.0
 74
     0
 49
0.0
 74
     0
 49
-1.0
 74
     0
  0
LTYPE
  5
30
330
5
100
AcDbSymbolTableRecord
100
AcDbLinetypeTableRecord
  2
CENTER_DASH_DASH
 70
     0
  3
Center_Dash_Dash
 72
    65
 73
     6
 40
14.0
 49
9.0
 74
     0
 49
-1.0
 74
     0
 49
1.0
 74
     0
 49
-1.0
 74
     0
 49
1.0
 74
     0
 49
-1.0
 74
     0
  0
ENDTAB
  0
TABLE
  2
LAYER
  5
2
330
0
100
AcDbSymbolTable
 70
     2
  0
LAYER
  5
10
330
2
100
AcDbSymbolTableRecord
100
AcDbLayerTableRecord
  2
0
 70
     0
 62
     7
  6
Continuous
370
    -3
390
F
  0
LAYER
  5
31
330
2
100
AcDbSymbolTableRecord
100
AcDbLayerTableRecord
  2
1
 70
     0
 62
     7
  6
Continuous
370
    -3
390
F
  0
ENDTAB
  0
TABLE
  2
STYLE
  5
3
330
0
100
AcDbSymbolTable
 70
     4
  0
STYLE
  5
11
330
3
100
AcDbSymbolTableRecord
100
AcDbTextStyleTableRecord
  2
Standard
 70
     0
 40
0.0
 41
1.0
 50
0.0
 71
     0
 42
0.2
  3
txt
  4

  0
STYLE
  5
33E
330
3
100
AcDbSymbolTableRecord
100
AcDbTextStyleTableRecord
  2
CONVERTER_11
 70
     0
 40
0.0
 41
0.89
 50
0.0
 71
     0
 42
0.2
  3
msmincho.ttc
  4

1001
ACAD
1000
MS Mincho
1071
    32785
  0
STYLE
  5
34A
330
3
100
AcDbSymbolTableRecord
100
AcDbTextStyleTableRecord
  2
CONVERTER_12
 70
     0
 40
0.0
 41
0.95
 50
0.0
 71
     0
 42
0.2
  3
txt.shx
  4

  0
STYLE
  5
3AE
330
3
100
AcDbSymbolTableRecord
100
AcDbTextStyleTableRecord
  2
CONVERTER_13
 70
     0
 40
0.0
 41
0.76
 50
0.0
 71
     0
 42
0.2
  3
txt.shx
  4

  0
ENDTAB
  0
TABLE
  2
VIEW
  5
6
330
0
100
AcDbSymbolTable
 70
     0
  0
ENDTAB
  0
TABLE
  2
UCS
  5
7
330
0
100
AcDbSymbolTable
 70
     0
  0
ENDTAB
  0
TABLE
  2
APPID
  5
9
330
0
100
AcDbSymbolTable
 70
     1
  0
APPID
  5
12
330
9
100
AcDbSymbolTableRecord
100
AcDbRegAppTableRecord
  2
ACAD
 70
     0
  0
ENDTAB
  0
TABLE
  2
DIMSTYLE
  5
A
330
0
100
AcDbSymbolTable
 70
    13
100
AcDbDimStyleTable
  0
DIMSTYLE
105
27
330
A
100
AcDbSymbolTableRecord
100
AcDbDimStyleTableRecord
  2
Standard
 70
     0
340
11
  0
DIMSTYLE
105
342
102
{ACAD_REACTORS
330
343
102
}
330
A
100
AcDbSymbolTableRecord
100
AcDbDimStyleTableRecord
  2
ME10_DIM_10
 70
     0
  3
φ<>
 41
3.5
 42
1.0
 44
1.5
 47
0.05
 48
0.05
 71
     1
 73
     0
 74
     0
 77
     1
 78
     8
140
3.5
146
0.7
147
2.0
172
     1
173
     1
176
     2
177
     2
178
     2
272
     2
340
33E
  0
DIMSTYLE
105
34E
102
{ACAD_REACTORS
330
34F
102
}
330
A
100
AcDbSymbolTableRecord
100
AcDbDimStyleTableRecord
  2
ME10_DIM_11
 70
     0
  3
MIN.
 41
3.5
 42
1.0
 44
1.5
 73
     0
 74
     0
 77
     1
 78
     8
140
3.5
147
2.0
172
     1
173
     1
176
     2
177
     2
178
     3
340
34A
  0
DIMSTYLE
105
360
102
{ACAD_REACTORS
330
361
102
}
330
A
100
AcDbSymbolTableRecord
100
AcDbDimStyleTableRecord
  2
ME10_DIM_12
 70
     0
 41
1.75
 42
1.0
 44
1.5
 73
     0
 74
     0
 77
     1
 78
     8
140
3.5
147
2.0
172
     1
173
     1
176
     2
177
     2
178
     2
340
34A
344
35B
  0
DIMSTYLE
105
36B
102
{ACAD_REACTORS
330
36C
102
}
330
A
100
AcDbSymbolTableRecord
100
AcDbDimStyleTableRecord
  2
ME10_DIM_13
 70
     0
  3
φ<>
 41
3.5
 42
1.0
 44
1.5
 73
     0
 74
     0
 77
     1
 78
     8
140
3.5
147
2.0
172
     1
173
     1
176
     2
177
     2
178
     2
340
33E
  0
DIMSTYLE
105
378
102
{ACAD_REACTORS
330
379
102
}
330
A
100
AcDbSymbolTableRecord
100
AcDbDimStyleTableRecord
  2
ME10_DIM_14
 70
     0
  3
φ<>
 41
3.5
 42
1.0
 44
1.5
 48
0.013
 71
     1
 73
     0
 74
     0
 77
     1
 78
     8
140
3.5
146
0.7
147
2.0
172
     1
173
     1
176
     2
177
     2
178
     2
272
     0
340
33E
  0
DIMSTYLE
105
385
102
{ACAD_REACTORS
330
386
102
}
330
A
100
AcDbSymbolTableRecord
100
AcDbDimStyleTableRecord
  2
ME10_DIM_15
 70
     0
  3
MAX.
 41
3.5
 42
1.0
 44
1.5
 73
     0
 74
     0
 77
     1
 78
     8
140
3.5
147
2.0
172
     1
173
     1
176
     2
177
     2
178
     2
340
34A
  0
DIMSTYLE
105
390
102
{ACAD_REACTORS
330
391
102
}
330
A
100
AcDbSymbolTableRecord
100
AcDbDimStyleTableRecord
  2
ME10_DIM_16
 70
     0
 41
3.5
 42
1.0
 44
1.5
 73
     0
 74
     0
 77
     1
 78
     8
140
3.5
147
2.0
172
     1
173
     1
176
     2
177
     2
178
     2
340
34A
  0
DIMSTYLE
105
39B
102
{ACAD_REACTORS
330
39C
102
}
330
A
100
AcDbSymbolTableRecord
100
AcDbDimStyleTableRecord
  2
ME10_DIM_17
 70
     0
  3
□<>
 41
3.5
 42
1.0
 44
1.5
 47
0.5
 48
0.5
 71
     1
 73
     0
 74
     0
 77
     1
 78
     8
140
3.5
146
0.7
147
2.0
172
     1
173
     1
176
     2
177
     2
178
     2
272
     1
340
33E
  0
DIMSTYLE
105
3A6
102
{ACAD_REACTORS
330
3A7
102
}
330
A
100
AcDbSymbolTableRecord
100
AcDbDimStyleTableRecord
  2
ME10_DIM_18
 70
     0
  3
□<>
 41
3.5
 42
1.0
 44
1.5
 47
0.13
 48
0.13
 71
     1
 73
     0
 74
     0
 77
     1
 78
     8
140
3.5
146
0.7
147
2.0
172
     1
173
     1
176
     2
177
     2
178
     2
272
     2
340
33E
  0
DIMSTYLE
105
3B2
102
{ACAD_REACTORS
330
3B3
102
}
330
A
100
AcDbSymbolTableRecord
100
AcDbDimStyleTableRecord
  2
ME10_DIM_19
 70
     0
 41
3.5
 42
1.0
 44
1.5
 47
0.5
 48
0.5
 71
     1
 73
     0
 74
     0
 77
     1
 78
     8
140
3.5
146
0.7
147
2.0
172
     1
173
     1
176
     2
177
     2
178
     2
272
     1
340
3AE
  0
DIMSTYLE
105
3BD
102
{ACAD_REACTORS
330
3BE
102
}
330
A
100
AcDbSymbolTableRecord
100
AcDbDimStyleTableRecord
  2
ME10_DIM_20
 70
     0
 41
3.5
 42
1.0
 44
1.5
 47
1.5
 48
1.5
 71
     1
 73
     0
 74
     0
 77
     1
 78
     8
140
3.5
146
0.7
147
2.0
172
     1
173
     1
176
     2
177
     2
178
     2
272
     1
340
34A
  0
DIMSTYLE
105
3CA
102
{ACAD_REACTORS
330
3CB
102
}
330
A
100
AcDbSymbolTableRecord
100
AcDbDimStyleTableRecord
  2
ME10_DIM_21
 70
     0
 41
3.5
 42
1.0
 44
1.5
 73
     0
 74
     0
 77
     1
 78
     8
140
3.5
147
2.0
172
     1
173
     1
176
     2
177
     2
178
     2
340
34A
343
35B
  0
ENDTAB
  0
TABLE
  2
BLOCK_RECORD
  5
1
330
0
100
AcDbSymbolTable
 70
    14
  0
BLOCK_RECORD
  5
1F
330
1
100
AcDbSymbolTableRecord
100
AcDbBlockTableRecord
  2
*Model_Space
340
22
  0
BLOCK_RECORD
  5
1B
330
1
100
AcDbSymbolTableRecord
100
AcDbBlockTableRecord
  2
*Paper_Space
340
1E
  0
BLOCK_RECORD
  5
23
330
1
100
AcDbSymbolTableRecord
100
AcDbBlockTableRecord
  2
*Paper_Space0
340
26
  0
BLOCK_RECORD
  5
338
330
1
100
AcDbSymbolTableRecord
100
AcDbBlockTableRecord
  2
*D1
340
0
  0
BLOCK_RECORD
  5
344
330
1
100
AcDbSymbolTableRecord
100
AcDbBlockTableRecord
  2
*D2
340
0
  0
BLOCK_RECORD
  5
350
330
1
100
AcDbSymbolTableRecord
100
AcDbBlockTableRecord
  2
*D3
340
0
  0
BLOCK_RECORD
  5
35B
330
1
100
AcDbSymbolTableRecord
100
AcDbBlockTableRecord
  2
_Dot
340
0
  0
BLOCK_RECORD
  5
362
330
1
100
AcDbSymbolTableRecord
100
AcDbBlockTableRecord
  2
*D5
340
0
  0
BLOCK_RECORD
  5
36D
330
1
100
AcDbSymbolTableRecord
100
AcDbBlockTableRecord
  2
*D6
340
0
  0
BLOCK_RECORD
  5
37A
330
1
100
AcDbSymbolTableRecord
100
AcDbBlockTableRecord
  2
*D7
340
0
  0
BLOCK_RECORD
  5
387
330
1
100
AcDbSymbolTableRecord
100
AcDbBlockTableRecord
  2
*D8
340
0
  0
BLOCK_RECORD
  5
392
330
1
100
AcDbSymbolTableRecord
100
AcDbBlockTableRecord
  2
*D9
340
0
  0
BLOCK_RECORD
  5
39D
330
1
100
AcDbSymbolTableRecord
100
AcDbBlockTableRecord
  2
*D10
340
0
  0
BLOCK_RECORD
  5
3A8
330
1
100
AcDbSymbolTableRecord
100
AcDbBlockTableRecord
  2
*D11
340
0
  0
BLOCK_RECORD
  5
3B4
330
1
100
AcDbSymbolTableRecord
100
AcDbBlockTableRecord
  2
*D12
340
0
  0
BLOCK_RECORD
  5
3BF
330
1
100
AcDbSymbolTableRecord
100
AcDbBlockTableRecord
  2
*D13
340
0
  0
ENDTAB
  0
ENDSEC
  0
SECTION
  2
BLOCKS
  0
BLOCK
  5
20
330
1F
100
AcDbEntity
  8
0
100
AcDbBlockBegin
  2
*Model_Space
 70
     0
 71
     0
 10
0.0
 20
0.0
 30
0.0
  3
*Model_Space
  1

  0
ENDBLK
  5
21
330
1F
100
AcDbEntity
  8
0
100
AcDbBlockEnd
  0
BLOCK
  5
1C
330
1B
100
AcDbEntity
 67
     1
  8
0
100
AcDbBlockBegin
  2
*Paper_Space
 70
     0
 71
     0
 10
0.0
 20
0.0
 30
0.0
  3
*Paper_Space
  1

  0
ENDBLK
  5
1D
330
1B
100
AcDbEntity
 67
     1
  8
0
100
AcDbBlockEnd
  0
BLOCK
  5
24
330
23
100
AcDbEntity
  8
0
100
AcDbBlockBegin
  2
*Paper_Space0
 70
     0
 71
     0
 10
0.0
 20
0.0
 30
0.0
  3
*Paper_Space0
  1

  0
ENDBLK
  5
25
330
23
100
AcDbEntity
  8
0
100
AcDbBlockEnd
  0
BLOCK
  5
340
330
338
100
AcDbEntity
  8
0
100
AcDbBlockBegin
  2
*D1
 70
     1
 71
     0
 10
0.0
 20
0.0
 30
0.0
  3
*D1
  1

  0
LINE
  5
339
330
338
100
AcDbEntity
  8
1
  6
Continuous
 62
     2
100
AcDbLine
 10
-212.906025158195
 20
127.213461759477
 30
0.0
 11
-212.906025158195
 21
89.113461759477
 31
0.0
  0
LINE
  5
33A
330
338
100
AcDbEntity
  8
1
  6
Continuous
 62
     2
100
AcDbLine
 10
-170.843776467207
 20
89.113461759477
 30
0.0
 11
-214.406025158195
 21
89.113461759477
 31
0.0
  0
LINE
  5
33B
330
338
100
AcDbEntity
  8
1
  6
Continuous
 62
     2
100
AcDbLine
 10
-170.843776467207
 20
127.213461759477
 30
0.0
 11
-214.406025158195
 21
127.213461759477
 31
0.0
  0
SOLID
  5
33C
330
338
100
AcDbEntity
  8
1
 62
     2
100
AcDbTrace
 10
-212.4452414166391
 20
123.713461759477
 30
0.0
 11
-213.3668088997509
 21
123.713461759477
 31
0.0
 12
-212.906025158195
 22
127.213461759477
 32
0.0
 13
-212.906025158195
 23
127.213461759477
 33
0.0
  0
SOLID
  5
33D
330
338
100
AcDbEntity
  8
1
 62
     2
100
AcDbTrace
 10
-213.3668088997509
 20
92.613461759477
 30
0.0
 11
-212.4452414166391
 21
92.613461759477
 31
0.0
 12
-212.906025158195
 22
89.113461759477
 32
0.0
 13
-212.906025158195
 23
89.113461759477
 33
0.0
  0
MTEXT
  5
33F
330
338
100
AcDbEntity
  8
1
 62
     2
100
AcDbMText
 10
-214.906025158195
 20
94.57225260915021
 30
0.0
 40
3.5
 41
0.0
 71
     7
 72
     1
  1
\C2;φ\C2;\C2;38.1\C2;\H2.45;{\Fgdt;`}0.05
  7
CONVERTER_11
 11
0.0
 21
1.0
 31
0.0
 73
     1
 44
0.60024009603842
  0
ENDBLK
  5
341
330
338
100
AcDbEntity
  8
0
100
AcDbBlockEnd
  0
BLOCK
  5
34C
330
344
100
AcDbEntity
  8
0
100
AcDbBlockBegin
  2
*D2
 70
     1
 71
     0
 10
0.0
 20
0.0
 30
0.0
  3
*D2
  1

  0
LINE
  5
345
330
344
100
AcDbEntity
  8
1
  6
Continuous
 62
     2
100
AcDbLine
 10
-68.3148138665316
 20
136.363461759477
 30
0.0
 11
-68.3148138665316
 21
195.963461759477
 31
0.0
  0
LINE
  5
346
330
344
100
AcDbEntity
  8
1
  6
Continuous
 62
     2
100
AcDbLine
 10
-95.923776467207
 20
195.963461759477
 30
0.0
 11
-66.8148138665316
 21
195.963461759477
 31
0.0
  0
LINE
  5
347
330
344
100
AcDbEntity
  8
1
  6
Continuous
 62
     2
100
AcDbLine
 10
-93.123776467207
 20
136.363461759477
 30
0.0
 11
-66.8148138665316
 21
136.363461759477
 31
0.0
  0
SOLID
  5
348
330
344
100
AcDbEntity
  8
1
 62
     2
100
AcDbTrace
 10
-68.77559760808748
 20
139.863461759477
 30
0.0
 11
-67.85403012497571
 21
139.863461759477
 31
0.0
 12
-68.3148138665316
 22
136.363461759477
 32
0.0
 13
-68.3148138665316
 23
136.363461759477
 33
0.0
  0
SOLID
  5
349
330
344
100
AcDbEntity
  8
1
 62
     2
100
AcDbTrace
 10
-67.85403012497571
 20
192.463461759477
 30
0.0
 11
-68.77559760808748
 21
192.463461759477
 31
0.0
 12
-68.3148138665316
 22
195.963461759477
 32
0.0
 13
-68.3148138665316
 23
195.963461759477
 33
0.0
  0
MTEXT
  5
34B
330
344
100
AcDbEntity
  8
1
 62
     3
100
AcDbMText
 10
-70.3148138665316
 20
156.6414029359476
 30
0.0
 40
3.5
 41
0.0
 71
     7
 72
     1
  1
\C3;305\C2;MIN.
  7
CONVERTER_12
 11
0.0
 21
1.0
 31
0.0
 73
     1
 44
0.60024009603842
  0
ENDBLK
  5
34D
330
344
100
AcDbEntity
  8
0
100
AcDbBlockEnd
  0
BLOCK
  5
359
330
350
100
AcDbEntity
  8
0
100
AcDbBlockBegin
  2
*D3
 70
     1
 71
     0
 10
0.0
 20
0.0
 30
0.0
  3
*D3
  1

  0
LINE
  5
351
330
350
100
AcDbEntity
  8
1
  6
Continuous
 62
     2
100
AcDbLine
 10
-168.323776467207
 20
64.8787957900704
 30
0.0
 11
-163.493776467207
 21
64.8787957900704
 31
0.0
  0
LINE
  5
352
330
350
100
AcDbEntity
  8
1
  6
Continuous
 62
     2
100
AcDbLine
 10
-163.493776467207
 20
64.8787957900704
 30
0.0
 11
-150.8490141971467
 21
64.8787957900704
 31
0.0
  0
LINE
  5
353
330
350
100
AcDbEntity
  8
1
  6
Continuous
 62
     2
100
AcDbLine
 10
-168.323776467207
 20
78.963461759477
 30
0.0
 11
-168.323776467207
 21
63.3787957900704
 31
0.0
  0
LINE
  5
354
330
350
100
AcDbEntity
  8
1
  6
Continuous
 62
     2
100
AcDbLine
 10
-163.493776467207
 20
78.963461759477
 30
0.0
 11
-163.493776467207
 21
63.3787957900704
 31
0.0
  0
CIRCLE
  5
355
102
{ACAD_REACTORS
330
356
102
}
330
350
100
AcDbEntity
  8
1
 62
     2
100
AcDbCircle
 10
-168.323776467207
 20
64.8787957900704
 30
0.0
 40
0.875
  0
HATCH
  5
356
330
350
100
AcDbEntity
  8
1
 62
     2
100
AcDbHatch
 10
0.0
 20
0.0
 30
0.0
210
0.0
220
0.0
230
1.0
  2
SOLID
 70
     1
 71
     1
 91
        1
 92
        1
 93
        1
 72
     2
 10
-168.323776467207
 20
64.8787957900704
 40
0.875
 50
0.0
 51
360.0
 73
     1
 97
        1
330
355
 75
     0
 76
     1
 98
        0
  0
SOLID
  5
357
330
350
100
AcDbEntity
  8
1
 62
     2
100
AcDbTrace
 10
-159.993776467207
 20
65.33957953162628
 30
0.0
 11
-159.993776467207
 21
64.41801204851451
 31
0.0
 12
-163.493776467207
 22
64.8787957900704
 32
0.0
 13
-163.493776467207
 23
64.8787957900704
 33
0.0
  0
MTEXT
  5
358
330
350
100
AcDbEntity
  8
1
 62
     2
100
AcDbMText
 10
-161.4519553736173
 20
66.8787957900704
 30
0.0
 40
3.5
 41
0.0
 71
     7
 72
     1
  1
4.83
  7
CONVERTER_12
 11
0.9999999999970621
 21
2.424068405545307E-6
 31
0.0
 73
     1
 44
0.60024009603842
  0
ENDBLK
  5
35A
330
350
100
AcDbEntity
  8
0
100
AcDbBlockEnd
  0
BLOCK
  5
35C
330
35B
100
AcDbEntity
  8
0
100
AcDbBlockBegin
  2
_Dot
 70
     0
 71
     0
 10
0.0
 20
0.0
 30
0.0
  3
_Dot
  1

  0
LWPOLYLINE
  5
35E
330
35B
100
AcDbEntity
  8
0
  6
ByBlock
 62
     0
100
AcDbPolyline
 90
        2
 70
     1
 43
0.5
 10
-0.25
 20
0.0
 42
1.0
 10
0.25
 20
0.0
 42
1.0
  0
LINE
  5
35F
330
35B
100
AcDbEntity
  8
0
  6
ByBlock
 62
     0
370
    -2
100
AcDbLine
 10
-0.5
 20
0.0
 30
0.0
 11
-1.0
 21
0.0
 31
0.0
  0
ENDBLK
  5
35D
330
35B
100
AcDbEntity
  8
0
100
AcDbBlockEnd
  0
BLOCK
  5
369
330
362
100
AcDbEntity
  8
0
100
AcDbBlockBegin
  2
*D5
 70
     1
 71
     0
 10
0.0
 20
0.0
 30
0.0
  3
*D5
  1

  0
LINE
  5
363
330
362
100
AcDbEntity
  8
1
  6
Continuous
 62
     2
100
AcDbLine
 10
-68.3148138665316
 20
79.963461759477
 30
0.0
 11
-68.3148138665316
 21
136.363461759477
 31
0.0
  0
LINE
  5
364
330
362
100
AcDbEntity
  8
1
  6
Continuous
 62
     2
100
AcDbLine
 10
-93.123776467207
 20
136.363461759477
 30
0.0
 11
-66.8148138665316
 21
136.363461759477
 31
0.0
  0
LINE
  5
365
330
362
100
AcDbEntity
  8
1
  6
Continuous
 62
     2
100
AcDbLine
 10
-93.123776467207
 20
79.963461759477
 30
0.0
 11
-66.8148138665316
 21
79.963461759477
 31
0.0
  0
SOLID
  5
366
330
362
100
AcDbEntity
  8
1
 62
     2
100
AcDbTrace
 10
-67.85403012497571
 20
132.863461759477
 30
0.0
 11
-68.77559760808748
 21
132.863461759477
 31
0.0
 12
-68.3148138665316
 22
136.363461759477
 32
0.0
 13
-68.3148138665316
 23
136.363461759477
 33
0.0
  0
SOLID
  5
367
330
362
100
AcDbEntity
  8
1
 62
     2
100
AcDbTrace
 10
-68.77559760808748
 20
83.463461759477
 30
0.0
 11
-67.85403012497571
 21
83.463461759477
 31
0.0
 12
-68.3148138665316
 22
79.963461759477
 32
0.0
 13
-68.3148138665316
 23
79.963461759477
 33
0.0
  0
MTEXT
  5
368
330
362
100
AcDbEntity
  8
1
 62
     2
100
AcDbMText
 10
-70.3148138665316
 20
99.42387025620903
 30
0.0
 40
3.5
 41
0.0
 71
     7
 72
     1
  1
\C2;φ\C2;56.4
  7
CONVERTER_11
 11
0.0
 21
1.0
 31
0.0
 73
     1
 44
0.60024009603842
  0
ENDBLK
  5
36A
330
362
100
AcDbEntity
  8
0
100
AcDbBlockEnd
  0
BLOCK
  5
376
330
36D
100
AcDbEntity
  8
0
100
AcDbBlockBegin
  2
*D6
 70
     1
 71
     0
 10
0.0
 20
0.0
 30
0.0
  3
*D6
  1

  0
LINE
  5
36E
330
36D
100
AcDbEntity
  8
1
  6
Continuous
 62
     2
100
AcDbLine
 10
-203.000715704896
 20
104.988461759477
 30
0.0
 11
-203.000715704896
 21
111.338461759477
 31
0.0
  0
LINE
  5
36F
330
36D
100
AcDbEntity
  8
1
  6
Continuous
 62
     2
100
AcDbLine
 10
-203.000715704896
 20
104.988461759477
 30
0.0
 11
-203.000715704896
 21
97.988461759477
 31
0.0
  0
LINE
  5
370
330
36D
100
AcDbEntity
  8
1
  6
Continuous
 62
     2
100
AcDbLine
 10
-203.000715704896
 20
111.338461759477
 30
0.0
 11
-203.000715704896
 21
118.338461759477
 31
0.0
  0
LINE
  5
371
330
36D
100
AcDbEntity
  8
1
  6
Continuous
 62
     2
100
AcDbLine
 10
-189.193776467207
 20
104.988461759477
 30
0.0
 11
-204.500715704896
 21
104.988461759477
 31
0.0
  0
LINE
  5
372
330
36D
100
AcDbEntity
  8
1
  6
Continuous
 62
     2
100
AcDbLine
 10
-189.193776467207
 20
111.338461759477
 30
0.0
 11
-204.500715704896
 21
111.338461759477
 31
0.0
  0
SOLID
  5
373
330
36D
100
AcDbEntity
  8
1
 62
     2
100
AcDbTrace
 10
-203.4614994464519
 20
114.838461759477
 30
0.0
 11
-202.5399319633401
 21
114.838461759477
 31
0.0
 12
-203.000715704896
 22
111.338461759477
 32
0.0
 13
-203.000715704896
 23
111.338461759477
 33
0.0
  0
SOLID
  5
374
330
36D
100
AcDbEntity
  8
1
 62
     2
100
AcDbTrace
 10
-202.5399319633401
 20
101.488461759477
 30
0.0
 11
-203.4614994464519
 21
101.488461759477
 31
0.0
 12
-203.000715704896
 22
104.988461759477
 32
0.0
 13
-203.000715704896
 23
104.988461759477
 33
0.0
  0
MTEXT
  5
375
330
36D
100
AcDbEntity
  8
1
 62
     2
100
AcDbMText
 10
-206.313215704896
 20
93.46357613856198
 30
0.0
 40
3.5
 41
0.0
 71
     7
 72
     1
  1
\C2;φ\C2;\C2;6.35\C2;\H2.45;\S 0^ -0.013;
  7
CONVERTER_11
 11
0.0
 21
1.0
 31
0.0
 73
     1
 44
0.60024009603842
  0
ENDBLK
  5
377
330
36D
100
AcDbEntity
  8
0
100
AcDbBlockEnd
  0
BLOCK
  5
383
330
37A
100
AcDbEntity
  8
0
100
AcDbBlockBegin
  2
*D7
 70
     1
 71
     0
 10
0.0
 20
0.0
 30
0.0
  3
*D7
  1

  0
LINE
  5
37B
330
37A
100
AcDbEntity
  8
1
  6
Continuous
 62
     2
100
AcDbLine
 10
-79.68290195393101
 20
202.963461759477
 30
0.0
 11
-79.68290195393101
 21
195.963461759477
 31
0.0
  0
LINE
  5
37C
330
37A
100
AcDbEntity
  8
1
  6
Continuous
 62
     2
100
AcDbLine
 10
-79.68290195393101
 20
195.963461759477
 30
0.0
 11
-79.68290195393101
 21
186.363461759477
 31
0.0
  0
LINE
  5
37D
330
37A
100
AcDbEntity
  8
1
  6
Continuous
 62
     2
100
AcDbLine
 10
-79.68290195393101
 20
186.363461759477
 30
0.0
 11
-79.68290195393101
 21
163.5661792123329
 31
0.0
  0
LINE
  5
37E
330
37A
100
AcDbEntity
  8
1
  6
Continuous
 62
     2
100
AcDbLine
 10
-95.923776467207
 20
186.363461759477
 30
0.0
 11
-78.18290195393101
 21
186.363461759477
 31
0.0
  0
LINE
  5
37F
330
37A
100
AcDbEntity
  8
1
  6
Continuous
 62
     2
100
AcDbLine
 10
-95.923776467207
 20
195.963461759477
 30
0.0
 11
-78.18290195393101
 21
195.963461759477
 31
0.0
  0
SOLID
  5
380
330
37A
100
AcDbEntity
  8
1
 62
     2
100
AcDbTrace
 10
-80.1436856954869
 20
199.463461759477
 30
0.0
 11
-79.22211821237512
 21
199.463461759477
 31
0.0
 12
-79.68290195393101
 22
195.963461759477
 32
0.0
 13
-79.68290195393101
 23
195.963461759477
 33
0.0
  0
SOLID
  5
381
330
37A
100
AcDbEntity
  8
1
 62
     2
100
AcDbTrace
 10
-79.22211821237512
 20
182.863461759477
 30
0.0
 11
-80.1436856954869
 21
182.863461759477
 31
0.0
 12
-79.68290195393101
 22
186.363461759477
 32
0.0
 13
-79.68290195393101
 23
186.363461759477
 33
0.0
  0
MTEXT
  5
382
330
37A
100
AcDbEntity
  8
1
 62
     2
100
AcDbMText
 10
-81.68290195393101
 20
163.5661792123329
 30
0.0
 40
3.5
 41
0.0
 71
     7
 72
     1
  1
\C2;9.6\C2;MAX.
  7
CONVERTER_12
 11
0.0
 21
1.0
 31
0.0
 73
     1
 44
0.60024009603842
  0
ENDBLK
  5
384
330
37A
100
AcDbEntity
  8
0
100
AcDbBlockEnd
  0
BLOCK
  5
38E
330
387
100
AcDbEntity
  8
0
100
AcDbBlockBegin
  2
*D8
 70
     1
 71
     0
 10
0.0
 20
0.0
 30
0.0
  3
*D8
  1

  0
LINE
  5
388
330
387
100
AcDbEntity
  8
1
  6
Continuous
 62
     2
100
AcDbLine
 10
-289.9999999999999
 20
69.9815717121755
 30
0.0
 11
-266.4299999999999
 21
69.9815717121755
 31
0.0
  0
LINE
  5
389
330
387
100
AcDbEntity
  8
1
  6
Continuous
 62
     2
100
AcDbLine
 10
-289.9999999999999
 20
74.2494702200777
 30
0.0
 11
-289.9999999999999
 21
68.4815717121755
 31
0.0
  0
LINE
  5
38A
330
387
100
AcDbEntity
  8
1
  6
Continuous
 62
     2
100
AcDbLine
 10
-266.4299999999999
 20
79.59346175947702
 30
0.0
 11
-266.4299999999999
 21
68.4815717121755
 31
0.0
  0
SOLID
  5
38B
330
387
100
AcDbEntity
  8
1
 62
     2
100
AcDbTrace
 10
-286.4999999999999
 20
70.44235545373138
 30
0.0
 11
-286.4999999999999
 21
69.52078797061961
 31
0.0
 12
-289.9999999999999
 22
69.9815717121755
 32
0.0
 13
-289.9999999999999
 23
69.9815717121755
 33
0.0
  0
SOLID
  5
38C
330
387
100
AcDbEntity
  8
1
 62
     2
100
AcDbTrace
 10
-269.9299999999999
 20
69.52078797061961
 30
0.0
 11
-269.9299999999999
 21
70.44235545373138
 31
0.0
 12
-266.4299999999999
 22
69.9815717121755
 32
0.0
 13
-266.4299999999999
 23
69.9815717121755
 33
0.0
  0
MTEXT
  5
38D
330
387
100
AcDbEntity
  8
1
 62
     2
100
AcDbMText
 10
-284.8032352941176
 20
71.9815717121755
 30
0.0
 40
3.5
 41
0.0
 71
     7
 72
     1
  1
23.57
  7
CONVERTER_12
 11
0.9999999999970621
 21
2.424068405545307E-6
 31
0.0
 73
     1
 44
0.60024009603842
  0
ENDBLK
  5
38F
330
387
100
AcDbEntity
  8
0
100
AcDbBlockEnd
  0
BLOCK
  5
399
330
392
100
AcDbEntity
  8
0
100
AcDbBlockBegin
  2
*D9
 70
     1
 71
     0
 10
0.0
 20
0.0
 30
0.0
  3
*D9
  1

  0
LINE
  5
393
330
392
100
AcDbEntity
  8
1
  6
Continuous
 62
     2
100
AcDbLine
 10
-318.2
 20
49.9750780456778
 30
0.0
 11
-261.8
 21
49.9750780456778
 31
0.0
  0
LINE
  5
394
330
392
100
AcDbEntity
  8
1
  6
Continuous
 62
     2
100
AcDbLine
 10
-318.2
 20
81.32119986157029
 30
0.0
 11
-318.2
 21
48.4750780456778
 31
0.0
  0
LINE
  5
395
330
392
100
AcDbEntity
  8
1
  6
Continuous
 62
     2
100
AcDbLine
 10
-261.8
 20
81.32119986157029
 30
0.0
 11
-261.8
 21
48.4750780456778
 31
0.0
  0
SOLID
  5
396
330
392
100
AcDbEntity
  8
1
 62
     2
100
AcDbTrace
 10
-314.7
 20
50.43586178723368
 30
0.0
 11
-314.7
 21
49.51429430412191
 31
0.0
 12
-318.2
 22
49.9750780456778
 32
0.0
 13
-318.2
 23
49.9750780456778
 33
0.0
  0
SOLID
  5
397
330
392
100
AcDbEntity
  8
1
 62
     2
100
AcDbTrace
 10
-265.3
 20
49.51429430412191
 30
0.0
 11
-265.3
 21
50.43586178723368
 31
0.0
 12
-261.8
 22
49.9750780456778
 32
0.0
 13
-261.8
 23
49.9750780456778
 33
0.0
  0
MTEXT
  5
398
330
392
100
AcDbEntity
  8
1
 62
     2
100
AcDbMText
 10
-303.170866013055
 20
51.97506413152515
 30
0.0
 40
3.5
 41
0.0
 71
     7
 72
     1
  1
\C2;□\C2;\C2;56.4\C2;\H2.45;{\Fgdt;`}0.5
  7
CONVERTER_11
 11
0.9999999999970621
 21
2.424068405545307E-6
 31
0.0
 73
     1
 44
0.60024009603842
  0
ENDBLK
  5
39A
330
392
100
AcDbEntity
  8
0
100
AcDbBlockEnd
  0
BLOCK
  5
3A4
330
39D
100
AcDbEntity
  8
0
100
AcDbBlockBegin
  2
*D10
 70
     1
 71
     0
 10
0.0
 20
0.0
 30
0.0
  3
*D10
  1

  0
LINE
  5
39E
330
39D
100
AcDbEntity
  8
1
  6
Continuous
 62
     2
100
AcDbLine
 10
-313.57
 20
59.8467032100681
 30
0.0
 11
-266.43
 21
59.8467032100681
 31
0.0
  0
LINE
  5
39F
330
39D
100
AcDbEntity
  8
1
  6
Continuous
 62
     2
100
AcDbLine
 10
-313.57
 20
79.59346175947702
 30
0.0
 11
-313.57
 21
58.3467032100681
 31
0.0
  0
LINE
  5
3A0
330
39D
100
AcDbEntity
  8
1
  6
Continuous
 62
     2
100
AcDbLine
 10
-266.43
 20
79.59346175947702
 30
0.0
 11
-266.43
 21
58.3467032100681
 31
0.0
  0
SOLID
  5
3A1
330
39D
100
AcDbEntity
  8
1
 62
     2
100
AcDbTrace
 10
-310.07
 20
60.30748695162399
 30
0.0
 11
-310.07
 21
59.38591946851221
 31
0.0
 12
-313.57
 22
59.8467032100681
 32
0.0
 13
-313.57
 23
59.8467032100681
 33
0.0
  0
SOLID
  5
3A2
330
39D
100
AcDbEntity
  8
1
 62
     2
100
AcDbTrace
 10
-269.93
 20
59.38591946851221
 30
0.0
 11
-269.93
 21
60.30748695162399
 31
0.0
 12
-266.43
 22
59.8467032100681
 32
0.0
 13
-266.43
 23
59.8467032100681
 33
0.0
  0
MTEXT
  5
3A3
330
39D
100
AcDbEntity
  8
1
 62
     2
100
AcDbMText
 10
-304.8127777777609
 20
61.84668929591545
 30
0.0
 40
3.5
 41
0.0
 71
     7
 72
     1
  1
\C2;□\C2;\C2;47.14\C2;\H2.45;{\Fgdt;`}0.13
  7
CONVERTER_11
 11
0.9999999999970621
 21
2.424068405545307E-6
 31
0.0
 73
     1
 44
0.60024009603842
  0
ENDBLK
  5
3A5
330
39D
100
AcDbEntity
  8
0
100
AcDbBlockEnd
  0
BLOCK
  5
3B0
330
3A8
100
AcDbEntity
  8
0
100
AcDbBlockBegin
  2
*D11
 70
     1
 71
     0
 10
0.0
 20
0.0
 30
0.0
  3
*D11
  1

  0
LINE
  5
3A9
330
3A8
100
AcDbEntity
  8
1
  6
Continuous
 62
     2
100
AcDbLine
 10
-188.893776467207
 20
49.8696012752994
 30
0.0
 11
-168.323776467207
 21
49.8696012752994
 31
0.0
  0
LINE
  5
3AA
330
3A8
100
AcDbEntity
  8
1
  6
Continuous
 62
     2
100
AcDbLine
 10
-168.323776467207
 20
78.963461759477
 30
0.0
 11
-168.323776467207
 21
48.3696012752994
 31
0.0
  0
LINE
  5
3AB
330
3A8
100
AcDbEntity
  8
1
  6
Continuous
 62
     2
100
AcDbLine
 10
-188.893776467207
 20
104.688461759477
 30
0.0
 11
-188.893776467207
 21
48.3696012752994
 31
0.0
  0
SOLID
  5
3AC
330
3A8
100
AcDbEntity
  8
1
 62
     2
100
AcDbTrace
 10
-185.393776467207
 20
50.33038501685529
 30
0.0
 11
-185.393776467207
 21
49.40881753374352
 31
0.0
 12
-188.893776467207
 22
49.8696012752994
 32
0.0
 13
-188.893776467207
 23
49.8696012752994
 33
0.0
  0
SOLID
  5
3AD
330
3A8
100
AcDbEntity
  8
1
 62
     2
100
AcDbTrace
 10
-171.823776467207
 20
49.40881753374352
 30
0.0
 11
-171.823776467207
 21
50.33038501685529
 31
0.0
 12
-168.323776467207
 22
49.8696012752994
 32
0.0
 13
-168.323776467207
 23
49.8696012752994
 33
0.0
  0
MTEXT
  5
3AF
330
3A8
100
AcDbEntity
  8
1
 62
     2
100
AcDbMText
 10
-187.3427176436776
 20
51.8696012752994
 30
0.0
 40
3.5
 41
0.0
 71
     7
 72
     1
  1
\C2;20.57\C2;\H2.45;{\Fgdt;`}0.5
  7
CONVERTER_13
 11
0.9999999999970621
 21
2.424068405545307E-6
 31
0.0
 73
     1
 44
0.60024009603842
  0
ENDBLK
  5
3B1
330
3A8
100
AcDbEntity
  8
0
100
AcDbBlockEnd
  0
BLOCK
  5
3BB
330
3B4
100
AcDbEntity
  8
0
100
AcDbBlockBegin
  2
*D12
 70
     1
 71
     0
 10
0.0
 20
0.0
 30
0.0
  3
*D12
  1

  0
LINE
  5
3B5
330
3B4
100
AcDbEntity
  8
1
  6
Continuous
 62
     2
100
AcDbLine
 10
-168.323776467207
 20
49.8696012752994
 30
0.0
 11
-92.12377646720698
 21
49.8696012752994
 31
0.0
  0
LINE
  5
3B6
330
3B4
100
AcDbEntity
  8
1
  6
Continuous
 62
     2
100
AcDbLine
 10
-92.12377646720698
 20
80.963461759477
 30
0.0
 11
-92.12377646720698
 21
48.3696012752994
 31
0.0
  0
LINE
  5
3B7
330
3B4
100
AcDbEntity
  8
1
  6
Continuous
 62
     2
100
AcDbLine
 10
-168.323776467207
 20
78.963461759477
 30
0.0
 11
-168.323776467207
 21
48.3696012752994
 31
0.0
  0
SOLID
  5
3B8
330
3B4
100
AcDbEntity
  8
1
 62
     2
100
AcDbTrace
 10
-164.823776467207
 20
50.33038501685529
 30
0.0
 11
-164.823776467207
 21
49.40881753374352
 31
0.0
 12
-168.323776467207
 22
49.8696012752994
 32
0.0
 13
-168.323776467207
 23
49.8696012752994
 33
0.0
  0
SOLID
  5
3B9
330
3B4
100
AcDbEntity
  8
1
 62
     2
100
AcDbTrace
 10
-95.62377646720698
 20
49.40881753374352
 30
0.0
 11
-95.62377646720698
 21
50.33038501685529
 31
0.0
 12
-92.12377646720698
 22
49.8696012752994
 32
0.0
 13
-92.12377646720698
 23
49.8696012752994
 33
0.0
  0
MTEXT
  5
3BA
330
3B4
100
AcDbEntity
  8
1
 62
     2
100
AcDbMText
 10
-139.2239235260305
 20
51.8696012752994
 30
0.0
 40
3.5
 41
0.0
 71
     7
 72
     1
  1
\C2;76.2\C2;\H2.45;{\Fgdt;`}1.5
  7
CONVERTER_12
 11
0.9999999999970621
 21
2.424068405545307E-6
 31
0.0
 73
     1
 44
0.60024009603842
  0
ENDBLK
  5
3BC
330
3B4
100
AcDbEntity
  8
0
100
AcDbBlockEnd
  0
BLOCK
  5
3C8
330
3BF
100
AcDbEntity
  8
0
100
AcDbBlockBegin
  2
*D13
 70
     1
 71
     0
 10
0.0
 20
0.0
 30
0.0
  3
*D13
  1

  0
LINE
  5
3C0
330
3BF
100
AcDbEntity
  8
1
  6
Continuous
 62
     2
100
AcDbLine
 10
-169.843776467207
 20
64.8787957900704
 30
0.0
 11
-168.323776467207
 21
64.8787957900704
 31
0.0
  0
LINE
  5
3C1
330
3BF
100
AcDbEntity
  8
1
  6
Continuous
 62
     2
100
AcDbLine
 10
-169.843776467207
 20
64.8787957900704
 30
0.0
 11
-180.6892235596298
 21
64.8787957900704
 31
0.0
  0
LINE
  5
3C2
330
3BF
100
AcDbEntity
  8
1
  6
Continuous
 62
     2
100
AcDbLine
 10
-169.843776467207
 20
88.113461759477
 30
0.0
 11
-169.843776467207
 21
63.3787957900704
 31
0.0
  0
LINE
  5
3C3
330
3BF
100
AcDbEntity
  8
1
  6
Continuous
 62
     2
100
AcDbLine
 10
-168.323776467207
 20
78.963461759477
 30
0.0
 11
-168.323776467207
 21
63.3787957900704
 31
0.0
  0
SOLID
  5
3C4
330
3BF
100
AcDbEntity
  8
1
 62
     2
100
AcDbTrace
 10
-173.343776467207
 20
64.41801204851451
 30
0.0
 11
-173.343776467207
 21
65.33957953162628
 31
0.0
 12
-169.843776467207
 22
64.8787957900704
 32
0.0
 13
-169.843776467207
 23
64.8787957900704
 33
0.0
  0
CIRCLE
  5
3C5
102
{ACAD_REACTORS
330
3C6
102
}
330
3BF
100
AcDbEntity
  8
1
 62
     2
100
AcDbCircle
 10
-168.323776467207
 20
64.8787957900704
 30
0.0
 40
0.875
  0
HATCH
  5
3C6
330
3BF
100
AcDbEntity
  8
1
 62
     2
100
AcDbHatch
 10
0.0
 20
0.0
 30
0.0
210
0.0
220
0.0
230
1.0
  2
SOLID
 70
     1
 71
     1
 91
        1
 92
        1
 93
        1
 72
     2
 10
-168.323776467207
 20
64.8787957900704
 40
0.875
 50
0.0
 51
360.0
 73
     1
 97
        1
330
3C5
 75
     0
 76
     1
 98
        0
  0
MTEXT
  5
3C7
330
3BF
100
AcDbEntity
  8
1
 62
     2
100
AcDbMText
 10
-180.6892235596298
 20
66.8787957900704
 30
0.0
 40
3.5
 41
0.0
 71
     7
 72
     1
  1
1.52
  7
CONVERTER_12
 11
0.9999999999970621
 21
2.424068405545307E-6
 31
0.0
 73
     1
 44
0.60024009603842
  0
ENDBLK
  5
3C9
330
3BF
100
AcDbEntity
  8
0
100
AcDbBlockEnd
  0
ENDSEC
  0
SECTION
  2
ENTITIES
  0
LINE
  5
32
330
1F
100
AcDbEntity
  8
1
  6
Continuous
 62
     7
100
AcDbLine
 10
-137.4816047281823
 20
102.7624143447445
 30
0.0
 11
-139.6753547281823
 21
103.3502278856403
 31
0.0
  0
LINE
  5
33
330
1F
100
AcDbEntity
  8
1
  6
Continuous
 62
     7
100
AcDbLine
 10
-137.4816047281823
 20
101.7141972120793
 30
0.0
 11
-137.4816047281823
 21
102.7624143447445
 31
0.0
  0
LINE
  5
34
330
1F
100
AcDbEntity
  8
1
  6
Continuous
 62
     7
100
AcDbLine
 10
-139.6753547281823
 20
102.3020107529751
 30
0.0
 11
-137.4816047281823
 21
101.7141972120793
 31
0.0
  0
LINE
  5
35
330
1F
100
AcDbEntity
  8
1
  6
Continuous
 62
     7
100
AcDbLine
 10
-139.6753547281823
 20
103.3502278856403
 30
0.0
 11
-139.6753547281823
 21
102.3020107529751
 31
0.0
  0
LINE
  5
36
330
1F
100
AcDbEntity
  8
1
  6
Continuous
 62
     7
100
AcDbLine
 10
-139.6753547281823
 20
102.1273078975309
 30
0.0
 11
-139.6753547281823
 21
100.1144236024219
 31
0.0
  0
LINE
  5
37
330
1F
100
AcDbEntity
  8
1
  6
Continuous
 62
     7
100
AcDbLine
 10
-139.0003547281823
 20
101.94644219264
 30
0.0
 11
-139.6753547281823
 21
102.1273078975309
 31
0.0
  0
LINE
  5
38
330
1F
100
AcDbEntity
  8
1
  6
Continuous
 62
     7
100
AcDbLine
 10
-139.0003547281823
 20
101.5545414638635
 30
0.0
 11
-139.0003547281823
 21
101.94644219264
 31
0.0
  0
LINE
  5
39
330
1F
100
AcDbEntity
  8
1
  6
Continuous
 62
     7
100
AcDbLine
 10
-137.4816047281823
 20
101.1475936278588
 30
0.0
 11
-139.0003547281823
 21
101.5545414638635
 31
0.0
  0
LINE
  5
3A
330
1F
100
AcDbEntity
  8
1
  6
Continuous
 62
     7
100
AcDbLine
 10
-137.4816047281823
 20
100.0993764951935
 30
0.0
 11
-137.4816047281823
 21
101.1475936278588
 31
0.0
  0
LINE
  5
3B
330
1F
100
AcDbEntity
  8
1
  6
Continuous
 62
     7
100
AcDbLine
 10
-139.0003547281823
 20
100.5063243311983
 30
0.0
 11
-137.4816047281823
 21
100.0993764951935
 31
0.0
  0
LINE
  5
3C
330
1F
100
AcDbEntity
  8
1
  6
Continuous
 62
     7
100
AcDbLine
 10
-139.0003547281823
 20
99.93355789753093
 30
0.0
 11
-139.0003547281823
 21
100.5063243311983
 31
0.0
  0
LINE
  5
3D
330
1F
100
AcDbEntity
  8
1
  6
Continuous
 62
     7
100
AcDbLine
 10
-139.6753547281823
 20
100.1144236024219
 30
0.0
 11
-139.0003547281823
 21
99.93355789753093
 31
0.0
  0
LINE
  5
3E
330
1F
100
AcDbEntity
  8
1
  6
Continuous
 62
     7
100
AcDbLine
 10
-139.0003547281823
 20
95.71480789753093
 30
0.0
 11
-137.4816047281823
 21
95.71480789753093
 31
0.0
  0
LINE
  5
3F
330
1F
100
AcDbEntity
  8
1
  6
Continuous
 62
     7
100
AcDbLine
 10
-139.6753547281823
 20
96.38980789753094
 30
0.0
 11
-137.4816047281823
 21
96.55855789753093
 31
0.0
  0
LINE
  5
40
330
1F
100
AcDbEntity
  8
1
  6
Continuous
 62
     7
100
AcDbLine
 10
-139.6753547281823
 20
95.37730789753095
 30
0.0
 11
-138.3253547281823
 21
95.03241630761653
 31
0.0
  0
LINE
  5
41
330
1F
100
AcDbEntity
  8
1
  6
Continuous
 62
     7
100
AcDbLine
 10
-139.0003547281823
 20
95.71480789753093
 30
0.0
 11
-137.4816047281823
 21
95.33951531392
 31
0.0
  0
LINE
  5
42
330
1F
100
AcDbEntity
  8
1
  6
Continuous
 62
     7
100
AcDbLine
 10
-138.3253547281823
 20
95.03241630761653
 30
0.0
 11
-139.6753547281823
 21
94.87105789753093
 31
0.0
  0
LINE
  5
43
330
1F
100
AcDbEntity
  8
1
  6
Continuous
 62
     7
100
AcDbLine
 10
-139.0003547281823
 20
94.4829871025737
 30
0.0
 11
-137.4816047281823
 21
93.98951531391998
 31
0.0
  0
LINE
  5
44
330
1F
100
AcDbEntity
  8
1
  6
Continuous
 62
     7
100
AcDbLine
 10
-139.0003547281823
 20
94.4829871025737
 30
0.0
 11
-137.4816047281823
 21
94.66451531391999
 31
0.0
  0
LINE
  5
45
330
1F
100
AcDbEntity
  8
1
  6
Continuous
 62
     7
100
AcDbLine
 10
-139.6753547281823
 20
95.37730789753095
 30
0.0
 11
-139.6753547281823
 21
96.38980789753094
 31
0.0
  0
LINE
  5
46
330
1F
100
AcDbEntity
  8
1
  6
Continuous
 62
     7
100
AcDbLine
 10
-137.4816047281823
 20
95.71480789753093
 30
0.0
 11
-137.4816047281823
 21
96.55855789753093
 31
0.0
  0
LINE
  5
47
330
1F
100
AcDbEntity
  8
1
  6
Continuous
 62
     7
100
AcDbLine
 10
-139.6753547281823
 20
94.87105789753093
 30
0.0
 11
-139.6753547281823
 21
93.85855789753094
 31
0.0
  0
LINE
  5
48
330
1F
100
AcDbEntity
  8
1
  6
Continuous
 62
     7
100
AcDbLine
 10
-139.6753547281823
 20
93.85855789753094
 30
0.0
 11
-137.4816047281823
 21
93.14576531391998
 31
0.0
  0
LINE
  5
49
330
1F
100
AcDbEntity
  8
1
  6
Continuous
 62
     7
100
AcDbLine
 10
-137.4816047281823
 20
93.14576531391998
 30
0.0
 11
-137.4816047281823
 21
93.98951531391998
 31
0.0
  0
LINE
  5
4A
330
1F
100
AcDbEntity
  8
1
  6
Continuous
 62
     7
100
AcDbLine
 10
-137.4816047281823
 20
94.66451531391999
 30
0.0
 11
-137.4816047281823
 21
95.33951531392
 31
0.0
  0
LINE
  5
4B
330
1F
100
AcDbEntity
  8
1
  6
Continuous
 62
     7
100
AcDbLine
 10
-138.2325422281823
 20
91.23791196871616
 30
0.0
 11
-137.7428846735599
 21
91.11934079895195
 31
0.0
  0
LINE
  5
4C
330
1F
100
AcDbEntity
  8
1
  6
Continuous
 62
     7
100
AcDbLine
 10
-139.2703547281823
 20
91.52862516655074
 30
0.0
 11
-138.9148129425125
 21
91.43335803220498
 31
0.0
  0
LINE
  5
4D
330
1F
100
AcDbEntity
  8
1
  6
Continuous
 62
     7
100
AcDbLine
 10
-137.4816047281823
 20
86.57253821692655
 30
0.0
 11
-139.6753547281823
 21
87.1603517578223
 31
0.0
  0
LINE
  5
4E
330
1F
100
AcDbEntity
  8
1
  6
Continuous
 62
     7
100
AcDbLine
 10
-137.4816047281823
 20
88.42878821692653
 30
0.0
 11
-137.4816047281823
 21
86.57253821692655
 31
0.0
  0
LINE
  5
4F
330
1F
100
AcDbEntity
  8
1
  6
Continuous
 62
     7
100
AcDbLine
 10
-137.8866047281823
 20
88.53730763986118
 30
0.0
 11
-137.4816047281823
 21
88.42878821692653
 31
0.0
  0
LINE
  5
50
330
1F
100
AcDbEntity
  8
1
  6
Continuous
 62
     7
100
AcDbLine
 10
-137.8866047281823
 20
87.55457191708217
 30
0.0
 11
-137.8866047281823
 21
88.53730763986118
 31
0.0
  0
LINE
  5
51
330
1F
100
AcDbEntity
  8
1
  6
Continuous
 62
     7
100
AcDbLine
 10
-138.3759797281823
 20
87.68569955312813
 30
0.0
 11
-137.8866047281823
 21
87.55457191708217
 31
0.0
  0
LINE
  5
52
330
1F
100
AcDbEntity
  8
1
  6
Continuous
 62
     7
100
AcDbLine
 10
-138.3759797281823
 20
88.66843527590714
 30
0.0
 11
-138.3759797281823
 21
87.68569955312813
 31
0.0
  0
LINE
  5
53
330
1F
100
AcDbEntity
  8
1
  6
Continuous
 62
     7
100
AcDbLine
 10
-138.7809797281823
 20
88.77695469884173
 30
0.0
 11
-138.3759797281823
 21
88.66843527590714
 31
0.0
  0
LINE
  5
54
330
1F
100
AcDbEntity
  8
1
  6
Continuous
 62
     7
100
AcDbLine
 10
-138.7809797281823
 20
87.79421897606272
 30
0.0
 11
-138.7809797281823
 21
88.77695469884173
 31
0.0
  0
LINE
  5
55
330
1F
100
AcDbEntity
  8
1
  6
Continuous
 62
     7
100
AcDbLine
 10
-139.2703547281823
 20
87.92534661210874
 30
0.0
 11
-138.7809797281823
 21
87.79421897606272
 31
0.0
  0
LINE
  5
56
330
1F
100
AcDbEntity
  8
1
  6
Continuous
 62
     7
100
AcDbLine
 10
-139.2703547281823
 20
88.9080823348877
 30
0.0
 11
-139.2703547281823
 21
87.92534661210874
 31
0.0
  0
LINE
  5
57
330
1F
100
AcDbEntity
  8
1
  6
Continuous
 62
     7
100
AcDbLine
 10
-139.6753547281823
 20
89.01660175782234
 30
0.0
 11
-139.2703547281823
 21
88.9080823348877
 31
0.0
  0
LINE
  5
58
330
1F
100
AcDbEntity
  8
1
  6
Continuous
 62
     7
100
AcDbLine
 10
-139.6753547281823
 20
87.1603517578223
 30
0.0
 11
-139.6753547281823
 21
89.01660175782234
 31
0.0
  0
LINE
  5
59
330
1F
100
AcDbEntity
  8
1
  6
Continuous
 62
     7
100
AcDbLine
 10
-139.6753547281823
 20
108.1214084419497
 30
0.0
 11
-139.6753547281823
 21
107.0731913092845
 31
0.0
  0
LINE
  5
5A
330
1F
100
AcDbEntity
  8
1
  6
Continuous
 62
     7
100
AcDbLine
 10
-139.6753547281823
 20
107.0731913092845
 30
0.0
 11
-137.4816047281823
 21
106.4853777683887
 31
0.0
  0
LINE
  5
5B
330
1F
100
AcDbEntity
  8
1
  6
Continuous
 62
     7
100
AcDbLine
 10
-137.4816047281823
 20
106.4853777683887
 30
0.0
 11
-137.4816047281823
 21
107.5335949010539
 31
0.0
  0
LINE
  5
5C
330
1F
100
AcDbEntity
  8
1
  6
Continuous
 62
     7
100
AcDbLine
 10
-139.6753547281823
 20
109.9552845445425
 30
0.0
 11
-139.6753547281823
 21
108.9070674118773
 31
0.0
  0
LINE
  5
5D
330
1F
100
AcDbEntity
  8
1
  6
Continuous
 62
     7
100
AcDbLine
 10
-137.4816047281823
 20
109.3674710036468
 30
0.0
 11
-139.6753547281823
 21
109.9552845445425
 31
0.0
  0
LINE
  5
5E
330
1F
100
AcDbEntity
  8
1
  6
Continuous
 62
     7
100
AcDbLine
 10
-139.6753547281823
 20
108.9070674118773
 30
0.0
 11
-138.5784797281823
 21
108.6131606414295
 31
0.0
  0
LINE
  5
5F
330
1F
100
AcDbEntity
  8
1
  6
Continuous
 62
     7
100
AcDbLine
 10
-137.4816047281823
 20
108.3192538709816
 30
0.0
 11
-137.4816047281823
 21
109.3674710036468
 31
0.0
  0
LINE
  5
60
330
1F
100
AcDbEntity
  8
1
  6
Continuous
 62
     7
100
AcDbLine
 10
-138.5784797281823
 20
107.8275016715018
 30
0.0
 11
-137.4816047281823
 21
108.3192538709816
 31
0.0
  0
LINE
  5
61
330
1F
100
AcDbEntity
  8
1
  6
Continuous
 62
     7
100
AcDbLine
 10
-138.5784797281823
 20
107.8275016715018
 30
0.0
 11
-137.4816047281823
 21
107.5335949010539
 31
0.0
  0
LINE
  5
62
330
1F
100
AcDbEntity
  8
1
  6
Continuous
 62
     7
100
AcDbLine
 10
-139.6753547281823
 20
108.1214084419497
 30
0.0
 11
-138.5784797281823
 21
108.6131606414295
 31
0.0
  0
LINE
  5
63
330
1F
100
AcDbEntity
  8
1
  6
Continuous
 62
     7
100
AcDbLine
 10
-140.5633640834079
 20
86.5806539844304
 30
0.0
 11
-140.5633640834079
 21
93.42871861194857
 31
0.0
  0
LINE
  5
64
330
1F
100
AcDbEntity
  8
1
  6
Continuous
 62
     7
100
AcDbLine
 10
-140.0486805038163
 20
86.55037847974853
 30
0.0
 11
-140.0486805038163
 21
93.29853416331827
 31
0.0
  0
LINE
  5
65
330
1F
100
AcDbEntity
  8
1
  6
Continuous
 62
     7
100
AcDbLine
 10
-140.9872211489541
 20
86.5806539844304
 30
0.0
 11
-140.9872211489541
 21
93.54402006125912
 31
0.0
  0
LINE
  5
66
330
1F
100
AcDbEntity
  8
1
  6
Continuous
 62
     7
100
AcDbLine
 10
-137.0211300356299
 20
91.31167721433275
 30
0.0
 11
-137.0211300356299
 21
109.4083845145559
 31
0.0
  0
LINE
  5
67
330
1F
100
AcDbEntity
  8
1
  6
Continuous
 62
     7
100
AcDbLine
 10
-136.5064464560382
 20
91.1829758147843
 30
0.0
 11
-136.5064464560382
 21
109.2872824958283
 31
0.0
  0
LINE
  5
68
330
1F
100
AcDbEntity
  8
1
  6
Continuous
 62
     7
100
AcDbLine
 10
-135.9917628764465
 20
91.0311531726644
 30
0.0
 11
-135.9917628764465
 21
109.5294865332832
 31
0.0
  0
LINE
  5
69
330
1F
100
AcDbEntity
  8
1
  6
Continuous
 62
     7
100
AcDbLine
 10
-140.9872211489541
 20
92.3632753786664
 30
0.0
 11
-135.9312118670828
 21
91.0311531726644
 31
0.0
  0
LINE
  5
6A
330
1F
100
AcDbEntity
  8
1
  6
Continuous
 62
     7
100
AcDbLine
 10
-140.9872211489541
 20
93.02933648166743
 30
0.0
 11
-135.9917628764465
 21
91.7274897803473
 31
0.0
  0
LINE
  5
6B
330
1F
100
AcDbEntity
  8
1
  6
Continuous
 62
     7
100
AcDbLine
 10
-141.0174966536359
 20
93.54402006125912
 30
0.0
 11
-135.9917628764465
 21
92.2724488646208
 31
0.0
  0
LINE
  5
6C
330
1F
100
AcDbEntity
  8
1
  6
Continuous
 62
     7
100
AcDbLine
 10
-142.493776467207
 20
85.163461759477
 30
0.0
 11
-142.493776467207
 21
131.1634617594771
 31
0.0
  0
LINE
  5
6D
330
1F
100
AcDbEntity
  8
1
  6
Continuous
 62
     7
100
AcDbLine
 10
-140.493776467207
 20
133.1634617594771
 30
0.0
 11
-124.493776467207
 21
133.163461759477
 31
0.0
  0
LINE
  5
6E
330
1F
100
AcDbEntity
  8
1
  6
Continuous
 62
     7
100
AcDbLine
 10
-122.493776467207
 20
131.163461759477
 30
0.0
 11
-122.493776467207
 21
85.163461759477
 31
0.0
  0
LINE
  5
6F
330
1F
100
AcDbEntity
  8
1
  6
Continuous
 62
     7
100
AcDbLine
 10
-124.493776467207
 20
83.16346175947703
 30
0.0
 11
-140.493776467207
 21
83.16346175947703
 31
0.0
  0
LINE
  5
70
330
1F
100
AcDbEntity
  8
1
  6
Continuous
 62
     7
100
AcDbLine
 10
-272.3576858093957
 20
125.3232759500814
 30
0.0
 11
-272.5876858093957
 21
125.2349872220232
 31
0.0
  0
LINE
  5
71
330
1F
100
AcDbEntity
  8
1
  6
Continuous
 62
     7
100
AcDbLine
 10
-272.5876858093957
 20
125.2349872220232
 30
0.0
 11
-272.5876858093957
 21
125.0262534684883
 31
0.0
  0
LINE
  5
72
330
1F
100
AcDbEntity
  8
1
  6
Continuous
 62
     7
100
AcDbLine
 10
-272.5876858093957
 20
125.0262534684883
 30
0.0
 11
-272.3576858093957
 21
125.1145421965464
 31
0.0
  0
LINE
  5
73
330
1F
100
AcDbEntity
  8
1
  6
Continuous
 62
     7
100
AcDbLine
 10
-272.3576858093957
 20
125.1145421965464
 30
0.0
 11
-272.3576858093957
 21
125.3232759500814
 31
0.0
  0
LINE
  5
74
330
1F
100
AcDbEntity
  8
1
  6
Continuous
 62
     7
100
AcDbLine
 10
-272.3576858093957
 20
125.3232759500814
 30
0.0
 11
-272.1276858093956
 21
125.2349872220232
 31
0.0
  0
LINE
  5
75
330
1F
100
AcDbEntity
  8
1
  6
Continuous
 62
     7
100
AcDbLine
 10
-272.1276858093956
 20
125.2349872220232
 30
0.0
 11
-272.1276858093956
 21
125.0262534684883
 31
0.0
  0
LINE
  5
76
330
1F
100
AcDbEntity
  8
1
  6
Continuous
 62
     7
100
AcDbLine
 10
-272.1276858093956
 20
125.0262534684883
 30
0.0
 11
-272.3576858093957
 21
125.1145421965464
 31
0.0
  0
LINE
  5
77
330
1F
100
AcDbEntity
  8
1
  6
Continuous
 62
     7
100
AcDbLine
 10
-271.8751858093957
 20
125.8057759500814
 30
0.0
 11
-271.7868970813375
 21
125.5757759500814
 31
0.0
  0
LINE
  5
78
330
1F
100
AcDbEntity
  8
1
  6
Continuous
 62
     7
100
AcDbLine
 10
-271.7868970813375
 20
125.5757759500814
 30
0.0
 11
-271.5781633278026
 21
125.5757759500814
 31
0.0
  0
LINE
  5
79
330
1F
100
AcDbEntity
  8
1
  6
Continuous
 62
     7
100
AcDbLine
 10
-271.5781633278026
 20
125.5757759500814
 30
0.0
 11
-271.6664520558606
 21
125.8057759500814
 31
0.0
  0
LINE
  5
7A
330
1F
100
AcDbEntity
  8
1
  6
Continuous
 62
     7
100
AcDbLine
 10
-271.6664520558606
 20
125.8057759500814
 30
0.0
 11
-271.8751858093957
 21
125.8057759500814
 31
0.0
  0
LINE
  5
7B
330
1F
100
AcDbEntity
  8
1
  6
Continuous
 62
     7
100
AcDbLine
 10
-271.8751858093957
 20
125.8057759500814
 30
0.0
 11
-271.7868970813375
 21
126.0357759500814
 31
0.0
  0
LINE
  5
7C
330
1F
100
AcDbEntity
  8
1
  6
Continuous
 62
     7
100
AcDbLine
 10
-271.7868970813375
 20
126.0357759500814
 30
0.0
 11
-271.5781633278026
 21
126.0357759500814
 31
0.0
  0
LINE
  5
7D
330
1F
100
AcDbEntity
  8
1
  6
Continuous
 62
     7
100
AcDbLine
 10
-271.5781633278026
 20
126.0357759500814
 30
0.0
 11
-271.6664520558606
 21
125.8057759500814
 31
0.0
  0
LINE
  5
7E
330
1F
100
AcDbEntity
  8
1
  6
Continuous
 62
     7
100
AcDbLine
 10
-272.3576858093957
 20
126.2882759500814
 30
0.0
 11
-272.1276858093956
 21
126.3765646781395
 31
0.0
  0
LINE
  5
7F
330
1F
100
AcDbEntity
  8
1
  6
Continuous
 62
     7
100
AcDbLine
 10
-272.1276858093956
 20
126.3765646781395
 30
0.0
 11
-272.1276858093956
 21
126.5852984316745
 31
0.0
  0
LINE
  5
80
330
1F
100
AcDbEntity
  8
1
  6
Continuous
 62
     7
100
AcDbLine
 10
-272.1276858093956
 20
126.5852984316745
 30
0.0
 11
-272.3576858093957
 21
126.4970097036163
 31
0.0
  0
LINE
  5
81
330
1F
100
AcDbEntity
  8
1
  6
Continuous
 62
     7
100
AcDbLine
 10
-272.3576858093957
 20
126.4970097036163
 30
0.0
 11
-272.3576858093957
 21
126.2882759500814
 31
0.0
  0
LINE
  5
82
330
1F
100
AcDbEntity
  8
1
  6
Continuous
 62
     7
100
AcDbLine
 10
-272.3576858093957
 20
126.2882759500814
 30
0.0
 11
-272.5876858093957
 21
126.3765646781395
 31
0.0
  0
LINE
  5
83
330
1F
100
AcDbEntity
  8
1
  6
Continuous
 62
     7
100
AcDbLine
 10
-272.5876858093957
 20
126.3765646781395
 30
0.0
 11
-272.5876858093957
 21
126.5852984316745
 31
0.0
  0
LINE
  5
84
330
1F
100
AcDbEntity
  8
1
  6
Continuous
 62
     7
100
AcDbLine
 10
-272.5876858093957
 20
126.5852984316745
 30
0.0
 11
-272.3576858093957
 21
126.4970097036163
 31
0.0
  0
LINE
  5
85
330
1F
100
AcDbEntity
  8
1
  6
Continuous
 62
     7
100
AcDbLine
 10
-272.8401858093957
 20
125.8057759500814
 30
0.0
 11
-272.9284745374539
 21
126.0357759500814
 31
0.0
  0
LINE
  5
86
330
1F
100
AcDbEntity
  8
1
  6
Continuous
 62
     7
100
AcDbLine
 10
-272.9284745374539
 20
126.0357759500814
 30
0.0
 11
-273.1372082909888
 21
126.0357759500814
 31
0.0
  0
LINE
  5
87
330
1F
100
AcDbEntity
  8
1
  6
Continuous
 62
     7
100
AcDbLine
 10
-273.1372082909888
 20
126.0357759500814
 30
0.0
 11
-273.0489195629306
 21
125.8057759500814
 31
0.0
  0
LINE
  5
88
330
1F
100
AcDbEntity
  8
1
  6
Continuous
 62
     7
100
AcDbLine
 10
-273.0489195629306
 20
125.8057759500814
 30
0.0
 11
-272.8401858093957
 21
125.8057759500814
 31
0.0
  0
LINE
  5
89
330
1F
100
AcDbEntity
  8
1
  6
Continuous
 62
     7
100
AcDbLine
 10
-272.8401858093957
 20
125.8057759500814
 30
0.0
 11
-272.9284745374539
 21
125.5757759500814
 31
0.0
  0
LINE
  5
8A
330
1F
100
AcDbEntity
  8
1
  6
Continuous
 62
     7
100
AcDbLine
 10
-272.9284745374539
 20
125.5757759500814
 30
0.0
 11
-273.1372082909888
 21
125.5757759500814
 31
0.0
  0
LINE
  5
8B
330
1F
100
AcDbEntity
  8
1
  6
Continuous
 62
     7
100
AcDbLine
 10
-273.1372082909888
 20
125.5757759500814
 30
0.0
 11
-273.0489195629306
 21
125.8057759500814
 31
0.0
  0
LINE
  5
8C
330
1F
100
AcDbEntity
  8
1
  6
Continuous
 62
     7
100
AcDbLine
 10
-272.5876858093957
 20
125.2349872220232
 30
0.0
 11
-272.6036874106188
 21
125.2203630938887
 31
0.0
  0
LINE
  5
8D
330
1F
100
AcDbEntity
  8
1
  6
Continuous
 62
     7
100
AcDbLine
 10
-272.6036874106188
 20
125.2203630938887
 30
0.0
 11
-273.2285838080744
 21
124.4205321789779
 31
0.0
  0
LINE
  5
8E
330
1F
100
AcDbEntity
  8
1
  6
Continuous
 62
     7
100
AcDbLine
 10
-273.2285838080744
 20
124.4205321789779
 30
0.0
 11
-272.5876858093957
 21
125.0262534684883
 31
0.0
  0
LINE
  5
8F
330
1F
100
AcDbEntity
  8
1
  6
Continuous
 62
     7
100
AcDbLine
 10
-272.1276858093956
 20
125.2349872220232
 30
0.0
 11
-272.1116842081726
 21
125.2203630938887
 31
0.0
  0
LINE
  5
90
330
1F
100
AcDbEntity
  8
1
  6
Continuous
 62
     7
100
AcDbLine
 10
-272.1116842081726
 20
125.2203630938887
 30
0.0
 11
-271.486787810717
 21
124.4205321789779
 31
0.0
  0
LINE
  5
91
330
1F
100
AcDbEntity
  8
1
  6
Continuous
 62
     7
100
AcDbLine
 10
-271.486787810717
 20
124.4205321789779
 30
0.0
 11
-272.1276858093956
 21
125.0262534684883
 31
0.0
  0
LINE
  5
92
330
1F
100
AcDbEntity
  8
1
  6
Continuous
 62
     7
100
AcDbLine
 10
-271.7868970813375
 20
125.5757759500814
 30
0.0
 11
-271.772272953203
 21
125.5597743488582
 31
0.0
  0
LINE
  5
93
330
1F
100
AcDbEntity
  8
1
  6
Continuous
 62
     7
100
AcDbLine
 10
-271.772272953203
 20
125.5597743488582
 30
0.0
 11
-270.9724420382922
 21
124.9348779514027
 31
0.0
  0
LINE
  5
94
330
1F
100
AcDbEntity
  8
1
  6
Continuous
 62
     7
100
AcDbLine
 10
-270.9724420382922
 20
124.9348779514027
 30
0.0
 11
-271.5781633278026
 21
125.5757759500814
 31
0.0
  0
LINE
  5
95
330
1F
100
AcDbEntity
  8
1
  6
Continuous
 62
     7
100
AcDbLine
 10
-271.7868970813375
 20
126.0357759500814
 30
0.0
 11
-271.772272953203
 21
126.0517775513045
 31
0.0
  0
LINE
  5
96
330
1F
100
AcDbEntity
  8
1
  6
Continuous
 62
     7
100
AcDbLine
 10
-271.772272953203
 20
126.0517775513045
 30
0.0
 11
-270.9724420382922
 21
126.67667394876
 31
0.0
  0
LINE
  5
97
330
1F
100
AcDbEntity
  8
1
  6
Continuous
 62
     7
100
AcDbLine
 10
-270.9724420382922
 20
126.67667394876
 30
0.0
 11
-271.5781633278026
 21
126.0357759500814
 31
0.0
  0
LINE
  5
98
330
1F
100
AcDbEntity
  8
1
  6
Continuous
 62
     7
100
AcDbLine
 10
-272.1276858093956
 20
126.3765646781395
 30
0.0
 11
-272.1116842081725
 21
126.391188806274
 31
0.0
  0
LINE
  5
99
330
1F
100
AcDbEntity
  8
1
  6
Continuous
 62
     7
100
AcDbLine
 10
-272.1116842081725
 20
126.391188806274
 30
0.0
 11
-271.486787810717
 21
127.1910197211849
 31
0.0
  0
LINE
  5
9A
330
1F
100
AcDbEntity
  8
1
  6
Continuous
 62
     7
100
AcDbLine
 10
-271.486787810717
 20
127.1910197211849
 30
0.0
 11
-272.1276858093956
 21
126.5852984316745
 31
0.0
  0
LINE
  5
9B
330
1F
100
AcDbEntity
  8
1
  6
Continuous
 62
     7
100
AcDbLine
 10
-272.5876858093957
 20
126.3765646781395
 30
0.0
 11
-272.6036874106188
 21
126.391188806274
 31
0.0
  0
LINE
  5
9C
330
1F
100
AcDbEntity
  8
1
  6
Continuous
 62
     7
100
AcDbLine
 10
-272.6036874106188
 20
126.391188806274
 30
0.0
 11
-273.2285838080743
 21
127.1910197211849
 31
0.0
  0
LINE
  5
9D
330
1F
100
AcDbEntity
  8
1
  6
Continuous
 62
     7
100
AcDbLine
 10
-273.2285838080743
 20
127.1910197211849
 30
0.0
 11
-272.5876858093957
 21
126.5852984316745
 31
0.0
  0
LINE
  5
9E
330
1F
100
AcDbEntity
  8
1
  6
Continuous
 62
     7
100
AcDbLine
 10
-272.9284745374539
 20
126.0357759500814
 30
0.0
 11
-272.9430986655883
 21
126.0517775513045
 31
0.0
  0
LINE
  5
9F
330
1F
100
AcDbEntity
  8
1
  6
Continuous
 62
     7
100
AcDbLine
 10
-272.9430986655883
 20
126.0517775513045
 30
0.0
 11
-273.7429295804992
 21
126.67667394876
 31
0.0
  0
LINE
  5
A0
330
1F
100
AcDbEntity
  8
1
  6
Continuous
 62
     7
100
AcDbLine
 10
-273.7429295804992
 20
126.67667394876
 30
0.0
 11
-273.1372082909888
 21
126.0357759500814
 31
0.0
  0
LINE
  5
A1
330
1F
100
AcDbEntity
  8
1
  6
Continuous
 62
     7
100
AcDbLine
 10
-272.9284745374539
 20
125.5757759500814
 30
0.0
 11
-272.9430986655883
 21
125.5597743488582
 31
0.0
  0
LINE
  5
A2
330
1F
100
AcDbEntity
  8
1
  6
Continuous
 62
     7
100
AcDbLine
 10
-272.9430986655883
 20
125.5597743488582
 30
0.0
 11
-273.7429295804992
 21
124.9348779514027
 31
0.0
  0
LINE
  5
A3
330
1F
100
AcDbEntity
  8
1
  6
Continuous
 62
     7
100
AcDbLine
 10
-273.7429295804992
 20
124.9348779514027
 30
0.0
 11
-273.1372082909888
 21
125.5757759500814
 31
0.0
  0
LINE
  5
A4
330
1F
100
AcDbEntity
  8
1
  6
Continuous
 62
     7
100
AcDbLine
 10
-273.2285838080743
 20
91.90639133997615
 30
0.0
 11
-272.5876858093957
 21
91.30067005046578
 31
0.0
  0
LINE
  5
A5
330
1F
100
AcDbEntity
  8
1
  6
Continuous
 62
     7
100
AcDbLine
 10
-272.6036874106188
 20
91.10656042506531
 30
0.0
 11
-273.2285838080743
 21
91.90639133997615
 31
0.0
  0
LINE
  5
A6
330
1F
100
AcDbEntity
  8
1
  6
Continuous
 62
     7
100
AcDbLine
 10
-272.5876858093957
 20
91.09193629693084
 30
0.0
 11
-272.6036874106188
 21
91.10656042506531
 31
0.0
  0
LINE
  5
A7
330
1F
100
AcDbEntity
  8
1
  6
Continuous
 62
     7
100
AcDbLine
 10
-271.486787810717
 20
91.90639133997615
 30
0.0
 11
-272.1276858093956
 21
91.30067005046578
 31
0.0
  0
LINE
  5
A8
330
1F
100
AcDbEntity
  8
1
  6
Continuous
 62
     7
100
AcDbLine
 10
-272.1116842081725
 20
91.10656042506531
 30
0.0
 11
-271.486787810717
 21
91.90639133997615
 31
0.0
  0
LINE
  5
A9
330
1F
100
AcDbEntity
  8
1
  6
Continuous
 62
     7
100
AcDbLine
 10
-272.1276858093956
 20
91.09193629693084
 30
0.0
 11
-272.1116842081725
 21
91.10656042506531
 31
0.0
  0
LINE
  5
AA
330
1F
100
AcDbEntity
  8
1
  6
Continuous
 62
     7
100
AcDbLine
 10
-270.9724420382922
 20
91.39204556755129
 30
0.0
 11
-271.5781633278026
 21
90.75114756887268
 31
0.0
  0
LINE
  5
AB
330
1F
100
AcDbEntity
  8
1
  6
Continuous
 62
     7
100
AcDbLine
 10
-271.772272953203
 20
90.76714917009576
 30
0.0
 11
-270.9724420382922
 21
91.39204556755129
 31
0.0
  0
LINE
  5
AC
330
1F
100
AcDbEntity
  8
1
  6
Continuous
 62
     7
100
AcDbLine
 10
-271.7868970813375
 20
90.75114756887268
 30
0.0
 11
-271.772272953203
 21
90.76714917009576
 31
0.0
  0
LINE
  5
AD
330
1F
100
AcDbEntity
  8
1
  6
Continuous
 62
     7
100
AcDbLine
 10
-270.9724420382922
 20
89.65024957019398
 30
0.0
 11
-271.5781633278026
 21
90.29114756887265
 31
0.0
  0
LINE
  5
AE
330
1F
100
AcDbEntity
  8
1
  6
Continuous
 62
     7
100
AcDbLine
 10
-271.772272953203
 20
90.27514596764951
 30
0.0
 11
-270.9724420382922
 21
89.65024957019398
 31
0.0
  0
LINE
  5
AF
330
1F
100
AcDbEntity
  8
1
  6
Continuous
 62
     7
100
AcDbLine
 10
-271.7868970813375
 20
90.29114756887265
 30
0.0
 11
-271.772272953203
 21
90.27514596764951
 31
0.0
  0
LINE
  5
B0
330
1F
100
AcDbEntity
  8
1
  6
Continuous
 62
     7
100
AcDbLine
 10
-271.486787810717
 20
89.13590379776917
 30
0.0
 11
-272.1276858093956
 21
89.74162508727954
 31
0.0
  0
LINE
  5
B1
330
1F
100
AcDbEntity
  8
1
  6
Continuous
 62
     7
100
AcDbLine
 10
-272.1116842081725
 20
89.93573471268002
 30
0.0
 11
-271.486787810717
 21
89.13590379776917
 31
0.0
  0
LINE
  5
B2
330
1F
100
AcDbEntity
  8
1
  6
Continuous
 62
     7
100
AcDbLine
 10
-272.1276858093956
 20
89.95035884081449
 30
0.0
 11
-272.1116842081725
 21
89.93573471268002
 31
0.0
  0
LINE
  5
B3
330
1F
100
AcDbEntity
  8
1
  6
Continuous
 62
     7
100
AcDbLine
 10
-273.2285838080743
 20
89.13590379776917
 30
0.0
 11
-272.5876858093957
 21
89.74162508727954
 31
0.0
  0
LINE
  5
B4
330
1F
100
AcDbEntity
  8
1
  6
Continuous
 62
     7
100
AcDbLine
 10
-272.6036874106188
 20
89.93573471268002
 30
0.0
 11
-273.2285838080743
 21
89.13590379776917
 31
0.0
  0
LINE
  5
B5
330
1F
100
AcDbEntity
  8
1
  6
Continuous
 62
     7
100
AcDbLine
 10
-272.5876858093957
 20
89.95035884081449
 30
0.0
 11
-272.6036874106188
 21
89.93573471268002
 31
0.0
  0
LINE
  5
B6
330
1F
100
AcDbEntity
  8
1
  6
Continuous
 62
     7
100
AcDbLine
 10
-273.7429295804992
 20
89.65024957019403
 30
0.0
 11
-273.1372082909888
 21
90.29114756887265
 31
0.0
  0
LINE
  5
B7
330
1F
100
AcDbEntity
  8
1
  6
Continuous
 62
     7
100
AcDbLine
 10
-272.9430986655883
 20
90.27514596764956
 30
0.0
 11
-273.7429295804992
 21
89.65024957019403
 31
0.0
  0
LINE
  5
B8
330
1F
100
AcDbEntity
  8
1
  6
Continuous
 62
     7
100
AcDbLine
 10
-272.9284745374538
 20
90.29114756887265
 30
0.0
 11
-272.9430986655883
 21
90.27514596764956
 31
0.0
  0
LINE
  5
B9
330
1F
100
AcDbEntity
  8
1
  6
Continuous
 62
     7
100
AcDbLine
 10
-273.7429295804992
 20
91.39204556755135
 30
0.0
 11
-273.1372082909888
 21
90.75114756887268
 31
0.0
  0
LINE
  5
BA
330
1F
100
AcDbEntity
  8
1
  6
Continuous
 62
     7
100
AcDbLine
 10
-272.9430986655883
 20
90.76714917009582
 30
0.0
 11
-273.7429295804992
 21
91.39204556755135
 31
0.0
  0
LINE
  5
BB
330
1F
100
AcDbEntity
  8
1
  6
Continuous
 62
     7
100
AcDbLine
 10
-272.9284745374538
 20
90.75114756887268
 30
0.0
 11
-272.9430986655883
 21
90.76714917009582
 31
0.0
  0
LINE
  5
BC
330
1F
100
AcDbEntity
  8
1
  6
Continuous
 62
     7
100
AcDbLine
 10
-272.5876858093957
 20
91.30067005046578
 30
0.0
 11
-272.3576858093957
 21
91.21238132240762
 31
0.0
  0
LINE
  5
BD
330
1F
100
AcDbEntity
  8
1
  6
Continuous
 62
     7
100
AcDbLine
 10
-272.5876858093957
 20
91.09193629693084
 30
0.0
 11
-272.5876858093957
 21
91.30067005046578
 31
0.0
  0
LINE
  5
BE
330
1F
100
AcDbEntity
  8
1
  6
Continuous
 62
     7
100
AcDbLine
 10
-272.3576858093957
 20
91.00364756887268
 30
0.0
 11
-272.5876858093957
 21
91.09193629693084
 31
0.0
  0
LINE
  5
BF
330
1F
100
AcDbEntity
  8
1
  6
Continuous
 62
     7
100
AcDbLine
 10
-272.3576858093957
 20
91.21238132240762
 30
0.0
 11
-272.3576858093957
 21
91.00364756887268
 31
0.0
  0
LINE
  5
C0
330
1F
100
AcDbEntity
  8
1
  6
Continuous
 62
     7
100
AcDbLine
 10
-272.1276858093956
 20
91.30067005046578
 30
0.0
 11
-272.3576858093957
 21
91.21238132240762
 31
0.0
  0
LINE
  5
C1
330
1F
100
AcDbEntity
  8
1
  6
Continuous
 62
     7
100
AcDbLine
 10
-272.1276858093956
 20
91.09193629693084
 30
0.0
 11
-272.1276858093956
 21
91.30067005046578
 31
0.0
  0
LINE
  5
C2
330
1F
100
AcDbEntity
  8
1
  6
Continuous
 62
     7
100
AcDbLine
 10
-272.3576858093957
 20
91.00364756887268
 30
0.0
 11
-272.1276858093956
 21
91.09193629693084
 31
0.0
  0
LINE
  5
C3
330
1F
100
AcDbEntity
  8
1
  6
Continuous
 62
     7
100
AcDbLine
 10
-271.5781633278026
 20
90.75114756887268
 30
0.0
 11
-271.6664520558606
 21
90.52114756887266
 31
0.0
  0
LINE
  5
C4
330
1F
100
AcDbEntity
  8
1
  6
Continuous
 62
     7
100
AcDbLine
 10
-271.7868970813375
 20
90.75114756887268
 30
0.0
 11
-271.5781633278026
 21
90.75114756887268
 31
0.0
  0
LINE
  5
C5
330
1F
100
AcDbEntity
  8
1
  6
Continuous
 62
     7
100
AcDbLine
 10
-271.8751858093957
 20
90.52114756887266
 30
0.0
 11
-271.7868970813375
 21
90.75114756887268
 31
0.0
  0
LINE
  5
C6
330
1F
100
AcDbEntity
  8
1
  6
Continuous
 62
     7
100
AcDbLine
 10
-271.6664520558606
 20
90.52114756887266
 30
0.0
 11
-271.8751858093957
 21
90.52114756887266
 31
0.0
  0
LINE
  5
C7
330
1F
100
AcDbEntity
  8
1
  6
Continuous
 62
     7
100
AcDbLine
 10
-271.5781633278026
 20
90.29114756887265
 30
0.0
 11
-271.6664520558606
 21
90.52114756887266
 31
0.0
  0
LINE
  5
C8
330
1F
100
AcDbEntity
  8
1
  6
Continuous
 62
     7
100
AcDbLine
 10
-271.7868970813375
 20
90.29114756887265
 30
0.0
 11
-271.5781633278026
 21
90.29114756887265
 31
0.0
  0
LINE
  5
C9
330
1F
100
AcDbEntity
  8
1
  6
Continuous
 62
     7
100
AcDbLine
 10
-271.8751858093957
 20
90.52114756887266
 30
0.0
 11
-271.7868970813375
 21
90.29114756887265
 31
0.0
  0
LINE
  5
CA
330
1F
100
AcDbEntity
  8
1
  6
Continuous
 62
     7
100
AcDbLine
 10
-272.1276858093956
 20
89.74162508727954
 30
0.0
 11
-272.3576858093957
 21
89.8299138153377
 31
0.0
  0
LINE
  5
CB
330
1F
100
AcDbEntity
  8
1
  6
Continuous
 62
     7
100
AcDbLine
 10
-272.1276858093956
 20
89.95035884081449
 30
0.0
 11
-272.1276858093956
 21
89.74162508727954
 31
0.0
  0
LINE
  5
CC
330
1F
100
AcDbEntity
  8
1
  6
Continuous
 62
     7
100
AcDbLine
 10
-272.3576858093957
 20
90.03864756887265
 30
0.0
 11
-272.1276858093956
 21
89.95035884081449
 31
0.0
  0
LINE
  5
CD
330
1F
100
AcDbEntity
  8
1
  6
Continuous
 62
     7
100
AcDbLine
 10
-272.3576858093957
 20
89.8299138153377
 30
0.0
 11
-272.3576858093957
 21
90.03864756887265
 31
0.0
  0
LINE
  5
CE
330
1F
100
AcDbEntity
  8
1
  6
Continuous
 62
     7
100
AcDbLine
 10
-272.5876858093957
 20
89.74162508727954
 30
0.0
 11
-272.3576858093957
 21
89.8299138153377
 31
0.0
  0
LINE
  5
CF
330
1F
100
AcDbEntity
  8
1
  6
Continuous
 62
     7
100
AcDbLine
 10
-272.5876858093957
 20
89.95035884081449
 30
0.0
 11
-272.5876858093957
 21
89.74162508727954
 31
0.0
  0
LINE
  5
D0
330
1F
100
AcDbEntity
  8
1
  6
Continuous
 62
     7
100
AcDbLine
 10
-272.3576858093957
 20
90.03864756887265
 30
0.0
 11
-272.5876858093957
 21
89.95035884081449
 31
0.0
  0
LINE
  5
D1
330
1F
100
AcDbEntity
  8
1
  6
Continuous
 62
     7
100
AcDbLine
 10
-273.1372082909888
 20
90.29114756887265
 30
0.0
 11
-273.0489195629306
 21
90.52114756887266
 31
0.0
  0
LINE
  5
D2
330
1F
100
AcDbEntity
  8
1
  6
Continuous
 62
     7
100
AcDbLine
 10
-272.9284745374538
 20
90.29114756887265
 30
0.0
 11
-273.1372082909888
 21
90.29114756887265
 31
0.0
  0
LINE
  5
D3
330
1F
100
AcDbEntity
  8
1
  6
Continuous
 62
     7
100
AcDbLine
 10
-272.8401858093957
 20
90.52114756887266
 30
0.0
 11
-272.9284745374538
 21
90.29114756887265
 31
0.0
  0
LINE
  5
D4
330
1F
100
AcDbEntity
  8
1
  6
Continuous
 62
     7
100
AcDbLine
 10
-273.0489195629306
 20
90.52114756887266
 30
0.0
 11
-272.8401858093957
 21
90.52114756887266
 31
0.0
  0
LINE
  5
D5
330
1F
100
AcDbEntity
  8
1
  6
Continuous
 62
     7
100
AcDbLine
 10
-273.1372082909888
 20
90.75114756887268
 30
0.0
 11
-273.0489195629306
 21
90.52114756887266
 31
0.0
  0
LINE
  5
D6
330
1F
100
AcDbEntity
  8
1
  6
Continuous
 62
     7
100
AcDbLine
 10
-272.9284745374538
 20
90.75114756887268
 30
0.0
 11
-273.1372082909888
 21
90.75114756887268
 31
0.0
  0
LINE
  5
D7
330
1F
100
AcDbEntity
  8
1
  6
Continuous
 62
     7
100
AcDbLine
 10
-272.8401858093957
 20
90.52114756887266
 30
0.0
 11
-272.9284745374538
 21
90.75114756887268
 31
0.0
  0
LINE
  5
D8
330
1F
100
AcDbEntity
  8
1
  6
Continuous
 62
     7
100
AcDbLine
 10
-307.6423141906044
 20
91.00364756887265
 30
0.0
 11
-307.4123141906043
 21
91.0919362969308
 31
0.0
  0
LINE
  5
D9
330
1F
100
AcDbEntity
  8
1
  6
Continuous
 62
     7
100
AcDbLine
 10
-307.4123141906043
 20
91.0919362969308
 30
0.0
 11
-307.4123141906043
 21
91.30067005046574
 31
0.0
  0
LINE
  5
DA
330
1F
100
AcDbEntity
  8
1
  6
Continuous
 62
     7
100
AcDbLine
 10
-307.4123141906043
 20
91.30067005046574
 30
0.0
 11
-307.6423141906044
 21
91.2123813224076
 31
0.0
  0
LINE
  5
DB
330
1F
100
AcDbEntity
  8
1
  6
Continuous
 62
     7
100
AcDbLine
 10
-307.6423141906044
 20
91.2123813224076
 30
0.0
 11
-307.6423141906044
 21
91.00364756887265
 31
0.0
  0
LINE
  5
DC
330
1F
100
AcDbEntity
  8
1
  6
Continuous
 62
     7
100
AcDbLine
 10
-307.6423141906044
 20
91.00364756887265
 30
0.0
 11
-307.8723141906044
 21
91.0919362969308
 31
0.0
  0
LINE
  5
DD
330
1F
100
AcDbEntity
  8
1
  6
Continuous
 62
     7
100
AcDbLine
 10
-307.8723141906044
 20
91.0919362969308
 30
0.0
 11
-307.8723141906044
 21
91.30067005046574
 31
0.0
  0
LINE
  5
DE
330
1F
100
AcDbEntity
  8
1
  6
Continuous
 62
     7
100
AcDbLine
 10
-307.8723141906044
 20
91.30067005046574
 30
0.0
 11
-307.6423141906044
 21
91.2123813224076
 31
0.0
  0
LINE
  5
DF
330
1F
100
AcDbEntity
  8
1
  6
Continuous
 62
     7
100
AcDbLine
 10
-308.1248141906044
 20
90.52114756887265
 30
0.0
 11
-308.2131029186625
 21
90.75114756887265
 31
0.0
  0
LINE
  5
E0
330
1F
100
AcDbEntity
  8
1
  6
Continuous
 62
     7
100
AcDbLine
 10
-308.2131029186625
 20
90.75114756887265
 30
0.0
 11
-308.4218366721975
 21
90.75114756887265
 31
0.0
  0
LINE
  5
E1
330
1F
100
AcDbEntity
  8
1
  6
Continuous
 62
     7
100
AcDbLine
 10
-308.4218366721975
 20
90.75114756887265
 30
0.0
 11
-308.3335479441393
 21
90.52114756887265
 31
0.0
  0
LINE
  5
E2
330
1F
100
AcDbEntity
  8
1
  6
Continuous
 62
     7
100
AcDbLine
 10
-308.3335479441393
 20
90.52114756887265
 30
0.0
 11
-308.1248141906044
 21
90.52114756887265
 31
0.0
  0
LINE
  5
E3
330
1F
100
AcDbEntity
  8
1
  6
Continuous
 62
     7
100
AcDbLine
 10
-308.1248141906044
 20
90.52114756887265
 30
0.0
 11
-308.2131029186625
 21
90.29114756887265
 31
0.0
  0
LINE
  5
E4
330
1F
100
AcDbEntity
  8
1
  6
Continuous
 62
     7
100
AcDbLine
 10
-308.2131029186625
 20
90.29114756887265
 30
0.0
 11
-308.4218366721975
 21
90.29114756887265
 31
0.0
  0
LINE
  5
E5
330
1F
100
AcDbEntity
  8
1
  6
Continuous
 62
     7
100
AcDbLine
 10
-308.4218366721975
 20
90.29114756887265
 30
0.0
 11
-308.3335479441393
 21
90.52114756887265
 31
0.0
  0
LINE
  5
E6
330
1F
100
AcDbEntity
  8
1
  6
Continuous
 62
     7
100
AcDbLine
 10
-307.6423141906044
 20
90.03864756887265
 30
0.0
 11
-307.8723141906044
 21
89.9503588408145
 31
0.0
  0
LINE
  5
E7
330
1F
100
AcDbEntity
  8
1
  6
Continuous
 62
     7
100
AcDbLine
 10
-307.8723141906044
 20
89.9503588408145
 30
0.0
 11
-307.8723141906044
 21
89.74162508727956
 31
0.0
  0
LINE
  5
E8
330
1F
100
AcDbEntity
  8
1
  6
Continuous
 62
     7
100
AcDbLine
 10
-307.8723141906044
 20
89.74162508727956
 30
0.0
 11
-307.6423141906044
 21
89.8299138153377
 31
0.0
  0
LINE
  5
E9
330
1F
100
AcDbEntity
  8
1
  6
Continuous
 62
     7
100
AcDbLine
 10
-307.6423141906044
 20
89.8299138153377
 30
0.0
 11
-307.6423141906044
 21
90.03864756887265
 31
0.0
  0
LINE
  5
EA
330
1F
100
AcDbEntity
  8
1
  6
Continuous
 62
     7
100
AcDbLine
 10
-307.6423141906044
 20
90.03864756887265
 30
0.0
 11
-307.4123141906043
 21
89.9503588408145
 31
0.0
  0
LINE
  5
EB
330
1F
100
AcDbEntity
  8
1
  6
Continuous
 62
     7
100
AcDbLine
 10
-307.4123141906043
 20
89.9503588408145
 30
0.0
 11
-307.4123141906043
 21
89.74162508727956
 31
0.0
  0
LINE
  5
EC
330
1F
100
AcDbEntity
  8
1
  6
Continuous
 62
     7
100
AcDbLine
 10
-307.4123141906043
 20
89.74162508727956
 30
0.0
 11
-307.6423141906044
 21
89.8299138153377
 31
0.0
  0
LINE
  5
ED
330
1F
100
AcDbEntity
  8
1
  6
Continuous
 62
     7
100
AcDbLine
 10
-307.1598141906043
 20
90.52114756887265
 30
0.0
 11
-307.0715254625462
 21
90.29114756887265
 31
0.0
  0
LINE
  5
EE
330
1F
100
AcDbEntity
  8
1
  6
Continuous
 62
     7
100
AcDbLine
 10
-307.0715254625462
 20
90.29114756887265
 30
0.0
 11
-306.8627917090112
 21
90.29114756887265
 31
0.0
  0
LINE
  5
EF
330
1F
100
AcDbEntity
  8
1
  6
Continuous
 62
     7
100
AcDbLine
 10
-306.8627917090112
 20
90.29114756887265
 30
0.0
 11
-306.9510804370694
 21
90.52114756887265
 31
0.0
  0
LINE
  5
F0
330
1F
100
AcDbEntity
  8
1
  6
Continuous
 62
     7
100
AcDbLine
 10
-306.9510804370694
 20
90.52114756887265
 30
0.0
 11
-307.1598141906043
 21
90.52114756887265
 31
0.0
  0
LINE
  5
F1
330
1F
100
AcDbEntity
  8
1
  6
Continuous
 62
     7
100
AcDbLine
 10
-307.1598141906043
 20
90.52114756887265
 30
0.0
 11
-307.0715254625462
 21
90.75114756887265
 31
0.0
  0
LINE
  5
F2
330
1F
100
AcDbEntity
  8
1
  6
Continuous
 62
     7
100
AcDbLine
 10
-307.0715254625462
 20
90.75114756887265
 30
0.0
 11
-306.8627917090112
 21
90.75114756887265
 31
0.0
  0
LINE
  5
F3
330
1F
100
AcDbEntity
  8
1
  6
Continuous
 62
     7
100
AcDbLine
 10
-306.8627917090112
 20
90.75114756887265
 30
0.0
 11
-306.9510804370694
 21
90.52114756887265
 31
0.0
  0
LINE
  5
F4
330
1F
100
AcDbEntity
  8
1
  6
Continuous
 62
     7
100
AcDbLine
 10
-307.4123141906043
 20
91.0919362969308
 30
0.0
 11
-307.3963125893812
 21
91.10656042506533
 31
0.0
  0
LINE
  5
F5
330
1F
100
AcDbEntity
  8
1
  6
Continuous
 62
     7
100
AcDbLine
 10
-307.3963125893812
 20
91.10656042506533
 30
0.0
 11
-306.7714161919257
 21
91.90639133997615
 31
0.0
  0
LINE
  5
F6
330
1F
100
AcDbEntity
  8
1
  6
Continuous
 62
     7
100
AcDbLine
 10
-306.7714161919257
 20
91.90639133997615
 30
0.0
 11
-307.4123141906043
 21
91.30067005046574
 31
0.0
  0
LINE
  5
F7
330
1F
100
AcDbEntity
  8
1
  6
Continuous
 62
     7
100
AcDbLine
 10
-307.8723141906044
 20
91.0919362969308
 30
0.0
 11
-307.8883157918275
 21
91.10656042506533
 31
0.0
  0
LINE
  5
F8
330
1F
100
AcDbEntity
  8
1
  6
Continuous
 62
     7
100
AcDbLine
 10
-307.8883157918275
 20
91.10656042506533
 30
0.0
 11
-308.513212189283
 21
91.90639133997615
 31
0.0
  0
LINE
  5
F9
330
1F
100
AcDbEntity
  8
1
  6
Continuous
 62
     7
100
AcDbLine
 10
-308.513212189283
 20
91.90639133997615
 30
0.0
 11
-307.8723141906044
 21
91.30067005046574
 31
0.0
  0
LINE
  5
FA
330
1F
100
AcDbEntity
  8
1
  6
Continuous
 62
     7
100
AcDbLine
 10
-308.2131029186625
 20
90.75114756887265
 30
0.0
 11
-308.227727046797
 21
90.76714917009578
 31
0.0
  0
LINE
  5
FB
330
1F
100
AcDbEntity
  8
1
  6
Continuous
 62
     7
100
AcDbLine
 10
-308.227727046797
 20
90.76714917009578
 30
0.0
 11
-309.0275579617079
 21
91.39204556755132
 31
0.0
  0
LINE
  5
FC
330
1F
100
AcDbEntity
  8
1
  6
Continuous
 62
     7
100
AcDbLine
 10
-309.0275579617079
 20
91.39204556755132
 30
0.0
 11
-308.4218366721975
 21
90.75114756887265
 31
0.0
  0
LINE
  5
FD
330
1F
100
AcDbEntity
  8
1
  6
Continuous
 62
     7
100
AcDbLine
 10
-308.2131029186625
 20
90.29114756887265
 30
0.0
 11
-308.227727046797
 21
90.27514596764952
 31
0.0
  0
LINE
  5
FE
330
1F
100
AcDbEntity
  8
1
  6
Continuous
 62
     7
100
AcDbLine
 10
-308.227727046797
 20
90.27514596764952
 30
0.0
 11
-309.0275579617079
 21
89.65024957019398
 31
0.0
  0
LINE
  5
FF
330
1F
100
AcDbEntity
  8
1
  6
Continuous
 62
     7
100
AcDbLine
 10
-309.0275579617079
 20
89.65024957019398
 30
0.0
 11
-308.4218366721975
 21
90.29114756887265
 31
0.0
  0
LINE
  5
100
330
1F
100
AcDbEntity
  8
1
  6
Continuous
 62
     7
100
AcDbLine
 10
-307.8723141906044
 20
89.9503588408145
 30
0.0
 11
-307.8883157918275
 21
89.93573471267997
 31
0.0
  0
LINE
  5
101
330
1F
100
AcDbEntity
  8
1
  6
Continuous
 62
     7
100
AcDbLine
 10
-307.8883157918275
 20
89.93573471267997
 30
0.0
 11
-308.5132121892831
 21
89.13590379776915
 31
0.0
  0
LINE
  5
102
330
1F
100
AcDbEntity
  8
1
  6
Continuous
 62
     7
100
AcDbLine
 10
-308.5132121892831
 20
89.13590379776915
 30
0.0
 11
-307.8723141906044
 21
89.74162508727956
 31
0.0
  0
LINE
  5
103
330
1F
100
AcDbEntity
  8
1
  6
Continuous
 62
     7
100
AcDbLine
 10
-307.4123141906043
 20
89.9503588408145
 30
0.0
 11
-307.3963125893813
 21
89.93573471267997
 31
0.0
  0
LINE
  5
104
330
1F
100
AcDbEntity
  8
1
  6
Continuous
 62
     7
100
AcDbLine
 10
-307.3963125893813
 20
89.93573471267997
 30
0.0
 11
-306.7714161919257
 21
89.13590379776915
 31
0.0
  0
LINE
  5
105
330
1F
100
AcDbEntity
  8
1
  6
Continuous
 62
     7
100
AcDbLine
 10
-306.7714161919257
 20
89.13590379776915
 30
0.0
 11
-307.4123141906043
 21
89.74162508727956
 31
0.0
  0
LINE
  5
106
330
1F
100
AcDbEntity
  8
1
  6
Continuous
 62
     7
100
AcDbLine
 10
-307.0715254625462
 20
90.29114756887265
 30
0.0
 11
-307.0569013344117
 21
90.27514596764952
 31
0.0
  0
LINE
  5
107
330
1F
100
AcDbEntity
  8
1
  6
Continuous
 62
     7
100
AcDbLine
 10
-307.0569013344117
 20
90.27514596764952
 30
0.0
 11
-306.2570704195008
 21
89.65024957019398
 31
0.0
  0
LINE
  5
108
330
1F
100
AcDbEntity
  8
1
  6
Continuous
 62
     7
100
AcDbLine
 10
-306.2570704195008
 20
89.65024957019398
 30
0.0
 11
-306.8627917090112
 21
90.29114756887265
 31
0.0
  0
LINE
  5
109
330
1F
100
AcDbEntity
  8
1
  6
Continuous
 62
     7
100
AcDbLine
 10
-307.0715254625462
 20
90.75114756887265
 30
0.0
 11
-307.0569013344117
 21
90.76714917009578
 31
0.0
  0
LINE
  5
10A
330
1F
100
AcDbEntity
  8
1
  6
Continuous
 62
     7
100
AcDbLine
 10
-307.0569013344117
 20
90.76714917009578
 30
0.0
 11
-306.2570704195008
 21
91.39204556755132
 31
0.0
  0
LINE
  5
10B
330
1F
100
AcDbEntity
  8
1
  6
Continuous
 62
     7
100
AcDbLine
 10
-306.2570704195008
 20
91.39204556755132
 30
0.0
 11
-306.8627917090112
 21
90.75114756887265
 31
0.0
  0
LINE
  5
10C
330
1F
100
AcDbEntity
  8
1
  6
Continuous
 62
     7
100
AcDbLine
 10
-306.7714161919257
 20
124.4205321789779
 30
0.0
 11
-307.4123141906043
 21
125.0262534684882
 31
0.0
  0
LINE
  5
10D
330
1F
100
AcDbEntity
  8
1
  6
Continuous
 62
     7
100
AcDbLine
 10
-307.3963125893813
 20
125.2203630938887
 30
0.0
 11
-306.7714161919257
 21
124.4205321789779
 31
0.0
  0
LINE
  5
10E
330
1F
100
AcDbEntity
  8
1
  6
Continuous
 62
     7
100
AcDbLine
 10
-307.4123141906043
 20
125.2349872220232
 30
0.0
 11
-307.3963125893813
 21
125.2203630938887
 31
0.0
  0
LINE
  5
10F
330
1F
100
AcDbEntity
  8
1
  6
Continuous
 62
     7
100
AcDbLine
 10
-308.5132121892831
 20
124.4205321789779
 30
0.0
 11
-307.8723141906044
 21
125.0262534684882
 31
0.0
  0
LINE
  5
110
330
1F
100
AcDbEntity
  8
1
  6
Continuous
 62
     7
100
AcDbLine
 10
-307.8883157918275
 20
125.2203630938887
 30
0.0
 11
-308.5132121892831
 21
124.4205321789779
 31
0.0
  0
LINE
  5
111
330
1F
100
AcDbEntity
  8
1
  6
Continuous
 62
     7
100
AcDbLine
 10
-307.8723141906044
 20
125.2349872220232
 30
0.0
 11
-307.8883157918275
 21
125.2203630938887
 31
0.0
  0
LINE
  5
112
330
1F
100
AcDbEntity
  8
1
  6
Continuous
 62
     7
100
AcDbLine
 10
-309.0275579617079
 20
124.9348779514027
 30
0.0
 11
-308.4218366721975
 21
125.5757759500813
 31
0.0
  0
LINE
  5
113
330
1F
100
AcDbEntity
  8
1
  6
Continuous
 62
     7
100
AcDbLine
 10
-308.2277270467971
 20
125.5597743488583
 30
0.0
 11
-309.0275579617079
 21
124.9348779514027
 31
0.0
  0
LINE
  5
114
330
1F
100
AcDbEntity
  8
1
  6
Continuous
 62
     7
100
AcDbLine
 10
-308.2131029186625
 20
125.5757759500813
 30
0.0
 11
-308.2277270467971
 21
125.5597743488583
 31
0.0
  0
LINE
  5
115
330
1F
100
AcDbEntity
  8
1
  6
Continuous
 62
     7
100
AcDbLine
 10
-309.0275579617079
 20
126.67667394876
 30
0.0
 11
-308.4218366721975
 21
126.0357759500814
 31
0.0
  0
LINE
  5
116
330
1F
100
AcDbEntity
  8
1
  6
Continuous
 62
     7
100
AcDbLine
 10
-308.2277270467971
 20
126.0517775513045
 30
0.0
 11
-309.0275579617079
 21
126.67667394876
 31
0.0
  0
LINE
  5
117
330
1F
100
AcDbEntity
  8
1
  6
Continuous
 62
     7
100
AcDbLine
 10
-308.2131029186625
 20
126.0357759500814
 30
0.0
 11
-308.2277270467971
 21
126.0517775513045
 31
0.0
  0
LINE
  5
118
330
1F
100
AcDbEntity
  8
1
  6
Continuous
 62
     7
100
AcDbLine
 10
-308.5132121892831
 20
127.1910197211848
 30
0.0
 11
-307.8723141906044
 21
126.5852984316745
 31
0.0
  0
LINE
  5
119
330
1F
100
AcDbEntity
  8
1
  6
Continuous
 62
     7
100
AcDbLine
 10
-307.8883157918275
 20
126.391188806274
 30
0.0
 11
-308.5132121892831
 21
127.1910197211848
 31
0.0
  0
LINE
  5
11A
330
1F
100
AcDbEntity
  8
1
  6
Continuous
 62
     7
100
AcDbLine
 10
-307.8723141906044
 20
126.3765646781395
 30
0.0
 11
-307.8883157918275
 21
126.391188806274
 31
0.0
  0
LINE
  5
11B
330
1F
100
AcDbEntity
  8
1
  6
Continuous
 62
     7
100
AcDbLine
 10
-306.7714161919257
 20
127.1910197211848
 30
0.0
 11
-307.4123141906043
 21
126.5852984316745
 31
0.0
  0
LINE
  5
11C
330
1F
100
AcDbEntity
  8
1
  6
Continuous
 62
     7
100
AcDbLine
 10
-307.3963125893813
 20
126.391188806274
 30
0.0
 11
-306.7714161919257
 21
127.1910197211848
 31
0.0
  0
LINE
  5
11D
330
1F
100
AcDbEntity
  8
1
  6
Continuous
 62
     7
100
AcDbLine
 10
-307.4123141906043
 20
126.3765646781395
 30
0.0
 11
-307.3963125893813
 21
126.391188806274
 31
0.0
  0
LINE
  5
11E
330
1F
100
AcDbEntity
  8
1
  6
Continuous
 62
     7
100
AcDbLine
 10
-306.2570704195008
 20
126.67667394876
 30
0.0
 11
-306.8627917090113
 21
126.0357759500814
 31
0.0
  0
LINE
  5
11F
330
1F
100
AcDbEntity
  8
1
  6
Continuous
 62
     7
100
AcDbLine
 10
-307.0569013344117
 20
126.0517775513045
 30
0.0
 11
-306.2570704195008
 21
126.67667394876
 31
0.0
  0
LINE
  5
120
330
1F
100
AcDbEntity
  8
1
  6
Continuous
 62
     7
100
AcDbLine
 10
-307.0715254625462
 20
126.0357759500814
 30
0.0
 11
-307.0569013344117
 21
126.0517775513045
 31
0.0
  0
LINE
  5
121
330
1F
100
AcDbEntity
  8
1
  6
Continuous
 62
     7
100
AcDbLine
 10
-306.2570704195008
 20
124.9348779514027
 30
0.0
 11
-306.8627917090113
 21
125.5757759500813
 31
0.0
  0
LINE
  5
122
330
1F
100
AcDbEntity
  8
1
  6
Continuous
 62
     7
100
AcDbLine
 10
-307.0569013344117
 20
125.5597743488582
 30
0.0
 11
-306.2570704195008
 21
124.9348779514027
 31
0.0
  0
LINE
  5
123
330
1F
100
AcDbEntity
  8
1
  6
Continuous
 62
     7
100
AcDbLine
 10
-307.0715254625462
 20
125.5757759500813
 30
0.0
 11
-307.0569013344117
 21
125.5597743488582
 31
0.0
  0
LINE
  5
124
330
1F
100
AcDbEntity
  8
1
  6
Continuous
 62
     7
100
AcDbLine
 10
-307.4123141906043
 20
125.0262534684882
 30
0.0
 11
-307.6423141906044
 21
125.1145421965464
 31
0.0
  0
LINE
  5
125
330
1F
100
AcDbEntity
  8
1
  6
Continuous
 62
     7
100
AcDbLine
 10
-307.4123141906043
 20
125.2349872220232
 30
0.0
 11
-307.4123141906043
 21
125.0262534684882
 31
0.0
  0
LINE
  5
126
330
1F
100
AcDbEntity
  8
1
  6
Continuous
 62
     7
100
AcDbLine
 10
-307.6423141906044
 20
125.3232759500813
 30
0.0
 11
-307.4123141906043
 21
125.2349872220232
 31
0.0
  0
LINE
  5
127
330
1F
100
AcDbEntity
  8
1
  6
Continuous
 62
     7
100
AcDbLine
 10
-307.6423141906044
 20
125.1145421965464
 30
0.0
 11
-307.6423141906044
 21
125.3232759500813
 31
0.0
  0
LINE
  5
128
330
1F
100
AcDbEntity
  8
1
  6
Continuous
 62
     7
100
AcDbLine
 10
-307.8723141906044
 20
125.0262534684882
 30
0.0
 11
-307.6423141906044
 21
125.1145421965464
 31
0.0
  0
LINE
  5
129
330
1F
100
AcDbEntity
  8
1
  6
Continuous
 62
     7
100
AcDbLine
 10
-307.8723141906044
 20
125.2349872220232
 30
0.0
 11
-307.8723141906044
 21
125.0262534684882
 31
0.0
  0
LINE
  5
12A
330
1F
100
AcDbEntity
  8
1
  6
Continuous
 62
     7
100
AcDbLine
 10
-307.6423141906044
 20
125.3232759500813
 30
0.0
 11
-307.8723141906044
 21
125.2349872220232
 31
0.0
  0
LINE
  5
12B
330
1F
100
AcDbEntity
  8
1
  6
Continuous
 62
     7
100
AcDbLine
 10
-308.4218366721975
 20
125.5757759500813
 30
0.0
 11
-308.3335479441393
 21
125.8057759500814
 31
0.0
  0
LINE
  5
12C
330
1F
100
AcDbEntity
  8
1
  6
Continuous
 62
     7
100
AcDbLine
 10
-308.2131029186625
 20
125.5757759500813
 30
0.0
 11
-308.4218366721975
 21
125.5757759500813
 31
0.0
  0
LINE
  5
12D
330
1F
100
AcDbEntity
  8
1
  6
Continuous
 62
     7
100
AcDbLine
 10
-308.1248141906044
 20
125.8057759500814
 30
0.0
 11
-308.2131029186625
 21
125.5757759500813
 31
0.0
  0
LINE
  5
12E
330
1F
100
AcDbEntity
  8
1
  6
Continuous
 62
     7
100
AcDbLine
 10
-308.3335479441393
 20
125.8057759500814
 30
0.0
 11
-308.1248141906044
 21
125.8057759500814
 31
0.0
  0
LINE
  5
12F
330
1F
100
AcDbEntity
  8
1
  6
Continuous
 62
     7
100
AcDbLine
 10
-308.4218366721975
 20
126.0357759500814
 30
0.0
 11
-308.3335479441393
 21
125.8057759500814
 31
0.0
  0
LINE
  5
130
330
1F
100
AcDbEntity
  8
1
  6
Continuous
 62
     7
100
AcDbLine
 10
-308.2131029186625
 20
126.0357759500814
 30
0.0
 11
-308.4218366721975
 21
126.0357759500814
 31
0.0
  0
LINE
  5
131
330
1F
100
AcDbEntity
  8
1
  6
Continuous
 62
     7
100
AcDbLine
 10
-308.1248141906044
 20
125.8057759500814
 30
0.0
 11
-308.2131029186625
 21
126.0357759500814
 31
0.0
  0
LINE
  5
132
330
1F
100
AcDbEntity
  8
1
  6
Continuous
 62
     7
100
AcDbLine
 10
-307.8723141906044
 20
126.5852984316745
 30
0.0
 11
-307.6423141906044
 21
126.4970097036163
 31
0.0
  0
LINE
  5
133
330
1F
100
AcDbEntity
  8
1
  6
Continuous
 62
     7
100
AcDbLine
 10
-307.8723141906044
 20
126.3765646781395
 30
0.0
 11
-307.8723141906044
 21
126.5852984316745
 31
0.0
  0
LINE
  5
134
330
1F
100
AcDbEntity
  8
1
  6
Continuous
 62
     7
100
AcDbLine
 10
-307.6423141906044
 20
126.2882759500814
 30
0.0
 11
-307.8723141906044
 21
126.3765646781395
 31
0.0
  0
LINE
  5
135
330
1F
100
AcDbEntity
  8
1
  6
Continuous
 62
     7
100
AcDbLine
 10
-307.6423141906044
 20
126.4970097036163
 30
0.0
 11
-307.6423141906044
 21
126.2882759500814
 31
0.0
  0
LINE
  5
136
330
1F
100
AcDbEntity
  8
1
  6
Continuous
 62
     7
100
AcDbLine
 10
-307.4123141906043
 20
126.5852984316745
 30
0.0
 11
-307.6423141906044
 21
126.4970097036163
 31
0.0
  0
LINE
  5
137
330
1F
100
AcDbEntity
  8
1
  6
Continuous
 62
     7
100
AcDbLine
 10
-307.4123141906043
 20
126.3765646781395
 30
0.0
 11
-307.4123141906043
 21
126.5852984316745
 31
0.0
  0
LINE
  5
138
330
1F
100
AcDbEntity
  8
1
  6
Continuous
 62
     7
100
AcDbLine
 10
-307.6423141906044
 20
126.2882759500814
 30
0.0
 11
-307.4123141906043
 21
126.3765646781395
 31
0.0
  0
LINE
  5
139
330
1F
100
AcDbEntity
  8
1
  6
Continuous
 62
     7
100
AcDbLine
 10
-306.8627917090113
 20
126.0357759500814
 30
0.0
 11
-306.9510804370694
 21
125.8057759500814
 31
0.0
  0
LINE
  5
13A
330
1F
100
AcDbEntity
  8
1
  6
Continuous
 62
     7
100
AcDbLine
 10
-307.0715254625462
 20
126.0357759500814
 30
0.0
 11
-306.8627917090113
 21
126.0357759500814
 31
0.0
  0
LINE
  5
13B
330
1F
100
AcDbEntity
  8
1
  6
Continuous
 62
     7
100
AcDbLine
 10
-307.1598141906043
 20
125.8057759500814
 30
0.0
 11
-307.0715254625462
 21
126.0357759500814
 31
0.0
  0
LINE
  5
13C
330
1F
100
AcDbEntity
  8
1
  6
Continuous
 62
     7
100
AcDbLine
 10
-306.9510804370694
 20
125.8057759500814
 30
0.0
 11
-307.1598141906043
 21
125.8057759500814
 31
0.0
  0
LINE
  5
13D
330
1F
100
AcDbEntity
  8
1
  6
Continuous
 62
     7
100
AcDbLine
 10
-306.8627917090113
 20
125.5757759500813
 30
0.0
 11
-306.9510804370694
 21
125.8057759500814
 31
0.0
  0
LINE
  5
13E
330
1F
100
AcDbEntity
  8
1
  6
Continuous
 62
     7
100
AcDbLine
 10
-307.0715254625462
 20
125.5757759500813
 30
0.0
 11
-306.8627917090113
 21
125.5757759500813
 31
0.0
  0
LINE
  5
13F
330
1F
100
AcDbEntity
  8
1
  6
Continuous
 62
     7
100
AcDbLine
 10
-307.1598141906043
 20
125.8057759500814
 30
0.0
 11
-307.0715254625462
 21
125.5757759500813
 31
0.0
  0
LINE
  5
140
330
1F
100
AcDbEntity
  8
1
  6
DASH_CENTER
 62
     3
100
AcDbLine
 10
-290.0
 20
151.685384254617
 30
0.0
 11
-290.0
 21
137.863461759477
 31
0.0
  0
LINE
  5
141
330
1F
100
AcDbEntity
  8
1
  6
DASH_CENTER
 62
     3
100
AcDbLine
 10
-8.31681333402497
 20
153.473045571717
 30
0.0
 11
-8.31681333402497
 21
75.0595837352692
 31
0.0
  0
LINE
  5
142
330
1F
100
AcDbEntity
  8
1
  6
Continuous
 62
     3
100
AcDbLine
 10
-96.32377646720701
 20
137.863461759477
 30
0.0
 11
-96.32377646720701
 21
161.863461759477
 31
0.0
  0
LINE
  5
143
330
1F
100
AcDbEntity
  8
1
  6
Continuous
 62
     3
100
AcDbLine
 10
-97.523776467207
 20
137.863461759477
 30
0.0
 11
-97.523776467207
 21
161.363461759477
 31
0.0
  0
LINE
  5
144
330
1F
100
AcDbEntity
  8
1
  6
Continuous
 62
     3
100
AcDbLine
 10
-98.72377646720699
 20
137.863461759477
 30
0.0
 11
-98.72377646720699
 21
161.863461759477
 31
0.0
  0
LINE
  5
145
330
1F
100
AcDbEntity
  8
1
  6
Continuous
 62
     3
100
AcDbLine
 10
-99.923776467207
 20
137.863461759477
 30
0.0
 11
-99.923776467207
 21
162.363461759477
 31
0.0
  0
LINE
  5
146
330
1F
100
AcDbEntity
  8
1
  6
Continuous
 62
     3
100
AcDbLine
 10
-101.123776467207
 20
137.863461759477
 30
0.0
 11
-101.123776467207
 21
161.863461759477
 31
0.0
  0
LINE
  5
147
330
1F
100
AcDbEntity
  8
1
  6
Continuous
 62
     3
100
AcDbLine
 10
-96.32377646720701
 20
186.363461759477
 30
0.0
 11
-96.32377646720701
 21
163.863461759477
 31
0.0
  0
LINE
  5
148
330
1F
100
AcDbEntity
  8
1
  6
Continuous
 62
     3
100
AcDbLine
 10
-97.523776467207
 20
186.363461759477
 30
0.0
 11
-97.523776467207
 21
163.363461759477
 31
0.0
  0
LINE
  5
149
330
1F
100
AcDbEntity
  8
1
  6
Continuous
 62
     3
100
AcDbLine
 10
-98.72377646720699
 20
186.363461759477
 30
0.0
 11
-98.72377646720699
 21
163.863461759477
 31
0.0
  0
LINE
  5
14A
330
1F
100
AcDbEntity
  8
1
  6
Continuous
 62
     3
100
AcDbLine
 10
-99.923776467207
 20
186.363461759477
 30
0.0
 11
-99.923776467207
 21
164.363461759477
 31
0.0
  0
LINE
  5
14B
330
1F
100
AcDbEntity
  8
1
  6
Continuous
 62
     3
100
AcDbLine
 10
-101.123776467207
 20
186.363461759477
 30
0.0
 11
-101.123776467207
 21
163.863461759477
 31
0.0
  0
LINE
  5
14C
330
1F
100
AcDbEntity
  8
1
  6
Continuous
 62
     3
100
AcDbLine
 10
-7.11681333402497
 20
149.623185444799
 30
0.0
 11
-7.11681333402497
 21
137.863461759477
 31
0.0
  0
LINE
  5
14D
330
1F
100
AcDbEntity
  8
1
  6
Continuous
 62
     3
100
AcDbLine
 10
-9.51681333402497
 20
150.408339908538
 30
0.0
 11
-9.51681333402497
 21
137.863461759477
 31
0.0
  0
LINE
  5
14E
330
1F
100
AcDbEntity
  8
1
  6
Continuous
 62
     3
100
AcDbLine
 10
-288.8
 20
149.755300571353
 30
0.0
 11
-288.8
 21
137.863461759477
 31
0.0
  0
LINE
  5
14F
330
1F
100
AcDbEntity
  8
1
  6
Continuous
 62
     3
100
AcDbLine
 10
-291.2
 20
150.298685967598
 30
0.0
 11
-291.2
 21
137.863461759477
 31
0.0
  0
LINE
  5
150
330
1F
100
AcDbEntity
  8
1
  6
Continuous
 62
     7
100
AcDbLine
 10
-169.843776467207
 20
127.213461759477
 30
0.0
 11
-168.323776467207
 21
127.213461759477
 31
0.0
  0
LINE
  5
151
330
1F
100
AcDbEntity
  8
1
  6
Continuous
 62
     7
100
AcDbLine
 10
-169.843776467207
 20
89.113461759477
 30
0.0
 11
-168.323776467207
 21
89.113461759477
 31
0.0
  0
LINE
  5
152
330
1F
100
AcDbEntity
  8
1
  6
Continuous
 62
     7
100
AcDbLine
 10
-188.193776467207
 20
111.338461759477
 30
0.0
 11
-169.843776467207
 21
111.338461759477
 31
0.0
  0
LINE
  5
153
330
1F
100
AcDbEntity
  8
1
  6
Continuous
 62
     7
100
AcDbLine
 10
-188.193776467207
 20
104.988461759477
 30
0.0
 11
-169.843776467207
 21
104.988461759477
 31
0.0
  0
LINE
  5
154
330
1F
100
AcDbEntity
  8
1
  6
Continuous
 62
     7
100
AcDbLine
 10
-169.843776467207
 20
127.213461759477
 30
0.0
 11
-169.843776467207
 21
89.113461759477
 31
0.0
  0
LINE
  5
155
330
1F
100
AcDbEntity
  8
1
  6
Continuous
 62
     7
100
AcDbLine
 10
-188.893776467207
 20
110.638461759477
 30
0.0
 11
-188.893776467207
 21
105.688461759477
 31
0.0
  0
LINE
  5
156
330
1F
100
AcDbEntity
  8
1
  6
Continuous
 62
     7
100
AcDbLine
 10
-188.893776467207
 20
110.638461759477
 30
0.0
 11
-188.193776467207
 21
111.338461759477
 31
0.0
  0
LINE
  5
157
330
1F
100
AcDbEntity
  8
1
  6
Continuous
 62
     7
100
AcDbLine
 10
-188.893776467207
 20
105.688461759477
 30
0.0
 11
-188.193776467207
 21
104.988461759477
 31
0.0
  0
LINE
  5
158
330
1F
100
AcDbEntity
  8
1
  6
Continuous
 62
     7
100
AcDbLine
 10
-315.8422618979067
 20
79.963461759477
 30
0.0
 11
-264.1577381020933
 21
79.963461759477
 31
0.0
  0
LINE
  5
159
330
1F
100
AcDbEntity
  8
1
  6
Continuous
 62
     7
100
AcDbLine
 10
-261.8
 20
82.32119986157029
 30
0.0
 11
-261.8
 21
134.0057236573837
 31
0.0
  0
LINE
  5
15A
330
1F
100
AcDbEntity
  8
1
  6
Continuous
 62
     7
100
AcDbLine
 10
-318.2
 20
134.0057236573837
 30
0.0
 11
-318.2
 21
82.32119986157029
 31
0.0
  0
LINE
  5
15B
330
1F
100
AcDbEntity
  8
1
  6
DASH_CENTER
 62
     3
100
AcDbLine
 10
-321.370746455297
 20
108.163461759477
 30
0.0
 11
-257.48774797026
 21
108.163461759477
 31
0.0
  0
LINE
  5
15C
330
1F
100
AcDbEntity
  8
1
  6
Continuous
 62
     7
100
AcDbLine
 10
-34.15907523193167
 20
79.963461759477
 30
0.0
 11
17.5254485638817
 21
79.963461759477
 31
0.0
  0
LINE
  5
15D
330
1F
100
AcDbEntity
  8
1
  6
Continuous
 62
     7
100
AcDbLine
 10
19.88318666597502
 20
134.0057236573837
 30
0.0
 11
19.88318666597502
 21
82.32119986157029
 31
0.0
  0
LINE
  5
15E
330
1F
100
AcDbEntity
  8
1
  6
DASH_CENTER
 62
     3
100
AcDbLine
 10
-40.82906536376501
 20
108.163461759477
 30
0.0
 11
23.053933121272
 21
108.163461759477
 31
0.0
  0
LINE
  5
15F
330
1F
100
AcDbEntity
  8
1
  6
Continuous
 62
     7
100
AcDbLine
 10
-36.51681333402496
 20
134.0057236573837
 30
0.0
 11
-36.51681333402496
 21
82.32119986157029
 31
0.0
  0
LINE
  5
160
330
1F
100
AcDbEntity
  8
1
  6
Continuous
 62
     7
100
AcDbLine
 10
-188.193776467207
 20
111.338461759477
 30
0.0
 11
-188.193776467207
 21
104.988461759477
 31
0.0
  0
LINE
  5
161
330
1F
100
AcDbEntity
  8
1
  6
Continuous
 62
     7
100
AcDbLine
 10
-102.623776467207
 20
137.863461759477
 30
0.0
 11
-94.82377646720701
 21
137.863461759477
 31
0.0
  0
LINE
  5
162
330
1F
100
AcDbEntity
  8
1
  6
Continuous
 62
     7
100
AcDbLine
 10
-103.123776467207
 20
137.363461759477
 30
0.0
 11
-103.123776467207
 21
136.363461759477
 31
0.0
  0
LINE
  5
163
330
1F
100
AcDbEntity
  8
1
  6
Continuous
 62
     7
100
AcDbLine
 10
-92.123776467207
 20
134.363461759477
 30
0.0
 11
-92.123776467207
 21
81.963461759477
 31
0.0
  0
LINE
  5
164
330
1F
100
AcDbEntity
  8
1
  6
Continuous
 62
     7
100
AcDbLine
 10
-98.123776467207
 20
195.963461759477
 30
0.0
 11
-98.123776467207
 21
186.363461759477
 31
0.0
  0
LINE
  5
165
330
1F
100
AcDbEntity
  8
1
  6
Continuous
 62
     7
100
AcDbLine
 10
-99.32377646720701
 20
195.963461759477
 30
0.0
 11
-99.32377646720701
 21
186.363461759477
 31
0.0
  0
LINE
  5
166
330
1F
100
AcDbEntity
  8
1
  6
Continuous
 62
     7
100
AcDbLine
 10
-100.523776467207
 20
195.963461759477
 30
0.0
 11
-100.523776467207
 21
186.363461759477
 31
0.0
  0
LINE
  5
167
330
1F
100
AcDbEntity
  8
1
  6
Continuous
 62
     3
100
AcDbLine
 10
-101.123776467207
 20
186.363461759477
 30
0.0
 11
-96.923776467207
 21
186.363461759477
 31
0.0
  0
LINE
  5
168
330
1F
100
AcDbEntity
  8
1
  6
Continuous
 62
     7
100
AcDbLine
 10
-96.923776467207
 20
195.963461759477
 30
0.0
 11
-96.923776467207
 21
186.363461759477
 31
0.0
  0
LINE
  5
169
330
1F
100
AcDbEntity
  8
1
  6
Continuous
 62
     3
100
AcDbLine
 10
-96.923776467207
 20
186.363461759477
 30
0.0
 11
-96.32377646720701
 21
186.363461759477
 31
0.0
  0
LINE
  5
16A
330
1F
100
AcDbEntity
  8
1
  6
Continuous
 62
     3
100
AcDbLine
 10
-8.31681333402497
 20
150.012859639913
 30
0.0
 11
-8.31681333402497
 21
137.863461759477
 31
0.0
  0
LINE
  5
16B
330
1F
100
AcDbEntity
  8
1
  6
Continuous
 62
     3
100
AcDbLine
 10
-10.71681333402497
 20
150.012859639913
 30
0.0
 11
-10.71681333402497
 21
137.863461759477
 31
0.0
  0
LINE
  5
16C
330
1F
100
AcDbEntity
  8
1
  6
Continuous
 62
     3
100
AcDbLine
 10
-5.91681333402497
 20
150.012859639913
 30
0.0
 11
-5.91681333402497
 21
137.863461759477
 31
0.0
  0
LINE
  5
16D
330
1F
100
AcDbEntity
  8
1
  6
DASH_CENTER
 62
     3
100
AcDbLine
 10
-290.0
 20
139.003150894417
 30
0.0
 11
-290.0
 21
75.2494702200777
 31
0.0
  0
LINE
  5
16E
330
1F
100
AcDbEntity
  8
1
  6
Continuous
 62
     3
100
AcDbLine
 10
-292.4
 20
150.0
 30
0.0
 11
-292.4
 21
137.863461759477
 31
0.0
  0
LINE
  5
16F
330
1F
100
AcDbEntity
  8
1
  6
Continuous
 62
     3
100
AcDbLine
 10
-287.6
 20
150.0
 30
0.0
 11
-287.6
 21
137.863461759477
 31
0.0
  0
LINE
  5
170
330
1F
100
AcDbEntity
  8
1
  6
Continuous
 62
     7
100
AcDbLine
 10
-167.323776467207
 20
134.007639731767
 30
0.0
 11
-164.493776467207
 21
134.007639731767
 31
0.0
  0
LINE
  5
171
330
1F
100
AcDbEntity
  8
1
  6
Continuous
 62
     7
100
AcDbLine
 10
-167.323776467207
 20
82.3195129250502
 30
0.0
 11
-164.493776467207
 21
82.3195129250502
 31
0.0
  0
LINE
  5
172
330
1F
100
AcDbEntity
  8
1
  6
DASHED
 62
     4
100
AcDbLine
 10
-168.323776467207
 20
134.273461759477
 30
0.0
 11
-163.493776467207
 21
134.273461759477
 31
0.0
  0
LINE
  5
173
330
1F
100
AcDbEntity
  8
1
  6
DASHED
 62
     4
100
AcDbLine
 10
-168.323776467207
 20
129.193461759477
 30
0.0
 11
-163.493776467207
 21
129.193461759477
 31
0.0
  0
LINE
  5
174
330
1F
100
AcDbEntity
  8
1
  6
DASH_CENTER
 62
     3
100
AcDbLine
 10
-168.992148420308
 20
131.733461759477
 30
0.0
 11
-162.674232416218
 21
131.733461759477
 31
0.0
  0
LINE
  5
175
330
1F
100
AcDbEntity
  8
1
  6
DASHED
 62
     4
100
AcDbLine
 10
-168.323776467207
 20
87.13346175947702
 30
0.0
 11
-163.493776467207
 21
87.13346175947702
 31
0.0
  0
LINE
  5
176
330
1F
100
AcDbEntity
  8
1
  6
DASHED
 62
     4
100
AcDbLine
 10
-168.323776467207
 20
82.053461759477
 30
0.0
 11
-163.493776467207
 21
82.053461759477
 31
0.0
  0
LINE
  5
177
330
1F
100
AcDbEntity
  8
1
  6
Continuous
 62
     7
100
AcDbLine
 10
-168.323776467207
 20
136.363461759477
 30
0.0
 11
-168.323776467207
 21
79.963461759477
 31
0.0
  0
LINE
  5
178
330
1F
100
AcDbEntity
  8
1
  6
DASH_CENTER
 62
     3
100
AcDbLine
 10
-168.900960658861
 20
84.59346175947701
 30
0.0
 11
-162.923009327632
 21
84.59346175947701
 31
0.0
  0
LINE
  5
179
330
1F
100
AcDbEntity
  8
1
  6
Continuous
 62
     7
100
AcDbLine
 10
-163.493776467207
 20
136.363461759477
 30
0.0
 11
-163.493776467207
 21
108.938961564422
 31
0.0
  0
LINE
  5
17A
330
1F
100
AcDbEntity
  8
1
  6
DASH_CENTER
 62
     3
100
AcDbLine
 10
-87.42653961333099
 20
108.163461759477
 30
0.0
 11
-190.964143683725
 21
108.163461759477
 31
0.0
  0
LINE
  5
17B
330
1F
100
AcDbEntity
  8
1
  6
Continuous
 62
     7
100
AcDbLine
 10
-163.493776467207
 20
79.963461759477
 30
0.0
 11
-163.493776467207
 21
107.269815490763
 31
0.0
  0
LINE
  5
17C
330
1F
100
AcDbEntity
  8
1
  6
Continuous
 62
     7
100
AcDbLine
 10
-101.123776467207
 20
136.363461759477
 30
0.0
 11
-101.123776467207
 21
79.963461759477
 31
0.0
  0
LINE
  5
17D
330
1F
100
AcDbEntity
  8
1
  6
Continuous
 62
     7
100
AcDbLine
 10
-168.323776467207
 20
79.963461759477
 30
0.0
 11
-94.123776467207
 21
79.963461759477
 31
0.0
  0
LINE
  5
17E
330
1F
100
AcDbEntity
  8
1
  6
Continuous
 62
     7
100
AcDbLine
 10
-94.32377646720701
 20
136.363461759477
 30
0.0
 11
-94.32377646720701
 21
137.363461759477
 31
0.0
  0
LINE
  5
17F
330
1F
100
AcDbEntity
  8
1
  6
Continuous
 62
     7
100
AcDbLine
 10
-168.323776467207
 20
136.363461759477
 30
0.0
 11
-94.123776467207
 21
136.363461759477
 31
0.0
  0
LINE
  5
180
330
1F
100
AcDbEntity
  8
1
  6
DASH_CENTER
 62
     3
100
AcDbLine
 10
-317.57
 20
131.733461759477
 30
0.0
 11
-309.57
 21
131.733461759477
 31
0.0
  0
LINE
  5
181
330
1F
100
AcDbEntity
  8
1
  6
DASH_CENTER
 62
     3
100
AcDbLine
 10
-313.57
 20
135.733461759477
 30
0.0
 11
-313.57
 21
127.733461759477
 31
0.0
  0
LINE
  5
182
330
1F
100
AcDbEntity
  8
1
  6
DASH_CENTER
 62
     3
100
AcDbLine
 10
-313.57
 20
80.59346175947702
 30
0.0
 11
-313.57
 21
88.59346175947702
 31
0.0
  0
LINE
  5
183
330
1F
100
AcDbEntity
  8
1
  6
DASH_CENTER
 62
     3
100
AcDbLine
 10
-262.43
 20
84.59346175947702
 30
0.0
 11
-270.43
 21
84.59346175947702
 31
0.0
  0
LINE
  5
184
330
1F
100
AcDbEntity
  8
1
  6
DASH_CENTER
 62
     3
100
AcDbLine
 10
-266.43
 20
135.733461759477
 30
0.0
 11
-266.43
 21
127.733461759477
 31
0.0
  0
LINE
  5
185
330
1F
100
AcDbEntity
  8
1
  6
DASH_CENTER
 62
     3
100
AcDbLine
 10
-317.57
 20
84.59346175947702
 30
0.0
 11
-309.57
 21
84.59346175947702
 31
0.0
  0
LINE
  5
186
330
1F
100
AcDbEntity
  8
1
  6
DASH_CENTER
 62
     3
100
AcDbLine
 10
-266.43
 20
80.59346175947702
 30
0.0
 11
-266.43
 21
88.59346175947702
 31
0.0
  0
LINE
  5
187
330
1F
100
AcDbEntity
  8
1
  6
DASH_CENTER
 62
     3
100
AcDbLine
 10
-262.43
 20
131.733461759477
 30
0.0
 11
-270.43
 21
131.733461759477
 31
0.0
  0
LINE
  5
188
330
1F
100
AcDbEntity
  8
1
  6
Continuous
 62
     7
100
AcDbLine
 10
-295.25
 20
136.863461759477
 30
0.0
 11
-295.25
 21
136.363461759477
 31
0.0
  0
LINE
  5
189
330
1F
100
AcDbEntity
  8
1
  6
Continuous
 62
     7
100
AcDbLine
 10
-294.25
 20
137.863461759477
 30
0.0
 11
-285.75
 21
137.863461759477
 31
0.0
  0
LINE
  5
18A
330
1F
100
AcDbEntity
  8
1
  6
Continuous
 62
     7
100
AcDbLine
 10
-284.75
 20
136.863461759477
 30
0.0
 11
-284.75
 21
136.363461759477
 31
0.0
  0
LINE
  5
18B
330
1F
100
AcDbEntity
  8
1
  6
Continuous
 62
     7
100
AcDbLine
 10
-315.8422618979068
 20
136.363461759477
 30
0.0
 11
-264.1577381020933
 21
136.363461759477
 31
0.0
  0
LINE
  5
18C
330
1F
100
AcDbEntity
  8
1
  6
DASH_CENTER
 62
     3
100
AcDbLine
 10
-35.88681333402497
 20
131.733461759477
 30
0.0
 11
-27.88681333402497
 21
131.733461759477
 31
0.0
  0
LINE
  5
18D
330
1F
100
AcDbEntity
  8
1
  6
DASH_CENTER
 62
     3
100
AcDbLine
 10
-31.88681333402497
 20
135.733461759477
 30
0.0
 11
-31.88681333402497
 21
127.733461759477
 31
0.0
  0
LINE
  5
18E
330
1F
100
AcDbEntity
  8
1
  6
DASH_CENTER
 62
     3
100
AcDbLine
 10
-31.88681333402496
 20
80.59346175947701
 30
0.0
 11
-31.88681333402496
 21
88.59346175947701
 31
0.0
  0
LINE
  5
18F
330
1F
100
AcDbEntity
  8
1
  6
DASH_CENTER
 62
     3
100
AcDbLine
 10
19.25318666597502
 20
84.59346175947701
 30
0.0
 11
11.25318666597502
 21
84.59346175947701
 31
0.0
  0
LINE
  5
190
330
1F
100
AcDbEntity
  8
1
  6
DASH_CENTER
 62
     3
100
AcDbLine
 10
15.25318666597503
 20
135.733461759477
 30
0.0
 11
15.25318666597503
 21
127.733461759477
 31
0.0
  0
LINE
  5
191
330
1F
100
AcDbEntity
  8
1
  6
DASH_CENTER
 62
     3
100
AcDbLine
 10
-35.88681333402496
 20
84.59346175947701
 30
0.0
 11
-27.88681333402496
 21
84.59346175947701
 31
0.0
  0
LINE
  5
192
330
1F
100
AcDbEntity
  8
1
  6
DASH_CENTER
 62
     3
100
AcDbLine
 10
15.25318666597502
 20
80.59346175947701
 30
0.0
 11
15.25318666597502
 21
88.59346175947701
 31
0.0
  0
LINE
  5
193
330
1F
100
AcDbEntity
  8
1
  6
DASH_CENTER
 62
     3
100
AcDbLine
 10
19.25318666597503
 20
131.733461759477
 30
0.0
 11
11.25318666597503
 21
131.733461759477
 31
0.0
  0
LINE
  5
194
330
1F
100
AcDbEntity
  8
1
  6
Continuous
 62
     7
100
AcDbLine
 10
-12.56681333402497
 20
137.863461759477
 30
0.0
 11
-4.06681333402497
 21
137.863461759477
 31
0.0
  0
LINE
  5
195
330
1F
100
AcDbEntity
  8
1
  6
Continuous
 62
     7
100
AcDbLine
 10
-13.56681333402497
 20
136.863461759477
 30
0.0
 11
-13.56681333402497
 21
136.363461759477
 31
0.0
  0
LINE
  5
196
330
1F
100
AcDbEntity
  8
1
  6
Continuous
 62
     7
100
AcDbLine
 10
-3.06681333402497
 20
136.863461759477
 30
0.0
 11
-3.06681333402497
 21
136.363461759477
 31
0.0
  0
LINE
  5
197
330
1F
100
AcDbEntity
  8
1
  6
Continuous
 62
     7
100
AcDbLine
 10
17.52544856388175
 20
136.363461759477
 30
0.0
 11
-34.15907523193169
 21
136.363461759477
 31
0.0
  0
LINE
  5
198
330
1F
100
AcDbEntity
  8
1
  6
Continuous
 62
     2
100
AcDbLine
 10
-168.32680988267
 20
48.3908548605711
 30
0.0
 11
-168.32680988267
 21
32.100003425632
 31
0.0
  0
LINE
  5
199
330
1F
100
AcDbEntity
  8
1
  6
Continuous
 62
     2
100
AcDbLine
 10
-124.9377264922308
 20
67.2459420610612
 30
0.0
 11
-124.9377264922308
 21
70.7459420610612
 31
0.0
  0
LINE
  5
19A
330
1F
100
AcDbEntity
  8
1
  6
Continuous
 62
     2
100
AcDbLine
 10
-124.9377264922308
 20
70.7459420610612
 30
0.0
 11
-122.878902962819
 21
67.2459420610612
 31
0.0
  0
LINE
  5
19B
330
1F
100
AcDbEntity
  8
1
  6
Continuous
 62
     2
100
AcDbLine
 10
-122.878902962819
 20
67.2459420610612
 30
0.0
 11
-122.878902962819
 21
70.7459420610612
 31
0.0
  0
LINE
  5
19C
330
1F
100
AcDbEntity
  8
1
  6
Continuous
 62
     2
100
AcDbLine
 10
-121.8494911981131
 20
67.2459420610612
 30
0.0
 11
-120.7171382569367
 21
70.7459420610612
 31
0.0
  0
LINE
  5
19D
330
1F
100
AcDbEntity
  8
1
  6
Continuous
 62
     2
100
AcDbLine
 10
-120.7171382569367
 20
70.7459420610612
 30
0.0
 11
-119.5847853157602
 21
67.2459420610612
 31
0.0
  0
LINE
  5
19E
330
1F
100
AcDbEntity
  8
1
  6
Continuous
 62
     2
100
AcDbLine
 10
-121.5406676687014
 20
68.17927539439454
 30
0.0
 11
-119.893608845172
 21
68.17927539439454
 31
0.0
  0
LINE
  5
19F
330
1F
100
AcDbEntity
  8
1
  6
Continuous
 62
     2
100
AcDbLine
 10
-118.5553735510543
 20
67.2459420610612
 30
0.0
 11
-118.5553735510543
 21
70.7459420610612
 31
0.0
  0
LINE
  5
1A0
330
1F
100
AcDbEntity
  8
1
  6
Continuous
 62
     2
100
AcDbLine
 10
-118.5553735510543
 20
70.7459420610612
 30
0.0
 11
-117.2171382569367
 21
67.36260872772786
 31
0.0
  0
LINE
  5
1A1
330
1F
100
AcDbEntity
  8
1
  6
Continuous
 62
     2
100
AcDbLine
 10
-117.2171382569367
 20
67.36260872772786
 30
0.0
 11
-115.878902962819
 21
70.7459420610612
 31
0.0
  0
LINE
  5
1A2
330
1F
100
AcDbEntity
  8
1
  6
Continuous
 62
     2
100
AcDbLine
 10
-115.878902962819
 20
70.7459420610612
 30
0.0
 11
-115.878902962819
 21
67.2459420610612
 31
0.0
  0
LINE
  5
1A3
330
1F
100
AcDbEntity
  8
1
  6
Continuous
 62
     2
100
AcDbLine
 10
-112.7906676687014
 20
70.7459420610612
 30
0.0
 11
-114.8494911981131
 21
70.7459420610612
 31
0.0
  0
LINE
  5
1A4
330
1F
100
AcDbEntity
  8
1
  6
Continuous
 62
     2
100
AcDbLine
 10
-114.8494911981131
 20
70.7459420610612
 30
0.0
 11
-114.8494911981131
 21
67.2459420610612
 31
0.0
  0
LINE
  5
1A5
330
1F
100
AcDbEntity
  8
1
  6
Continuous
 62
     2
100
AcDbLine
 10
-114.8494911981131
 20
67.2459420610612
 30
0.0
 11
-112.7906676687014
 21
67.2459420610612
 31
0.0
  0
LINE
  5
1A6
330
1F
100
AcDbEntity
  8
1
  6
Continuous
 62
     2
100
AcDbLine
 10
-114.8494911981131
 20
69.11260872772786
 30
0.0
 11
-112.9965500216426
 21
69.11260872772786
 31
0.0
  0
LINE
  5
1A7
330
1F
100
AcDbEntity
  8
1
  6
Continuous
 62
     2
100
AcDbLine
 10
-108.7759617863484
 20
67.2459420610612
 30
0.0
 11
-108.7759617863484
 21
70.7459420610612
 31
0.0
  0
LINE
  5
1A8
330
1F
100
AcDbEntity
  8
1
  6
Continuous
 62
     2
100
AcDbLine
 10
-108.7759617863484
 20
70.7459420610612
 30
0.0
 11
-107.4377264922308
 21
70.7459420610612
 31
0.0
  0
LINE
  5
1A9
330
1F
100
AcDbEntity
  8
1
  6
Continuous
 62
     2
100
AcDbLine
 10
-107.4377264922308
 20
70.7459420610612
 30
0.0
 11
-107.0259617863484
 21
70.51260872772787
 31
0.0
  0
LINE
  5
1AA
330
1F
100
AcDbEntity
  8
1
  6
Continuous
 62
     2
100
AcDbLine
 10
-107.0259617863484
 20
70.51260872772787
 30
0.0
 11
-106.8200794334073
 21
70.16260872772787
 31
0.0
  0
LINE
  5
1AB
330
1F
100
AcDbEntity
  8
1
  6
Continuous
 62
     2
100
AcDbLine
 10
-106.8200794334073
 20
70.16260872772787
 30
0.0
 11
-106.7171382569367
 21
69.92927539439454
 31
0.0
  0
LINE
  5
1AC
330
1F
100
AcDbEntity
  8
1
  6
Continuous
 62
     2
100
AcDbLine
 10
-106.7171382569367
 20
69.92927539439454
 30
0.0
 11
-106.8200794334073
 21
69.46260872772787
 31
0.0
  0
LINE
  5
1AD
330
1F
100
AcDbEntity
  8
1
  6
Continuous
 62
     2
100
AcDbLine
 10
-106.8200794334073
 20
69.46260872772787
 30
0.0
 11
-107.0259617863484
 21
69.22927539439453
 31
0.0
  0
LINE
  5
1AE
330
1F
100
AcDbEntity
  8
1
  6
Continuous
 62
     2
100
AcDbLine
 10
-107.0259617863484
 20
69.22927539439453
 30
0.0
 11
-107.4377264922308
 21
68.9959420610612
 31
0.0
  0
LINE
  5
1AF
330
1F
100
AcDbEntity
  8
1
  6
Continuous
 62
     2
100
AcDbLine
 10
-107.4377264922308
 20
68.9959420610612
 30
0.0
 11
-108.7759617863484
 21
68.9959420610612
 31
0.0
  0
LINE
  5
1B0
330
1F
100
AcDbEntity
  8
1
  6
Continuous
 62
     2
100
AcDbLine
 10
-105.6877264922308
 20
70.7459420610612
 30
0.0
 11
-105.6877264922308
 21
67.2459420610612
 31
0.0
  0
LINE
  5
1B1
330
1F
100
AcDbEntity
  8
1
  6
Continuous
 62
     2
100
AcDbLine
 10
-105.6877264922308
 20
67.2459420610612
 30
0.0
 11
-103.628902962819
 21
67.2459420610612
 31
0.0
  0
LINE
  5
1B2
330
1F
100
AcDbEntity
  8
1
  6
Continuous
 62
     2
100
AcDbLine
 10
-102.5994911981131
 20
67.2459420610612
 30
0.0
 11
-101.4671382569367
 21
70.7459420610612
 31
0.0
  0
LINE
  5
1B3
330
1F
100
AcDbEntity
  8
1
  6
Continuous
 62
     2
100
AcDbLine
 10
-101.4671382569367
 20
70.7459420610612
 30
0.0
 11
-100.3347853157602
 21
67.2459420610612
 31
0.0
  0
LINE
  5
1B4
330
1F
100
AcDbEntity
  8
1
  6
Continuous
 62
     2
100
AcDbLine
 10
-102.2906676687014
 20
68.17927539439454
 30
0.0
 11
-100.643608845172
 21
68.17927539439454
 31
0.0
  0
LINE
  5
1B5
330
1F
100
AcDbEntity
  8
1
  6
Continuous
 62
     2
100
AcDbLine
 10
-99.30537355105432
 20
70.7459420610612
 30
0.0
 11
-97.04066766870137
 21
70.7459420610612
 31
0.0
  0
LINE
  5
1B6
330
1F
100
AcDbEntity
  8
1
  6
Continuous
 62
     2
100
AcDbLine
 10
-98.17302060987785
 20
70.7459420610612
 30
0.0
 11
-98.17302060987785
 21
67.2459420610612
 31
0.0
  0
LINE
  5
1B7
330
1F
100
AcDbEntity
  8
1
  6
Continuous
 62
     2
100
AcDbLine
 10
-93.95243237458374
 20
70.7459420610612
 30
0.0
 11
-96.0112559039955
 21
70.7459420610612
 31
0.0
  0
LINE
  5
1B8
330
1F
100
AcDbEntity
  8
1
  6
Continuous
 62
     2
100
AcDbLine
 10
-96.0112559039955
 20
70.7459420610612
 30
0.0
 11
-96.0112559039955
 21
67.2459420610612
 31
0.0
  0
LINE
  5
1B9
330
1F
100
AcDbEntity
  8
1
  6
Continuous
 62
     2
100
AcDbLine
 10
-96.0112559039955
 20
67.2459420610612
 30
0.0
 11
-93.95243237458374
 21
67.2459420610612
 31
0.0
  0
LINE
  5
1BA
330
1F
100
AcDbEntity
  8
1
  6
Continuous
 62
     2
100
AcDbLine
 10
-96.0112559039955
 20
69.11260872772786
 30
0.0
 11
-94.15831472752491
 21
69.11260872772786
 31
0.0
  0
LINE
  5
1BB
330
1F
100
AcDbEntity
  8
1
  6
Continuous
 62
     2
100
AcDbLine
 10
-250.4739257983648
 20
74.5817576247308
 30
0.0
 11
-252.3268669748354
 21
71.89842429139746
 31
0.0
  0
LINE
  5
1BC
330
1F
100
AcDbEntity
  8
1
  6
Continuous
 62
     2
100
AcDbLine
 10
-252.3268669748354
 20
71.89842429139746
 30
0.0
 11
-249.8562787395412
 21
71.89842429139746
 31
0.0
  0
LINE
  5
1BD
330
1F
100
AcDbEntity
  8
1
  6
Continuous
 62
     2
100
AcDbLine
 10
-250.4739257983648
 20
71.0817576247308
 30
0.0
 11
-250.4739257983648
 21
72.71509095806414
 31
0.0
  0
LINE
  5
1BE
330
1F
100
AcDbEntity
  8
1
  6
Continuous
 62
     2
100
AcDbLine
 10
-248.8268669748354
 20
72.8317576247308
 30
0.0
 11
-246.9739257983648
 21
72.8317576247308
 31
0.0
  0
LINE
  5
1BF
330
1F
100
AcDbEntity
  8
1
  6
Continuous
 62
     2
100
AcDbLine
 10
-244.9722918114367
 20
71.0817576247308
 30
0.0
 11
-244.0000695892144
 21
74.4723826247308
 31
0.0
  0
LINE
  5
1C0
330
1F
100
AcDbEntity
  8
1
  6
Continuous
 62
     2
100
AcDbLine
 10
-244.1945140336589
 20
73.5973826247308
 30
0.0
 11
-244.5834029225478
 21
73.5973826247308
 31
0.0
  0
LINE
  5
1C1
330
1F
100
AcDbEntity
  8
1
  6
Continuous
 62
     2
100
AcDbLine
 10
-244.5834029225478
 20
73.5973826247308
 30
0.0
 11
-244.9722918114367
 21
73.3786326247308
 31
0.0
  0
LINE
  5
1C2
330
1F
100
AcDbEntity
  8
1
  6
Continuous
 62
     2
100
AcDbLine
 10
-244.9722918114367
 20
73.3786326247308
 30
0.0
 11
-245.2639584781034
 21
72.8317576247308
 31
0.0
  0
LINE
  5
1C3
330
1F
100
AcDbEntity
  8
1
  6
Continuous
 62
     2
100
AcDbLine
 10
-245.2639584781034
 20
72.8317576247308
 30
0.0
 11
-245.2639584781034
 21
72.3942576247308
 31
0.0
  0
LINE
  5
1C4
330
1F
100
AcDbEntity
  8
1
  6
Continuous
 62
     2
100
AcDbLine
 10
-245.2639584781034
 20
72.3942576247308
 30
0.0
 11
-245.0695140336589
 21
71.9567576247308
 31
0.0
  0
LINE
  5
1C5
330
1F
100
AcDbEntity
  8
1
  6
Continuous
 62
     2
100
AcDbLine
 10
-245.0695140336589
 20
71.9567576247308
 30
0.0
 11
-244.7778473669922
 21
71.8473826247308
 31
0.0
  0
LINE
  5
1C6
330
1F
100
AcDbEntity
  8
1
  6
Continuous
 62
     2
100
AcDbLine
 10
-244.7778473669922
 20
71.8473826247308
 30
0.0
 11
-244.3889584781034
 21
71.8473826247308
 31
0.0
  0
LINE
  5
1C7
330
1F
100
AcDbEntity
  8
1
  6
Continuous
 62
     2
100
AcDbLine
 10
-244.3889584781034
 20
71.8473826247308
 30
0.0
 11
-244.0000695892144
 21
72.0661326247308
 31
0.0
  0
LINE
  5
1C8
330
1F
100
AcDbEntity
  8
1
  6
Continuous
 62
     2
100
AcDbLine
 10
-244.0000695892144
 20
72.0661326247308
 30
0.0
 11
-243.7084029225478
 21
72.6130076247308
 31
0.0
  0
LINE
  5
1C9
330
1F
100
AcDbEntity
  8
1
  6
Continuous
 62
     2
100
AcDbLine
 10
-243.7084029225478
 20
72.6130076247308
 30
0.0
 11
-243.7084029225478
 21
73.0505076247308
 31
0.0
  0
LINE
  5
1CA
330
1F
100
AcDbEntity
  8
1
  6
Continuous
 62
     2
100
AcDbLine
 10
-243.7084029225478
 20
73.0505076247308
 30
0.0
 11
-243.9028473669922
 21
73.4880076247308
 31
0.0
  0
LINE
  5
1CB
330
1F
100
AcDbEntity
  8
1
  6
Continuous
 62
     2
100
AcDbLine
 10
-243.9028473669922
 20
73.4880076247308
 30
0.0
 11
-244.1945140336589
 21
73.5973826247308
 31
0.0
  0
LINE
  5
1CC
330
1F
100
AcDbEntity
  8
1
  6
Continuous
 62
     2
100
AcDbLine
 10
-240.4886316807177
 20
74.5817576247308
 30
0.0
 11
-242.2386316807177
 21
74.5817576247308
 31
0.0
  0
LINE
  5
1CD
330
1F
100
AcDbEntity
  8
1
  6
Continuous
 62
     2
100
AcDbLine
 10
-242.2386316807177
 20
74.5817576247308
 30
0.0
 11
-242.3415728571883
 21
72.8317576247308
 31
0.0
  0
LINE
  5
1CE
330
1F
100
AcDbEntity
  8
1
  6
Continuous
 62
     2
100
AcDbLine
 10
-242.3415728571883
 20
72.8317576247308
 30
0.0
 11
-241.8268669748354
 21
73.18175762473079
 31
0.0
  0
LINE
  5
1CF
330
1F
100
AcDbEntity
  8
1
  6
Continuous
 62
     2
100
AcDbLine
 10
-241.8268669748354
 20
73.18175762473079
 30
0.0
 11
-241.415102268953
 21
73.29842429139747
 31
0.0
  0
LINE
  5
1D0
330
1F
100
AcDbEntity
  8
1
  6
Continuous
 62
     2
100
AcDbLine
 10
-241.415102268953
 20
73.29842429139747
 30
0.0
 11
-241.0033375630707
 21
73.18175762473079
 31
0.0
  0
LINE
  5
1D1
330
1F
100
AcDbEntity
  8
1
  6
Continuous
 62
     2
100
AcDbLine
 10
-241.0033375630707
 20
73.18175762473079
 30
0.0
 11
-240.6945140336589
 21
72.94842429139746
 31
0.0
  0
LINE
  5
1D2
330
1F
100
AcDbEntity
  8
1
  6
Continuous
 62
     2
100
AcDbLine
 10
-240.6945140336589
 20
72.94842429139746
 30
0.0
 11
-240.4886316807177
 21
72.71509095806414
 31
0.0
  0
LINE
  5
1D3
330
1F
100
AcDbEntity
  8
1
  6
Continuous
 62
     2
100
AcDbLine
 10
-240.4886316807177
 20
72.71509095806414
 30
0.0
 11
-240.3856905042471
 21
72.1317576247308
 31
0.0
  0
LINE
  5
1D4
330
1F
100
AcDbEntity
  8
1
  6
Continuous
 62
     2
100
AcDbLine
 10
-240.3856905042471
 20
72.1317576247308
 30
0.0
 11
-240.4886316807177
 21
71.54842429139747
 31
0.0
  0
LINE
  5
1D5
330
1F
100
AcDbEntity
  8
1
  6
Continuous
 62
     2
100
AcDbLine
 10
-240.4886316807177
 20
71.54842429139747
 30
0.0
 11
-240.6945140336589
 21
71.31509095806413
 31
0.0
  0
LINE
  5
1D6
330
1F
100
AcDbEntity
  8
1
  6
Continuous
 62
     2
100
AcDbLine
 10
-240.6945140336589
 20
71.31509095806413
 30
0.0
 11
-241.0033375630707
 21
71.0817576247308
 31
0.0
  0
LINE
  5
1D7
330
1F
100
AcDbEntity
  8
1
  6
Continuous
 62
     2
100
AcDbLine
 10
-241.0033375630707
 20
71.0817576247308
 30
0.0
 11
-241.7239257983648
 21
71.0817576247308
 31
0.0
  0
LINE
  5
1D8
330
1F
100
AcDbEntity
  8
1
  6
Continuous
 62
     2
100
AcDbLine
 10
-241.7239257983648
 20
71.0817576247308
 30
0.0
 11
-242.1356905042471
 21
71.31509095806413
 31
0.0
  0
LINE
  5
1D9
330
1F
100
AcDbEntity
  8
1
  6
Continuous
 62
     2
100
AcDbLine
 10
-242.1356905042471
 20
71.31509095806413
 30
0.0
 11
-242.4445140336589
 21
71.54842429139747
 31
0.0
  0
LINE
  5
1DA
330
1F
100
AcDbEntity
  8
1
  6
Continuous
 62
     2
100
AcDbLine
 10
-239.1503963866001
 20
71.66509095806413
 30
0.0
 11
-238.9445140336589
 21
71.43175762473079
 31
0.0
  0
LINE
  5
1DB
330
1F
100
AcDbEntity
  8
1
  6
Continuous
 62
     2
100
AcDbLine
 10
-238.9445140336589
 20
71.43175762473079
 30
0.0
 11
-239.1503963866001
 21
71.19842429139746
 31
0.0
  0
LINE
  5
1DC
330
1F
100
AcDbEntity
  8
1
  6
Continuous
 62
     2
100
AcDbLine
 10
-239.1503963866001
 20
71.19842429139746
 30
0.0
 11
-239.3562787395412
 21
71.43175762473079
 31
0.0
  0
LINE
  5
1DD
330
1F
100
AcDbEntity
  8
1
  6
Continuous
 62
     2
100
AcDbLine
 10
-239.3562787395412
 20
71.43175762473079
 30
0.0
 11
-239.1503963866001
 21
71.66509095806413
 31
0.0
  0
LINE
  5
1DE
330
1F
100
AcDbEntity
  8
1
  6
Continuous
 62
     2
100
AcDbLine
 10
-239.0474552101295
 20
71.54842429139747
 30
0.0
 11
-239.0474552101295
 21
71.31509095806413
 31
0.0
  0
LINE
  5
1DF
330
1F
100
AcDbEntity
  8
1
  6
Continuous
 62
     2
100
AcDbLine
 10
-239.0474552101295
 20
71.31509095806413
 30
0.0
 11
-239.2533375630707
 21
71.31509095806413
 31
0.0
  0
LINE
  5
1E0
330
1F
100
AcDbEntity
  8
1
  6
Continuous
 62
     2
100
AcDbLine
 10
-239.2533375630707
 20
71.31509095806413
 30
0.0
 11
-239.2533375630707
 21
71.54842429139747
 31
0.0
  0
LINE
  5
1E1
330
1F
100
AcDbEntity
  8
1
  6
Continuous
 62
     2
100
AcDbLine
 10
-239.2533375630707
 20
71.54842429139747
 30
0.0
 11
-239.0474552101295
 21
71.54842429139747
 31
0.0
  0
LINE
  5
1E2
330
1F
100
AcDbEntity
  8
1
  6
Continuous
 62
     2
100
AcDbLine
 10
-239.1503963866001
 20
71.54842429139747
 30
0.0
 11
-239.0474552101295
 21
71.43175762473079
 31
0.0
  0
LINE
  5
1E3
330
1F
100
AcDbEntity
  8
1
  6
Continuous
 62
     2
100
AcDbLine
 10
-239.0474552101295
 20
71.43175762473079
 30
0.0
 11
-239.1503963866001
 21
71.31509095806413
 31
0.0
  0
LINE
  5
1E4
330
1F
100
AcDbEntity
  8
1
  6
Continuous
 62
     2
100
AcDbLine
 10
-239.1503963866001
 20
71.31509095806413
 30
0.0
 11
-239.2533375630707
 21
71.43175762473079
 31
0.0
  0
LINE
  5
1E5
330
1F
100
AcDbEntity
  8
1
  6
Continuous
 62
     2
100
AcDbLine
 10
-239.2533375630707
 20
71.43175762473079
 30
0.0
 11
-239.1503963866001
 21
71.54842429139747
 31
0.0
  0
LINE
  5
1E6
330
1F
100
AcDbEntity
  8
1
  6
Continuous
 62
     2
100
AcDbLine
 10
-236.7827493277765
 20
74.5817576247308
 30
0.0
 11
-237.4003963866001
 21
74.34842429139746
 31
0.0
  0
LINE
  5
1E7
330
1F
100
AcDbEntity
  8
1
  6
Continuous
 62
     2
100
AcDbLine
 10
-237.4003963866001
 20
74.34842429139746
 30
0.0
 11
-237.7092199160118
 21
73.76509095806414
 31
0.0
  0
LINE
  5
1E8
330
1F
100
AcDbEntity
  8
1
  6
Continuous
 62
     2
100
AcDbLine
 10
-237.7092199160118
 20
73.76509095806414
 30
0.0
 11
-237.915102268953
 21
72.8317576247308
 31
0.0
  0
LINE
  5
1E9
330
1F
100
AcDbEntity
  8
1
  6
Continuous
 62
     2
100
AcDbLine
 10
-237.915102268953
 20
72.8317576247308
 30
0.0
 11
-237.7092199160118
 21
71.89842429139746
 31
0.0
  0
LINE
  5
1EA
330
1F
100
AcDbEntity
  8
1
  6
Continuous
 62
     2
100
AcDbLine
 10
-237.7092199160118
 20
71.89842429139746
 30
0.0
 11
-237.4003963866001
 21
71.31509095806413
 31
0.0
  0
LINE
  5
1EB
330
1F
100
AcDbEntity
  8
1
  6
Continuous
 62
     2
100
AcDbLine
 10
-237.4003963866001
 20
71.31509095806413
 30
0.0
 11
-236.7827493277765
 21
71.0817576247308
 31
0.0
  0
LINE
  5
1EC
330
1F
100
AcDbEntity
  8
1
  6
Continuous
 62
     2
100
AcDbLine
 10
-236.7827493277765
 20
71.0817576247308
 30
0.0
 11
-236.165102268953
 21
71.31509095806413
 31
0.0
  0
LINE
  5
1ED
330
1F
100
AcDbEntity
  8
1
  6
Continuous
 62
     2
100
AcDbLine
 10
-236.165102268953
 20
71.31509095806413
 30
0.0
 11
-235.7533375630707
 21
71.89842429139746
 31
0.0
  0
LINE
  5
1EE
330
1F
100
AcDbEntity
  8
1
  6
Continuous
 62
     2
100
AcDbLine
 10
-235.7533375630707
 20
71.89842429139746
 30
0.0
 11
-235.6503963866001
 21
72.8317576247308
 31
0.0
  0
LINE
  5
1EF
330
1F
100
AcDbEntity
  8
1
  6
Continuous
 62
     2
100
AcDbLine
 10
-235.6503963866001
 20
72.8317576247308
 30
0.0
 11
-235.7533375630707
 21
73.76509095806414
 31
0.0
  0
LINE
  5
1F0
330
1F
100
AcDbEntity
  8
1
  6
Continuous
 62
     2
100
AcDbLine
 10
-235.7533375630707
 20
73.76509095806414
 30
0.0
 11
-236.165102268953
 21
74.34842429139746
 31
0.0
  0
LINE
  5
1F1
330
1F
100
AcDbEntity
  8
1
  6
Continuous
 62
     2
100
AcDbLine
 10
-236.165102268953
 20
74.34842429139746
 30
0.0
 11
-236.7827493277765
 21
74.5817576247308
 31
0.0
  0
LINE
  5
1F2
330
1F
100
AcDbEntity
  8
1
  6
Continuous
 62
     2
100
AcDbLine
 10
-233.4886316807177
 20
74.5817576247308
 30
0.0
 11
-234.0033375630707
 21
74.46509095806414
 31
0.0
  0
LINE
  5
1F3
330
1F
100
AcDbEntity
  8
1
  6
Continuous
 62
     2
100
AcDbLine
 10
-234.0033375630707
 20
74.46509095806414
 30
0.0
 11
-234.3121610924824
 21
74.11509095806413
 31
0.0
  0
LINE
  5
1F4
330
1F
100
AcDbEntity
  8
1
  6
Continuous
 62
     2
100
AcDbLine
 10
-234.3121610924824
 20
74.11509095806413
 30
0.0
 11
-234.415102268953
 21
73.76509095806414
 31
0.0
  0
LINE
  5
1F5
330
1F
100
AcDbEntity
  8
1
  6
Continuous
 62
     2
100
AcDbLine
 10
-234.415102268953
 20
73.76509095806414
 30
0.0
 11
-234.3121610924824
 21
73.41509095806413
 31
0.0
  0
LINE
  5
1F6
330
1F
100
AcDbEntity
  8
1
  6
Continuous
 62
     2
100
AcDbLine
 10
-234.3121610924824
 20
73.41509095806413
 30
0.0
 11
-234.0033375630707
 21
73.06509095806413
 31
0.0
  0
LINE
  5
1F7
330
1F
100
AcDbEntity
  8
1
  6
Continuous
 62
     2
100
AcDbLine
 10
-234.0033375630707
 20
73.06509095806413
 30
0.0
 11
-233.5915728571883
 21
72.94842429139746
 31
0.0
  0
LINE
  5
1F8
330
1F
100
AcDbEntity
  8
1
  6
Continuous
 62
     2
100
AcDbLine
 10
-233.5915728571883
 20
72.94842429139746
 30
0.0
 11
-233.2827493277765
 21
72.94842429139746
 31
0.0
  0
LINE
  5
1F9
330
1F
100
AcDbEntity
  8
1
  6
Continuous
 62
     2
100
AcDbLine
 10
-233.2827493277765
 20
72.94842429139746
 30
0.0
 11
-232.8709846218942
 21
72.8317576247308
 31
0.0
  0
LINE
  5
1FA
330
1F
100
AcDbEntity
  8
1
  6
Continuous
 62
     2
100
AcDbLine
 10
-232.8709846218942
 20
72.8317576247308
 30
0.0
 11
-232.4592199160119
 21
72.4817576247308
 31
0.0
  0
LINE
  5
1FB
330
1F
100
AcDbEntity
  8
1
  6
Continuous
 62
     2
100
AcDbLine
 10
-232.4592199160119
 20
72.4817576247308
 30
0.0
 11
-232.2533375630707
 21
72.01509095806414
 31
0.0
  0
LINE
  5
1FC
330
1F
100
AcDbEntity
  8
1
  6
Continuous
 62
     2
100
AcDbLine
 10
-232.2533375630707
 20
72.01509095806414
 30
0.0
 11
-232.4592199160119
 21
71.43175762473079
 31
0.0
  0
LINE
  5
1FD
330
1F
100
AcDbEntity
  8
1
  6
Continuous
 62
     2
100
AcDbLine
 10
-232.4592199160119
 20
71.43175762473079
 30
0.0
 11
-232.8709846218942
 21
71.19842429139746
 31
0.0
  0
LINE
  5
1FE
330
1F
100
AcDbEntity
  8
1
  6
Continuous
 62
     2
100
AcDbLine
 10
-232.8709846218942
 20
71.19842429139746
 30
0.0
 11
-233.4886316807177
 21
71.0817576247308
 31
0.0
  0
LINE
  5
1FF
330
1F
100
AcDbEntity
  8
1
  6
Continuous
 62
     2
100
AcDbLine
 10
-233.4886316807177
 20
71.0817576247308
 30
0.0
 11
-234.1062787395413
 21
71.19842429139746
 31
0.0
  0
LINE
  5
200
330
1F
100
AcDbEntity
  8
1
  6
Continuous
 62
     2
100
AcDbLine
 10
-234.1062787395413
 20
71.19842429139746
 30
0.0
 11
-234.415102268953
 21
71.43175762473079
 31
0.0
  0
LINE
  5
201
330
1F
100
AcDbEntity
  8
1
  6
Continuous
 62
     2
100
AcDbLine
 10
-234.415102268953
 20
71.43175762473079
 30
0.0
 11
-234.6209846218942
 21
72.01509095806414
 31
0.0
  0
LINE
  5
202
330
1F
100
AcDbEntity
  8
1
  6
Continuous
 62
     2
100
AcDbLine
 10
-234.6209846218942
 20
72.01509095806414
 30
0.0
 11
-234.5180434454236
 21
72.4817576247308
 31
0.0
  0
LINE
  5
203
330
1F
100
AcDbEntity
  8
1
  6
Continuous
 62
     2
100
AcDbLine
 10
-234.5180434454236
 20
72.4817576247308
 30
0.0
 11
-234.2092199160119
 21
72.71509095806414
 31
0.0
  0
LINE
  5
204
330
1F
100
AcDbEntity
  8
1
  6
Continuous
 62
     2
100
AcDbLine
 10
-234.2092199160119
 20
72.71509095806414
 30
0.0
 11
-234.0033375630707
 21
72.8317576247308
 31
0.0
  0
LINE
  5
205
330
1F
100
AcDbEntity
  8
1
  6
Continuous
 62
     2
100
AcDbLine
 10
-234.0033375630707
 20
72.8317576247308
 30
0.0
 11
-233.5915728571883
 21
72.94842429139746
 31
0.0
  0
LINE
  5
206
330
1F
100
AcDbEntity
  8
1
  6
Continuous
 62
     2
100
AcDbLine
 10
-233.5915728571883
 20
72.94842429139746
 30
0.0
 11
-233.2827493277765
 21
72.94842429139746
 31
0.0
  0
LINE
  5
207
330
1F
100
AcDbEntity
  8
1
  6
Continuous
 62
     2
100
AcDbLine
 10
-233.2827493277765
 20
72.94842429139746
 30
0.0
 11
-232.8709846218942
 21
73.06509095806413
 31
0.0
  0
LINE
  5
208
330
1F
100
AcDbEntity
  8
1
  6
Continuous
 62
     2
100
AcDbLine
 10
-232.8709846218942
 20
73.06509095806413
 30
0.0
 11
-232.5621610924824
 21
73.41509095806413
 31
0.0
  0
LINE
  5
209
330
1F
100
AcDbEntity
  8
1
  6
Continuous
 62
     2
100
AcDbLine
 10
-232.5621610924824
 20
73.41509095806413
 30
0.0
 11
-232.4592199160119
 21
73.76509095806414
 31
0.0
  0
LINE
  5
20A
330
1F
100
AcDbEntity
  8
1
  6
Continuous
 62
     2
100
AcDbLine
 10
-232.4592199160119
 20
73.76509095806414
 30
0.0
 11
-232.5621610924824
 21
74.11509095806413
 31
0.0
  0
LINE
  5
20B
330
1F
100
AcDbEntity
  8
1
  6
Continuous
 62
     2
100
AcDbLine
 10
-232.5621610924824
 20
74.11509095806413
 30
0.0
 11
-232.665102268953
 21
74.34842429139746
 31
0.0
  0
LINE
  5
20C
330
1F
100
AcDbEntity
  8
1
  6
Continuous
 62
     2
100
AcDbLine
 10
-232.665102268953
 20
74.34842429139746
 30
0.0
 11
-232.9739257983648
 21
74.46509095806414
 31
0.0
  0
LINE
  5
20D
330
1F
100
AcDbEntity
  8
1
  6
Continuous
 62
     2
100
AcDbLine
 10
-232.9739257983648
 20
74.46509095806414
 30
0.0
 11
-233.4886316807177
 21
74.5817576247308
 31
0.0
  0
LINE
  5
20E
330
1F
100
AcDbEntity
  8
1
  6
Continuous
 62
     2
100
AcDbLine
 10
-230.1291421868824
 20
72.48143904145458
 30
0.0
 11
-230.1291421868824
 21
73.51268904145458
 31
0.0
  0
LINE
  5
20F
330
1F
100
AcDbEntity
  8
1
  6
Continuous
 62
     2
100
AcDbLine
 10
-230.6291421868824
 20
72.99706404145458
 30
0.0
 11
-229.6291421868824
 21
72.99706404145458
 31
0.0
  0
LINE
  5
210
330
1F
100
AcDbEntity
  8
1
  6
Continuous
 62
     2
100
AcDbLine
 10
-230.6291421868824
 20
72.29393904145458
 30
0.0
 11
-229.6291421868824
 21
72.29393904145458
 31
0.0
  0
LINE
  5
211
330
1F
100
AcDbEntity
  8
1
  6
Continuous
 62
     2
100
AcDbLine
 10
-227.6347765571442
 20
74.18204583123858
 30
0.0
 11
-228.0759530277325
 21
74.01537916457191
 31
0.0
  0
LINE
  5
212
330
1F
100
AcDbEntity
  8
1
  6
Continuous
 62
     2
100
AcDbLine
 10
-228.0759530277325
 20
74.01537916457191
 30
0.0
 11
-228.2965412630266
 21
73.59871249790525
 31
0.0
  0
LINE
  5
213
330
1F
100
AcDbEntity
  8
1
  6
Continuous
 62
     2
100
AcDbLine
 10
-228.2965412630266
 20
73.59871249790525
 30
0.0
 11
-228.443600086556
 21
72.93204583123858
 31
0.0
  0
LINE
  5
214
330
1F
100
AcDbEntity
  8
1
  6
Continuous
 62
     2
100
AcDbLine
 10
-228.443600086556
 20
72.93204583123858
 30
0.0
 11
-228.2965412630266
 21
72.26537916457191
 31
0.0
  0
LINE
  5
215
330
1F
100
AcDbEntity
  8
1
  6
Continuous
 62
     2
100
AcDbLine
 10
-228.2965412630266
 20
72.26537916457191
 30
0.0
 11
-228.0759530277325
 21
71.84871249790525
 31
0.0
  0
LINE
  5
216
330
1F
100
AcDbEntity
  8
1
  6
Continuous
 62
     2
100
AcDbLine
 10
-228.0759530277325
 20
71.84871249790525
 30
0.0
 11
-227.6347765571442
 21
71.68204583123858
 31
0.0
  0
LINE
  5
217
330
1F
100
AcDbEntity
  8
1
  6
Continuous
 62
     2
100
AcDbLine
 10
-227.6347765571442
 20
71.68204583123858
 30
0.0
 11
-227.193600086556
 21
71.84871249790525
 31
0.0
  0
LINE
  5
218
330
1F
100
AcDbEntity
  8
1
  6
Continuous
 62
     2
100
AcDbLine
 10
-227.193600086556
 20
71.84871249790525
 30
0.0
 11
-226.8994824394972
 21
72.26537916457191
 31
0.0
  0
LINE
  5
219
330
1F
100
AcDbEntity
  8
1
  6
Continuous
 62
     2
100
AcDbLine
 10
-226.8994824394972
 20
72.26537916457191
 30
0.0
 11
-226.8259530277325
 21
72.93204583123858
 31
0.0
  0
LINE
  5
21A
330
1F
100
AcDbEntity
  8
1
  6
Continuous
 62
     2
100
AcDbLine
 10
-226.8259530277325
 20
72.93204583123858
 30
0.0
 11
-226.8994824394972
 21
73.59871249790525
 31
0.0
  0
LINE
  5
21B
330
1F
100
AcDbEntity
  8
1
  6
Continuous
 62
     2
100
AcDbLine
 10
-226.8994824394972
 20
73.59871249790525
 30
0.0
 11
-227.193600086556
 21
74.01537916457191
 31
0.0
  0
LINE
  5
21C
330
1F
100
AcDbEntity
  8
1
  6
Continuous
 62
     2
100
AcDbLine
 10
-227.193600086556
 20
74.01537916457191
 30
0.0
 11
-227.6347765571442
 21
74.18204583123858
 31
0.0
  0
LINE
  5
21D
330
1F
100
AcDbEntity
  8
1
  6
Continuous
 62
     2
100
AcDbLine
 10
-225.943600086556
 20
72.09871249790525
 30
0.0
 11
-225.7965412630266
 21
71.93204583123858
 31
0.0
  0
LINE
  5
21E
330
1F
100
AcDbEntity
  8
1
  6
Continuous
 62
     2
100
AcDbLine
 10
-225.7965412630266
 20
71.93204583123858
 30
0.0
 11
-225.943600086556
 21
71.76537916457191
 31
0.0
  0
LINE
  5
21F
330
1F
100
AcDbEntity
  8
1
  6
Continuous
 62
     2
100
AcDbLine
 10
-225.943600086556
 20
71.76537916457191
 30
0.0
 11
-226.0906589100854
 21
71.93204583123858
 31
0.0
  0
LINE
  5
220
330
1F
100
AcDbEntity
  8
1
  6
Continuous
 62
     2
100
AcDbLine
 10
-226.0906589100854
 20
71.93204583123858
 30
0.0
 11
-225.943600086556
 21
72.09871249790525
 31
0.0
  0
LINE
  5
221
330
1F
100
AcDbEntity
  8
1
  6
Continuous
 62
     2
100
AcDbLine
 10
-225.8700706747913
 20
72.01537916457191
 30
0.0
 11
-225.8700706747913
 21
71.84871249790525
 31
0.0
  0
LINE
  5
222
330
1F
100
AcDbEntity
  8
1
  6
Continuous
 62
     2
100
AcDbLine
 10
-225.8700706747913
 20
71.84871249790525
 30
0.0
 11
-226.0171294983207
 21
71.84871249790525
 31
0.0
  0
LINE
  5
223
330
1F
100
AcDbEntity
  8
1
  6
Continuous
 62
     2
100
AcDbLine
 10
-226.0171294983207
 20
71.84871249790525
 30
0.0
 11
-226.0171294983207
 21
72.01537916457191
 31
0.0
  0
LINE
  5
224
330
1F
100
AcDbEntity
  8
1
  6
Continuous
 62
     2
100
AcDbLine
 10
-226.0171294983207
 20
72.01537916457191
 30
0.0
 11
-225.8700706747913
 21
72.01537916457191
 31
0.0
  0
LINE
  5
225
330
1F
100
AcDbEntity
  8
1
  6
Continuous
 62
     2
100
AcDbLine
 10
-225.943600086556
 20
72.01537916457191
 30
0.0
 11
-225.8700706747913
 21
71.93204583123858
 31
0.0
  0
LINE
  5
226
330
1F
100
AcDbEntity
  8
1
  6
Continuous
 62
     2
100
AcDbLine
 10
-225.8700706747913
 20
71.93204583123858
 30
0.0
 11
-225.943600086556
 21
71.84871249790525
 31
0.0
  0
LINE
  5
227
330
1F
100
AcDbEntity
  8
1
  6
Continuous
 62
     2
100
AcDbLine
 10
-225.943600086556
 20
71.84871249790525
 30
0.0
 11
-226.0171294983207
 21
71.93204583123858
 31
0.0
  0
LINE
  5
228
330
1F
100
AcDbEntity
  8
1
  6
Continuous
 62
     2
100
AcDbLine
 10
-226.0171294983207
 20
71.93204583123858
 30
0.0
 11
-225.943600086556
 21
72.01537916457191
 31
0.0
  0
LINE
  5
229
330
1F
100
AcDbEntity
  8
1
  6
Continuous
 62
     2
100
AcDbLine
 10
-223.6641883218501
 20
74.18204583123858
 30
0.0
 11
-224.9141883218501
 21
74.18204583123858
 31
0.0
  0
LINE
  5
22A
330
1F
100
AcDbEntity
  8
1
  6
Continuous
 62
     2
100
AcDbLine
 10
-224.9141883218501
 20
74.18204583123858
 30
0.0
 11
-224.9877177336148
 21
72.93204583123858
 31
0.0
  0
LINE
  5
22B
330
1F
100
AcDbEntity
  8
1
  6
Continuous
 62
     2
100
AcDbLine
 10
-224.9877177336148
 20
72.93204583123858
 30
0.0
 11
-224.6200706747913
 21
73.18204583123858
 31
0.0
  0
LINE
  5
22C
330
1F
100
AcDbEntity
  8
1
  6
Continuous
 62
     2
100
AcDbLine
 10
-224.6200706747913
 20
73.18204583123858
 30
0.0
 11
-224.3259530277325
 21
73.26537916457191
 31
0.0
  0
LINE
  5
22D
330
1F
100
AcDbEntity
  8
1
  6
Continuous
 62
     2
100
AcDbLine
 10
-224.3259530277325
 20
73.26537916457191
 30
0.0
 11
-224.0318353806736
 21
73.18204583123858
 31
0.0
  0
LINE
  5
22E
330
1F
100
AcDbEntity
  8
1
  6
Continuous
 62
     2
100
AcDbLine
 10
-224.0318353806736
 20
73.18204583123858
 30
0.0
 11
-223.8112471453795
 21
73.01537916457191
 31
0.0
  0
LINE
  5
22F
330
1F
100
AcDbEntity
  8
1
  6
Continuous
 62
     2
100
AcDbLine
 10
-223.8112471453795
 20
73.01537916457191
 30
0.0
 11
-223.6641883218501
 21
72.84871249790525
 31
0.0
  0
LINE
  5
230
330
1F
100
AcDbEntity
  8
1
  6
Continuous
 62
     2
100
AcDbLine
 10
-223.6641883218501
 20
72.84871249790525
 30
0.0
 11
-223.5906589100854
 21
72.43204583123858
 31
0.0
  0
LINE
  5
231
330
1F
100
AcDbEntity
  8
1
  6
Continuous
 62
     2
100
AcDbLine
 10
-223.5906589100854
 20
72.43204583123858
 30
0.0
 11
-223.6641883218501
 21
72.01537916457191
 31
0.0
  0
LINE
  5
232
330
1F
100
AcDbEntity
  8
1
  6
Continuous
 62
     2
100
AcDbLine
 10
-223.6641883218501
 20
72.01537916457191
 30
0.0
 11
-223.8112471453795
 21
71.84871249790525
 31
0.0
  0
LINE
  5
233
330
1F
100
AcDbEntity
  8
1
  6
Continuous
 62
     2
100
AcDbLine
 10
-223.8112471453795
 20
71.84871249790525
 30
0.0
 11
-224.0318353806736
 21
71.68204583123858
 31
0.0
  0
LINE
  5
234
330
1F
100
AcDbEntity
  8
1
  6
Continuous
 62
     2
100
AcDbLine
 10
-224.0318353806736
 20
71.68204583123858
 30
0.0
 11
-224.5465412630266
 21
71.68204583123858
 31
0.0
  0
LINE
  5
235
330
1F
100
AcDbEntity
  8
1
  6
Continuous
 62
     2
100
AcDbLine
 10
-224.5465412630266
 20
71.68204583123858
 30
0.0
 11
-224.8406589100854
 21
71.84871249790525
 31
0.0
  0
LINE
  5
236
330
1F
100
AcDbEntity
  8
1
  6
Continuous
 62
     2
100
AcDbLine
 10
-224.8406589100854
 20
71.84871249790525
 30
0.0
 11
-225.0612471453795
 21
72.01537916457191
 31
0.0
  0
LINE
  5
237
330
1F
100
AcDbEntity
  8
1
  6
Continuous
 62
     4
100
AcDbLine
 10
-200.394151412291
 20
131.696702619857
 30
0.0
 11
-193.394151412291
 21
131.696702619857
 31
0.0
  0
LINE
  5
238
330
1F
100
AcDbEntity
  8
1
  6
Continuous
 62
     4
100
AcDbLine
 10
-193.394151412291
 20
131.696702619857
 30
0.0
 11
-193.394151412291
 21
138.696702619857
 31
0.0
  0
LINE
  5
239
330
1F
100
AcDbEntity
  8
1
  6
Continuous
 62
     4
100
AcDbLine
 10
-193.394151412291
 20
138.696702619857
 30
0.0
 11
-200.394151412291
 21
138.696702619857
 31
0.0
  0
LINE
  5
23A
330
1F
100
AcDbEntity
  8
1
  6
Continuous
 62
     4
100
AcDbLine
 10
-200.394151412291
 20
138.696702619857
 30
0.0
 11
-200.394151412291
 21
131.696702619857
 31
0.0
  0
LINE
  5
23B
330
1F
100
AcDbEntity
  8
1
  6
Continuous
 62
     4
100
AcDbLine
 10
-198.0265043534675
 20
133.446702619857
 30
0.0
 11
-196.894151412291
 21
136.946702619857
 31
0.0
  0
LINE
  5
23C
330
1F
100
AcDbEntity
  8
1
  6
Continuous
 62
     4
100
AcDbLine
 10
-196.894151412291
 20
136.946702619857
 30
0.0
 11
-195.7617984711145
 21
133.446702619857
 31
0.0
  0
LINE
  5
23D
330
1F
100
AcDbEntity
  8
1
  6
Continuous
 62
     4
100
AcDbLine
 10
-197.7176808240557
 20
134.3800359531903
 30
0.0
 11
-196.0706220005263
 21
134.3800359531903
 31
0.0
  0
LINE
  5
23E
330
1F
100
AcDbEntity
  8
1
  6
Continuous
 62
     4
100
AcDbLine
 10
-213.246155176553
 20
153.563242232523
 30
0.0
 11
-212.546155176553
 21
153.563242232523
 31
0.0
  0
LINE
  5
23F
330
1F
100
AcDbEntity
  8
1
  6
Continuous
 62
     4
100
AcDbLine
 10
-212.546155176553
 20
153.563242232523
 30
0.0
 11
-211.846155176553
 21
153.913242232523
 31
0.0
  0
LINE
  5
240
330
1F
100
AcDbEntity
  8
1
  6
Continuous
 62
     4
100
AcDbLine
 10
-211.846155176553
 20
153.913242232523
 30
0.0
 11
-211.496155176553
 21
154.263242232523
 31
0.0
  0
LINE
  5
241
330
1F
100
AcDbEntity
  8
1
  6
Continuous
 62
     4
100
AcDbLine
 10
-211.496155176553
 20
154.263242232523
 30
0.0
 11
-211.146155176553
 21
154.963242232523
 31
0.0
  0
LINE
  5
242
330
1F
100
AcDbEntity
  8
1
  6
Continuous
 62
     4
100
AcDbLine
 10
-211.146155176553
 20
154.963242232523
 30
0.0
 11
-211.146155176553
 21
155.663242232523
 31
0.0
  0
LINE
  5
243
330
1F
100
AcDbEntity
  8
1
  6
Continuous
 62
     4
100
AcDbLine
 10
-211.146155176553
 20
155.663242232523
 30
0.0
 11
-211.496155176553
 21
156.363242232523
 31
0.0
  0
LINE
  5
244
330
1F
100
AcDbEntity
  8
1
  6
Continuous
 62
     4
100
AcDbLine
 10
-211.496155176553
 20
156.363242232523
 30
0.0
 11
-211.846155176553
 21
156.713242232523
 31
0.0
  0
LINE
  5
245
330
1F
100
AcDbEntity
  8
1
  6
Continuous
 62
     4
100
AcDbLine
 10
-211.846155176553
 20
156.713242232523
 30
0.0
 11
-212.546155176553
 21
157.063242232523
 31
0.0
  0
LINE
  5
246
330
1F
100
AcDbEntity
  8
1
  6
Continuous
 62
     4
100
AcDbLine
 10
-212.546155176553
 20
157.063242232523
 30
0.0
 11
-213.246155176553
 21
157.063242232523
 31
0.0
  0
LINE
  5
247
330
1F
100
AcDbEntity
  8
1
  6
Continuous
 62
     4
100
AcDbLine
 10
-213.246155176553
 20
157.063242232523
 30
0.0
 11
-213.946155176553
 21
156.713242232523
 31
0.0
  0
LINE
  5
248
330
1F
100
AcDbEntity
  8
1
  6
Continuous
 62
     4
100
AcDbLine
 10
-213.946155176553
 20
156.713242232523
 30
0.0
 11
-214.296155176553
 21
156.363242232523
 31
0.0
  0
LINE
  5
249
330
1F
100
AcDbEntity
  8
1
  6
Continuous
 62
     4
100
AcDbLine
 10
-214.296155176553
 20
156.363242232523
 30
0.0
 11
-214.646155176553
 21
155.663242232523
 31
0.0
  0
LINE
  5
24A
330
1F
100
AcDbEntity
  8
1
  6
Continuous
 62
     4
100
AcDbLine
 10
-214.646155176553
 20
155.663242232523
 30
0.0
 11
-214.646155176553
 21
154.963242232523
 31
0.0
  0
LINE
  5
24B
330
1F
100
AcDbEntity
  8
1
  6
Continuous
 62
     4
100
AcDbLine
 10
-214.646155176553
 20
154.963242232523
 30
0.0
 11
-214.296155176553
 21
154.263242232523
 31
0.0
  0
LINE
  5
24C
330
1F
100
AcDbEntity
  8
1
  6
Continuous
 62
     4
100
AcDbLine
 10
-214.296155176553
 20
154.263242232523
 30
0.0
 11
-213.946155176553
 21
153.913242232523
 31
0.0
  0
LINE
  5
24D
330
1F
100
AcDbEntity
  8
1
  6
Continuous
 62
     4
100
AcDbLine
 10
-213.946155176553
 20
153.913242232523
 30
0.0
 11
-213.246155176553
 21
153.563242232523
 31
0.0
  0
LINE
  5
24E
330
1F
100
AcDbEntity
  8
1
  6
Continuous
 62
     4
100
AcDbLine
 10
-213.246155176553
 20
152.688242232523
 30
0.0
 11
-212.546155176553
 21
152.688242232523
 31
0.0
  0
LINE
  5
24F
330
1F
100
AcDbEntity
  8
1
  6
Continuous
 62
     4
100
AcDbLine
 10
-212.546155176553
 20
152.688242232523
 30
0.0
 11
-211.846155176553
 21
152.863242232523
 31
0.0
  0
LINE
  5
250
330
1F
100
AcDbEntity
  8
1
  6
Continuous
 62
     4
100
AcDbLine
 10
-211.846155176553
 20
152.863242232523
 30
0.0
 11
-211.321155176553
 21
153.213242232523
 31
0.0
  0
LINE
  5
251
330
1F
100
AcDbEntity
  8
1
  6
Continuous
 62
     4
100
AcDbLine
 10
-211.321155176553
 20
153.213242232523
 30
0.0
 11
-210.796155176553
 21
153.738242232523
 31
0.0
  0
LINE
  5
252
330
1F
100
AcDbEntity
  8
1
  6
Continuous
 62
     4
100
AcDbLine
 10
-210.796155176553
 20
153.738242232523
 30
0.0
 11
-210.446155176553
 21
154.263242232523
 31
0.0
  0
LINE
  5
253
330
1F
100
AcDbEntity
  8
1
  6
Continuous
 62
     4
100
AcDbLine
 10
-210.446155176553
 20
154.263242232523
 30
0.0
 11
-210.271155176553
 21
154.963242232523
 31
0.0
  0
LINE
  5
254
330
1F
100
AcDbEntity
  8
1
  6
Continuous
 62
     4
100
AcDbLine
 10
-210.271155176553
 20
154.963242232523
 30
0.0
 11
-210.271155176553
 21
155.663242232523
 31
0.0
  0
LINE
  5
255
330
1F
100
AcDbEntity
  8
1
  6
Continuous
 62
     4
100
AcDbLine
 10
-210.271155176553
 20
155.663242232523
 30
0.0
 11
-210.446155176553
 21
156.363242232523
 31
0.0
  0
LINE
  5
256
330
1F
100
AcDbEntity
  8
1
  6
Continuous
 62
     4
100
AcDbLine
 10
-210.446155176553
 20
156.363242232523
 30
0.0
 11
-210.796155176553
 21
156.888242232523
 31
0.0
  0
LINE
  5
257
330
1F
100
AcDbEntity
  8
1
  6
Continuous
 62
     4
100
AcDbLine
 10
-210.796155176553
 20
156.888242232523
 30
0.0
 11
-211.321155176553
 21
157.413242232523
 31
0.0
  0
LINE
  5
258
330
1F
100
AcDbEntity
  8
1
  6
Continuous
 62
     4
100
AcDbLine
 10
-211.321155176553
 20
157.413242232523
 30
0.0
 11
-211.846155176553
 21
157.763242232523
 31
0.0
  0
LINE
  5
259
330
1F
100
AcDbEntity
  8
1
  6
Continuous
 62
     4
100
AcDbLine
 10
-211.846155176553
 20
157.763242232523
 30
0.0
 11
-212.546155176553
 21
157.938242232523
 31
0.0
  0
LINE
  5
25A
330
1F
100
AcDbEntity
  8
1
  6
Continuous
 62
     4
100
AcDbLine
 10
-212.546155176553
 20
157.938242232523
 30
0.0
 11
-213.246155176553
 21
157.938242232523
 31
0.0
  0
LINE
  5
25B
330
1F
100
AcDbEntity
  8
1
  6
Continuous
 62
     4
100
AcDbLine
 10
-213.246155176553
 20
157.938242232523
 30
0.0
 11
-213.946155176553
 21
157.763242232523
 31
0.0
  0
LINE
  5
25C
330
1F
100
AcDbEntity
  8
1
  6
Continuous
 62
     4
100
AcDbLine
 10
-213.946155176553
 20
157.763242232523
 30
0.0
 11
-214.471155176553
 21
157.413242232523
 31
0.0
  0
LINE
  5
25D
330
1F
100
AcDbEntity
  8
1
  6
Continuous
 62
     4
100
AcDbLine
 10
-214.471155176553
 20
157.413242232523
 30
0.0
 11
-214.996155176553
 21
156.888242232523
 31
0.0
  0
LINE
  5
25E
330
1F
100
AcDbEntity
  8
1
  6
Continuous
 62
     4
100
AcDbLine
 10
-214.996155176553
 20
156.888242232523
 30
0.0
 11
-215.346155176553
 21
156.363242232523
 31
0.0
  0
LINE
  5
25F
330
1F
100
AcDbEntity
  8
1
  6
Continuous
 62
     4
100
AcDbLine
 10
-215.346155176553
 20
156.363242232523
 30
0.0
 11
-215.521155176553
 21
155.663242232523
 31
0.0
  0
LINE
  5
260
330
1F
100
AcDbEntity
  8
1
  6
Continuous
 62
     4
100
AcDbLine
 10
-215.521155176553
 20
155.663242232523
 30
0.0
 11
-215.521155176553
 21
154.963242232523
 31
0.0
  0
LINE
  5
261
330
1F
100
AcDbEntity
  8
1
  6
Continuous
 62
     4
100
AcDbLine
 10
-215.521155176553
 20
154.963242232523
 30
0.0
 11
-215.346155176553
 21
154.263242232523
 31
0.0
  0
LINE
  5
262
330
1F
100
AcDbEntity
  8
1
  6
Continuous
 62
     4
100
AcDbLine
 10
-215.346155176553
 20
154.263242232523
 30
0.0
 11
-214.996155176553
 21
153.738242232523
 31
0.0
  0
LINE
  5
263
330
1F
100
AcDbEntity
  8
1
  6
Continuous
 62
     4
100
AcDbLine
 10
-214.996155176553
 20
153.738242232523
 30
0.0
 11
-214.471155176553
 21
153.213242232523
 31
0.0
  0
LINE
  5
264
330
1F
100
AcDbEntity
  8
1
  6
Continuous
 62
     4
100
AcDbLine
 10
-214.471155176553
 20
153.213242232523
 30
0.0
 11
-213.946155176553
 21
152.863242232523
 31
0.0
  0
LINE
  5
265
330
1F
100
AcDbEntity
  8
1
  6
Continuous
 62
     4
100
AcDbLine
 10
-213.946155176553
 20
152.863242232523
 30
0.0
 11
-213.246155176553
 21
152.688242232523
 31
0.0
  0
LINE
  5
266
330
1F
100
AcDbEntity
  8
1
  6
Continuous
 62
     4
100
AcDbLine
 10
-209.396155176553
 20
151.813242232523
 30
0.0
 11
-209.396155176553
 21
179.813242232523
 31
0.0
  0
LINE
  5
267
330
1F
100
AcDbEntity
  8
1
  6
Continuous
 62
     4
100
AcDbLine
 10
-209.396155176553
 20
158.813242232523
 30
0.0
 11
-216.396155176553
 21
158.813242232523
 31
0.0
  0
LINE
  5
268
330
1F
100
AcDbEntity
  8
1
  6
Continuous
 62
     4
100
AcDbLine
 10
-216.396155176553
 20
179.813242232523
 30
0.0
 11
-216.396155176553
 21
151.813242232523
 31
0.0
  0
LINE
  5
269
330
1F
100
AcDbEntity
  8
1
  6
Continuous
 62
     4
100
AcDbLine
 10
-216.396155176553
 20
151.813242232523
 30
0.0
 11
-209.396155176553
 21
151.813242232523
 31
0.0
  0
LINE
  5
26A
330
1F
100
AcDbEntity
  8
1
  6
Continuous
 62
     4
100
AcDbLine
 10
-209.396155176553
 20
179.813242232523
 30
0.0
 11
-216.396155176553
 21
179.813242232523
 31
0.0
  0
LINE
  5
26B
330
1F
100
AcDbEntity
  8
1
  6
Continuous
 62
     4
100
AcDbLine
 10
-216.396155176553
 20
172.813242232523
 30
0.0
 11
-209.396155176553
 21
172.813242232523
 31
0.0
  0
LINE
  5
26C
330
1F
100
AcDbEntity
  8
1
  6
Continuous
 62
     4
100
AcDbLine
 10
-211.146155176553
 20
161.4468206638956
 30
0.0
 11
-214.536780176553
 21
162.1759873305622
 31
0.0
  0
LINE
  5
26D
330
1F
100
AcDbEntity
  8
1
  6
Continuous
 62
     4
100
AcDbLine
 10
-213.661780176553
 20
162.0301539972289
 30
0.0
 11
-213.661780176553
 21
161.7384873305622
 31
0.0
  0
LINE
  5
26E
330
1F
100
AcDbEntity
  8
1
  6
Continuous
 62
     4
100
AcDbLine
 10
-213.661780176553
 20
161.7384873305622
 30
0.0
 11
-213.443030176553
 21
161.4468206638956
 31
0.0
  0
LINE
  5
26F
330
1F
100
AcDbEntity
  8
1
  6
Continuous
 62
     4
100
AcDbLine
 10
-213.443030176553
 20
161.4468206638956
 30
0.0
 11
-212.896155176553
 21
161.2280706638956
 31
0.0
  0
LINE
  5
270
330
1F
100
AcDbEntity
  8
1
  6
Continuous
 62
     4
100
AcDbLine
 10
-212.896155176553
 20
161.2280706638956
 30
0.0
 11
-212.458655176553
 21
161.2280706638956
 31
0.0
  0
LINE
  5
271
330
1F
100
AcDbEntity
  8
1
  6
Continuous
 62
     4
100
AcDbLine
 10
-212.458655176553
 20
161.2280706638956
 30
0.0
 11
-212.021155176553
 21
161.3739039972289
 31
0.0
  0
LINE
  5
272
330
1F
100
AcDbEntity
  8
1
  6
Continuous
 62
     4
100
AcDbLine
 10
-212.021155176553
 20
161.3739039972289
 30
0.0
 11
-211.911780176553
 21
161.5926539972289
 31
0.0
  0
LINE
  5
273
330
1F
100
AcDbEntity
  8
1
  6
Continuous
 62
     4
100
AcDbLine
 10
-211.911780176553
 20
161.5926539972289
 30
0.0
 11
-211.911780176553
 21
161.8843206638956
 31
0.0
  0
LINE
  5
274
330
1F
100
AcDbEntity
  8
1
  6
Continuous
 62
     4
100
AcDbLine
 10
-211.911780176553
 20
161.8843206638956
 30
0.0
 11
-212.130530176553
 21
162.1759873305622
 31
0.0
  0
LINE
  5
275
330
1F
100
AcDbEntity
  8
1
  6
Continuous
 62
     4
100
AcDbLine
 10
-212.130530176553
 20
162.1759873305622
 30
0.0
 11
-212.677405176553
 21
162.3947373305622
 31
0.0
  0
LINE
  5
276
330
1F
100
AcDbEntity
  8
1
  6
Continuous
 62
     4
100
AcDbLine
 10
-212.677405176553
 20
162.3947373305622
 30
0.0
 11
-213.114905176553
 21
162.3947373305622
 31
0.0
  0
LINE
  5
277
330
1F
100
AcDbEntity
  8
1
  6
Continuous
 62
     4
100
AcDbLine
 10
-213.114905176553
 20
162.3947373305622
 30
0.0
 11
-213.552405176553
 21
162.2489039972289
 31
0.0
  0
LINE
  5
278
330
1F
100
AcDbEntity
  8
1
  6
Continuous
 62
     4
100
AcDbLine
 10
-213.552405176553
 20
162.2489039972289
 30
0.0
 11
-213.661780176553
 21
162.0301539972289
 31
0.0
  0
LINE
  5
279
330
1F
100
AcDbEntity
  8
1
  6
Continuous
 62
     4
100
AcDbLine
 10
-214.646155176553
 20
164.1919187031112
 30
0.0
 11
-214.4128218432197
 21
163.7286834089936
 31
0.0
  0
LINE
  5
27A
330
1F
100
AcDbEntity
  8
1
  6
Continuous
 62
     4
100
AcDbLine
 10
-214.4128218432197
 20
163.7286834089936
 30
0.0
 11
-213.8294885098864
 21
163.4970657619348
 31
0.0
  0
LINE
  5
27B
330
1F
100
AcDbEntity
  8
1
  6
Continuous
 62
     4
100
AcDbLine
 10
-213.8294885098864
 20
163.4970657619348
 30
0.0
 11
-212.896155176553
 21
163.3426539972289
 31
0.0
  0
LINE
  5
27C
330
1F
100
AcDbEntity
  8
1
  6
Continuous
 62
     4
100
AcDbLine
 10
-212.896155176553
 20
163.3426539972289
 30
0.0
 11
-211.9628218432197
 21
163.4970657619348
 31
0.0
  0
LINE
  5
27D
330
1F
100
AcDbEntity
  8
1
  6
Continuous
 62
     4
100
AcDbLine
 10
-211.9628218432197
 20
163.4970657619348
 30
0.0
 11
-211.3794885098863
 21
163.7286834089936
 31
0.0
  0
LINE
  5
27E
330
1F
100
AcDbEntity
  8
1
  6
Continuous
 62
     4
100
AcDbLine
 10
-211.3794885098863
 20
163.7286834089936
 30
0.0
 11
-211.146155176553
 21
164.1919187031112
 31
0.0
  0
LINE
  5
27F
330
1F
100
AcDbEntity
  8
1
  6
Continuous
 62
     4
100
AcDbLine
 10
-211.146155176553
 20
164.1919187031112
 30
0.0
 11
-211.3794885098863
 21
164.6551539972289
 31
0.0
  0
LINE
  5
280
330
1F
100
AcDbEntity
  8
1
  6
Continuous
 62
     4
100
AcDbLine
 10
-211.3794885098863
 20
164.6551539972289
 30
0.0
 11
-211.9628218432197
 21
164.9639775266407
 31
0.0
  0
LINE
  5
281
330
1F
100
AcDbEntity
  8
1
  6
Continuous
 62
     4
100
AcDbLine
 10
-211.9628218432197
 20
164.9639775266407
 30
0.0
 11
-212.896155176553
 21
165.0411834089936
 31
0.0
  0
LINE
  5
282
330
1F
100
AcDbEntity
  8
1
  6
Continuous
 62
     4
100
AcDbLine
 10
-212.896155176553
 20
165.0411834089936
 30
0.0
 11
-213.8294885098864
 21
164.9639775266407
 31
0.0
  0
LINE
  5
283
330
1F
100
AcDbEntity
  8
1
  6
Continuous
 62
     4
100
AcDbLine
 10
-213.8294885098864
 20
164.9639775266407
 30
0.0
 11
-214.4128218432197
 21
164.6551539972289
 31
0.0
  0
LINE
  5
284
330
1F
100
AcDbEntity
  8
1
  6
Continuous
 62
     4
100
AcDbLine
 10
-214.4128218432197
 20
164.6551539972289
 30
0.0
 11
-214.646155176553
 21
164.1919187031112
 31
0.0
  0
LINE
  5
285
330
1F
100
AcDbEntity
  8
1
  6
Continuous
 62
     4
100
AcDbLine
 10
-211.7294885098864
 20
165.9676539972289
 30
0.0
 11
-211.496155176553
 21
166.1220657619348
 31
0.0
  0
LINE
  5
286
330
1F
100
AcDbEntity
  8
1
  6
Continuous
 62
     4
100
AcDbLine
 10
-211.496155176553
 20
166.1220657619348
 30
0.0
 11
-211.2628218432197
 21
165.9676539972289
 31
0.0
  0
LINE
  5
287
330
1F
100
AcDbEntity
  8
1
  6
Continuous
 62
     4
100
AcDbLine
 10
-211.2628218432197
 20
165.9676539972289
 30
0.0
 11
-211.496155176553
 21
165.813242232523
 31
0.0
  0
LINE
  5
288
330
1F
100
AcDbEntity
  8
1
  6
Continuous
 62
     4
100
AcDbLine
 10
-211.496155176553
 20
165.813242232523
 30
0.0
 11
-211.7294885098864
 21
165.9676539972289
 31
0.0
  0
LINE
  5
289
330
1F
100
AcDbEntity
  8
1
  6
Continuous
 62
     4
100
AcDbLine
 10
-211.6128218432197
 20
166.0448598795818
 30
0.0
 11
-211.3794885098863
 21
166.0448598795818
 31
0.0
  0
LINE
  5
28A
330
1F
100
AcDbEntity
  8
1
  6
Continuous
 62
     4
100
AcDbLine
 10
-211.3794885098863
 20
166.0448598795818
 30
0.0
 11
-211.3794885098863
 21
165.8904481148759
 31
0.0
  0
LINE
  5
28B
330
1F
100
AcDbEntity
  8
1
  6
Continuous
 62
     4
100
AcDbLine
 10
-211.3794885098863
 20
165.8904481148759
 30
0.0
 11
-211.6128218432197
 21
165.8904481148759
 31
0.0
  0
LINE
  5
28C
330
1F
100
AcDbEntity
  8
1
  6
Continuous
 62
     4
100
AcDbLine
 10
-211.6128218432197
 20
165.8904481148759
 30
0.0
 11
-211.6128218432197
 21
166.0448598795818
 31
0.0
  0
LINE
  5
28D
330
1F
100
AcDbEntity
  8
1
  6
Continuous
 62
     4
100
AcDbLine
 10
-211.6128218432197
 20
165.9676539972289
 30
0.0
 11
-211.496155176553
 21
166.0448598795818
 31
0.0
  0
LINE
  5
28E
330
1F
100
AcDbEntity
  8
1
  6
Continuous
 62
     4
100
AcDbLine
 10
-211.496155176553
 20
166.0448598795818
 30
0.0
 11
-211.3794885098863
 21
165.9676539972289
 31
0.0
  0
LINE
  5
28F
330
1F
100
AcDbEntity
  8
1
  6
Continuous
 62
     4
100
AcDbLine
 10
-211.3794885098863
 20
165.9676539972289
 30
0.0
 11
-211.496155176553
 21
165.8904481148759
 31
0.0
  0
LINE
  5
290
330
1F
100
AcDbEntity
  8
1
  6
Continuous
 62
     4
100
AcDbLine
 10
-211.496155176553
 20
165.8904481148759
 30
0.0
 11
-211.6128218432197
 21
165.9676539972289
 31
0.0
  0
LINE
  5
291
330
1F
100
AcDbEntity
  8
1
  6
Continuous
 62
     4
100
AcDbLine
 10
-214.646155176553
 20
167.7433892913466
 30
0.0
 11
-214.4128218432197
 21
167.2801539972289
 31
0.0
  0
LINE
  5
292
330
1F
100
AcDbEntity
  8
1
  6
Continuous
 62
     4
100
AcDbLine
 10
-214.4128218432197
 20
167.2801539972289
 30
0.0
 11
-213.8294885098864
 21
167.0485363501701
 31
0.0
  0
LINE
  5
293
330
1F
100
AcDbEntity
  8
1
  6
Continuous
 62
     4
100
AcDbLine
 10
-213.8294885098864
 20
167.0485363501701
 30
0.0
 11
-212.896155176553
 21
166.8941245854642
 31
0.0
  0
LINE
  5
294
330
1F
100
AcDbEntity
  8
1
  6
Continuous
 62
     4
100
AcDbLine
 10
-212.896155176553
 20
166.8941245854642
 30
0.0
 11
-211.9628218432197
 21
167.0485363501701
 31
0.0
  0
LINE
  5
295
330
1F
100
AcDbEntity
  8
1
  6
Continuous
 62
     4
100
AcDbLine
 10
-211.9628218432197
 20
167.0485363501701
 30
0.0
 11
-211.3794885098863
 21
167.2801539972289
 31
0.0
  0
LINE
  5
296
330
1F
100
AcDbEntity
  8
1
  6
Continuous
 62
     4
100
AcDbLine
 10
-211.3794885098863
 20
167.2801539972289
 30
0.0
 11
-211.146155176553
 21
167.7433892913466
 31
0.0
  0
LINE
  5
297
330
1F
100
AcDbEntity
  8
1
  6
Continuous
 62
     4
100
AcDbLine
 10
-211.146155176553
 20
167.7433892913466
 30
0.0
 11
-211.3794885098863
 21
168.2066245854642
 31
0.0
  0
LINE
  5
298
330
1F
100
AcDbEntity
  8
1
  6
Continuous
 62
     4
100
AcDbLine
 10
-211.3794885098863
 20
168.2066245854642
 30
0.0
 11
-211.9628218432197
 21
168.515448114876
 31
0.0
  0
LINE
  5
299
330
1F
100
AcDbEntity
  8
1
  6
Continuous
 62
     4
100
AcDbLine
 10
-211.9628218432197
 20
168.515448114876
 30
0.0
 11
-212.896155176553
 21
168.5926539972289
 31
0.0
  0
LINE
  5
29A
330
1F
100
AcDbEntity
  8
1
  6
Continuous
 62
     4
100
AcDbLine
 10
-212.896155176553
 20
168.5926539972289
 30
0.0
 11
-213.8294885098864
 21
168.515448114876
 31
0.0
  0
LINE
  5
29B
330
1F
100
AcDbEntity
  8
1
  6
Continuous
 62
     4
100
AcDbLine
 10
-213.8294885098864
 20
168.515448114876
 30
0.0
 11
-214.4128218432197
 21
168.2066245854642
 31
0.0
  0
LINE
  5
29C
330
1F
100
AcDbEntity
  8
1
  6
Continuous
 62
     4
100
AcDbLine
 10
-214.4128218432197
 20
168.2066245854642
 30
0.0
 11
-214.646155176553
 21
167.7433892913466
 31
0.0
  0
LINE
  5
29D
330
1F
100
AcDbEntity
  8
1
  6
Continuous
 62
     4
100
AcDbLine
 10
-214.646155176553
 20
169.3647128207583
 30
0.0
 11
-214.646155176553
 21
170.9088304678171
 31
0.0
  0
LINE
  5
29E
330
1F
100
AcDbEntity
  8
1
  6
Continuous
 62
     4
100
AcDbLine
 10
-214.646155176553
 20
170.9088304678171
 30
0.0
 11
-213.0128218432197
 21
170.2911834089936
 31
0.0
  0
LINE
  5
29F
330
1F
100
AcDbEntity
  8
1
  6
Continuous
 62
     4
100
AcDbLine
 10
-213.0128218432197
 20
170.2911834089936
 30
0.0
 11
-211.9628218432197
 21
170.1367716442877
 31
0.0
  0
LINE
  5
2A0
330
1F
100
AcDbEntity
  8
1
  6
Continuous
 62
     4
100
AcDbLine
 10
-211.9628218432197
 20
170.1367716442877
 30
0.0
 11
-211.146155176553
 21
170.1367716442877
 31
0.0
  0
LINE
  5
2A1
330
1F
100
AcDbEntity
  8
1
  6
Continuous
 62
     4
100
AcDbLine
 10
-211.146155176553
 20
175.1808892913466
 30
0.0
 11
-214.646155176553
 21
176.313242232523
 31
0.0
  0
LINE
  5
2A2
330
1F
100
AcDbEntity
  8
1
  6
Continuous
 62
     4
100
AcDbLine
 10
-214.646155176553
 20
176.313242232523
 30
0.0
 11
-211.146155176553
 21
177.4455951736995
 31
0.0
  0
LINE
  5
2A3
330
1F
100
AcDbEntity
  8
1
  6
Continuous
 62
     4
100
AcDbLine
 10
-212.0794885098864
 20
175.4897128207583
 30
0.0
 11
-212.0794885098864
 21
177.1367716442877
 31
0.0
  0
LINE
  5
2A4
330
1F
100
AcDbEntity
  8
1
  6
Continuous
 62
     4
100
AcDbLine
 10
-212.998417315647
 20
31.4405454877698
 30
0.0
 11
-207.748417315647
 21
31.4405454877698
 31
0.0
  0
LINE
  5
2A5
330
1F
100
AcDbEntity
  8
1
  6
Continuous
 62
     4
100
AcDbLine
 10
-210.373417315647
 20
31.4405454877698
 30
0.0
 11
-210.373417315647
 21
36.6905454877698
 31
0.0
  0
LINE
  5
2A6
330
1F
100
AcDbEntity
  8
1
  6
Continuous
 62
     4
100
AcDbLine
 10
-213.873417315647
 20
30.5655454877698
 30
0.0
 11
-185.873417315647
 21
30.5655454877698
 31
0.0
  0
LINE
  5
2A7
330
1F
100
AcDbEntity
  8
1
  6
Continuous
 62
     4
100
AcDbLine
 10
-206.873417315647
 20
30.5655454877698
 30
0.0
 11
-206.873417315647
 21
37.5655454877698
 31
0.0
  0
LINE
  5
2A8
330
1F
100
AcDbEntity
  8
1
  6
Continuous
 62
     4
100
AcDbLine
 10
-185.873417315647
 20
37.5655454877698
 30
0.0
 11
-213.873417315647
 21
37.5655454877698
 31
0.0
  0
LINE
  5
2A9
330
1F
100
AcDbEntity
  8
1
  6
Continuous
 62
     4
100
AcDbLine
 10
-213.873417315647
 20
37.5655454877698
 30
0.0
 11
-213.873417315647
 21
30.5655454877698
 31
0.0
  0
LINE
  5
2AA
330
1F
100
AcDbEntity
  8
1
  6
Continuous
 62
     4
100
AcDbLine
 10
-185.873417315647
 20
30.5655454877698
 30
0.0
 11
-185.873417315647
 21
37.5655454877698
 31
0.0
  0
LINE
  5
2AB
330
1F
100
AcDbEntity
  8
1
  6
Continuous
 62
     4
100
AcDbLine
 10
-192.873417315647
 20
37.5655454877698
 30
0.0
 11
-192.873417315647
 21
30.5655454877698
 31
0.0
  0
LINE
  5
2AC
330
1F
100
AcDbEntity
  8
1
  6
Continuous
 62
     4
100
AcDbLine
 10
-203.7851820215294
 20
35.8155454877698
 30
0.0
 11
-204.4028290803529
 21
35.58221215443647
 31
0.0
  0
LINE
  5
2AD
330
1F
100
AcDbEntity
  8
1
  6
Continuous
 62
     4
100
AcDbLine
 10
-204.4028290803529
 20
35.58221215443647
 30
0.0
 11
-204.7116526097646
 21
34.99887882110313
 31
0.0
  0
LINE
  5
2AE
330
1F
100
AcDbEntity
  8
1
  6
Continuous
 62
     4
100
AcDbLine
 10
-204.7116526097646
 20
34.99887882110313
 30
0.0
 11
-204.9175349627058
 21
34.0655454877698
 31
0.0
  0
LINE
  5
2AF
330
1F
100
AcDbEntity
  8
1
  6
Continuous
 62
     4
100
AcDbLine
 10
-204.9175349627058
 20
34.0655454877698
 30
0.0
 11
-204.7116526097646
 21
33.13221215443647
 31
0.0
  0
LINE
  5
2B0
330
1F
100
AcDbEntity
  8
1
  6
Continuous
 62
     4
100
AcDbLine
 10
-204.7116526097646
 20
33.13221215443647
 30
0.0
 11
-204.4028290803529
 21
32.54887882110314
 31
0.0
  0
LINE
  5
2B1
330
1F
100
AcDbEntity
  8
1
  6
Continuous
 62
     4
100
AcDbLine
 10
-204.4028290803529
 20
32.54887882110314
 30
0.0
 11
-203.7851820215294
 21
32.3155454877698
 31
0.0
  0
LINE
  5
2B2
330
1F
100
AcDbEntity
  8
1
  6
Continuous
 62
     4
100
AcDbLine
 10
-203.7851820215294
 20
32.3155454877698
 30
0.0
 11
-203.1675349627058
 21
32.54887882110314
 31
0.0
  0
LINE
  5
2B3
330
1F
100
AcDbEntity
  8
1
  6
Continuous
 62
     4
100
AcDbLine
 10
-203.1675349627058
 20
32.54887882110314
 30
0.0
 11
-202.7557702568235
 21
33.13221215443647
 31
0.0
  0
LINE
  5
2B4
330
1F
100
AcDbEntity
  8
1
  6
Continuous
 62
     4
100
AcDbLine
 10
-202.7557702568235
 20
33.13221215443647
 30
0.0
 11
-202.6528290803529
 21
34.0655454877698
 31
0.0
  0
LINE
  5
2B5
330
1F
100
AcDbEntity
  8
1
  6
Continuous
 62
     4
100
AcDbLine
 10
-202.6528290803529
 20
34.0655454877698
 30
0.0
 11
-202.7557702568235
 21
34.99887882110313
 31
0.0
  0
LINE
  5
2B6
330
1F
100
AcDbEntity
  8
1
  6
Continuous
 62
     4
100
AcDbLine
 10
-202.7557702568235
 20
34.99887882110313
 30
0.0
 11
-203.1675349627058
 21
35.58221215443647
 31
0.0
  0
LINE
  5
2B7
330
1F
100
AcDbEntity
  8
1
  6
Continuous
 62
     4
100
AcDbLine
 10
-203.1675349627058
 20
35.58221215443647
 30
0.0
 11
-203.7851820215294
 21
35.8155454877698
 31
0.0
  0
LINE
  5
2B8
330
1F
100
AcDbEntity
  8
1
  6
Continuous
 62
     4
100
AcDbLine
 10
-201.4175349627058
 20
32.89887882110314
 30
0.0
 11
-201.2116526097647
 21
32.66554548776981
 31
0.0
  0
LINE
  5
2B9
330
1F
100
AcDbEntity
  8
1
  6
Continuous
 62
     4
100
AcDbLine
 10
-201.2116526097647
 20
32.66554548776981
 30
0.0
 11
-201.4175349627058
 21
32.43221215443647
 31
0.0
  0
LINE
  5
2BA
330
1F
100
AcDbEntity
  8
1
  6
Continuous
 62
     4
100
AcDbLine
 10
-201.4175349627058
 20
32.43221215443647
 30
0.0
 11
-201.623417315647
 21
32.66554548776981
 31
0.0
  0
LINE
  5
2BB
330
1F
100
AcDbEntity
  8
1
  6
Continuous
 62
     4
100
AcDbLine
 10
-201.623417315647
 20
32.66554548776981
 30
0.0
 11
-201.4175349627058
 21
32.89887882110314
 31
0.0
  0
LINE
  5
2BC
330
1F
100
AcDbEntity
  8
1
  6
Continuous
 62
     4
100
AcDbLine
 10
-201.3145937862352
 20
32.78221215443647
 30
0.0
 11
-201.3145937862352
 21
32.54887882110314
 31
0.0
  0
LINE
  5
2BD
330
1F
100
AcDbEntity
  8
1
  6
Continuous
 62
     4
100
AcDbLine
 10
-201.3145937862352
 20
32.54887882110314
 30
0.0
 11
-201.5204761391764
 21
32.54887882110314
 31
0.0
  0
LINE
  5
2BE
330
1F
100
AcDbEntity
  8
1
  6
Continuous
 62
     4
100
AcDbLine
 10
-201.5204761391764
 20
32.54887882110314
 30
0.0
 11
-201.5204761391764
 21
32.78221215443647
 31
0.0
  0
LINE
  5
2BF
330
1F
100
AcDbEntity
  8
1
  6
Continuous
 62
     4
100
AcDbLine
 10
-201.5204761391764
 20
32.78221215443647
 30
0.0
 11
-201.3145937862352
 21
32.78221215443647
 31
0.0
  0
LINE
  5
2C0
330
1F
100
AcDbEntity
  8
1
  6
Continuous
 62
     4
100
AcDbLine
 10
-201.4175349627058
 20
32.78221215443647
 30
0.0
 11
-201.3145937862352
 21
32.66554548776981
 31
0.0
  0
LINE
  5
2C1
330
1F
100
AcDbEntity
  8
1
  6
Continuous
 62
     4
100
AcDbLine
 10
-201.3145937862352
 20
32.66554548776981
 30
0.0
 11
-201.4175349627058
 21
32.54887882110314
 31
0.0
  0
LINE
  5
2C2
330
1F
100
AcDbEntity
  8
1
  6
Continuous
 62
     4
100
AcDbLine
 10
-201.4175349627058
 20
32.54887882110314
 30
0.0
 11
-201.5204761391764
 21
32.66554548776981
 31
0.0
  0
LINE
  5
2C3
330
1F
100
AcDbEntity
  8
1
  6
Continuous
 62
     4
100
AcDbLine
 10
-201.5204761391764
 20
32.66554548776981
 30
0.0
 11
-201.4175349627058
 21
32.78221215443647
 31
0.0
  0
LINE
  5
2C4
330
1F
100
AcDbEntity
  8
1
  6
Continuous
 62
     4
100
AcDbLine
 10
-199.0498879038823
 20
35.8155454877698
 30
0.0
 11
-199.6675349627058
 21
35.58221215443647
 31
0.0
  0
LINE
  5
2C5
330
1F
100
AcDbEntity
  8
1
  6
Continuous
 62
     4
100
AcDbLine
 10
-199.6675349627058
 20
35.58221215443647
 30
0.0
 11
-199.9763584921176
 21
34.99887882110313
 31
0.0
  0
LINE
  5
2C6
330
1F
100
AcDbEntity
  8
1
  6
Continuous
 62
     4
100
AcDbLine
 10
-199.9763584921176
 20
34.99887882110313
 30
0.0
 11
-200.1822408450588
 21
34.0655454877698
 31
0.0
  0
LINE
  5
2C7
330
1F
100
AcDbEntity
  8
1
  6
Continuous
 62
     4
100
AcDbLine
 10
-200.1822408450588
 20
34.0655454877698
 30
0.0
 11
-199.9763584921176
 21
33.13221215443647
 31
0.0
  0
LINE
  5
2C8
330
1F
100
AcDbEntity
  8
1
  6
Continuous
 62
     4
100
AcDbLine
 10
-199.9763584921176
 20
33.13221215443647
 30
0.0
 11
-199.6675349627058
 21
32.54887882110314
 31
0.0
  0
LINE
  5
2C9
330
1F
100
AcDbEntity
  8
1
  6
Continuous
 62
     4
100
AcDbLine
 10
-199.6675349627058
 20
32.54887882110314
 30
0.0
 11
-199.0498879038823
 21
32.3155454877698
 31
0.0
  0
LINE
  5
2CA
330
1F
100
AcDbEntity
  8
1
  6
Continuous
 62
     4
100
AcDbLine
 10
-199.0498879038823
 20
32.3155454877698
 30
0.0
 11
-198.4322408450588
 21
32.54887882110314
 31
0.0
  0
LINE
  5
2CB
330
1F
100
AcDbEntity
  8
1
  6
Continuous
 62
     4
100
AcDbLine
 10
-198.4322408450588
 20
32.54887882110314
 30
0.0
 11
-198.0204761391764
 21
33.13221215443647
 31
0.0
  0
LINE
  5
2CC
330
1F
100
AcDbEntity
  8
1
  6
Continuous
 62
     4
100
AcDbLine
 10
-198.0204761391764
 20
33.13221215443647
 30
0.0
 11
-197.9175349627058
 21
34.0655454877698
 31
0.0
  0
LINE
  5
2CD
330
1F
100
AcDbEntity
  8
1
  6
Continuous
 62
     4
100
AcDbLine
 10
-197.9175349627058
 20
34.0655454877698
 30
0.0
 11
-198.0204761391764
 21
34.99887882110313
 31
0.0
  0
LINE
  5
2CE
330
1F
100
AcDbEntity
  8
1
  6
Continuous
 62
     4
100
AcDbLine
 10
-198.0204761391764
 20
34.99887882110313
 30
0.0
 11
-198.4322408450588
 21
35.58221215443647
 31
0.0
  0
LINE
  5
2CF
330
1F
100
AcDbEntity
  8
1
  6
Continuous
 62
     4
100
AcDbLine
 10
-198.4322408450588
 20
35.58221215443647
 30
0.0
 11
-199.0498879038823
 21
35.8155454877698
 31
0.0
  0
LINE
  5
2D0
330
1F
100
AcDbEntity
  8
1
  6
Continuous
 62
     4
100
AcDbLine
 10
-196.8881231979999
 20
35.8155454877698
 30
0.0
 11
-194.8292996685882
 21
35.8155454877698
 31
0.0
  0
LINE
  5
2D1
330
1F
100
AcDbEntity
  8
1
  6
Continuous
 62
     4
100
AcDbLine
 10
-194.8292996685882
 20
35.8155454877698
 30
0.0
 11
-195.6528290803529
 21
34.18221215443647
 31
0.0
  0
LINE
  5
2D2
330
1F
100
AcDbEntity
  8
1
  6
Continuous
 62
     4
100
AcDbLine
 10
-195.6528290803529
 20
34.18221215443647
 30
0.0
 11
-195.8587114332941
 21
33.13221215443647
 31
0.0
  0
LINE
  5
2D3
330
1F
100
AcDbEntity
  8
1
  6
Continuous
 62
     4
100
AcDbLine
 10
-195.8587114332941
 20
33.13221215443647
 30
0.0
 11
-195.8587114332941
 21
32.3155454877698
 31
0.0
  0
LINE
  5
2D4
330
1F
100
AcDbEntity
  8
1
  6
Continuous
 62
     4
100
AcDbLine
 10
-190.5057702568235
 20
32.3155454877698
 30
0.0
 11
-189.373417315647
 21
35.8155454877698
 31
0.0
  0
LINE
  5
2D5
330
1F
100
AcDbEntity
  8
1
  6
Continuous
 62
     4
100
AcDbLine
 10
-189.373417315647
 20
35.8155454877698
 30
0.0
 11
-188.2410643744705
 21
32.3155454877698
 31
0.0
  0
LINE
  5
2D6
330
1F
100
AcDbEntity
  8
1
  6
Continuous
 62
     4
100
AcDbLine
 10
-190.1969467274117
 20
33.24887882110313
 30
0.0
 11
-188.5498879038823
 21
33.24887882110313
 31
0.0
  0
ARC
  5
2D7
330
1F
100
AcDbEntity
  8
1
  6
Continuous
 62
     7
100
AcDbCircle
 10
-272.3576858093957
 20
125.8057759500814
 30
0.0
 40
0.6349999999999562
100
AcDbArc
 50
-157.2069291697458
 51
-112.7930708302419
  0
ARC
  5
2D8
330
1F
100
AcDbEntity
  8
1
  6
Continuous
 62
     7
100
AcDbCircle
 10
-272.3576858093957
 20
125.8057759500814
 30
0.0
 40
1.636265146448943
100
AcDbArc
 50
-147.8425659469206
 51
-122.1574340530788
  0
ARC
  5
2D9
330
1F
100
AcDbEntity
  8
1
  6
Continuous
 62
     7
100
AcDbCircle
 10
-272.3576858093957
 20
125.8057759500814
 30
0.0
 40
0.6350000000000224
100
AcDbArc
 50
-67.20692916975807
 51
-22.7930708302502
  0
ARC
  5
2DA
330
1F
100
AcDbEntity
  8
1
  6
Continuous
 62
     7
100
AcDbCircle
 10
-272.3576858093957
 20
125.8057759500814
 30
0.0
 40
1.636265146448978
100
AcDbArc
 50
-57.84256594691954
 51
-32.15743405307841
  0
ARC
  5
2DB
330
1F
100
AcDbEntity
  8
1
  6
Continuous
 62
     7
100
AcDbCircle
 10
-272.3576858093957
 20
125.8057759500814
 30
0.0
 40
0.6350000000000224
100
AcDbArc
 50
22.79307083024193
 51
67.20692916974515
  0
ARC
  5
2DC
330
1F
100
AcDbEntity
  8
1
  6
Continuous
 62
     7
100
AcDbCircle
 10
-272.3576858093957
 20
125.8057759500814
 30
0.0
 40
1.636265146448939
100
AcDbArc
 50
32.15743405307546
 51
57.84256594691954
  0
ARC
  5
2DD
330
1F
100
AcDbEntity
  8
1
  6
Continuous
 62
     7
100
AcDbCircle
 10
-272.3576858093957
 20
125.8057759500814
 30
0.0
 40
0.6349999999999307
100
AcDbArc
 50
112.7930708302454
 51
157.2069291697541
  0
ARC
  5
2DE
330
1F
100
AcDbEntity
  8
1
  6
Continuous
 62
     7
100
AcDbCircle
 10
-272.3576858093957
 20
125.8057759500814
 30
0.0
 40
1.636265146448887
100
AcDbArc
 50
122.1574340530754
 51
147.8425659469235
  0
ARC
  5
2DF
330
1F
100
AcDbEntity
  8
1
  6
Continuous
 62
     7
100
AcDbCircle
 10
-272.3576858093957
 20
90.52114756887266
 30
0.0
 40
1.636265146448954
100
AcDbArc
 50
32.15743405307631
 51
57.84256594691927
  0
ARC
  5
2E0
330
1F
100
AcDbEntity
  8
1
  6
Continuous
 62
     7
100
AcDbCircle
 10
-272.3576858093957
 20
90.52114756887266
 30
0.0
 40
0.6350000000000224
100
AcDbArc
 50
22.79307083024193
 51
67.20692916974663
  0
ARC
  5
2E1
330
1F
100
AcDbEntity
  8
1
  6
Continuous
 62
     7
100
AcDbCircle
 10
-272.3576858093957
 20
90.52114756887266
 30
0.0
 40
1.636265146448966
100
AcDbArc
 50
-57.84256594691927
 51
-32.15743405307799
  0
ARC
  5
2E2
330
1F
100
AcDbEntity
  8
1
  6
Continuous
 62
     7
100
AcDbCircle
 10
-272.3576858093957
 20
90.52114756887266
 30
0.0
 40
0.6350000000000141
100
AcDbArc
 50
-67.20692916974663
 51
-22.79307083024666
  0
ARC
  5
2E3
330
1F
100
AcDbEntity
  8
1
  6
Continuous
 62
     7
100
AcDbCircle
 10
-272.3576858093957
 20
90.52114756887266
 30
0.0
 40
1.636265146448906
100
AcDbArc
 50
-147.8425659469226
 51
-122.1574340530757
  0
ARC
  5
2E4
330
1F
100
AcDbEntity
  8
1
  6
Continuous
 62
     7
100
AcDbCircle
 10
-272.3576858093957
 20
90.52114756887266
 30
0.0
 40
0.6349999999999176
100
AcDbArc
 50
-157.2069291697541
 51
-112.7930708302439
  0
ARC
  5
2E5
330
1F
100
AcDbEntity
  8
1
  6
Continuous
 62
     7
100
AcDbCircle
 10
-272.3576858093957
 20
90.52114756887266
 30
0.0
 40
1.636265146448875
100
AcDbArc
 50
122.1574340530757
 51
147.842565946921
  0
ARC
  5
2E6
330
1F
100
AcDbEntity
  8
1
  6
Continuous
 62
     7
100
AcDbCircle
 10
-272.3576858093957
 20
90.52114756887266
 30
0.0
 40
0.63499999999997
100
AcDbArc
 50
112.7930708302439
 51
157.2069291697494
  0
ARC
  5
2E7
330
1F
100
AcDbEntity
  8
1
  6
Continuous
 62
     7
100
AcDbCircle
 10
-307.6423141906044
 20
90.52114756887262
 30
0.0
 40
0.6350000000000445
100
AcDbArc
 50
22.79307083024666
 51
67.20692916974862
  0
ARC
  5
2E8
330
1F
100
AcDbEntity
  8
1
  6
Continuous
 62
     7
100
AcDbCircle
 10
-307.6423141906044
 20
90.52114756887262
 30
0.0
 40
1.636265146449039
100
AcDbArc
 50
32.15743405307735
 51
57.84256594692175
  0
ARC
  5
2E9
330
1F
100
AcDbEntity
  8
1
  6
Continuous
 62
     7
100
AcDbCircle
 10
-307.6423141906044
 20
90.52114756887262
 30
0.0
 40
0.6350000000000224
100
AcDbArc
 50
112.7930708302419
 51
157.2069291697494
  0
ARC
  5
2EA
330
1F
100
AcDbEntity
  8
1
  6
Continuous
 62
     7
100
AcDbCircle
 10
-307.6423141906044
 20
90.52114756887262
 30
0.0
 40
1.636265146448941
100
AcDbArc
 50
122.1574340530766
 51
147.8425659469206
  0
ARC
  5
2EB
330
1F
100
AcDbEntity
  8
1
  6
Continuous
 62
     7
100
AcDbCircle
 10
-307.6423141906044
 20
90.52114756887262
 30
0.0
 40
0.6349999999999176
100
AcDbArc
 50
-157.2069291697541
 51
-112.7930708302439
  0
ARC
  5
2EC
330
1F
100
AcDbEntity
  8
1
  6
Continuous
 62
     7
100
AcDbCircle
 10
-307.6423141906044
 20
90.52114756887262
 30
0.0
 40
1.636265146448913
100
AcDbArc
 50
-147.8425659469222
 51
-122.1574340530793
  0
ARC
  5
2ED
330
1F
100
AcDbEntity
  8
1
  6
Continuous
 62
     7
100
AcDbCircle
 10
-307.6423141906044
 20
90.52114756887262
 30
0.0
 40
0.63499999999997
100
AcDbArc
 50
-67.2069291697561
 51
-22.79307083024193
  0
ARC
  5
2EE
330
1F
100
AcDbEntity
  8
1
  6
Continuous
 62
     7
100
AcDbCircle
 10
-307.6423141906044
 20
90.52114756887262
 30
0.0
 40
1.636265146448924
100
AcDbArc
 50
-57.84256594692069
 51
-32.15743405307566
  0
ARC
  5
2EF
330
1F
100
AcDbEntity
  8
1
  6
Continuous
 62
     7
100
AcDbCircle
 10
-307.6423141906044
 20
125.8057759500814
 30
0.0
 40
1.636265146448943
100
AcDbArc
 50
-147.8425659469206
 51
-122.1574340530788
  0
ARC
  5
2F0
330
1F
100
AcDbEntity
  8
1
  6
Continuous
 62
     7
100
AcDbCircle
 10
-307.6423141906044
 20
125.8057759500814
 30
0.0
 40
0.6350000000000224
100
AcDbArc
 50
-157.2069291697581
 51
-112.7930708302419
  0
ARC
  5
2F1
330
1F
100
AcDbEntity
  8
1
  6
Continuous
 62
     7
100
AcDbCircle
 10
-307.6423141906044
 20
125.8057759500814
 30
0.0
 40
1.636265146448864
100
AcDbArc
 50
122.1574340530806
 51
147.8425659469235
  0
ARC
  5
2F2
330
1F
100
AcDbEntity
  8
1
  6
Continuous
 62
     7
100
AcDbCircle
 10
-307.6423141906044
 20
125.8057759500814
 30
0.0
 40
0.6349999999999307
100
AcDbArc
 50
112.7930708302454
 51
157.2069291697581
  0
ARC
  5
2F3
330
1F
100
AcDbEntity
  8
1
  6
Continuous
 62
     7
100
AcDbCircle
 10
-307.6423141906044
 20
125.8057759500814
 30
0.0
 40
1.636265146448987
100
AcDbArc
 50
32.1574340530744
 51
57.84256594691936
  0
ARC
  5
2F4
330
1F
100
AcDbEntity
  8
1
  6
Continuous
 62
     7
100
AcDbCircle
 10
-307.6423141906044
 20
125.8057759500814
 30
0.0
 40
0.6350000000000224
100
AcDbArc
 50
22.79307083024193
 51
67.2069291697546
  0
ARC
  5
2F5
330
1F
100
AcDbEntity
  8
1
  6
Continuous
 62
     7
100
AcDbCircle
 10
-307.6423141906044
 20
125.8057759500814
 30
0.0
 40
1.636265146448948
100
AcDbArc
 50
-57.84256594692122
 51
-32.15743405307735
  0
ARC
  5
2F6
330
1F
100
AcDbEntity
  8
1
  6
Continuous
 62
     7
100
AcDbCircle
 10
-307.6423141906044
 20
125.8057759500814
 30
0.0
 40
0.6350000000000224
100
AcDbArc
 50
-67.20692916975807
 51
-22.7930708302502
  0
ARC
  5
2F7
330
1F
100
AcDbEntity
  8
1
  6
Continuous
 62
     3
100
AcDbCircle
 10
-97.523776467207
 20
163.053461759477
 30
0.0
 40
1.68999999999999
100
AcDbArc
 50
-135.2397298960806
 51
-44.76027010391937
  0
ARC
  5
2F8
330
1F
100
AcDbEntity
  8
1
  6
Continuous
 62
     3
100
AcDbCircle
 10
-99.923776467207
 20
160.673461759477
 30
0.0
 40
1.690000000000011
100
AcDbArc
 50
44.76027010391869
 51
135.2397298960806
  0
ARC
  5
2F9
330
1F
100
AcDbEntity
  8
1
  6
Continuous
 62
     3
100
AcDbCircle
 10
-97.523776467207
 20
165.053461759477
 30
0.0
 40
1.68999999999999
100
AcDbArc
 50
-135.2397298960806
 51
-44.76027010391937
  0
ARC
  5
2FA
330
1F
100
AcDbEntity
  8
1
  6
Continuous
 62
     3
100
AcDbCircle
 10
-99.923776467207
 20
162.673461759477
 30
0.0
 40
1.690000000000011
100
AcDbArc
 50
44.76027010391869
 51
135.2397298960806
  0
ARC
  5
2FB
330
1F
100
AcDbEntity
  8
1
  6
Continuous
 62
     3
100
AcDbCircle
 10
-7.11681333402497
 20
151.6657199496461
 30
0.0
 40
2.042534504847114
100
AcDbArc
 50
-125.9801811587342
 51
-54.01981884126567
  0
ARC
  5
2FC
330
1F
100
AcDbEntity
  8
1
  6
Continuous
 62
     3
100
AcDbCircle
 10
-9.51681333402497
 20
148.390028541928
 30
0.0
 40
2.018311366610018
100
AcDbArc
 50
53.51898256997632
 51
126.4810174300237
  0
ARC
  5
2FD
330
1F
100
AcDbEntity
  8
1
  6
Continuous
 62
     3
100
AcDbCircle
 10
-288.8
 20
152.8200355784457
 30
0.0
 40
3.064735007092706
100
AcDbArc
 50
-113.051040475307
 51
-66.94895952469298
  0
ARC
  5
2FE
330
1F
100
AcDbEntity
  8
1
  6
Continuous
 62
     3
100
AcDbCircle
 10
-291.2
 20
147.7387844771837
 30
0.0
 40
2.55990149041429
100
AcDbArc
 50
62.04564308366364
 51
117.9543569163364
  0
ARC
  5
2FF
330
1F
100
AcDbEntity
  8
1
  6
Continuous
 62
     7
100
AcDbCircle
 10
-290.0
 20
108.163461759477
 30
0.0
 40
38.24999999999999
100
AcDbArc
 50
42.50190263102688
 51
47.49809736897309
  0
ARC
  5
300
330
1F
100
AcDbEntity
  8
1
  6
Continuous
 62
     7
100
AcDbCircle
 10
-290.0
 20
108.163461759477
 30
0.0
 40
38.25
100
AcDbArc
 50
-137.4980973689731
 51
-132.5019026310269
  0
ARC
  5
301
330
1F
100
AcDbEntity
  8
1
  6
Continuous
 62
     7
100
AcDbCircle
 10
-290.0
 20
108.163461759477
 30
0.0
 40
38.25000000000002
100
AcDbArc
 50
-47.49809736897311
 51
-42.50190263102689
  0
ARC
  5
302
330
1F
100
AcDbEntity
  8
1
  6
Continuous
 62
     7
100
AcDbCircle
 10
-290.0
 20
108.163461759477
 30
0.0
 40
38.25000000000005
100
AcDbArc
 50
132.501902631027
 51
137.4980973689731
  0
ARC
  5
303
330
1F
100
AcDbEntity
  8
1
  6
Continuous
 62
     7
100
AcDbCircle
 10
-8.31681333402497
 20
108.163461759477
 30
0.0
 40
38.25000000000001
100
AcDbArc
 50
132.5019026310269
 51
137.4980973689731
  0
ARC
  5
304
330
1F
100
AcDbEntity
  8
1
  6
Continuous
 62
     7
100
AcDbCircle
 10
-8.31681333402497
 20
108.163461759477
 30
0.0
 40
38.24999999999999
100
AcDbArc
 50
-47.49809736897317
 51
-42.50190263102689
  0
ARC
  5
305
330
1F
100
AcDbEntity
  8
1
  6
Continuous
 62
     7
100
AcDbCircle
 10
-8.31681333402497
 20
108.163461759477
 30
0.0
 40
38.25
100
AcDbArc
 50
-137.4980973689731
 51
-132.5019026310269
  0
ARC
  5
306
330
1F
100
AcDbEntity
  8
1
  6
Continuous
 62
     7
100
AcDbCircle
 10
-8.31681333402497
 20
108.163461759477
 30
0.0
 40
38.24999999999999
100
AcDbArc
 50
42.50190263102687
 51
47.4980973689731
  0
CIRCLE
  5
307
330
1F
100
AcDbEntity
  8
1
  6
Continuous
 62
     7
100
AcDbCircle
 10
-272.3576858093957
 20
125.8057759500814
 30
0.0
 40
2.75
  0
CIRCLE
  5
308
330
1F
100
AcDbEntity
  8
1
  6
Continuous
 62
     7
100
AcDbCircle
 10
-272.3576858093957
 20
90.52114756887266
 30
0.0
 40
2.75
  0
CIRCLE
  5
309
330
1F
100
AcDbEntity
  8
1
  6
Continuous
 62
     7
100
AcDbCircle
 10
-307.6423141906044
 20
90.52114756887262
 30
0.0
 40
2.75
  0
CIRCLE
  5
30A
330
1F
100
AcDbEntity
  8
1
  6
Continuous
 62
     7
100
AcDbCircle
 10
-307.6423141906044
 20
125.8057759500814
 30
0.0
 40
2.749999999999915
  0
CIRCLE
  5
30B
330
1F
100
AcDbEntity
  8
1
  6
Continuous
 62
     7
100
AcDbCircle
 10
-8.31681333402497
 20
108.163461759477
 30
0.0
 40
3.749999999999998
  0
CIRCLE
  5
30C
330
1F
100
AcDbEntity
  8
1
  6
Continuous
 62
     7
100
AcDbCircle
 10
-307.6423141906044
 20
90.52114756887262
 30
0.0
 40
3.499999999999886
  0
CIRCLE
  5
30D
330
1F
100
AcDbEntity
  8
1
  6
Continuous
 62
     7
100
AcDbCircle
 10
-290.0
 20
108.163461759477
 30
0.0
 40
19.05000000000001
  0
CIRCLE
  5
30E
330
1F
100
AcDbEntity
  8
1
  6
Continuous
 62
     7
100
AcDbCircle
 10
-313.57
 20
84.59346175947701
 30
0.0
 40
2.54000000000002
  0
CIRCLE
  5
30F
330
1F
100
AcDbEntity
  8
1
  6
Continuous
 62
     7
100
AcDbCircle
 10
-266.4299999999999
 20
84.59346175947701
 30
0.0
 40
2.540000000000134
  0
CIRCLE
  5
310
330
1F
100
AcDbEntity
  8
1
  6
Continuous
 62
     7
100
AcDbCircle
 10
-313.57
 20
131.733461759477
 30
0.0
 40
2.54000000000002
  0
CIRCLE
  5
311
330
1F
100
AcDbEntity
  8
1
  6
Continuous
 62
     7
100
AcDbCircle
 10
-266.4299999999999
 20
131.733461759477
 30
0.0
 40
2.540000000000134
  0
CIRCLE
  5
312
330
1F
100
AcDbEntity
  8
1
  6
Continuous
 62
     7
100
AcDbCircle
 10
-290.0
 20
108.163461759477
 30
0.0
 40
3.175000000000011
  0
CIRCLE
  5
313
330
1F
100
AcDbEntity
  8
1
  6
Continuous
 62
     7
100
AcDbCircle
 10
-290.0
 20
108.163461759477
 30
0.0
 40
2.475000000000023
  0
CIRCLE
  5
314
330
1F
100
AcDbEntity
  8
1
  6
Continuous
 62
     7
100
AcDbCircle
 10
-272.3576858093957
 20
90.52114756887266
 30
0.0
 40
3.5
  0
CIRCLE
  5
315
330
1F
100
AcDbEntity
  8
1
  6
Continuous
 62
     7
100
AcDbCircle
 10
-272.3576858093957
 20
125.8057759500814
 30
0.0
 40
3.5
  0
CIRCLE
  5
316
330
1F
100
AcDbEntity
  8
1
  6
Continuous
 62
     7
100
AcDbCircle
 10
-307.6423141906044
 20
125.8057759500814
 30
0.0
 40
3.499999999999915
  0
CIRCLE
  5
317
330
1F
100
AcDbEntity
  8
1
  6
Continuous
 62
     7
100
AcDbCircle
 10
15.25318666597502
 20
84.59346175947701
 30
0.0
 40
2.540000000000019
  0
CIRCLE
  5
318
330
1F
100
AcDbEntity
  8
1
  6
Continuous
 62
     7
100
AcDbCircle
 10
-31.88681333402496
 20
84.59346175947701
 30
0.0
 40
2.53999999999996
  0
CIRCLE
  5
319
330
1F
100
AcDbEntity
  8
1
  6
Continuous
 62
     7
100
AcDbCircle
 10
15.25318666597502
 20
131.733461759477
 30
0.0
 40
2.540000000000019
  0
CIRCLE
  5
31A
330
1F
100
AcDbEntity
  8
1
  6
Continuous
 62
     7
100
AcDbCircle
 10
-31.88681333402496
 20
131.733461759477
 30
0.0
 40
2.53999999999996
  0
CIRCLE
  5
31B
330
1F
100
AcDbEntity
  8
1
  6
Continuous
 62
     7
100
AcDbCircle
 10
-8.31681333402497
 20
108.163461759477
 30
0.0
 40
28.2
  0
SPLINE
  5
31C
330
1F
100
AcDbEntity
  8
1
  6
Continuous
 62
     7
100
AcDbSpline
210
0.0
220
0.0
230
1.0
 70
    11
 71
     3
 72
    39
 73
    35
 74
    33
 42
0.0000000001
 43
0.0000000001
 44
0.00000001
 40
0.0
 40
0.0
 40
0.0
 40
0.0
 40
0.121618732349172
 40
0.2433672738828115
 40
0.31118498733815
 40
0.379012072898902
 40
0.4508989574140151
 40
0.5227911808303827
 40
0.5962275518643507
 40
0.6696667009577812
 40
0.741562126903005
 40
0.8134474374775055
 40
0.8812772776735518
 40
0.9490855697840369
 40
1.011995229757656
 40
1.074841109821572
 40
1.134302356027341
 40
1.193709750378795
 40
1.253117144730213
 40
1.31257839093591
 40
1.375424270999821
 40
1.438333930973425
 40
1.506142223083915
 40
1.573972063279998
 40
1.64585737385454
 40
1.717752799799849
 40
1.791191948893337
 40
1.864628319927323
 40
1.936520543343693
 40
2.008407427858786
 40
2.07623451341945
 40
2.144052226874802
 40
2.265800768408412
 40
2.387419500757596
 40
2.387419500757596
 40
2.387419500757596
 40
2.387419500757596
 10
-138.6876690128349
 20
105.4511806990502
 30
0.0
 10
-138.7256550529788
 20
105.4352685362076
 30
0.0
 10
-138.8016676774886
 20
105.40342722675
 30
0.0
 10
-138.8662690417196
 20
105.3168140508616
 30
0.0
 10
-138.9006352122522
 20
105.2382341569738
 30
0.0
 10
-138.917356970884
 20
105.1707125286933
 30
0.0
 10
-138.9239242253774
 20
105.1002506685272
 30
0.0
 10
-138.9201041780492
 20
105.027697831428
 30
0.0
 10
-138.9061452943893
 20
104.9558838894339
 30
0.0
 10
-138.8823225050107
 20
104.8867095428024
 30
0.0
 10
-138.8493738888891
 20
104.8219669378076
 30
0.0
 10
-138.8084375232245
 20
104.764194020545
 30
0.0
 10
-138.7601916931761
 20
104.7142441413551
 30
0.0
 10
-138.7067920839616
 20
104.6745742555757
 30
0.0
 10
-138.6487348898129
 20
104.6456609258303
 30
0.0
 10
-138.5888464200582
 20
104.6289417448438
 30
0.0
 10
-138.5279627288108
 20
104.6251652771318
 30
0.0
 10
-138.4687024993267
 20
104.6339865454812
 30
0.0
 10
-138.4129710009847
 20
104.655977217739
 30
0.0
 10
-138.3621324115443
 20
104.689689580338
 30
0.0
 10
-138.3186270658361
 20
104.7341130506799
 30
0.0
 10
-138.2828047257036
 20
104.7881813258219
 30
0.0
 10
-138.2563942504613
 20
104.8492362592792
 30
0.0
 10
-138.2395870756077
 20
104.9166170385979
 30
0.0
 10
-138.2330216016347
 20
104.9871180354304
 30
0.0
 10
-138.2368585655514
 20
105.0596610841239
 30
0.0
 10
-138.2508145980763
 20
105.1314792202863
 30
0.0
 10
-138.2746328212154
 20
105.2006513602291
 30
0.0
 10
-138.3076009817352
 20
105.2653939839377
 30
0.0
 10
-138.3485193210425
 20
105.3231321175928
 30
0.0
 10
-138.396761602954
 20
105.3732466836726
 30
0.0
 10
-138.4658135266098
 20
105.4241157827398
 30
0.0
 10
-138.5650665370973
 20
105.4668243112461
 30
0.0
 10
-138.6468160556599
 20
105.4563933818713
 30
0.0
 10
-138.6876690128349
 20
105.4511806990502
 30
0.0
 11
-138.6876690128349
 21
105.4511806990502
 31
0.0
 11
-138.795261409929
 21
105.3944797983011
 31
0.0
 11
-138.8716723120811
 21
105.2996954040271
 31
0.0
 11
-138.8988388932931
 21
105.2375566952897
 31
0.0
 11
-138.9153986230201
 21
105.1717821646031
 31
0.0
 11
-138.9221764930405
 21
105.1002155198356
 31
0.0
 11
-138.9184875428484
 21
105.0284180029271
 31
0.0
 11
-138.9044899942046
 21
104.956327995141
 31
0.0
 11
-138.880566502247
 21
104.886894752727
 31
0.0
 11
-138.8478707785423
 21
104.8228639638573
 31
0.0
 11
-138.8062093383675
 21
104.7642822066376
 31
0.0
 11
-138.7589497066317
 21
104.71562612347
 31
0.0
 11
-138.7043846225685
 21
104.6753692472856
 31
0.0
 11
-138.6479792073516
 21
104.6475114933884
 31
0.0
 11
-138.5873739183483
 21
104.6308800897844
 31
0.0
 11
-138.5280233341817
 21
104.6272540782799
 31
0.0
 11
-138.4692904435297
 21
104.6361807831188
 31
0.0
 11
-138.4139629157679
 21
104.6578164752822
 31
0.0
 11
-138.3643768079025
 21
104.6906319854428
 31
0.0
 11
-138.3202067898239
 21
104.735337847966
 31
0.0
 11
-138.2852871442836
 21
104.7876660781418
 31
0.0
 11
-138.2581608334174
 21
104.8498120976261
 31
0.0
 11
-138.2415608333445
 21
104.9155793175658
 31
0.0
 11
-138.2347718464047
 21
104.9871433276039
 31
0.0
 11
-138.2384719135162
 21
105.0589434792418
 31
0.0
 11
-138.2524701829407
 21
105.1310361770183
 31
0.0
 11
-138.2763929541176
 21
105.200466729442
 31
0.0
 11
-138.3090969879922
 21
105.2644896781095
 31
0.0
 11
-138.3507501179971
 21
105.3230792755315
 31
0.0
 11
-138.3979785299637
 21
105.3717618251645
 31
0.0
 11
-138.452574833796
 21
105.4119922348835
 31
0.0
 11
-138.5661408133228
 21
105.455872477131
 31
0.0
 11
-138.6876690128349
 21
105.4511806990502
 31
0.0
  0
SPLINE
  5
31D
330
1F
100
AcDbEntity
  8
1
  6
Continuous
 62
     7
100
AcDbSpline
210
0.0
220
0.0
230
1.0
 70
    11
 71
     3
 72
    39
 73
    35
 74
    33
 42
0.0000000001
 43
0.0000000001
 44
0.00000001
 40
0.0
 40
0.0
 40
0.0
 40
0.0
 40
0.4037691252839961
 40
0.8083911053851554
 40
1.045429737778015
 40
1.282357567294055
 40
1.539152197369218
 40
1.795986980053478
 40
2.060241205307851
 40
2.324502573518476
 40
2.58133978300021
 40
2.838140068999757
 40
3.075123609701645
 40
3.312074513351907
 40
3.524456586820915
 40
3.736498362407895
 40
3.931090394907427
 40
4.125252367192152
 40
4.319411082377226
 40
4.514006935421977
 40
4.730912533322839
 40
4.94821011748081
 40
5.180303000744352
 40
5.412354935039296
 40
5.669133980838565
 40
5.925991404575555
 40
6.190258019818842
 40
6.454507443872011
 40
6.711341135843377
 40
6.968136697184068
 40
7.205064705479764
 40
7.442103213928251
 40
7.846725193179578
 40
8.250494314327574
 40
8.250494314327574
 40
8.250494314327574
 40
8.250494314327574
 10
-138.9715611529317
 20
106.5106805897611
 30
0.0
 10
-139.0969703694487
 20
106.4551128210912
 30
0.0
 10
-139.3480536960757
 20
106.343859911629
 30
0.0
 10
-139.5471890481373
 20
106.0388131806503
 30
0.0
 10
-139.6509106662482
 20
105.7654784457786
 30
0.0
 10
-139.69908887664
 20
105.5253653893271
 30
0.0
 10
-139.7142132376396
 20
105.27498262325
 30
0.0
 10
-139.6952168866497
 20
105.0156408407925
 30
0.0
 10
-139.6434255277404
 20
104.7583321918224
 30
0.0
 10
-139.5596010321698
 20
104.5095965704547
 30
0.0
 10
-139.4464863423924
 20
104.275495709439
 30
0.0
 10
-139.3081094628075
 20
104.0660570515656
 30
0.0
 10
-139.1462413609586
 20
103.882932687913
 30
0.0
 10
-138.9688458118174
 20
103.7367042940691
 30
0.0
 10
-138.7761953978139
 20
103.6272393527555
 30
0.0
 10
-138.5787579479775
 20
103.5617190552093
 30
0.0
 10
-138.3777971200013
 20
103.5425899057734
 30
0.0
 10
-138.1832194986673
 20
103.5685442604895
 30
0.0
 10
-138.0017295135808
 20
103.6433533880551
 30
0.0
 10
-137.8359283373958
 20
103.7613479260205
 30
0.0
 10
-137.6958947223153
 20
103.9197041290783
 30
0.0
 10
-137.5841529099139
 20
104.112996931464
 30
0.0
 10
-137.5053127463131
 20
104.3271419179886
 30
0.0
 10
-137.4576928773437
 20
104.5634860447622
 30
0.0
 10
-137.4426832183869
 20
104.8124097886463
 30
0.0
 10
-137.4617585870487
 20
105.0717057607043
 30
0.0
 10
-137.5135309334015
 20
105.3290376915176
 30
0.0
 10
-137.5973383895455
 20
105.5777669435373
 30
0.0
 10
-137.7105578535036
 20
105.8118596329415
 30
0.0
 10
-137.8488456661239
 20
106.021136393962
 30
0.0
 10
-138.0106258669455
 20
106.2049917534632
 30
0.0
 10
-138.2371192470254
 20
106.3898452128694
 30
0.0
 10
-138.5620986691326
 20
106.5544559530105
 30
0.0
 10
-138.8351696889258
 20
106.5252621109437
 30
0.0
 10
-138.9715611529317
 20
106.5106805897611
 30
0.0
 11
-138.9715611529317
 21
106.5106805897611
 31
0.0
 11
-139.3235651148268
 21
106.3128859554993
 31
0.0
 11
-139.5606309715182
 21
105.9849854730779
 31
0.0
 11
-139.6447443615395
 21
105.7633726330487
 31
0.0
 11
-139.6925742612194
 21
105.5313228601642
 31
0.0
 11
-139.7084900279695
 21
105.2750219229747
 31
0.0
 11
-139.6901413079524
 21
105.0188434108582
 31
0.0
 11
-139.6380368698688
 21
104.7597769655266
 31
0.0
 11
-139.5536255617874
 21
104.5093597101376
 31
0.0
 11
-139.4414800806185
 21
104.2782996676643
 31
0.0
 11
-139.29949283647
 21
104.0643230114876
 31
0.0
 11
-139.1418542958316
 21
103.887373049439
 31
0.0
 11
-138.9583952892728
 21
103.7374113088078
 31
0.0
 11
-138.7731560422496
 21
103.6335240309858
 31
0.0
 11
-138.5714743184517
 21
103.5680549781442
 31
0.0
 11
-138.3777203556884
 21
103.5500144397428
 31
0.0
 11
-138.1853983034329
 21
103.5766808924079
 31
0.0
 11
-138.0055112422899
 21
103.6497442342124
 31
0.0
 11
-137.8467337095028
 21
103.7622486390341
 31
0.0
 11
-137.7019409044
 21
103.9237512148376
 31
0.0
 11
-137.5920989448131
 21
104.1112425052887
 31
0.0
 11
-137.5110693007527
 21
104.3287311331408
 31
0.0
 11
-137.4643851951452
 21
104.5560386220048
 31
0.0
 11
-137.4484165284967
 21
104.8123206542409
 31
0.0
 11
-137.4668181484122
 21
105.0685180713108
 31
0.0
 11
-137.518922339615
 21
105.3275972043788
 31
0.0
 11
-137.6033338945771
 21
105.5780017720314
 31
0.0
 11
-137.7155332283295
 21
105.8090317589101
 31
0.0
 11
-137.8574666198945
 21
106.0230384706813
 31
0.0
 11
-138.0149132859795
 21
106.2000848726603
 31
0.0
 11
-138.1985641670917
 21
106.3499501733612
 31
0.0
 11
-138.5678194665747
 21
106.5153873816822
 31
0.0
 11
-138.9715611529317
 21
106.5106805897611
 31
0.0
  0
SPLINE
  5
31E
330
1F
100
AcDbEntity
  8
1
  6
Continuous
 62
     7
100
AcDbSpline
210
0.0
220
0.0
230
1.0
 70
    11
 71
     3
 72
    39
 73
    35
 74
    33
 42
0.0000000001
 43
0.0000000001
 44
0.00000001
 40
0.0
 40
0.0
 40
0.0
 40
0.0
 40
0.4037691252839892
 40
0.8083911053851485
 40
1.045429737777981
 40
1.282357567294022
 40
1.539152197369198
 40
1.795986980053445
 40
2.060241205307846
 40
2.324502573518444
 40
2.581339783000165
 40
2.8381400689997
 40
3.075123609701588
 40
3.312074513351869
 40
3.52445658682089
 40
3.73649836240787
 40
3.931090394907402
 40
4.125252367192131
 40
4.319411082377199
 40
4.514006935421966
 40
4.730912533322829
 40
4.948210117480775
 40
5.180303000744329
 40
5.412354935039246
 40
5.6691339808385
 40
5.925991404575477
 40
6.190258019818778
 40
6.454507443871947
 40
6.711341135843352
 40
6.968136697184042
 40
7.205064705479727
 40
7.442103213928214
 40
7.846725193179537
 40
8.25049431432753
 40
8.25049431432753
 40
8.25049431432753
 40
8.25049431432753
 10
-138.9715611529317
 20
99.71305774620748
 30
0.0
 10
-139.0969703694486
 20
99.65748997753758
 30
0.0
 10
-139.3480536960757
 20
99.54623706807547
 30
0.0
 10
-139.5471890481373
 20
99.24119033709665
 30
0.0
 10
-139.6509106662482
 20
98.96785560222501
 30
0.0
 10
-139.69908887664
 20
98.72774254577348
 30
0.0
 10
-139.7142132376395
 20
98.47735977969644
 30
0.0
 10
-139.6952168866498
 20
98.21801799723896
 30
0.0
 10
-139.6434255277404
 20
97.96070934826882
 30
0.0
 10
-139.5596010321698
 20
97.71197372690109
 30
0.0
 10
-139.4464863423924
 20
97.47787286588547
 30
0.0
 10
-139.3081094628075
 20
97.26843420801202
 30
0.0
 10
-139.1462413609586
 20
97.08530984435946
 30
0.0
 10
-138.9688458118174
 20
96.93908145051549
 30
0.0
 10
-138.7761953978139
 20
96.8296165092019
 30
0.0
 10
-138.5787579479775
 20
96.76409621165564
 30
0.0
 10
-138.3777971200013
 20
96.7449670622198
 30
0.0
 10
-138.1832194986673
 20
96.77092141693593
 30
0.0
 10
-138.0017295135808
 20
96.84573054450152
 30
0.0
 10
-137.8359283373958
 20
96.96372508246696
 30
0.0
 10
-137.6958947223154
 20
97.12208128552477
 30
0.0
 10
-137.5841529099139
 20
97.31537408791033
 30
0.0
 10
-137.5053127463131
 20
97.52951907443507
 30
0.0
 10
-137.4576928773437
 20
97.76586320120857
 30
0.0
 10
-137.4426832183869
 20
98.01478694509277
 30
0.0
 10
-137.4617585870487
 20
98.27408291715072
 30
0.0
 10
-137.5135309334015
 20
98.53141484796402
 30
0.0
 10
-137.5973383895455
 20
98.7801440999837
 30
0.0
 10
-137.7105578535036
 20
99.01423678938795
 30
0.0
 10
-137.848845666124
 20
99.22351355040844
 30
0.0
 10
-138.0106258669455
 20
99.40736890990965
 30
0.0
 10
-138.2371192470255
 20
99.59222236931585
 30
0.0
 10
-138.5620986691326
 20
99.75683310945692
 30
0.0
 10
-138.8351696889257
 20
99.72763926739003
 30
0.0
 10
-138.9715611529317
 20
99.71305774620748
 30
0.0
 11
-138.9715611529317
 21
99.71305774620748
 31
0.0
 11
-139.3235651148268
 21
99.51526311194574
 31
0.0
 11
-139.5606309715182
 21
99.18736262952433
 31
0.0
 11
-139.6447443615395
 21
98.96574978949518
 31
0.0
 11
-139.6925742612194
 21
98.7337000166106
 31
0.0
 11
-139.7084900279695
 21
98.47739907942112
 31
0.0
 11
-139.6901413079524
 21
98.22122056730467
 31
0.0
 11
-139.6380368698688
 21
97.96215412197297
 31
0.0
 11
-139.5536255617874
 21
97.71173686658403
 31
0.0
 11
-139.4414800806185
 21
97.48067682411076
 31
0.0
 11
-139.29949283647
 21
97.26670016793408
 31
0.0
 11
-139.1418542958316
 21
97.08975020588551
 31
0.0
 11
-138.9583952892728
 21
96.93978846525425
 31
0.0
 11
-138.7731560422496
 21
96.83590118743217
 31
0.0
 11
-138.5714743184517
 21
96.77043213459064
 31
0.0
 11
-138.3777203556884
 21
96.75239159618923
 31
0.0
 11
-138.1853983034329
 21
96.77905804885438
 31
0.0
 11
-138.0055112422899
 21
96.8521213906588
 31
0.0
 11
-137.8467337095028
 21
96.96462579548052
 31
0.0
 11
-137.7019409044
 21
97.12612837128407
 31
0.0
 11
-137.5920989448131
 21
97.31361966173509
 31
0.0
 11
-137.5110693007527
 21
97.53110828958728
 31
0.0
 11
-137.4643851951452
 21
97.75841577845125
 31
0.0
 11
-137.4484165284967
 21
98.01469781068731
 31
0.0
 11
-137.4668181484122
 21
98.2708952277572
 31
0.0
 11
-137.518922339615
 21
98.52997436082518
 31
0.0
 11
-137.6033338945771
 21
98.78037892847782
 31
0.0
 11
-137.7155332283295
 21
99.01140891535654
 31
0.0
 11
-137.8574666198945
 21
99.22541562712777
 31
0.0
 11
-138.0149132859795
 21
99.40246202910673
 31
0.0
 11
-138.1985641670917
 21
99.55232732980762
 31
0.0
 11
-138.5678194665747
 21
99.7177645381286
 31
0.0
 11
-138.9715611529317
 21
99.71305774620748
 31
0.0
  0
SPLINE
  5
31F
330
1F
100
AcDbEntity
  8
1
  6
Continuous
 62
     7
100
AcDbSpline
210
0.0
220
0.0
230
1.0
 70
    11
 71
     3
 72
    39
 73
    35
 74
    33
 42
0.0000000001
 43
0.0000000001
 44
0.00000001
 40
0.0
 40
0.0
 40
0.0
 40
0.0
 40
0.1216187323491919
 40
0.2433672738827872
 40
0.3111849873381257
 40
0.3790120728988225
 40
0.450898957413964
 40
0.5227911808303174
 40
0.5962275518642854
 40
0.6696667009577697
 40
0.7415621269030315
 40
0.8134474374775782
 40
0.8812772776736246
 40
0.9490855697840929
 40
1.011995229757687
 40
1.074841109821587
 40
1.134302356027359
 40
1.193709750378811
 40
1.253117144730218
 40
1.312578390935931
 40
1.375424270999843
 40
1.438333930973446
 40
1.506142223083949
 40
1.573972063280032
 40
1.645857373854588
 40
1.717752799799911
 40
1.791191948893386
 40
1.864628319927344
 40
1.936520543343714
 40
2.008407427858796
 40
2.07623451341948
 40
2.144052226874807
 40
2.265800768408422
 40
2.387419500757606
 40
2.387419500757606
 40
2.387419500757606
 40
2.387419500757606
 10
-138.6876690128349
 20
98.65355785549662
 30
0.0
 10
-138.7256550529787
 20
98.63764569265403
 30
0.0
 10
-138.8016676774885
 20
98.60580438319639
 30
0.0
 10
-138.8662690417197
 20
98.51919120730805
 30
0.0
 10
-138.9006352122521
 20
98.4406113134202
 30
0.0
 10
-138.9173569708841
 20
98.37308968513977
 30
0.0
 10
-138.9239242253773
 20
98.30262782497365
 30
0.0
 10
-138.9201041780492
 20
98.23007498787449
 30
0.0
 10
-138.9061452943893
 20
98.15826104588032
 30
0.0
 10
-138.8823225050107
 20
98.08908669924878
 30
0.0
 10
-138.8493738888891
 20
98.02434409425405
 30
0.0
 10
-138.8084375232245
 20
97.96657117699131
 30
0.0
 10
-138.7601916931762
 20
97.91662129780141
 30
0.0
 10
-138.7067920839616
 20
97.8769514120221
 30
0.0
 10
-138.6487348898129
 20
97.84803808227669
 30
0.0
 10
-138.5888464200582
 20
97.83131890129032
 30
0.0
 10
-138.5279627288108
 20
97.82754243357826
 30
0.0
 10
-138.4687024993267
 20
97.83636370192764
 30
0.0
 10
-138.4129710009846
 20
97.85835437418544
 30
0.0
 10
-138.3621324115444
 20
97.89206673678443
 30
0.0
 10
-138.3186270658362
 20
97.93649020712638
 30
0.0
 10
-138.2828047257036
 20
97.99055848226826
 30
0.0
 10
-138.2563942504613
 20
98.05161341572571
 30
0.0
 10
-138.2395870756077
 20
98.11899419504428
 30
0.0
 10
-138.2330216016348
 20
98.18949519187692
 30
0.0
 10
-138.2368585655514
 20
98.2620382405703
 30
0.0
 10
-138.2508145980763
 20
98.33385637673278
 30
0.0
 10
-138.2746328212154
 20
98.40302851667555
 30
0.0
 10
-138.3076009817352
 20
98.46777114038407
 30
0.0
 10
-138.3485193210425
 20
98.5255092740392
 30
0.0
 10
-138.3967616029539
 20
98.57562384011905
 30
0.0
 10
-138.4658135266099
 20
98.62649293918624
 30
0.0
 10
-138.5650665370972
 20
98.66920146769249
 30
0.0
 10
-138.6468160556599
 20
98.65877053831771
 30
0.0
 10
-138.6876690128349
 20
98.65355785549662
 30
0.0
 11
-138.6876690128349
 21
98.65355785549662
 31
0.0
 11
-138.795261409929
 21
98.59685695474747
 31
0.0
 11
-138.8716723120811
 21
98.50207256047358
 31
0.0
 11
-138.8988388932931
 21
98.43993385173609
 31
0.0
 11
-138.9153986230201
 21
98.37415932104962
 31
0.0
 11
-138.9221764930405
 21
98.3025926762821
 31
0.0
 11
-138.9184875428484
 21
98.2307951593736
 31
0.0
 11
-138.9044899942046
 21
98.15870515158748
 31
0.0
 11
-138.880566502247
 21
98.08927190917342
 31
0.0
 11
-138.8478707785423
 21
98.0252411203037
 31
0.0
 11
-138.8062093383675
 21
97.96665936308392
 31
0.0
 11
-138.7589497066317
 21
97.91800327991628
 31
0.0
 11
-138.7043846225685
 21
97.8777464037319
 31
0.0
 11
-138.6479792073516
 21
97.84988864983475
 31
0.0
 11
-138.5873739183483
 21
97.83325724623081
 31
0.0
 11
-138.5280233341817
 21
97.82963123472632
 31
0.0
 11
-138.4692904435297
 21
97.83855793956525
 31
0.0
 11
-138.4139629157679
 21
97.86019363172863
 31
0.0
 11
-138.3643768079025
 21
97.8930091418892
 31
0.0
 11
-138.3202067898239
 21
97.93771500441245
 31
0.0
 11
-138.2852871442836
 21
97.99004323458824
 31
0.0
 11
-138.2581608334174
 21
98.05218925407249
 31
0.0
 11
-138.2415608333445
 21
98.11795647401225
 31
0.0
 11
-138.2347718464047
 21
98.18952048405033
 31
0.0
 11
-138.2384719135162
 21
98.26132063568826
 31
0.0
 11
-138.2524701829407
 21
98.33341333346475
 31
0.0
 11
-138.2763929541176
 21
98.40284388588843
 31
0.0
 11
-138.3090969879922
 21
98.4668668345559
 31
0.0
 11
-138.3507501179971
 21
98.52545643197794
 31
0.0
 11
-138.3979785299637
 21
98.57413898161093
 31
0.0
 11
-138.452574833796
 21
98.61436939132993
 31
0.0
 11
-138.5661408133228
 21
98.65824963357741
 31
0.0
 11
-138.6876690128349
 21
98.65355785549662
 31
0.0
  0
SPLINE
  5
320
330
1F
100
AcDbEntity
  8
1
  6
Continuous
 62
     7
100
AcDbSpline
210
0.0
220
0.0
230
1.0
 70
     8
 71
     3
 72
    31
 73
    27
 74
    25
 42
0.0000000001
 43
0.0000000001
 44
0.00000001
 40
0.0
 40
0.0
 40
0.0
 40
0.0
 40
0.5642786467863956
 40
1.132022769770656
 40
1.350292347143528
 40
1.569839976223256
 40
1.799895032819991
 40
2.029479619040076
 40
2.25924492173954
 40
2.489150472879623
 40
2.708033744439324
 40
2.926829836884538
 40
3.127734154391458
 40
3.328560885290063
 40
3.512436950102233
 40
3.695845347433987
 40
3.872027738621687
 40
4.048573187548869
 40
4.232574636494027
 40
4.416005113333942
 40
4.615841688564862
 40
4.817180076660153
 40
5.123074322036531
 40
5.427457837773344
 40
5.825593724476612
 40
6.224422202527055
 40
6.224422202527055
 40
6.224422202527055
 40
6.224422202527055
 10
-139.2703547281823
 20
91.52862516655074
 30
0.0
 10
-139.3613221188982
 20
91.3643831099474
 30
0.0
 10
-139.5438155699323
 20
91.03489031611618
 30
0.0
 10
-139.6849104744491
 20
90.5955128227072
 30
0.0
 10
-139.6733330025198
 20
90.25836330773772
 30
0.0
 10
-139.6312822175086
 20
90.03912400273242
 30
0.0
 10
-139.5597583818923
 20
89.8236058418417
 30
0.0
 10
-139.4587833068233
 20
89.61643726455151
 30
0.0
 10
-139.3315621646248
 20
89.4243184806655
 30
0.0
 10
-139.1820432057307
 20
89.25365986237199
 30
0.0
 10
-139.0134110291438
 20
89.10736811377609
 30
0.0
 10
-138.8330315177172
 20
88.99269981784518
 30
0.0
 10
-138.64235745663
 20
88.91026705512252
 30
0.0
 10
-138.4511786610038
 20
88.86517269849202
 30
0.0
 10
-138.2607420496484
 20
88.85837009067632
 30
0.0
 10
-138.0806996009372
 20
88.88973888977456
 30
0.0
 10
-137.915319068769
 20
88.96150152700379
 30
0.0
 10
-137.7696726017685
 20
89.06796453706274
 30
0.0
 10
-137.6505505401094
 20
89.20670988350966
 30
0.0
 10
-137.5600678147251
 20
89.37444902501987
 30
0.0
 10
-137.5073487889439
 20
89.56339996393223
 30
0.0
 10
-137.4768658457247
 20
89.79727353567762
 30
0.0
 10
-137.4594499733955
 20
90.06781666358913
 30
0.0
 10
-137.4768847385446
 20
90.40366209213803
 30
0.0
 10
-137.5488794038198
 20
90.76867237254226
 30
0.0
 10
-137.6781787950042
 20
91.0023836222579
 30
0.0
 10
-137.7428846735599
 20
91.11934079895195
 30
0.0
 11
-139.2703547281823
 21
91.52862516655074
 31
0.0
 11
-139.5273035281052
 21
91.0262431351869
 31
0.0
 11
-139.6738555281925
 21
90.47773980752737
 31
0.0
 11
-139.6677492457954
 21
90.25955566116971
 31
0.0
 11
-139.6274039815053
 21
90.04374690072684
 31
0.0
 11
-139.5549695704566
 21
89.8253926354565
 31
0.0
 11
-139.454436689394
 21
89.61898957817512
 31
0.0
 11
-139.3274797565313
 21
89.4274849267364
 31
0.0
 11
-139.1758160600126
 21
89.25469984172234
 31
0.0
 11
-139.0101195814082
 21
89.11168039008449
 31
0.0
 11
-138.8251478532672
 21
88.99481640992884
 31
0.0
 11
-138.6404060686822
 21
88.91586694621151
 31
0.0
 11
-138.4447278302027
 21
88.87068506013962
 31
0.0
 11
-138.260946603042
 21
88.86478016775384
 31
0.0
 11
-138.0804402600024
 21
88.89727786512303
 31
0.0
 11
-137.9186965921885
 21
88.96712928519965
 31
0.0
 11
-137.7762235999443
 21
89.07138734013004
 31
0.0
 11
-137.6559059822839
 21
89.21060014160479
 31
0.0
 11
-137.5687708689912
 21
89.37201331289259
 31
0.0
 11
-137.5121694825705
 21
89.56366648885187
 31
0.0
 11
-137.4831039281721
 21
89.76289585432876
 31
0.0
 11
-137.4653585543064
 21
90.06827494834266
 31
0.0
 11
-137.4816047281823
 21
90.37222459299898
 31
0.0
 11
-137.5681011365147
 21
90.76085109187235
 31
0.0
 11
-137.7428846735599
 21
91.11934079895195
 31
0.0
  0
SPLINE
  5
321
330
1F
100
AcDbEntity
  8
1
  6
Continuous
 62
     7
100
AcDbSpline
210
0.0
220
0.0
230
1.0
 70
     8
 71
     3
 72
    33
 73
    29
 74
    27
 42
0.0000000001
 43
0.0000000001
 44
0.00000001
 40
0.0
 40
0.0
 40
0.0
 40
0.0
 40
0.3431646928542048
 40
0.6865278656292507
 40
0.8230750923411694
 40
0.9592245116839782
 40
1.095541023981312
 40
1.232202072420031
 40
1.365334668990393
 40
1.498294674634332
 40
1.625959177241482
 40
1.753619881261266
 40
1.876384896859657
 40
1.999077715871138
 40
2.119802097130177
 40
2.240529957880455
 40
2.363230110061146
 40
2.485988008566296
 40
2.613623483033104
 40
2.741310927340728
 40
2.874350551496367
 40
3.007416491764788
 40
3.143873484302658
 40
3.280333641353242
 40
3.416781792712277
 40
3.553255389719536
 40
3.813088770635656
 40
4.072795459220922
 40
4.072795459220922
 40
4.072795459220922
 40
4.072795459220922
 10
-138.9148129425125
 20
91.43335803220498
 30
0.0
 10
-138.9799017009692
 20
91.33904943610764
 30
0.0
 10
-139.1101168639805
 20
91.1503776976177
 30
0.0
 10
-139.2151617175262
 20
90.89374515067246
 30
0.0
 10
-139.261369192244
 20
90.69337894895952
 30
0.0
 10
-139.2742137216373
 20
90.55706528847836
 30
0.0
 10
-139.2638867135202
 20
90.42043702517196
 30
0.0
 10
-139.2322710527491
 20
90.28825643062888
 30
0.0
 10
-139.1813282774303
 20
90.1634719256642
 30
0.0
 10
-139.1125282887872
 20
90.05096248268036
 30
0.0
 10
-139.0268457155152
 20
89.95312437107488
 30
0.0
 10
-138.9279392544329
 20
89.87385986625006
 30
0.0
 10
-138.817482893785
 20
89.81515672297377
 30
0.0
 10
-138.7000759906708
 20
89.77895802314666
 30
0.0
 10
-138.5784803240697
 20
89.76705705245851
 30
0.0
 10
-138.4568821510325
 20
89.77895815585643
 30
0.0
 10
-138.3394741089222
 20
89.81515674812603
 30
0.0
 10
-138.229023782443
 20
89.87385453635903
 30
0.0
 10
-138.1301292989939
 20
89.95313083393967
 30
0.0
 10
-138.0444351312927
 20
90.05098658532677
 30
0.0
 10
-137.9755317861352
 20
90.16344285903578
 30
0.0
 10
-137.9246150236936
 20
90.28819171062892
 30
0.0
 10
-137.8935720303347
 20
90.42049279104162
 30
0.0
 10
-137.8831456931028
 20
90.55703716452837
 30
0.0
 10
-137.8934741377782
 20
90.69378987121772
 30
0.0
 10
-137.9346114554764
 20
90.86662930665074
 30
0.0
 10
-138.0305459765025
 20
91.07038757964513
 30
0.0
 10
-138.165221091346
 20
91.18207958456904
 30
0.0
 10
-138.2325422281823
 20
91.23791196871616
 30
0.0
 11
-138.9148129425125
 21
91.43335803220498
 31
0.0
 11
-139.0994360915951
 21
91.14408947317281
 31
0.0
 11
-139.2286295601886
 21
90.8259585000015
 31
0.0
 11
-139.258417879563
 21
90.69270010007278
 31
0.0
 11
-139.2703547281823
 21
90.55707496953856
 31
0.0
 11
-139.2603142396086
 21
90.42112872974462
 31
0.0
 11
-139.2286295601886
 21
90.2881914390756
 31
0.0
 11
-139.1780931536953
 21
90.16502342420034
 31
0.0
 11
-139.1084867272652
 21
90.05173923068479
 31
0.0
 11
-139.0242324587272
 21
89.95582550143261
 31
0.0
 11
-138.9244172281823
 21
89.87623797036093
 31
0.0
 11
-138.8159517616753
 21
89.81873586926629
 31
0.0
 11
-138.6986225611056
 21
89.78285570022187
 31
0.0
 11
-138.5784814763743
 21
89.7710025997851
 31
0.0
 11
-138.458336895259
 21
89.7828557002219
 31
0.0
 11
-138.3410005538293
 21
89.81873759433397
 31
0.0
 11
-138.2325422281823
 21
89.87623797036093
 31
0.0
 11
-138.1327534393474
 21
89.95581819381646
 31
0.0
 11
-138.0484727290994
 21
90.0517392306848
 31
0.0
 11
-137.9787617435211
 21
90.1650526018516
 31
0.0
 11
-137.928329896176
 21
90.2881914390756
 31
0.0
 11
-137.8970514923261
 21
90.42101527829537
 31
0.0
 11
-137.8866047281824
 21
90.55707496953858
 31
0.0
 11
-137.8970199178858
 21
90.69312504058868
 31
0.0
 11
-137.928329896176
 21
90.82595850000146
 31
0.0
 11
-138.0452462370548
 21
91.05800150264065
 31
0.0
 11
-138.2325422281823
 21
91.23791196871616
 31
0.0
  0
ARC
  5
322
330
1F
100
AcDbEntity
  8
1
  6
Continuous
 62
     7
100
AcDbCircle
 10
-124.493776467207
 20
85.16346175947703
 30
0.0
 40
2.0
100
AcDbArc
 50
-90.0
 51
-0.00000000000081
  0
ARC
  5
323
330
1F
100
AcDbEntity
  8
1
  6
Continuous
 62
     7
100
AcDbCircle
 10
-124.493776467207
 20
131.1634617594771
 30
0.0
 40
2.0
100
AcDbArc
 50
-0.00000000000244
 51
90.0
  0
ARC
  5
324
330
1F
100
AcDbEntity
  8
1
  6
Continuous
 62
     7
100
AcDbCircle
 10
-140.493776467207
 20
85.16346175947703
 30
0.0
 40
2.0
100
AcDbArc
 50
-179.9999999999992
 51
-90.0
  0
ARC
  5
325
330
1F
100
AcDbEntity
  8
1
  6
Continuous
 62
     7
100
AcDbCircle
 10
-140.493776467207
 20
131.1634617594771
 30
0.0
 40
2.0
100
AcDbArc
 50
90.0
 51
180.0
  0
ARC
  5
326
330
1F
100
AcDbEntity
  8
1
  6
Continuous
 62
     7
100
AcDbCircle
 10
-102.623776467207
 20
137.363461759477
 30
0.0
 40
0.5
100
AcDbArc
 50
90.0
 51
180.0
  0
ARC
  5
327
330
1F
100
AcDbEntity
  8
1
  6
Continuous
 62
     7
100
AcDbCircle
 10
-94.123776467207
 20
134.363461759477
 30
0.0
 40
2.0
100
AcDbArc
 50
0.0
 51
90.0
  0
ARC
  5
328
330
1F
100
AcDbEntity
  8
1
  6
Continuous
 62
     7
100
AcDbCircle
 10
-94.123776467207
 20
81.963461759477
 30
0.0
 40
2.0
100
AcDbArc
 50
-90.0
 51
0.0
  0
ARC
  5
329
330
1F
100
AcDbEntity
  8
1
  6
Continuous
 62
     7
100
AcDbCircle
 10
-94.82377646720701
 20
137.363461759477
 30
0.0
 40
0.5
100
AcDbArc
 50
0.0
 51
90.0
  0
ARC
  5
32A
330
1F
100
AcDbEntity
  8
1
  6
Continuous
 62
     7
100
AcDbCircle
 10
-294.25
 20
136.863461759477
 30
0.0
 40
1.0
100
AcDbArc
 50
90.0
 51
180.0
  0
ARC
  5
32B
330
1F
100
AcDbEntity
  8
1
  6
Continuous
 62
     7
100
AcDbCircle
 10
-285.75
 20
136.863461759477
 30
0.0
 40
1.0
100
AcDbArc
 50
0.0
 51
90.0
  0
ARC
  5
32C
330
1F
100
AcDbEntity
  8
1
  6
Continuous
 62
     7
100
AcDbCircle
 10
-12.56681333402497
 20
136.863461759477
 30
0.0
 40
1.0
100
AcDbArc
 50
90.0
 51
180.0
  0
ARC
  5
32D
330
1F
100
AcDbEntity
  8
1
  6
Continuous
 62
     7
100
AcDbCircle
 10
-4.06681333402497
 20
136.863461759477
 30
0.0
 40
1.0
100
AcDbArc
 50
0.0
 51
90.0
  0
SOLID
  5
32E
330
1F
100
AcDbEntity
  8
1
 62
     2
100
AcDbTrace
 10
-130.9622027321389
 20
79.98280089252944
 30
0.0
 11
-131.8376054500171
 21
79.69477883181095
 31
0.0
 12
-132.493776467207
 22
83.16346175947703
 32
0.0
 13
-132.493776467207
 23
83.16346175947703
 33
0.0
  0
LEADER
  5
32F
330
1F
100
AcDbEntity
  8
1
  6
Continuous
 62
     2
100
AcDbLeader
  3
Standard
 71
     0
 76
     3
 10
-132.493776467207
 20
83.16346175947703
 30
0.0
 10
-126.66081776191
 20
65.4350006438593
 30
0.0
 10
-121.66081776191
 20
65.4350006438593
 30
0.0
  0
SOLID
  5
330
330
1F
100
AcDbEntity
  8
1
 62
     2
100
AcDbTrace
 10
-262.0568416762334
 20
80.38476869406163
 30
0.0
 11
-262.7690921287294
 21
79.7999730726278
 31
0.0
 12
-264.6339487757862
 22
82.7974105352632
 32
0.0
 13
-264.6339487757862
 23
82.7974105352632
 33
0.0
  0
LEADER
  5
331
330
1F
100
AcDbEntity
  8
1
  6
Continuous
 62
     2
100
AcDbLeader
  3
Standard
 71
     0
 76
     3
 10
-264.6339487757862
 20
82.7974105352632
 30
0.0
 10
-254.039828104143
 20
69.8943261659335
 30
0.0
 10
-249.039828104143
 20
69.8943261659335
 30
0.0
  0
SOLID
  5
332
330
1F
100
AcDbEntity
  8
1
 62
     4
100
AcDbTrace
 10
-196.894151412291
 20
113.909396955319
 30
0.0
 11
-198.7496615067031
 21
111.284396955319
 31
0.0
 12
-195.0386413178789
 22
111.284396955319
 32
0.0
 13
-195.0386413178789
 23
111.284396955319
 33
0.0
  0
LEADER
  5
333
330
1F
100
AcDbEntity
  8
1
  6
Continuous
 62
     4
100
AcDbLeader
  3
Standard
 71
     0
 76
     2
 10
-196.894151412291
 20
111.284396955319
 30
0.0
 10
-196.894151412291
 20
131.696702619857
 30
0.0
  0
SOLID
  5
334
330
1F
100
AcDbEntity
  8
1
 62
     4
100
AcDbTrace
 10
-213.3569389181089
 20
130.260852234328
 30
0.0
 11
-212.4353714349971
 21
130.260852234328
 31
0.0
 12
-212.896155176553
 22
126.760852234328
 32
0.0
 13
-212.896155176553
 23
126.760852234328
 33
0.0
  0
LEADER
  5
335
330
1F
100
AcDbEntity
  8
1
  6
Continuous
 62
     4
100
AcDbLeader
  3
Standard
 71
     0
 76
     2
 10
-212.896155176553
 20
126.760852234328
 30
0.0
 10
-212.896155176553
 20
151.813242232523
 30
0.0
  0
SOLID
  5
336
330
1F
100
AcDbEntity
  8
1
 62
     4
100
AcDbTrace
 10
-171.82680988267
 20
33.60476174621392
 30
0.0
 11
-171.82680988267
 21
34.52632922932569
 31
0.0
 12
-168.32680988267
 22
34.0655454877698
 32
0.0
 13
-168.32680988267
 23
34.0655454877698
 33
0.0
  0
LEADER
  5
337
330
1F
100
AcDbEntity
  8
1
  6
Continuous
 62
     4
100
AcDbLeader
  3
Standard
 71
     0
 76
     2
 10
-168.32680988267
 20
34.0655454877698
 30
0.0
 10
-185.842872098652
 20
34.0655454877698
 30
0.0
  0
DIMENSION
  5
343
330
1F
100
AcDbEntity
  8
1
100
AcDbDimension
  2
*D1
 10
-212.906025158195
 20
127.213461759477
 30
0.0
 11
-216.656025158195
 21
108.163461759477
 31
0.0
 70
    32
  1
<>
 71
     5
 42
-1.0
 53
90.0
  3
ME10_DIM_10
100
AcDbAlignedDimension
 13
-169.843776467207
 23
89.113461759477
 33
0.0
 14
-169.843776467207
 24
127.213461759477
 34
0.0
 50
90.0
100
AcDbRotatedDimension
  0
DIMENSION
  5
34F
330
1F
100
AcDbEntity
  8
1
100
AcDbDimension
  2
*D2
 10
-68.3148138665316
 20
136.363461759477
 30
0.0
 11
-72.0648138665316
 21
166.163461759477
 31
0.0
 70
    32
  1
305
 71
     5
 42
-1.0
 53
90.0
  3
ME10_DIM_11
100
AcDbAlignedDimension
 13
-96.923776467207
 23
195.963461759477
 33
0.0
 14
-94.123776467207
 24
136.363461759477
 34
0.0
 50
90.0
100
AcDbRotatedDimension
  0
DIMENSION
  5
361
330
1F
100
AcDbEntity
  8
1
100
AcDbDimension
  2
*D3
 10
-168.323776467207
 20
64.8787957900704
 30
0.0
 11
-156.150484785382
 21
68.6287957900704
 31
0.0
 70
    32
  1
<>
 71
     5
 42
-1.0
 53
0.00013888888889
  3
ME10_DIM_12
100
AcDbAlignedDimension
 13
-163.493776467207
 23
79.963461759477
 33
0.0
 14
-168.323776467207
 24
79.963461759477
 34
0.0
100
AcDbRotatedDimension
  0
DIMENSION
  5
36C
330
1F
100
AcDbEntity
  8
1
100
AcDbDimension
  2
*D5
 10
-68.3148138665316
 20
136.363461759477
 30
0.0
 11
-72.0648138665316
 21
108.163461759477
 31
0.0
 70
    32
  1
<>
 71
     5
 42
-1.0
 53
90.0
  3
ME10_DIM_13
100
AcDbAlignedDimension
 13
-94.123776467207
 23
79.963461759477
 33
0.0
 14
-94.123776467207
 24
136.363461759477
 34
0.0
 50
90.0
100
AcDbRotatedDimension
  0
DIMENSION
  5
379
330
1F
100
AcDbEntity
  8
1
100
AcDbDimension
  2
*D6
 10
-203.000715704896
 20
111.338461759477
 30
0.0
 11
-208.063215704896
 21
108.163461759477
 31
0.0
 70
    32
  1
<>
 71
     5
 42
-1.0
 53
90.0
  3
ME10_DIM_14
100
AcDbAlignedDimension
 13
-188.193776467207
 23
104.988461759477
 33
0.0
 14
-188.193776467207
 24
111.338461759477
 34
0.0
 50
90.0
100
AcDbRotatedDimension
  0
DIMENSION
  5
386
330
1F
100
AcDbEntity
  8
1
100
AcDbDimension
  2
*D7
 10
-79.68290195393101
 20
195.963461759477
 30
0.0
 11
-83.43290195393101
 21
173.036767447627
 31
0.0
 70
    32
  1
<>
 71
     5
 42
-1.0
 53
90.0
  3
ME10_DIM_15
100
AcDbAlignedDimension
 13
-96.923776467207
 23
186.363461759477
 33
0.0
 14
-96.923776467207
 24
195.963461759477
 34
0.0
 50
90.0
100
AcDbRotatedDimension
  0
DIMENSION
  5
391
330
1F
100
AcDbEntity
  8
1
100
AcDbDimension
  2
*D8
 10
-289.9999999999999
 20
69.9815717121755
 30
0.0
 11
-278.215
 21
73.7315717121755
 31
0.0
 70
    32
  1
<>
 71
     5
 42
-1.0
 53
0.00013888888889
  3
ME10_DIM_16
100
AcDbAlignedDimension
 13
-266.43
 23
80.59346175947702
 33
0.0
 14
-290.0
 24
75.2494702200777
 34
0.0
100
AcDbRotatedDimension
  0
DIMENSION
  5
39C
330
1F
100
AcDbEntity
  8
1
100
AcDbDimension
  2
*D9
 10
-318.2
 20
49.9750780456778
 30
0.0
 11
-290.0
 21
53.7250780456778
 31
0.0
 70
    32
  1
<>
 71
     5
 42
-1.0
 53
0.00013888888889
  3
ME10_DIM_17
100
AcDbAlignedDimension
 13
-261.8
 23
82.32119986157029
 33
0.0
 14
-318.2
 24
82.32119986157029
 34
0.0
100
AcDbRotatedDimension
  0
DIMENSION
  5
3A7
330
1F
100
AcDbEntity
  8
1
100
AcDbDimension
  2
*D10
 10
-313.57
 20
59.8467032100681
 30
0.0
 11
-290.0
 21
63.5967032100681
 31
0.0
 70
    32
  1
<>
 71
     5
 42
-1.0
 53
0.00013888888889
  3
ME10_DIM_18
100
AcDbAlignedDimension
 13
-266.43
 23
80.59346175947702
 33
0.0
 14
-313.57
 24
80.59346175947702
 34
0.0
100
AcDbRotatedDimension
  0
DIMENSION
  5
3B3
330
1F
100
AcDbEntity
  8
1
100
AcDbDimension
  2
*D11
 10
-188.893776467207
 20
49.8696012752994
 30
0.0
 11
-178.608776467207
 21
53.6196012752994
 31
0.0
 70
    32
  1
<>
 71
     5
 42
-1.0
 53
0.00013888888889
  3
ME10_DIM_19
100
AcDbAlignedDimension
 13
-168.323776467207
 23
79.963461759477
 33
0.0
 14
-188.893776467207
 24
105.688461759477
 34
0.0
100
AcDbRotatedDimension
  0
DIMENSION
  5
3BE
330
1F
100
AcDbEntity
  8
1
100
AcDbDimension
  2
*D12
 10
-168.323776467207
 20
49.8696012752994
 30
0.0
 11
-130.223776467207
 21
53.6196012752994
 31
0.0
 70
    32
  1
<>
 71
     5
 42
-1.0
 53
0.00013888888889
  3
ME10_DIM_20
100
AcDbAlignedDimension
 13
-92.123776467207
 23
81.963461759477
 33
0.0
 14
-168.323776467207
 24
79.963461759477
 34
0.0
100
AcDbRotatedDimension
  0
DIMENSION
  5
3CB
330
1F
100
AcDbEntity
  8
1
100
AcDbDimension
  2
*D13
 10
-169.843776467207
 20
64.8787957900704
 30
0.0
 11
-176.520105912571
 21
68.6287957900704
 31
0.0
 70
    32
  1
<>
 71
     5
 42
-1.0
 53
0.00013888888889
  3
ME10_DIM_21
100
AcDbAlignedDimension
 13
-168.323776467207
 23
79.963461759477
 33
0.0
 14
-169.843776467207
 24
89.113461759477
 34
0.0
100
AcDbRotatedDimension
  0
ENDSEC
  0
SECTION
  2
OBJECTS
  0
DICTIONARY
  5
C
330
0
100
AcDbDictionary
281
     1
  3
ACAD_GROUP
350
D
  3
ACAD_LAYOUT
350
1A
  3
ACAD_MLINESTYLE
350
17
  3
ACAD_PLOTSETTINGS
350
19
  3
ACAD_PLOTSTYLENAME
350
E
  0
DICTIONARY
  5
D
102
{ACAD_REACTORS
330
C
102
}
330
C
100
AcDbDictionary
281
     1
  0
DICTIONARY
  5
1A
102
{ACAD_REACTORS
330
C
102
}
330
C
100
AcDbDictionary
281
     1
  3
Layout1
350
1E
  3
Layout2
350
26
  3
Model
350
22
  0
DICTIONARY
  5
17
102
{ACAD_REACTORS
330
C
102
}
330
C
100
AcDbDictionary
281
     1
  3
Standard
350
18
  0
DICTIONARY
  5
19
102
{ACAD_REACTORS
330
C
102
}
330
C
100
AcDbDictionary
281
     1
  0
ACDBDICTIONARYWDFLT
  5
E
102
{ACAD_REACTORS
330
C
102
}
330
C
100
AcDbDictionary
281
     1
  3
Normal
350
F
100
AcDbDictionaryWithDefault
340
F
  0
LAYOUT
  5
1E
102
{ACAD_REACTORS
330
1A
102
}
330
1A
100
AcDbPlotSettings
  1

  2

  4

  6

 40
0.0
 41
0.0
 42
0.0
 43
0.0
 44
0.0
 45
0.0
 46
0.0
 47
0.0
 48
0.0
 49
0.0
140
0.0
141
0.0
142
1.0
143
1.0
 70
   688
 72
     0
 73
     0
 74
     5
  7

 75
    16
147
1.0
148
0.0
149
0.0
100
AcDbLayout
  1
Layout1
 70
     1
 71
     1
 10
0.0
 20
0.0
 11
0.0
 21
0.0
 12
0.0
 22
0.0
 32
0.0
 14
0.0
 24
0.0
 34
0.0
 15
0.0
 25
0.0
 35
0.0
146
0.0
 13
0.0
 23
0.0
 33
0.0
 16
1.0
 26
0.0
 36
0.0
 17
0.0
 27
1.0
 37
0.0
 76
     0
330
1B
  0
LAYOUT
  5
26
102
{ACAD_REACTORS
330
1A
102
}
330
1A
100
AcDbPlotSettings
  1

  2

  4

  6

 40
0.0
 41
0.0
 42
0.0
 43
0.0
 44
0.0
 45
0.0
 46
0.0
 47
0.0
 48
0.0
 49
0.0
140
0.0
141
0.0
142
1.0
143
1.0
 70
   688
 72
     0
 73
     0
 74
     5
  7

 75
    16
147
1.0
148
0.0
149
0.0
100
AcDbLayout
  1
Layout2
 70
     1
 71
     2
 10
0.0
 20
0.0
 11
0.0
 21
0.0
 12
0.0
 22
0.0
 32
0.0
 14
0.0
 24
0.0
 34
0.0
 15
0.0
 25
0.0
 35
0.0
146
0.0
 13
0.0
 23
0.0
 33
0.0
 16
1.0
 26
0.0
 36
0.0
 17
0.0
 27
1.0
 37
0.0
 76
     0
330
23
  0
LAYOUT
  5
22
102
{ACAD_REACTORS
330
1A
102
}
330
1A
100
AcDbPlotSettings
  1

  2

  4

  6

 40
0.0
 41
0.0
 42
0.0
 43
0.0
 44
0.0
 45
0.0
 46
0.0
 47
0.0
 48
0.0
 49
0.0
140
0.0
141
0.0
142
1.0
143
1.0
 70
  1712
 72
     0
 73
     0
 74
     0
  7

 75
     0
147
1.0
148
0.0
149
0.0
100
AcDbLayout
  1
Model
 70
     1
 71
     0
 10
0.0
 20
0.0
 11
0.0
 21
0.0
 12
0.0
 22
0.0
 32
0.0
 14
-321.370746455297
 24
30.5655454877698
 34
0.0
 15
23.053933121272
 25
202.963461759477
 35
0.0
146
0.0
 13
0.0
 23
0.0
 33
0.0
 16
1.0
 26
0.0
 36
0.0
 17
0.0
 27
1.0
 37
0.0
 76
     0
330
1F
  0
MLINESTYLE
  5
18
102
{ACAD_REACTORS
330
17
102
}
330
17
100
AcDbMlineStyle
  2
Standard
 70
     0
  3

 62
   256
 51
90.0
 52
90.0
 71
     2
 49
0.5
 62
   256
  6
BYLAYER
 49
-0.5
 62
   256
  6
BYLAYER
  0
ACDBPLACEHOLDER
  5
F
102
{ACAD_REACTORS
330
E
102
}
330
E
  0
ENDSEC
  0
EOF
