  0
SECTION
  2
HEADER
  9
$ACADVER
  1
AC1015
  9
$ACADMAINTVER
 70
     6
  9
$DWGCODEPAGE
  3
DOS932
  9
$INSBASE
 10
0.0
 20
0.0
 30
0.0
  9
$EXTMIN
 10
-331.370746455297
 20
30.5655454877698
 30
0.0
  9
$EXTMAX
 10
28.053933121272
 20
202.963461759477
 30
0.0
  9
$LIMMIN
 10
0.0
 20
0.0
  9
$LIMMAX
 10
12.0
 20
9.0
  9
$ORTHOMODE
 70
     0
  9
$REGENMODE
 70
     1
  9
$FILLMODE
 70
     1
  9
$QTEXTMODE
 70
     0
  9
$MIRRTEXT
 70
     1
  9
$LTSCALE
 40
1.0
  9
$ATTMODE
 70
     1
  9
$TEXTSIZE
 40
0.2
  9
$TRACEWID
 40
0.05
  9
$TEXTSTYLE
  7
Standard
  9
$CLAYER
  8
0
  9
$CELTYPE
  6
ByLayer
  9
$CECOLOR
 62
   256
  9
$CELTSCALE
 40
1.0
  9
$DISPSILH
 70
     0
  9
$DIMSCALE
 40
1.0
  9
$DIMASZ
 40
0.18
  9
$DIMEXO
 40
0.0625
  9
$DIMDLI
 40
0.38
  9
$DIMRND
 40
0.0
  9
$DIMDLE
 40
0.0
  9
$DIMEXE
 40
0.18
  9
$DIMTP
 40
0.0
  9
$DIMTM
 40
0.0
  9
$DIMTXT
 40
0.18
  9
$DIMCEN
 40
0.09
  9
$DIMTSZ
 40
0.0
  9
$DIMTOL
 70
     0
  9
$DIMLIM
 70
     0
  9
$DIMTIH
 70
     1
  9
$DIMTOH
 70
     1
  9
$DIMSE1
 70
     0
  9
$DIMSE2
 70
     0
  9
$DIMTAD
 70
     0
  9
$DIMZIN
 70
     0
  9
$DIMBLK
  1

  9
$DIMASO
 70
     1
  9
$DIMSHO
 70
     1
  9
$DIMPOST
  1

  9
$DIMAPOST
  1

  9
$DIMALT
 70
     0
  9
$DIMALTD
 70
     2
  9
$DIMALTF
 40
25.4
  9
$DIMLFAC
 40
1.0
  9
$DIMTOFL
 70
     0
  9
$DIMTVP
 40
0.0
  9
$DIMTIX
 70
     0
  9
$DIMSOXD
 70
     0
  9
$DIMSAH
 70
     0
  9
$DIMBLK1
  1

  9
$DIMBLK2
  1

  9
$DIMSTYLE
  2
Standard
  9
$DIMCLRD
 70
     0
  9
$DIMCLRE
 70
     0
  9
$DIMCLRT
 70
     0
  9
$DIMTFAC
 40
1.0
  9
$DIMGAP
 40
0.09
  9
$DIMJUST
 70
     0
  9
$DIMSD1
 70
     0
  9
$DIMSD2
 70
     0
  9
$DIMTOLJ
 70
     1
  9
$DIMTZIN
 70
     0
  9
$DIMALTZ
 70
     0
  9
$DIMALTTZ
 70
     0
  9
$DIMUPT
 70
     0
  9
$DIMDEC
 70
     4
  9
$DIMTDEC
 70
     4
  9
$DIMALTU
 70
     2
  9
$DIMALTTD
 70
     2
  9
$DIMTXSTY
  7
Standard
  9
$DIMAUNIT
 70
     0
  9
$DIMADEC
 70
     0
  9
$DIMALTRND
 40
0.0
  9
$DIMAZIN
 70
     0
  9
$DIMDSEP
 70
    46
  9
$DIMATFIT
 70
     3
  9
$DIMFRAC
 70
     0
  9
$DIMLDRBLK
  1

  9
$DIMLUNIT
 70
     2
  9
$DIMLWD
 70
    -2
  9
$DIMLWE
 70
    -2
  9
$DIMTMOVE
 70
     0
  9
$LUNITS
 70
     2
  9
$LUPREC
 70
     4
  9
$SKETCHINC
 40
0.1
  9
$FILLETRAD
 40
0.5
  9
$AUNITS
 70
     0
  9
$AUPREC
 70
     0
  9
$MENU
  1
.
  9
$ELEVATION
 40
0.0
  9
$PELEVATION
 40
0.0
  9
$THICKNESS
 40
0.0
  9
$LIMCHECK
 70
     0
  9
$CHAMFERA
 40
0.5
  9
$CHAMFERB
 40
0.5
  9
$CHAMFERC
 40
1.0
  9
$CHAMFERD
 40
0.0
  9
$SKPOLY
 70
     0
  9
$TDCREATE
 40
2454823.568260081
  9
$TDUCREATE
 40
2454823.193260081
  9
$TDUPDATE
 40
2454823.568260093
  9
$TDUUPDATE
 40
2454823.193260093
  9
$TDINDWG
 40
0.0000000116
  9
$TDUSRTIMER
 40
0.0000000116
  9
$USRTIMER
 70
     1
  9
$ANGBASE
 50
0.0
  9
$ANGDIR
 70
     0
  9
$PDMODE
 70
     0
  9
$PDSIZE
 40
0.0
  9
$PLINEWID
 40
0.0
  9
$SPLFRAME
 70
     0
  9
$SPLINETYPE
 70
     6
  9
$SPLINESEGS
 70
     8
  9
$HANDSEED
  5
3CC
  9
$SURFTAB1
 70
     6
  9
$SURFTAB2
 70
     6
  9
$SURFTYPE
 70
     6
  9
$SURFU
 70
     6
  9
$SURFV
 70
     6
  9
$UCSBASE
  2

  9
$UCSNAME
  2

  9
$UCSORG
 10
0.0
 20
0.0
 30
0.0
  9
$UCSXDIR
 10
1.0
 20
0.0
 30
0.0
  9
$UCSYDIR
 10
0.0
 20
1.0
 30
0.0
  9
$UCSORTHOREF
  2

  9
$UCSORTHOVIEW
 70
     0
  9
$UCSORGTOP
 10
0.0
 20
0.0
 30
0.0
  9
$UCSORGBOTTOM
 10
0.0
 20
0.0
 30
0.0
  9
$UCSORGLEFT
 10
0.0
 20
0.0
 30
0.0
  9
$UCSORGRIGHT
 10
0.0
 20
0.0
 30
0.0
  9
$UCSORGFRONT
 10
0.0
 20
0.0
 30
0.0
  9
$UCSORGBACK
 10
0.0
 20
0.0
 30
0.0
  9
$PUCSBASE
  2

  9
$PUCSNAME
  2

  9
$PUCSORG
 10
0.0
 20
0.0
 30
0.0
  9
$PUCSXDIR
 10
1.0
 20
0.0
 30
0.0
  9
$PUCSYDIR
 10
0.0
 20
1.0
 30
0.0
  9
$PUCSORTHOREF
  2

  9
$PUCSORTHOVIEW
 70
     0
  9
$PUCSORGTOP
 10
0.0
 20
0.0
 30
0.0
  9
$PUCSORGBOTTOM
 10
0.0
 20
0.0
 30
0.0
  9
$PUCSORGLEFT
 10
0.0
 20
0.0
 30
0.0
  9
$PUCSORGRIGHT
 10
0.0
 20
0.0
 30
0.0
  9
$PUCSORGFRONT
 10
0.0
 20
0.0
 30
0.0
  9
$PUCSORGBACK
 10
0.0
 20
0.0
 30
0.0
  9
$USERI1
 70
     0
  9
$USERI2
 70
     0
  9
$USERI3
 70
     0
  9
$USERI4
 70
     0
  9
$USERI5
 70
     0
  9
$USERR1
 40
14.5
  9
$USERR2
 40
0.0
  9
$USERR3
 40
0.0
  9
$USERR4
 40
0.0
  9
$USERR5
 40
0.0
  9
$WORLDVIEW
 70
     1
  9
$SHADEDGE
 70
     3
  9
$SHADEDIF
 70
    70
  9
$TILEMODE
 70
     1
  9
$MAXACTVP
 70
    64
  9
$PINSBASE
 10
0.0
 20
0.0
 30
0.0
  9
$PLIMCHECK
 70
     0
  9
$PEXTMIN
 10
1.00000000000000E+20
 20
1.00000000000000E+20
 30
1.00000000000000E+20
  9
$PEXTMAX
 10
-1.00000000000000E+20
 20
-1.00000000000000E+20
 30
-1.00000000000000E+20
  9
$PLIMMIN
 10
0.0
 20
0.0
  9
$PLIMMAX
 10
12.0
 20
9.0
  9
$UNITMODE
 70
     0
  9
$VISRETAIN
 70
     1
  9
$PLINEGEN
 70
     0
  9
$PSLTSCALE
 70
     1
  9
$TREEDEPTH
 70
  3020
  9
$CMLSTYLE
  2
Standard
  9
$CMLJUST
 70
     0
  9
$CMLSCALE
 40
1.0
  9
$PROXYGRAPHICS
 70
     1
  9
$MEASUREMENT
 70
     1
  9
$CELWEIGHT
370
    -1
  9
$ENDCAPS
280
     0
  9
$JOINSTYLE
280
     0
  9
$LWDISPLAY
290
     0
  9
$INSUNITS
 70
     1
  9
$HYPERLINKBASE
  1

  9
$STYLESHEET
  1

  9
$XEDIT
290
     1
  9
$CEPSNTYPE
380
     0
  9
$PSTYLEMODE
290
     1
  9
$FINGERPRINTGUID
  2
{BF1753CD-B01F-41D5-8886-402F9563ABC3}
  9
$VERSIONGUID
  2
{FAEB1C32-E019-11D5-929B-00C0DF256EC4}
  9
$EXTNAMES
290
     1
  9
$PSVPSCALE
 40
0.0
  9
$OLESTARTUP
290
     0
  0
ENDSEC
  0
SECTION
  2
CLASSES
  0
CLASS
  1
ACDBDICTIONARYWDFLT
  2
AcDbDictionaryWithDefault
  3
ObjectDBX Classes
 90
        0
280
     0
281
     0
  0
CLASS
  1

  2
exOdDbCircle
  3

 90
        0
280
     0
281
     1
  0
CLASS
  1

  2
exOdDbSpline
  3

 90
        0
280
     0
281
     1
  0
CLASS
  1

  2
exOdDbPolyline
  3

 90
        0
280
     0
281
     1
  0
CLASS
  1
ACDBPLACEHOLDER
  2
AcDbPlaceHolder
  3
ObjectDBX Classes
 90
        0
280
     0
281
     0
  0
CLASS
  1
LAYOUT
  2
AcDbLayout
  3
ObjectDBX Classes
 90
        0
280
     0
281
     0
  0
ENDSEC
  0
SECTION
  2
TABLES
  0
TABLE
  2
VPORT
  5
8
330
0
100
AcDbSymbolTable
 70
     1
  0
VPORT
  5
29
330
8
100
AcDbSymbolTableRecord
100
AcDbViewportTableRecord
  2
*Active
 70
     0
 10
0.0
 20
0.0
 11
1.0
 21
1.0
 12
-151.6584066670125
 22
116.7645036236234
 13
0.0
 23
0.0
 14
0.5
 24
0.5
 15
0.5
 25
0.5
 16
0.0
 26
0.0
 36
1.0
 17
0.0
 27
0.0
 37
0.0
 40
246.6914792414113
 41
1.60267857142857
 42
50.0
 43
0.0
 44
0.0
 50
0.0
 51
0.0
 71
     0
 72
   100
 73
     1
 74
     3
 75
     0
 76
     0
 77
     0
 78
     0
281
     0
 65
     1
110
0.0
120
0.0
130
0.0
111
1.0
121
0.0
131
0.0
112
0.0
122
1.0
132
0.0
 79
     0
146
0.0
  0
ENDTAB
  0
TABLE
  2
LTYPE
  5
5
330
0
100
AcDbSymbolTable
 70
     8
  0
LTYPE
  5
14
330
5
100
AcDbSymbolTableRecord
100
AcDbLinetypeTableRecord
  2
ByBlock
 70
     0
  3

 72
    65
 73
     0
 40
0.0
  0
LTYPE
  5
15
330
5
100
AcDbSymbolTableRecord
100
AcDbLinetypeTableRecord
  2
ByLayer
 70
     0
  3

 72
    65
 73
     0
 40
0.0
  0
LTYPE
  5
16
330
5
100
AcDbSymbolTableRecord
100
AcDbLinetypeTableRecord
  2
Continuous
 70
     0
  3
Solid line
 72
    65
 73
     0
 40
0.0
  0
LTYPE
  5
2A
330
5
100
AcDbSymbolTableRecord
100
AcDbLinetypeTableRecord
  2
DASHED
 70
     0
  3
Dashed
 72
    65
 73
     2
 40
15.0
 49
7.0
 74
     0
 49
-8.0
 74
     0
  0
LTYPE
  5
2B
330
5
100
AcDbSymbolTableRecord
100
AcDbLinetypeTableRecord
  2
DOTTED
 70
     0
  3
Dotted
 72
    65
 73
     2
 40
1.0
 49
0.0
 74
     0
 49
-1.0
 74
     0
  0
LTYPE
  5
2C
330
5
100
AcDbSymbolTableRecord
100
AcDbLinetypeTableRecord
  2
DOT_CENTER
 70
     0
  3
Dot_Center
 72
    65
 73
     4
 40
14.0
 49
12.0
 74
     0
 49
-1.0
 74
     0
 49
0.0
 74
     0
 49
-1.0
 74
     0
  0
LTYPE
  5
2D
330
5
100
AcDbSymbolTableRecord
100
AcDbLinetypeTableRecord
  2
LONG_DASHED
 70
     0
  3
Long_Dashed
 72
    65
 73
     2
 40
15.0
 49
10.0
 74
     0
 49
-5.0
 74
     0
  0
LTYPE
  5
2E
330
5
100
AcDbSymbolTableRecord
100
AcDbLinetypeTableRecord
  2
DASH_CENTER
 70
     0
  3
Dash_Center
 72
    65
 73
     4
 40
14.0
 49
11.0
 74
     0
 49
-1.0
 74
     0
 49
1.0
 74
     0
 49
-1.0
 74
     0
  0
LTYPE
  5
2F
330
5
100
AcDbSymbolTableRecord
100
AcDbLinetypeTableRecord
  2
PHANTOM
 70
     0
  3
Phantom
 72
    65
 73
     6
 40
13.0
 49
10.0
 74
     0
 49
-1.0
 74
     0
 49
0.0
 74
     0
 49
-1.0
 74
     0
 49
0.0
 74
     0
 49
-1.0
 74
     0
  0
LTYPE
  5
30
330
5
100
AcDbSymbolTableRecord
100
AcDbLinetypeTableRecord
  2
CENTER_DASH_DASH
 70
     0
  3
Center_Dash_Dash
 72
    65
 73
     6
 40
14.0
 49
9.0
 74
     0
 49
-1.0
 74
     0
 49
1.0
 74
     0
 49
-1.0
 74
     0
 49
1.0
 74
     0
 49
-1.0
 74
     0
  0
ENDTAB
  0
TABLE
  2
LAYER
  5
2
330
0
100
AcDbSymbolTable
 70
     2
  0
LAYER
  5
10
330
2
100
AcDbSymbolTableRecord
100
AcDbLayerTableRecord
  2
0
 70
     0
 62
     7
  6
Continuous
370
    -3
390
F
  0
LAYER
  5
31
330
2
100
AcDbSymbolTableRecord
100
AcDbLayerTableRecord
  2
1
 70
     0
 62
     7
  6
Continuous
370
    -3
390
F
  0
ENDTAB
  0
TABLE
  2
STYLE
  5
3
330
0
100
AcDbSymbolTable
 70
     4
  0
STYLE
  5
11
330
3
100
AcDbSymbolTableRecord
100
AcDbTextStyleTableRecord
  2
Standard
 70
     0
 40
0.0
 41
1.0
 50
0.0
 71
     0
 42
0.2
  3
txt
  4

  0
STYLE
  5
340
330
3
100
AcDbSymbolTableRecord
100
AcDbTextStyleTableRecord
  2
CONVERTER_11
 70
     0
 40
0.0
 41
0.95
 50
0.0
 71
     0
 42
0.2
  3
txt.shx
  4

  0
STYLE
  5
35C
330
3
100
AcDbSymbolTableRecord
100
AcDbTextStyleTableRecord
  2
CONVERTER_12
 70
     0
 40
0.0
 41
0.76
 50
0.0
 71
     0
 42
0.2
  3
txt.shx
  4

  0
STYLE
  5
368
330
3
100
AcDbSymbolTableRecord
100
AcDbTextStyleTableRecord
  2
CONVERTER_13
 70
     0
 40
0.0
 41
0.89
 50
0.0
 71
     0
 42
0.2
  3
msmincho.ttc
  4

1001
ACAD
1000
MS Mincho
1071
    32785
  0
ENDTAB
  0
TABLE
  2
VIEW
  5
6
330
0
100
AcDbSymbolTable
 70
     0
  0
ENDTAB
  0
TABLE
  2
UCS
  5
7
330
0
100
AcDbSymbolTable
 70
     0
  0
ENDTAB
  0
TABLE
  2
APPID
  5
9
330
0
100
AcDbSymbolTable
 70
     1
  0
APPID
  5
12
330
9
100
AcDbSymbolTableRecord
100
AcDbRegAppTableRecord
  2
ACAD
 70
     0
  0
ENDTAB
  0
TABLE
  2
DIMSTYLE
  5
A
330
0
100
AcDbSymbolTable
 70
    13
100
AcDbDimStyleTable
  0
DIMSTYLE
105
27
330
A
100
AcDbSymbolTableRecord
100
AcDbDimStyleTableRecord
  2
Standard
 70
     0
340
11
  0
DIMSTYLE
105
349
102
{ACAD_REACTORS
330
34A
102
}
330
A
100
AcDbSymbolTableRecord
100
AcDbDimStyleTableRecord
  2
ME10_DIM_10
 70
     0
 41
3.5
 42
1.0
 44
1.5
 73
     0
 74
     0
 77
     1
 78
     8
140
3.5
147
2.0
172
     1
173
     1
176
     2
177
     2
178
     2
340
340
343
344
  0
DIMSTYLE
105
354
102
{ACAD_REACTORS
330
355
102
}
330
A
100
AcDbSymbolTableRecord
100
AcDbDimStyleTableRecord
  2
ME10_DIM_11
 70
     0
 41
3.5
 42
1.0
 44
1.5
 47
1.5
 48
1.5
 71
     1
 73
     0
 74
     0
 77
     1
 78
     8
140
3.5
146
0.7
147
2.0
172
     1
173
     1
176
     2
177
     2
178
     2
272
     1
340
340
  0
DIMSTYLE
105
360
102
{ACAD_REACTORS
330
361
102
}
330
A
100
AcDbSymbolTableRecord
100
AcDbDimStyleTableRecord
  2
ME10_DIM_12
 70
     0
 41
3.5
 42
1.0
 44
1.5
 47
0.5
 48
0.5
 71
     1
 73
     0
 74
     0
 77
     1
 78
     8
140
3.5
146
0.7
147
2.0
172
     1
173
     1
176
     2
177
     2
178
     2
272
     1
340
35C
  0
DIMSTYLE
105
36C
102
{ACAD_REACTORS
330
36D
102
}
330
A
100
AcDbSymbolTableRecord
100
AcDbDimStyleTableRecord
  2
ME10_DIM_13
 70
     0
  3
□<>
 41
3.5
 42
1.0
 44
1.5
 47
0.13
 48
0.13
 71
     1
 73
     0
 74
     0
 77
     1
 78
     8
140
3.5
146
0.7
147
2.0
172
     1
173
     1
176
     2
177
     2
178
     2
272
     2
340
368
  0
DIMSTYLE
105
377
102
{ACAD_REACTORS
330
378
102
}
330
A
100
AcDbSymbolTableRecord
100
AcDbDimStyleTableRecord
  2
ME10_DIM_14
 70
     0
  3
□<>
 41
3.5
 42
1.0
 44
1.5
 47
0.5
 48
0.5
 71
     1
 73
     0
 74
     0
 77
     1
 78
     8
140
3.5
146
0.7
147
2.0
172
     1
173
     1
176
     2
177
     2
178
     2
272
     1
340
368
  0
DIMSTYLE
105
382
102
{ACAD_REACTORS
330
383
102
}
330
A
100
AcDbSymbolTableRecord
100
AcDbDimStyleTableRecord
  2
ME10_DIM_15
 70
     0
 41
3.5
 42
1.0
 44
1.5
 73
     0
 74
     0
 77
     1
 78
     8
140
3.5
147
2.0
172
     1
173
     1
176
     2
177
     2
178
     2
340
340
  0
DIMSTYLE
105
38F
102
{ACAD_REACTORS
330
390
102
}
330
A
100
AcDbSymbolTableRecord
100
AcDbDimStyleTableRecord
  2
ME10_DIM_16
 70
     0
  3
MAX.
 41
3.5
 42
1.0
 44
1.5
 73
     0
 74
     0
 77
     1
 78
     8
140
3.5
147
2.0
172
     1
173
     1
176
     2
177
     2
178
     2
340
340
  0
DIMSTYLE
105
39C
102
{ACAD_REACTORS
330
39D
102
}
330
A
100
AcDbSymbolTableRecord
100
AcDbDimStyleTableRecord
  2
ME10_DIM_17
 70
     0
  3
φ<>
 41
3.5
 42
1.0
 44
1.5
 48
0.013
 71
     1
 73
     0
 74
     0
 77
     1
 78
     8
140
3.5
146
0.7
147
2.0
172
     1
173
     1
176
     2
177
     2
178
     2
272
     0
340
368
  0
DIMSTYLE
105
3A7
102
{ACAD_REACTORS
330
3A8
102
}
330
A
100
AcDbSymbolTableRecord
100
AcDbDimStyleTableRecord
  2
ME10_DIM_18
 70
     0
  3
φ<>
 41
3.5
 42
1.0
 44
1.5
 73
     0
 74
     0
 77
     1
 78
     8
140
3.5
147
2.0
172
     1
173
     1
176
     2
177
     2
178
     2
340
368
  0
DIMSTYLE
105
3B4
102
{ACAD_REACTORS
330
3B5
102
}
330
A
100
AcDbSymbolTableRecord
100
AcDbDimStyleTableRecord
  2
ME10_DIM_19
 70
     0
 41
1.75
 42
1.0
 44
1.5
 73
     0
 74
     0
 77
     1
 78
     8
140
3.5
147
2.0
172
     1
173
     1
176
     2
177
     2
178
     2
340
340
344
344
  0
DIMSTYLE
105
3BF
102
{ACAD_REACTORS
330
3C0
102
}
330
A
100
AcDbSymbolTableRecord
100
AcDbDimStyleTableRecord
  2
ME10_DIM_20
 70
     0
  3
φ<>
 41
3.5
 42
1.0
 44
1.5
 47
0.05
 48
0.05
 71
     1
 73
     0
 74
     0
 77
     1
 78
     8
140
3.5
146
0.7
147
2.0
172
     1
173
     1
176
     2
177
     2
178
     2
272
     2
340
368
  0
DIMSTYLE
105
3CA
102
{ACAD_REACTORS
330
3CB
102
}
330
A
100
AcDbSymbolTableRecord
100
AcDbDimStyleTableRecord
  2
ME10_DIM_21
 70
     0
  3
MIN.
 41
3.5
 42
1.0
 44
1.5
 73
     0
 74
     0
 77
     1
 78
     8
140
3.5
147
2.0
172
     1
173
     1
176
     2
177
     2
178
     3
340
340
  0
ENDTAB
  0
TABLE
  2
BLOCK_RECORD
  5
1
330
0
100
AcDbSymbolTable
 70
    14
  0
BLOCK_RECORD
  5
1F
330
1
100
AcDbSymbolTableRecord
100
AcDbBlockTableRecord
  2
*Model_Space
340
22
  0
BLOCK_RECORD
  5
1B
330
1
100
AcDbSymbolTableRecord
100
AcDbBlockTableRecord
  2
*Paper_Space
340
1E
  0
BLOCK_RECORD
  5
23
330
1
100
AcDbSymbolTableRecord
100
AcDbBlockTableRecord
  2
*Paper_Space0
340
26
  0
BLOCK_RECORD
  5
338
330
1
100
AcDbSymbolTableRecord
100
AcDbBlockTableRecord
  2
*D1
340
0
  0
BLOCK_RECORD
  5
344
330
1
100
AcDbSymbolTableRecord
100
AcDbBlockTableRecord
  2
_Dot
340
0
  0
BLOCK_RECORD
  5
34B
330
1
100
AcDbSymbolTableRecord
100
AcDbBlockTableRecord
  2
*D3
340
0
  0
BLOCK_RECORD
  5
356
330
1
100
AcDbSymbolTableRecord
100
AcDbBlockTableRecord
  2
*D4
340
0
  0
BLOCK_RECORD
  5
362
330
1
100
AcDbSymbolTableRecord
100
AcDbBlockTableRecord
  2
*D5
340
0
  0
BLOCK_RECORD
  5
36E
330
1
100
AcDbSymbolTableRecord
100
AcDbBlockTableRecord
  2
*D6
340
0
  0
BLOCK_RECORD
  5
379
330
1
100
AcDbSymbolTableRecord
100
AcDbBlockTableRecord
  2
*D7
340
0
  0
BLOCK_RECORD
  5
384
330
1
100
AcDbSymbolTableRecord
100
AcDbBlockTableRecord
  2
*D8
340
0
  0
BLOCK_RECORD
  5
391
330
1
100
AcDbSymbolTableRecord
100
AcDbBlockTableRecord
  2
*D9
340
0
  0
BLOCK_RECORD
  5
39E
330
1
100
AcDbSymbolTableRecord
100
AcDbBlockTableRecord
  2
*D10
340
0
  0
BLOCK_RECORD
  5
3A9
330
1
100
AcDbSymbolTableRecord
100
AcDbBlockTableRecord
  2
*D11
340
0
  0
BLOCK_RECORD
  5
3B6
330
1
100
AcDbSymbolTableRecord
100
AcDbBlockTableRecord
  2
*D12
340
0
  0
BLOCK_RECORD
  5
3C1
330
1
100
AcDbSymbolTableRecord
100
AcDbBlockTableRecord
  2
*D13
340
0
  0
ENDTAB
  0
ENDSEC
  0
SECTION
  2
BLOCKS
  0
BLOCK
  5
20
330
1F
100
AcDbEntity
  8
0
100
AcDbBlockBegin
  2
*Model_Space
 70
     0
 71
     0
 10
0.0
 20
0.0
 30
0.0
  3
*Model_Space
  1

  0
ENDBLK
  5
21
330
1F
100
AcDbEntity
  8
0
100
AcDbBlockEnd
  0
BLOCK
  5
1C
330
1B
100
AcDbEntity
 67
     1
  8
0
100
AcDbBlockBegin
  2
*Paper_Space
 70
     0
 71
     0
 10
0.0
 20
0.0
 30
0.0
  3
*Paper_Space
  1

  0
ENDBLK
  5
1D
330
1B
100
AcDbEntity
 67
     1
  8
0
100
AcDbBlockEnd
  0
BLOCK
  5
24
330
23
100
AcDbEntity
  8
0
100
AcDbBlockBegin
  2
*Paper_Space0
 70
     0
 71
     0
 10
0.0
 20
0.0
 30
0.0
  3
*Paper_Space0
  1

  0
ENDBLK
  5
25
330
23
100
AcDbEntity
  8
0
100
AcDbBlockEnd
  0
BLOCK
  5
342
330
338
100
AcDbEntity
  8
0
100
AcDbBlockBegin
  2
*D1
 70
     1
 71
     0
 10
0.0
 20
0.0
 30
0.0
  3
*D1
  1

  0
LINE
  5
339
330
338
100
AcDbEntity
  8
1
  6
Continuous
 62
     2
100
AcDbLine
 10
-182.543776467207
 20
64.8787957900704
 30
0.0
 11
-181.023776467207
 21
64.8787957900704
 31
0.0
  0
LINE
  5
33A
330
338
100
AcDbEntity
  8
1
  6
Continuous
 62
     2
100
AcDbLine
 10
-182.543776467207
 20
64.8787957900704
 30
0.0
 11
-193.3892235596298
 21
64.8787957900704
 31
0.0
  0
LINE
  5
33B
330
338
100
AcDbEntity
  8
1
  6
Continuous
 62
     2
100
AcDbLine
 10
-182.543776467207
 20
88.113461759477
 30
0.0
 11
-182.543776467207
 21
63.3787957900704
 31
0.0
  0
LINE
  5
33C
330
338
100
AcDbEntity
  8
1
  6
Continuous
 62
     2
100
AcDbLine
 10
-181.023776467207
 20
78.963461759477
 30
0.0
 11
-181.023776467207
 21
63.3787957900704
 31
0.0
  0
SOLID
  5
33D
330
338
100
AcDbEntity
  8
1
 62
     2
100
AcDbTrace
 10
-186.043776467207
 20
64.41801204851451
 30
0.0
 11
-186.043776467207
 21
65.33957953162628
 31
0.0
 12
-182.543776467207
 22
64.8787957900704
 32
0.0
 13
-182.543776467207
 23
64.8787957900704
 33
0.0
  0
CIRCLE
  5
33E
102
{ACAD_REACTORS
330
33F
102
}
330
338
100
AcDbEntity
  8
1
 62
     2
100
AcDbCircle
 10
-181.023776467207
 20
64.8787957900704
 30
0.0
 40
0.875
  0
HATCH
  5
33F
330
338
100
AcDbEntity
  8
1
 62
     2
100
AcDbHatch
 10
0.0
 20
0.0
 30
0.0
210
0.0
220
0.0
230
1.0
  2
SOLID
 70
     1
 71
     1
 91
        1
 92
        1
 93
        1
 72
     2
 10
-181.023776467207
 20
64.8787957900704
 40
0.875
 50
0.0
 51
360.0
 73
     1
 97
        1
330
33E
 75
     0
 76
     1
 98
        0
  0
MTEXT
  5
341
330
338
100
AcDbEntity
  8
1
 62
     2
100
AcDbMText
 10
-193.3892235596298
 20
66.8787957900704
 30
0.0
 40
3.5
 41
0.0
 71
     7
 72
     1
  1
1.52
  7
CONVERTER_11
 11
0.9999999999970621
 21
2.424068405545307E-6
 31
0.0
 73
     1
 44
0.60024009603842
  0
ENDBLK
  5
343
330
338
100
AcDbEntity
  8
0
100
AcDbBlockEnd
  0
BLOCK
  5
345
330
344
100
AcDbEntity
  8
0
100
AcDbBlockBegin
  2
_Dot
 70
     0
 71
     0
 10
0.0
 20
0.0
 30
0.0
  3
_Dot
  1

  0
LWPOLYLINE
  5
347
330
344
100
AcDbEntity
  8
0
  6
ByBlock
 62
     0
100
AcDbPolyline
 90
        2
 70
     1
 43
0.5
 10
-0.25
 20
0.0
 42
1.0
 10
0.25
 20
0.0
 42
1.0
  0
LINE
  5
348
330
344
100
AcDbEntity
  8
0
  6
ByBlock
 62
     0
370
    -2
100
AcDbLine
 10
-0.5
 20
0.0
 30
0.0
 11
-1.0
 21
0.0
 31
0.0
  0
ENDBLK
  5
346
330
344
100
AcDbEntity
  8
0
100
AcDbBlockEnd
  0
BLOCK
  5
352
330
34B
100
AcDbEntity
  8
0
100
AcDbBlockBegin
  2
*D3
 70
     1
 71
     0
 10
0.0
 20
0.0
 30
0.0
  3
*D3
  1

  0
LINE
  5
34C
330
34B
100
AcDbEntity
  8
1
  6
Continuous
 62
     2
100
AcDbLine
 10
-181.023776467207
 20
49.8205409709436
 30
0.0
 11
-79.42377646720699
 21
49.8205409709436
 31
0.0
  0
LINE
  5
34D
330
34B
100
AcDbEntity
  8
1
  6
Continuous
 62
     2
100
AcDbLine
 10
-181.023776467207
 20
78.963461759477
 30
0.0
 11
-181.023776467207
 21
48.3205409709436
 31
0.0
  0
LINE
  5
34E
330
34B
100
AcDbEntity
  8
1
  6
Continuous
 62
     2
100
AcDbLine
 10
-79.42377646720699
 20
80.963461759477
 30
0.0
 11
-79.42377646720699
 21
48.3205409709436
 31
0.0
  0
SOLID
  5
34F
330
34B
100
AcDbEntity
  8
1
 62
     2
100
AcDbTrace
 10
-177.523776467207
 20
50.28132471249948
 30
0.0
 11
-177.523776467207
 21
49.35975722938771
 31
0.0
 12
-181.023776467207
 22
49.8205409709436
 32
0.0
 13
-181.023776467207
 23
49.8205409709436
 33
0.0
  0
SOLID
  5
350
330
34B
100
AcDbEntity
  8
1
 62
     2
100
AcDbTrace
 10
-82.92377646720699
 20
49.35975722938771
 30
0.0
 11
-82.92377646720699
 21
50.28132471249948
 31
0.0
 12
-79.42377646720699
 22
49.8205409709436
 32
0.0
 13
-79.42377646720699
 23
49.8205409709436
 33
0.0
  0
MTEXT
  5
351
330
34B
100
AcDbEntity
  8
1
 62
     2
100
AcDbMText
 10
-140.5127470554423
 20
51.8205409709436
 30
0.0
 40
3.5
 41
0.0
 71
     7
 72
     1
  1
\C2;101.6\C2;\H2.45;{\Fgdt;`}1.5
  7
CONVERTER_11
 11
0.9999999999970621
 21
2.424068405545307E-6
 31
0.0
 73
     1
 44
0.60024009603842
  0
ENDBLK
  5
353
330
34B
100
AcDbEntity
  8
0
100
AcDbBlockEnd
  0
BLOCK
  5
35E
330
356
100
AcDbEntity
  8
0
100
AcDbBlockBegin
  2
*D4
 70
     1
 71
     0
 10
0.0
 20
0.0
 30
0.0
  3
*D4
  1

  0
LINE
  5
357
330
356
100
AcDbEntity
  8
1
  6
Continuous
 62
     2
100
AcDbLine
 10
-201.593776467207
 20
49.8205409709436
 30
0.0
 11
-181.023776467207
 21
49.8205409709436
 31
0.0
  0
LINE
  5
358
330
356
100
AcDbEntity
  8
1
  6
Continuous
 62
     2
100
AcDbLine
 10
-181.023776467207
 20
78.963461759477
 30
0.0
 11
-181.023776467207
 21
48.3205409709436
 31
0.0
  0
LINE
  5
359
330
356
100
AcDbEntity
  8
1
  6
Continuous
 62
     2
100
AcDbLine
 10
-201.593776467207
 20
104.688461759477
 30
0.0
 11
-201.593776467207
 21
48.3205409709436
 31
0.0
  0
SOLID
  5
35A
330
356
100
AcDbEntity
  8
1
 62
     2
100
AcDbTrace
 10
-198.093776467207
 20
50.28132471249948
 30
0.0
 11
-198.093776467207
 21
49.35975722938771
 31
0.0
 12
-201.593776467207
 22
49.8205409709436
 32
0.0
 13
-201.593776467207
 23
49.8205409709436
 33
0.0
  0
SOLID
  5
35B
330
356
100
AcDbEntity
  8
1
 62
     2
100
AcDbTrace
 10
-184.523776467207
 20
49.35975722938771
 30
0.0
 11
-184.523776467207
 21
50.28132471249948
 31
0.0
 12
-181.023776467207
 22
49.8205409709436
 32
0.0
 13
-181.023776467207
 23
49.8205409709436
 33
0.0
  0
MTEXT
  5
35D
330
356
100
AcDbEntity
  8
1
 62
     2
100
AcDbMText
 10
-200.0427176436776
 20
51.8205409709436
 30
0.0
 40
3.5
 41
0.0
 71
     7
 72
     1
  1
\C2;20.57\C2;\H2.45;{\Fgdt;`}0.5
  7
CONVERTER_12
 11
0.9999999999970621
 21
2.424068405545307E-6
 31
0.0
 73
     1
 44
0.60024009603842
  0
ENDBLK
  5
35F
330
356
100
AcDbEntity
  8
0
100
AcDbBlockEnd
  0
BLOCK
  5
36A
330
362
100
AcDbEntity
  8
0
100
AcDbBlockBegin
  2
*D5
 70
     1
 71
     0
 10
0.0
 20
0.0
 30
0.0
  3
*D5
  1

  0
LINE
  5
363
330
362
100
AcDbEntity
  8
1
  6
Continuous
 62
     2
100
AcDbLine
 10
-323.57
 20
59.8467032100681
 30
0.0
 11
-276.43
 21
59.8467032100681
 31
0.0
  0
LINE
  5
364
330
362
100
AcDbEntity
  8
1
  6
Continuous
 62
     2
100
AcDbLine
 10
-276.43
 20
79.59346175947702
 30
0.0
 11
-276.43
 21
58.3467032100681
 31
0.0
  0
LINE
  5
365
330
362
100
AcDbEntity
  8
1
  6
Continuous
 62
     2
100
AcDbLine
 10
-323.57
 20
79.59346175947702
 30
0.0
 11
-323.57
 21
58.3467032100681
 31
0.0
  0
SOLID
  5
366
330
362
100
AcDbEntity
  8
1
 62
     2
100
AcDbTrace
 10
-320.07
 20
60.30748695162399
 30
0.0
 11
-320.07
 21
59.38591946851221
 31
0.0
 12
-323.57
 22
59.8467032100681
 32
0.0
 13
-323.57
 23
59.8467032100681
 33
0.0
  0
SOLID
  5
367
330
362
100
AcDbEntity
  8
1
 62
     2
100
AcDbTrace
 10
-279.93
 20
59.38591946851221
 30
0.0
 11
-279.93
 21
60.30748695162399
 31
0.0
 12
-276.43
 22
59.8467032100681
 32
0.0
 13
-276.43
 23
59.8467032100681
 33
0.0
  0
MTEXT
  5
369
330
362
100
AcDbEntity
  8
1
 62
     2
100
AcDbMText
 10
-314.8127777777609
 20
61.84668929591545
 30
0.0
 40
3.5
 41
0.0
 71
     7
 72
     1
  1
\C2;□\C2;\C2;47.14\C2;\H2.45;{\Fgdt;`}0.13
  7
CONVERTER_13
 11
0.9999999999970621
 21
2.424068405545307E-6
 31
0.0
 73
     1
 44
0.60024009603842
  0
ENDBLK
  5
36B
330
362
100
AcDbEntity
  8
0
100
AcDbBlockEnd
  0
BLOCK
  5
375
330
36E
100
AcDbEntity
  8
0
100
AcDbBlockBegin
  2
*D6
 70
     1
 71
     0
 10
0.0
 20
0.0
 30
0.0
  3
*D6
  1

  0
LINE
  5
36F
330
36E
100
AcDbEntity
  8
1
  6
Continuous
 62
     2
100
AcDbLine
 10
-328.2
 20
49.9750780456778
 30
0.0
 11
-271.8
 21
49.9750780456778
 31
0.0
  0
LINE
  5
370
330
36E
100
AcDbEntity
  8
1
  6
Continuous
 62
     2
100
AcDbLine
 10
-271.8
 20
81.32119986157029
 30
0.0
 11
-271.8
 21
48.4750780456778
 31
0.0
  0
LINE
  5
371
330
36E
100
AcDbEntity
  8
1
  6
Continuous
 62
     2
100
AcDbLine
 10
-328.2
 20
81.32119986157029
 30
0.0
 11
-328.2
 21
48.4750780456778
 31
0.0
  0
SOLID
  5
372
330
36E
100
AcDbEntity
  8
1
 62
     2
100
AcDbTrace
 10
-324.7
 20
50.43586178723368
 30
0.0
 11
-324.7
 21
49.51429430412191
 31
0.0
 12
-328.2
 22
49.9750780456778
 32
0.0
 13
-328.2
 23
49.9750780456778
 33
0.0
  0
SOLID
  5
373
330
36E
100
AcDbEntity
  8
1
 62
     2
100
AcDbTrace
 10
-275.3
 20
49.51429430412191
 30
0.0
 11
-275.3
 21
50.43586178723368
 31
0.0
 12
-271.8
 22
49.9750780456778
 32
0.0
 13
-271.8
 23
49.9750780456778
 33
0.0
  0
MTEXT
  5
374
330
36E
100
AcDbEntity
  8
1
 62
     2
100
AcDbMText
 10
-313.170866013055
 20
51.97506413152515
 30
0.0
 40
3.5
 41
0.0
 71
     7
 72
     1
  1
\C2;□\C2;\C2;56.4\C2;\H2.45;{\Fgdt;`}0.5
  7
CONVERTER_13
 11
0.9999999999970621
 21
2.424068405545307E-6
 31
0.0
 73
     1
 44
0.60024009603842
  0
ENDBLK
  5
376
330
36E
100
AcDbEntity
  8
0
100
AcDbBlockEnd
  0
BLOCK
  5
380
330
379
100
AcDbEntity
  8
0
100
AcDbBlockBegin
  2
*D7
 70
     1
 71
     0
 10
0.0
 20
0.0
 30
0.0
  3
*D7
  1

  0
LINE
  5
37A
330
379
100
AcDbEntity
  8
1
  6
Continuous
 62
     2
100
AcDbLine
 10
-299.9999999999999
 20
69.9815717121755
 30
0.0
 11
-276.4299999999999
 21
69.9815717121755
 31
0.0
  0
LINE
  5
37B
330
379
100
AcDbEntity
  8
1
  6
Continuous
 62
     2
100
AcDbLine
 10
-276.4299999999999
 20
79.59346175947702
 30
0.0
 11
-276.4299999999999
 21
68.4815717121755
 31
0.0
  0
LINE
  5
37C
330
379
100
AcDbEntity
  8
1
  6
Continuous
 62
     2
100
AcDbLine
 10
-299.9999999999999
 20
74.2494702200777
 30
0.0
 11
-299.9999999999999
 21
68.4815717121755
 31
0.0
  0
SOLID
  5
37D
330
379
100
AcDbEntity
  8
1
 62
     2
100
AcDbTrace
 10
-296.4999999999999
 20
70.44235545373138
 30
0.0
 11
-296.4999999999999
 21
69.52078797061961
 31
0.0
 12
-299.9999999999999
 22
69.9815717121755
 32
0.0
 13
-299.9999999999999
 23
69.9815717121755
 33
0.0
  0
SOLID
  5
37E
330
379
100
AcDbEntity
  8
1
 62
     2
100
AcDbTrace
 10
-279.9299999999999
 20
69.52078797061961
 30
0.0
 11
-279.9299999999999
 21
70.44235545373138
 31
0.0
 12
-276.4299999999999
 22
69.9815717121755
 32
0.0
 13
-276.4299999999999
 23
69.9815717121755
 33
0.0
  0
MTEXT
  5
37F
330
379
100
AcDbEntity
  8
1
 62
     2
100
AcDbMText
 10
-294.8032352941176
 20
71.9815717121755
 30
0.0
 40
3.5
 41
0.0
 71
     7
 72
     1
  1
23.57
  7
CONVERTER_11
 11
0.9999999999970621
 21
2.424068405545307E-6
 31
0.0
 73
     1
 44
0.60024009603842
  0
ENDBLK
  5
381
330
379
100
AcDbEntity
  8
0
100
AcDbBlockEnd
  0
BLOCK
  5
38D
330
384
100
AcDbEntity
  8
0
100
AcDbBlockBegin
  2
*D8
 70
     1
 71
     0
 10
0.0
 20
0.0
 30
0.0
  3
*D8
  1

  0
LINE
  5
385
330
384
100
AcDbEntity
  8
1
  6
Continuous
 62
     2
100
AcDbLine
 10
-66.982901953931
 20
202.963461759477
 30
0.0
 11
-66.982901953931
 21
195.963461759477
 31
0.0
  0
LINE
  5
386
330
384
100
AcDbEntity
  8
1
  6
Continuous
 62
     2
100
AcDbLine
 10
-66.982901953931
 20
195.963461759477
 30
0.0
 11
-66.982901953931
 21
186.363461759477
 31
0.0
  0
LINE
  5
387
330
384
100
AcDbEntity
  8
1
  6
Continuous
 62
     2
100
AcDbLine
 10
-66.982901953931
 20
186.363461759477
 30
0.0
 11
-66.982901953931
 21
163.5661792123329
 31
0.0
  0
LINE
  5
388
330
384
100
AcDbEntity
  8
1
  6
Continuous
 62
     2
100
AcDbLine
 10
-83.223776467207
 20
186.363461759477
 30
0.0
 11
-65.482901953931
 21
186.363461759477
 31
0.0
  0
LINE
  5
389
330
384
100
AcDbEntity
  8
1
  6
Continuous
 62
     2
100
AcDbLine
 10
-83.223776467207
 20
195.963461759477
 30
0.0
 11
-65.482901953931
 21
195.963461759477
 31
0.0
  0
SOLID
  5
38A
330
384
100
AcDbEntity
  8
1
 62
     2
100
AcDbTrace
 10
-67.44368569548689
 20
199.463461759477
 30
0.0
 11
-66.52211821237512
 21
199.463461759477
 31
0.0
 12
-66.982901953931
 22
195.963461759477
 32
0.0
 13
-66.982901953931
 23
195.963461759477
 33
0.0
  0
SOLID
  5
38B
330
384
100
AcDbEntity
  8
1
 62
     2
100
AcDbTrace
 10
-66.52211821237512
 20
182.863461759477
 30
0.0
 11
-67.44368569548689
 21
182.863461759477
 31
0.0
 12
-66.982901953931
 22
186.363461759477
 32
0.0
 13
-66.982901953931
 23
186.363461759477
 33
0.0
  0
MTEXT
  5
38C
330
384
100
AcDbEntity
  8
1
 62
     2
100
AcDbMText
 10
-68.982901953931
 20
163.5661792123329
 30
0.0
 40
3.5
 41
0.0
 71
     7
 72
     1
  1
\C2;9.6\C2;MAX.
  7
CONVERTER_11
 11
0.0
 21
1.0
 31
0.0
 73
     1
 44
0.60024009603842
  0
ENDBLK
  5
38E
330
384
100
AcDbEntity
  8
0
100
AcDbBlockEnd
  0
BLOCK
  5
39A
330
391
100
AcDbEntity
  8
0
100
AcDbBlockBegin
  2
*D9
 70
     1
 71
     0
 10
0.0
 20
0.0
 30
0.0
  3
*D9
  1

  0
LINE
  5
392
330
391
100
AcDbEntity
  8
1
  6
Continuous
 62
     2
100
AcDbLine
 10
-215.700715704896
 20
104.988461759477
 30
0.0
 11
-215.700715704896
 21
111.338461759477
 31
0.0
  0
LINE
  5
393
330
391
100
AcDbEntity
  8
1
  6
Continuous
 62
     2
100
AcDbLine
 10
-215.700715704896
 20
104.988461759477
 30
0.0
 11
-215.700715704896
 21
97.988461759477
 31
0.0
  0
LINE
  5
394
330
391
100
AcDbEntity
  8
1
  6
Continuous
 62
     2
100
AcDbLine
 10
-215.700715704896
 20
111.338461759477
 30
0.0
 11
-215.700715704896
 21
118.338461759477
 31
0.0
  0
LINE
  5
395
330
391
100
AcDbEntity
  8
1
  6
Continuous
 62
     2
100
AcDbLine
 10
-201.893776467207
 20
104.988461759477
 30
0.0
 11
-217.200715704896
 21
104.988461759477
 31
0.0
  0
LINE
  5
396
330
391
100
AcDbEntity
  8
1
  6
Continuous
 62
     2
100
AcDbLine
 10
-201.893776467207
 20
111.338461759477
 30
0.0
 11
-217.200715704896
 21
111.338461759477
 31
0.0
  0
SOLID
  5
397
330
391
100
AcDbEntity
  8
1
 62
     2
100
AcDbTrace
 10
-216.1614994464519
 20
114.838461759477
 30
0.0
 11
-215.2399319633401
 21
114.838461759477
 31
0.0
 12
-215.700715704896
 22
111.338461759477
 32
0.0
 13
-215.700715704896
 23
111.338461759477
 33
0.0
  0
SOLID
  5
398
330
391
100
AcDbEntity
  8
1
 62
     2
100
AcDbTrace
 10
-215.2399319633401
 20
101.488461759477
 30
0.0
 11
-216.1614994464519
 21
101.488461759477
 31
0.0
 12
-215.700715704896
 22
104.988461759477
 32
0.0
 13
-215.700715704896
 23
104.988461759477
 33
0.0
  0
MTEXT
  5
399
330
391
100
AcDbEntity
  8
1
 62
     2
100
AcDbMText
 10
-219.013215704896
 20
93.46357613856198
 30
0.0
 40
3.5
 41
0.0
 71
     7
 72
     1
  1
\C2;φ\C2;\C2;6.35\C2;\H2.45;\S 0^ -0.013;
  7
CONVERTER_13
 11
0.0
 21
1.0
 31
0.0
 73
     1
 44
0.60024009603842
  0
ENDBLK
  5
39B
330
391
100
AcDbEntity
  8
0
100
AcDbBlockEnd
  0
BLOCK
  5
3A5
330
39E
100
AcDbEntity
  8
0
100
AcDbBlockBegin
  2
*D10
 70
     1
 71
     0
 10
0.0
 20
0.0
 30
0.0
  3
*D10
  1

  0
LINE
  5
39F
330
39E
100
AcDbEntity
  8
1
  6
Continuous
 62
     2
100
AcDbLine
 10
-55.61481386653159
 20
79.963461759477
 30
0.0
 11
-55.61481386653159
 21
136.363461759477
 31
0.0
  0
LINE
  5
3A0
330
39E
100
AcDbEntity
  8
1
  6
Continuous
 62
     2
100
AcDbLine
 10
-80.42377646720699
 20
79.963461759477
 30
0.0
 11
-54.11481386653159
 21
79.963461759477
 31
0.0
  0
LINE
  5
3A1
330
39E
100
AcDbEntity
  8
1
  6
Continuous
 62
     2
100
AcDbLine
 10
-80.42377646720699
 20
136.363461759477
 30
0.0
 11
-54.11481386653159
 21
136.363461759477
 31
0.0
  0
SOLID
  5
3A2
330
39E
100
AcDbEntity
  8
1
 62
     2
100
AcDbTrace
 10
-55.15403012497571
 20
132.863461759477
 30
0.0
 11
-56.07559760808748
 21
132.863461759477
 31
0.0
 12
-55.61481386653159
 22
136.363461759477
 32
0.0
 13
-55.61481386653159
 23
136.363461759477
 33
0.0
  0
SOLID
  5
3A3
330
39E
100
AcDbEntity
  8
1
 62
     2
100
AcDbTrace
 10
-56.07559760808748
 20
83.463461759477
 30
0.0
 11
-55.15403012497571
 21
83.463461759477
 31
0.0
 12
-55.61481386653159
 22
79.963461759477
 32
0.0
 13
-55.61481386653159
 23
79.963461759477
 33
0.0
  0
MTEXT
  5
3A4
330
39E
100
AcDbEntity
  8
1
 62
     2
100
AcDbMText
 10
-57.61481386653159
 20
99.42387025620903
 30
0.0
 40
3.5
 41
0.0
 71
     7
 72
     1
  1
\C2;φ\C2;56.4
  7
CONVERTER_13
 11
0.0
 21
1.0
 31
0.0
 73
     1
 44
0.60024009603842
  0
ENDBLK
  5
3A6
330
39E
100
AcDbEntity
  8
0
100
AcDbBlockEnd
  0
BLOCK
  5
3B2
330
3A9
100
AcDbEntity
  8
0
100
AcDbBlockBegin
  2
*D11
 70
     1
 71
     0
 10
0.0
 20
0.0
 30
0.0
  3
*D11
  1

  0
LINE
  5
3AA
330
3A9
100
AcDbEntity
  8
1
  6
Continuous
 62
     2
100
AcDbLine
 10
-181.023776467207
 20
64.8787957900704
 30
0.0
 11
-176.193776467207
 21
64.8787957900704
 31
0.0
  0
LINE
  5
3AB
330
3A9
100
AcDbEntity
  8
1
  6
Continuous
 62
     2
100
AcDbLine
 10
-176.193776467207
 20
64.8787957900704
 30
0.0
 11
-163.5490141971467
 21
64.8787957900704
 31
0.0
  0
LINE
  5
3AC
330
3A9
100
AcDbEntity
  8
1
  6
Continuous
 62
     2
100
AcDbLine
 10
-181.023776467207
 20
78.963461759477
 30
0.0
 11
-181.023776467207
 21
63.3787957900704
 31
0.0
  0
LINE
  5
3AD
330
3A9
100
AcDbEntity
  8
1
  6
Continuous
 62
     2
100
AcDbLine
 10
-176.193776467207
 20
78.963461759477
 30
0.0
 11
-176.193776467207
 21
63.3787957900704
 31
0.0
  0
CIRCLE
  5
3AE
102
{ACAD_REACTORS
330
3AF
102
}
330
3A9
100
AcDbEntity
  8
1
 62
     2
100
AcDbCircle
 10
-181.023776467207
 20
64.8787957900704
 30
0.0
 40
0.875
  0
HATCH
  5
3AF
330
3A9
100
AcDbEntity
  8
1
 62
     2
100
AcDbHatch
 10
0.0
 20
0.0
 30
0.0
210
0.0
220
0.0
230
1.0
  2
SOLID
 70
     1
 71
     1
 91
        1
 92
        1
 93
        1
 72
     2
 10
-181.023776467207
 20
64.8787957900704
 40
0.875
 50
0.0
 51
360.0
 73
     1
 97
        1
330
3AE
 75
     0
 76
     1
 98
        0
  0
SOLID
  5
3B0
330
3A9
100
AcDbEntity
  8
1
 62
     2
100
AcDbTrace
 10
-172.693776467207
 20
65.33957953162628
 30
0.0
 11
-172.693776467207
 21
64.41801204851451
 31
0.0
 12
-176.193776467207
 22
64.8787957900704
 32
0.0
 13
-176.193776467207
 23
64.8787957900704
 33
0.0
  0
MTEXT
  5
3B1
330
3A9
100
AcDbEntity
  8
1
 62
     2
100
AcDbMText
 10
-174.1519553736173
 20
66.8787957900704
 30
0.0
 40
3.5
 41
0.0
 71
     7
 72
     1
  1
4.83
  7
CONVERTER_11
 11
0.9999999999970621
 21
2.424068405545307E-6
 31
0.0
 73
     1
 44
0.60024009603842
  0
ENDBLK
  5
3B3
330
3A9
100
AcDbEntity
  8
0
100
AcDbBlockEnd
  0
BLOCK
  5
3BD
330
3B6
100
AcDbEntity
  8
0
100
AcDbBlockBegin
  2
*D12
 70
     1
 71
     0
 10
0.0
 20
0.0
 30
0.0
  3
*D12
  1

  0
LINE
  5
3B7
330
3B6
100
AcDbEntity
  8
1
  6
Continuous
 62
     2
100
AcDbLine
 10
-225.606025158195
 20
127.213461759477
 30
0.0
 11
-225.606025158195
 21
89.113461759477
 31
0.0
  0
LINE
  5
3B8
330
3B6
100
AcDbEntity
  8
1
  6
Continuous
 62
     2
100
AcDbLine
 10
-183.543776467207
 20
89.113461759477
 30
0.0
 11
-227.106025158195
 21
89.113461759477
 31
0.0
  0
LINE
  5
3B9
330
3B6
100
AcDbEntity
  8
1
  6
Continuous
 62
     2
100
AcDbLine
 10
-183.543776467207
 20
127.213461759477
 30
0.0
 11
-227.106025158195
 21
127.213461759477
 31
0.0
  0
SOLID
  5
3BA
330
3B6
100
AcDbEntity
  8
1
 62
     2
100
AcDbTrace
 10
-225.1452414166391
 20
123.713461759477
 30
0.0
 11
-226.0668088997509
 21
123.713461759477
 31
0.0
 12
-225.606025158195
 22
127.213461759477
 32
0.0
 13
-225.606025158195
 23
127.213461759477
 33
0.0
  0
SOLID
  5
3BB
330
3B6
100
AcDbEntity
  8
1
 62
     2
100
AcDbTrace
 10
-226.0668088997509
 20
92.613461759477
 30
0.0
 11
-225.1452414166391
 21
92.613461759477
 31
0.0
 12
-225.606025158195
 22
89.113461759477
 32
0.0
 13
-225.606025158195
 23
89.113461759477
 33
0.0
  0
MTEXT
  5
3BC
330
3B6
100
AcDbEntity
  8
1
 62
     2
100
AcDbMText
 10
-227.606025158195
 20
94.57225260915021
 30
0.0
 40
3.5
 41
0.0
 71
     7
 72
     1
  1
\C2;φ\C2;\C2;38.1\C2;\H2.45;{\Fgdt;`}0.05
  7
CONVERTER_13
 11
0.0
 21
1.0
 31
0.0
 73
     1
 44
0.60024009603842
  0
ENDBLK
  5
3BE
330
3B6
100
AcDbEntity
  8
0
100
AcDbBlockEnd
  0
BLOCK
  5
3C8
330
3C1
100
AcDbEntity
  8
0
100
AcDbBlockBegin
  2
*D13
 70
     1
 71
     0
 10
0.0
 20
0.0
 30
0.0
  3
*D13
  1

  0
LINE
  5
3C2
330
3C1
100
AcDbEntity
  8
1
  6
Continuous
 62
     2
100
AcDbLine
 10
-55.61481386653159
 20
136.363461759477
 30
0.0
 11
-55.61481386653159
 21
195.963461759477
 31
0.0
  0
LINE
  5
3C3
330
3C1
100
AcDbEntity
  8
1
  6
Continuous
 62
     2
100
AcDbLine
 10
-83.223776467207
 20
195.963461759477
 30
0.0
 11
-54.11481386653159
 21
195.963461759477
 31
0.0
  0
LINE
  5
3C4
330
3C1
100
AcDbEntity
  8
1
  6
Continuous
 62
     2
100
AcDbLine
 10
-80.42377646720699
 20
136.363461759477
 30
0.0
 11
-54.11481386653159
 21
136.363461759477
 31
0.0
  0
SOLID
  5
3C5
330
3C1
100
AcDbEntity
  8
1
 62
     2
100
AcDbTrace
 10
-56.07559760808748
 20
139.863461759477
 30
0.0
 11
-55.15403012497571
 21
139.863461759477
 31
0.0
 12
-55.61481386653159
 22
136.363461759477
 32
0.0
 13
-55.61481386653159
 23
136.363461759477
 33
0.0
  0
SOLID
  5
3C6
330
3C1
100
AcDbEntity
  8
1
 62
     2
100
AcDbTrace
 10
-55.15403012497571
 20
192.463461759477
 30
0.0
 11
-56.07559760808748
 21
192.463461759477
 31
0.0
 12
-55.61481386653159
 22
195.963461759477
 32
0.0
 13
-55.61481386653159
 23
195.963461759477
 33
0.0
  0
MTEXT
  5
3C7
330
3C1
100
AcDbEntity
  8
1
 62
     3
100
AcDbMText
 10
-57.61481386653159
 20
156.6414029359476
 30
0.0
 40
3.5
 41
0.0
 71
     7
 72
     1
  1
\C3;305\C2;MIN.
  7
CONVERTER_11
 11
0.0
 21
1.0
 31
0.0
 73
     1
 44
0.60024009603842
  0
ENDBLK
  5
3C9
330
3C1
100
AcDbEntity
  8
0
100
AcDbBlockEnd
  0
ENDSEC
  0
SECTION
  2
ENTITIES
  0
LINE
  5
32
330
1F
100
AcDbEntity
  8
1
  6
Continuous
 62
     7
100
AcDbLine
 10
-137.6816047281823
 20
102.7624143447445
 30
0.0
 11
-139.8753547281823
 21
103.3502278856403
 31
0.0
  0
LINE
  5
33
330
1F
100
AcDbEntity
  8
1
  6
Continuous
 62
     7
100
AcDbLine
 10
-137.6816047281823
 20
101.7141972120793
 30
0.0
 11
-137.6816047281823
 21
102.7624143447445
 31
0.0
  0
LINE
  5
34
330
1F
100
AcDbEntity
  8
1
  6
Continuous
 62
     7
100
AcDbLine
 10
-139.8753547281823
 20
102.3020107529751
 30
0.0
 11
-137.6816047281823
 21
101.7141972120793
 31
0.0
  0
LINE
  5
35
330
1F
100
AcDbEntity
  8
1
  6
Continuous
 62
     7
100
AcDbLine
 10
-139.8753547281823
 20
103.3502278856403
 30
0.0
 11
-139.8753547281823
 21
102.3020107529751
 31
0.0
  0
LINE
  5
36
330
1F
100
AcDbEntity
  8
1
  6
Continuous
 62
     7
100
AcDbLine
 10
-139.8753547281823
 20
102.1273078975309
 30
0.0
 11
-139.8753547281823
 21
100.1144236024219
 31
0.0
  0
LINE
  5
37
330
1F
100
AcDbEntity
  8
1
  6
Continuous
 62
     7
100
AcDbLine
 10
-139.2003547281823
 20
101.94644219264
 30
0.0
 11
-139.8753547281823
 21
102.1273078975309
 31
0.0
  0
LINE
  5
38
330
1F
100
AcDbEntity
  8
1
  6
Continuous
 62
     7
100
AcDbLine
 10
-139.2003547281823
 20
101.5545414638635
 30
0.0
 11
-139.2003547281823
 21
101.94644219264
 31
0.0
  0
LINE
  5
39
330
1F
100
AcDbEntity
  8
1
  6
Continuous
 62
     7
100
AcDbLine
 10
-137.6816047281823
 20
101.1475936278588
 30
0.0
 11
-139.2003547281823
 21
101.5545414638635
 31
0.0
  0
LINE
  5
3A
330
1F
100
AcDbEntity
  8
1
  6
Continuous
 62
     7
100
AcDbLine
 10
-137.6816047281823
 20
100.0993764951935
 30
0.0
 11
-137.6816047281823
 21
101.1475936278588
 31
0.0
  0
LINE
  5
3B
330
1F
100
AcDbEntity
  8
1
  6
Continuous
 62
     7
100
AcDbLine
 10
-139.2003547281823
 20
100.5063243311983
 30
0.0
 11
-137.6816047281823
 21
100.0993764951935
 31
0.0
  0
LINE
  5
3C
330
1F
100
AcDbEntity
  8
1
  6
Continuous
 62
     7
100
AcDbLine
 10
-139.2003547281823
 20
99.93355789753093
 30
0.0
 11
-139.2003547281823
 21
100.5063243311983
 31
0.0
  0
LINE
  5
3D
330
1F
100
AcDbEntity
  8
1
  6
Continuous
 62
     7
100
AcDbLine
 10
-139.8753547281823
 20
100.1144236024219
 30
0.0
 11
-139.2003547281823
 21
99.93355789753093
 31
0.0
  0
LINE
  5
3E
330
1F
100
AcDbEntity
  8
1
  6
Continuous
 62
     7
100
AcDbLine
 10
-139.2003547281823
 20
95.71480789753093
 30
0.0
 11
-137.6816047281823
 21
95.71480789753093
 31
0.0
  0
LINE
  5
3F
330
1F
100
AcDbEntity
  8
1
  6
Continuous
 62
     7
100
AcDbLine
 10
-139.8753547281823
 20
96.38980789753094
 30
0.0
 11
-137.6816047281823
 21
96.55855789753093
 31
0.0
  0
LINE
  5
40
330
1F
100
AcDbEntity
  8
1
  6
Continuous
 62
     7
100
AcDbLine
 10
-139.8753547281823
 20
95.37730789753095
 30
0.0
 11
-138.5253547281823
 21
95.03241630761653
 31
0.0
  0
LINE
  5
41
330
1F
100
AcDbEntity
  8
1
  6
Continuous
 62
     7
100
AcDbLine
 10
-139.2003547281823
 20
95.71480789753093
 30
0.0
 11
-137.6816047281823
 21
95.33951531392
 31
0.0
  0
LINE
  5
42
330
1F
100
AcDbEntity
  8
1
  6
Continuous
 62
     7
100
AcDbLine
 10
-138.5253547281823
 20
95.03241630761653
 30
0.0
 11
-139.8753547281823
 21
94.87105789753093
 31
0.0
  0
LINE
  5
43
330
1F
100
AcDbEntity
  8
1
  6
Continuous
 62
     7
100
AcDbLine
 10
-139.2003547281823
 20
94.4829871025737
 30
0.0
 11
-137.6816047281823
 21
93.98951531391998
 31
0.0
  0
LINE
  5
44
330
1F
100
AcDbEntity
  8
1
  6
Continuous
 62
     7
100
AcDbLine
 10
-139.2003547281823
 20
94.4829871025737
 30
0.0
 11
-137.6816047281823
 21
94.66451531391999
 31
0.0
  0
LINE
  5
45
330
1F
100
AcDbEntity
  8
1
  6
Continuous
 62
     7
100
AcDbLine
 10
-139.8753547281823
 20
95.37730789753095
 30
0.0
 11
-139.8753547281823
 21
96.38980789753094
 31
0.0
  0
LINE
  5
46
330
1F
100
AcDbEntity
  8
1
  6
Continuous
 62
     7
100
AcDbLine
 10
-137.6816047281823
 20
95.71480789753093
 30
0.0
 11
-137.6816047281823
 21
96.55855789753093
 31
0.0
  0
LINE
  5
47
330
1F
100
AcDbEntity
  8
1
  6
Continuous
 62
     7
100
AcDbLine
 10
-139.8753547281823
 20
94.87105789753093
 30
0.0
 11
-139.8753547281823
 21
93.85855789753094
 31
0.0
  0
LINE
  5
48
330
1F
100
AcDbEntity
  8
1
  6
Continuous
 62
     7
100
AcDbLine
 10
-139.8753547281823
 20
93.85855789753094
 30
0.0
 11
-137.6816047281823
 21
93.14576531391998
 31
0.0
  0
LINE
  5
49
330
1F
100
AcDbEntity
  8
1
  6
Continuous
 62
     7
100
AcDbLine
 10
-137.6816047281823
 20
93.14576531391998
 30
0.0
 11
-137.6816047281823
 21
93.98951531391998
 31
0.0
  0
LINE
  5
4A
330
1F
100
AcDbEntity
  8
1
  6
Continuous
 62
     7
100
AcDbLine
 10
-137.6816047281823
 20
94.66451531391999
 30
0.0
 11
-137.6816047281823
 21
95.33951531392
 31
0.0
  0
LINE
  5
4B
330
1F
100
AcDbEntity
  8
1
  6
Continuous
 62
     7
100
AcDbLine
 10
-138.4325422281823
 20
91.23791196871616
 30
0.0
 11
-137.9428846735599
 21
91.11934079895195
 31
0.0
  0
LINE
  5
4C
330
1F
100
AcDbEntity
  8
1
  6
Continuous
 62
     7
100
AcDbLine
 10
-139.4703547281823
 20
91.52862516655074
 30
0.0
 11
-139.1148129425125
 21
91.43335803220498
 31
0.0
  0
LINE
  5
4D
330
1F
100
AcDbEntity
  8
1
  6
Continuous
 62
     7
100
AcDbLine
 10
-137.6816047281823
 20
86.57253821692655
 30
0.0
 11
-139.8753547281823
 21
87.1603517578223
 31
0.0
  0
LINE
  5
4E
330
1F
100
AcDbEntity
  8
1
  6
Continuous
 62
     7
100
AcDbLine
 10
-137.6816047281823
 20
88.42878821692653
 30
0.0
 11
-137.6816047281823
 21
86.57253821692655
 31
0.0
  0
LINE
  5
4F
330
1F
100
AcDbEntity
  8
1
  6
Continuous
 62
     7
100
AcDbLine
 10
-138.0866047281823
 20
88.53730763986118
 30
0.0
 11
-137.6816047281823
 21
88.42878821692653
 31
0.0
  0
LINE
  5
50
330
1F
100
AcDbEntity
  8
1
  6
Continuous
 62
     7
100
AcDbLine
 10
-138.0866047281823
 20
87.55457191708217
 30
0.0
 11
-138.0866047281823
 21
88.53730763986118
 31
0.0
  0
LINE
  5
51
330
1F
100
AcDbEntity
  8
1
  6
Continuous
 62
     7
100
AcDbLine
 10
-138.5759797281823
 20
87.68569955312813
 30
0.0
 11
-138.0866047281823
 21
87.55457191708217
 31
0.0
  0
LINE
  5
52
330
1F
100
AcDbEntity
  8
1
  6
Continuous
 62
     7
100
AcDbLine
 10
-138.5759797281823
 20
88.66843527590714
 30
0.0
 11
-138.5759797281823
 21
87.68569955312813
 31
0.0
  0
LINE
  5
53
330
1F
100
AcDbEntity
  8
1
  6
Continuous
 62
     7
100
AcDbLine
 10
-138.9809797281823
 20
88.77695469884173
 30
0.0
 11
-138.5759797281823
 21
88.66843527590714
 31
0.0
  0
LINE
  5
54
330
1F
100
AcDbEntity
  8
1
  6
Continuous
 62
     7
100
AcDbLine
 10
-138.9809797281823
 20
87.79421897606272
 30
0.0
 11
-138.9809797281823
 21
88.77695469884173
 31
0.0
  0
LINE
  5
55
330
1F
100
AcDbEntity
  8
1
  6
Continuous
 62
     7
100
AcDbLine
 10
-139.4703547281823
 20
87.92534661210874
 30
0.0
 11
-138.9809797281823
 21
87.79421897606272
 31
0.0
  0
LINE
  5
56
330
1F
100
AcDbEntity
  8
1
  6
Continuous
 62
     7
100
AcDbLine
 10
-139.4703547281823
 20
88.9080823348877
 30
0.0
 11
-139.4703547281823
 21
87.92534661210874
 31
0.0
  0
LINE
  5
57
330
1F
100
AcDbEntity
  8
1
  6
Continuous
 62
     7
100
AcDbLine
 10
-139.8753547281823
 20
89.01660175782234
 30
0.0
 11
-139.4703547281823
 21
88.9080823348877
 31
0.0
  0
LINE
  5
58
330
1F
100
AcDbEntity
  8
1
  6
Continuous
 62
     7
100
AcDbLine
 10
-139.8753547281823
 20
87.1603517578223
 30
0.0
 11
-139.8753547281823
 21
89.01660175782234
 31
0.0
  0
LINE
  5
59
330
1F
100
AcDbEntity
  8
1
  6
Continuous
 62
     7
100
AcDbLine
 10
-139.8753547281823
 20
108.1214084419497
 30
0.0
 11
-139.8753547281823
 21
107.0731913092845
 31
0.0
  0
LINE
  5
5A
330
1F
100
AcDbEntity
  8
1
  6
Continuous
 62
     7
100
AcDbLine
 10
-139.8753547281823
 20
107.0731913092845
 30
0.0
 11
-137.6816047281823
 21
106.4853777683887
 31
0.0
  0
LINE
  5
5B
330
1F
100
AcDbEntity
  8
1
  6
Continuous
 62
     7
100
AcDbLine
 10
-137.6816047281823
 20
106.4853777683887
 30
0.0
 11
-137.6816047281823
 21
107.5335949010539
 31
0.0
  0
LINE
  5
5C
330
1F
100
AcDbEntity
  8
1
  6
Continuous
 62
     7
100
AcDbLine
 10
-139.8753547281823
 20
109.9552845445425
 30
0.0
 11
-139.8753547281823
 21
108.9070674118773
 31
0.0
  0
LINE
  5
5D
330
1F
100
AcDbEntity
  8
1
  6
Continuous
 62
     7
100
AcDbLine
 10
-137.6816047281823
 20
109.3674710036468
 30
0.0
 11
-139.8753547281823
 21
109.9552845445425
 31
0.0
  0
LINE
  5
5E
330
1F
100
AcDbEntity
  8
1
  6
Continuous
 62
     7
100
AcDbLine
 10
-139.8753547281823
 20
108.9070674118773
 30
0.0
 11
-138.7784797281823
 21
108.6131606414295
 31
0.0
  0
LINE
  5
5F
330
1F
100
AcDbEntity
  8
1
  6
Continuous
 62
     7
100
AcDbLine
 10
-137.6816047281823
 20
108.3192538709816
 30
0.0
 11
-137.6816047281823
 21
109.3674710036468
 31
0.0
  0
LINE
  5
60
330
1F
100
AcDbEntity
  8
1
  6
Continuous
 62
     7
100
AcDbLine
 10
-138.7784797281823
 20
107.8275016715018
 30
0.0
 11
-137.6816047281823
 21
108.3192538709816
 31
0.0
  0
LINE
  5
61
330
1F
100
AcDbEntity
  8
1
  6
Continuous
 62
     7
100
AcDbLine
 10
-138.7784797281823
 20
107.8275016715018
 30
0.0
 11
-137.6816047281823
 21
107.5335949010539
 31
0.0
  0
LINE
  5
62
330
1F
100
AcDbEntity
  8
1
  6
Continuous
 62
     7
100
AcDbLine
 10
-139.8753547281823
 20
108.1214084419497
 30
0.0
 11
-138.7784797281823
 21
108.6131606414295
 31
0.0
  0
LINE
  5
63
330
1F
100
AcDbEntity
  8
1
  6
Continuous
 62
     7
100
AcDbLine
 10
-140.7633640834079
 20
86.5806539844304
 30
0.0
 11
-140.7633640834079
 21
93.42871861194857
 31
0.0
  0
LINE
  5
64
330
1F
100
AcDbEntity
  8
1
  6
Continuous
 62
     7
100
AcDbLine
 10
-140.2486805038163
 20
86.55037847974853
 30
0.0
 11
-140.2486805038163
 21
93.29853416331827
 31
0.0
  0
LINE
  5
65
330
1F
100
AcDbEntity
  8
1
  6
Continuous
 62
     7
100
AcDbLine
 10
-141.1872211489541
 20
86.5806539844304
 30
0.0
 11
-141.1872211489541
 21
93.54402006125912
 31
0.0
  0
LINE
  5
66
330
1F
100
AcDbEntity
  8
1
  6
Continuous
 62
     7
100
AcDbLine
 10
-137.2211300356299
 20
91.31167721433275
 30
0.0
 11
-137.2211300356299
 21
109.4083845145559
 31
0.0
  0
LINE
  5
67
330
1F
100
AcDbEntity
  8
1
  6
Continuous
 62
     7
100
AcDbLine
 10
-136.7064464560382
 20
91.1829758147843
 30
0.0
 11
-136.7064464560382
 21
109.2872824958283
 31
0.0
  0
LINE
  5
68
330
1F
100
AcDbEntity
  8
1
  6
Continuous
 62
     7
100
AcDbLine
 10
-136.1917628764465
 20
91.0311531726644
 30
0.0
 11
-136.1917628764465
 21
109.5294865332832
 31
0.0
  0
LINE
  5
69
330
1F
100
AcDbEntity
  8
1
  6
Continuous
 62
     7
100
AcDbLine
 10
-141.1872211489541
 20
92.3632753786664
 30
0.0
 11
-136.1312118670828
 21
91.0311531726644
 31
0.0
  0
LINE
  5
6A
330
1F
100
AcDbEntity
  8
1
  6
Continuous
 62
     7
100
AcDbLine
 10
-141.1872211489541
 20
93.02933648166743
 30
0.0
 11
-136.1917628764465
 21
91.7274897803473
 31
0.0
  0
LINE
  5
6B
330
1F
100
AcDbEntity
  8
1
  6
Continuous
 62
     7
100
AcDbLine
 10
-141.2174966536359
 20
93.54402006125912
 30
0.0
 11
-136.1917628764465
 21
92.2724488646208
 31
0.0
  0
LINE
  5
6C
330
1F
100
AcDbEntity
  8
1
  6
Continuous
 62
     7
100
AcDbLine
 10
-142.693776467207
 20
85.163461759477
 30
0.0
 11
-142.693776467207
 21
131.163461759477
 31
0.0
  0
LINE
  5
6D
330
1F
100
AcDbEntity
  8
1
  6
Continuous
 62
     7
100
AcDbLine
 10
-140.6937764672069
 20
133.1634617594769
 30
0.0
 11
-124.6937764672069
 21
133.1634617594769
 31
0.0
  0
LINE
  5
6E
330
1F
100
AcDbEntity
  8
1
  6
Continuous
 62
     7
100
AcDbLine
 10
-122.693776467207
 20
131.163461759477
 30
0.0
 11
-122.693776467207
 21
85.163461759477
 31
0.0
  0
LINE
  5
6F
330
1F
100
AcDbEntity
  8
1
  6
Continuous
 62
     7
100
AcDbLine
 10
-124.693776467207
 20
83.163461759477
 30
0.0
 11
-140.693776467207
 21
83.163461759477
 31
0.0
  0
LINE
  5
70
330
1F
100
AcDbEntity
  8
1
  6
Continuous
 62
     7
100
AcDbLine
 10
-282.8401858093957
 20
90.52114756887266
 30
0.0
 11
-282.9284745374538
 21
90.75114756887268
 31
0.0
  0
LINE
  5
71
330
1F
100
AcDbEntity
  8
1
  6
Continuous
 62
     7
100
AcDbLine
 10
-282.9284745374538
 20
90.75114756887268
 30
0.0
 11
-283.1372082909888
 21
90.75114756887268
 31
0.0
  0
LINE
  5
72
330
1F
100
AcDbEntity
  8
1
  6
Continuous
 62
     7
100
AcDbLine
 10
-283.1372082909888
 20
90.75114756887268
 30
0.0
 11
-283.0489195629306
 21
90.52114756887266
 31
0.0
  0
LINE
  5
73
330
1F
100
AcDbEntity
  8
1
  6
Continuous
 62
     7
100
AcDbLine
 10
-283.0489195629306
 20
90.52114756887266
 30
0.0
 11
-282.8401858093957
 21
90.52114756887266
 31
0.0
  0
LINE
  5
74
330
1F
100
AcDbEntity
  8
1
  6
Continuous
 62
     7
100
AcDbLine
 10
-282.8401858093957
 20
90.52114756887266
 30
0.0
 11
-282.9284745374538
 21
90.29114756887265
 31
0.0
  0
LINE
  5
75
330
1F
100
AcDbEntity
  8
1
  6
Continuous
 62
     7
100
AcDbLine
 10
-282.9284745374538
 20
90.29114756887265
 30
0.0
 11
-283.1372082909888
 21
90.29114756887265
 31
0.0
  0
LINE
  5
76
330
1F
100
AcDbEntity
  8
1
  6
Continuous
 62
     7
100
AcDbLine
 10
-283.1372082909888
 20
90.29114756887265
 30
0.0
 11
-283.0489195629306
 21
90.52114756887266
 31
0.0
  0
LINE
  5
77
330
1F
100
AcDbEntity
  8
1
  6
Continuous
 62
     7
100
AcDbLine
 10
-282.3576858093957
 20
90.03864756887265
 30
0.0
 11
-282.5876858093957
 21
89.95035884081449
 31
0.0
  0
LINE
  5
78
330
1F
100
AcDbEntity
  8
1
  6
Continuous
 62
     7
100
AcDbLine
 10
-282.5876858093957
 20
89.95035884081449
 30
0.0
 11
-282.5876858093957
 21
89.74162508727954
 31
0.0
  0
LINE
  5
79
330
1F
100
AcDbEntity
  8
1
  6
Continuous
 62
     7
100
AcDbLine
 10
-282.5876858093957
 20
89.74162508727954
 30
0.0
 11
-282.3576858093957
 21
89.8299138153377
 31
0.0
  0
LINE
  5
7A
330
1F
100
AcDbEntity
  8
1
  6
Continuous
 62
     7
100
AcDbLine
 10
-282.3576858093957
 20
89.8299138153377
 30
0.0
 11
-282.3576858093957
 21
90.03864756887265
 31
0.0
  0
LINE
  5
7B
330
1F
100
AcDbEntity
  8
1
  6
Continuous
 62
     7
100
AcDbLine
 10
-282.3576858093957
 20
90.03864756887265
 30
0.0
 11
-282.1276858093956
 21
89.95035884081449
 31
0.0
  0
LINE
  5
7C
330
1F
100
AcDbEntity
  8
1
  6
Continuous
 62
     7
100
AcDbLine
 10
-282.1276858093956
 20
89.95035884081449
 30
0.0
 11
-282.1276858093956
 21
89.74162508727954
 31
0.0
  0
LINE
  5
7D
330
1F
100
AcDbEntity
  8
1
  6
Continuous
 62
     7
100
AcDbLine
 10
-282.1276858093956
 20
89.74162508727954
 30
0.0
 11
-282.3576858093957
 21
89.8299138153377
 31
0.0
  0
LINE
  5
7E
330
1F
100
AcDbEntity
  8
1
  6
Continuous
 62
     7
100
AcDbLine
 10
-281.8751858093957
 20
90.52114756887266
 30
0.0
 11
-281.7868970813375
 21
90.29114756887265
 31
0.0
  0
LINE
  5
7F
330
1F
100
AcDbEntity
  8
1
  6
Continuous
 62
     7
100
AcDbLine
 10
-281.7868970813375
 20
90.29114756887265
 30
0.0
 11
-281.5781633278026
 21
90.29114756887265
 31
0.0
  0
LINE
  5
80
330
1F
100
AcDbEntity
  8
1
  6
Continuous
 62
     7
100
AcDbLine
 10
-281.5781633278026
 20
90.29114756887265
 30
0.0
 11
-281.6664520558606
 21
90.52114756887266
 31
0.0
  0
LINE
  5
81
330
1F
100
AcDbEntity
  8
1
  6
Continuous
 62
     7
100
AcDbLine
 10
-281.6664520558606
 20
90.52114756887266
 30
0.0
 11
-281.8751858093957
 21
90.52114756887266
 31
0.0
  0
LINE
  5
82
330
1F
100
AcDbEntity
  8
1
  6
Continuous
 62
     7
100
AcDbLine
 10
-281.8751858093957
 20
90.52114756887266
 30
0.0
 11
-281.7868970813375
 21
90.75114756887268
 31
0.0
  0
LINE
  5
83
330
1F
100
AcDbEntity
  8
1
  6
Continuous
 62
     7
100
AcDbLine
 10
-281.7868970813375
 20
90.75114756887268
 30
0.0
 11
-281.5781633278026
 21
90.75114756887268
 31
0.0
  0
LINE
  5
84
330
1F
100
AcDbEntity
  8
1
  6
Continuous
 62
     7
100
AcDbLine
 10
-281.5781633278026
 20
90.75114756887268
 30
0.0
 11
-281.6664520558606
 21
90.52114756887266
 31
0.0
  0
LINE
  5
85
330
1F
100
AcDbEntity
  8
1
  6
Continuous
 62
     7
100
AcDbLine
 10
-282.3576858093957
 20
91.00364756887268
 30
0.0
 11
-282.1276858093956
 21
91.09193629693084
 31
0.0
  0
LINE
  5
86
330
1F
100
AcDbEntity
  8
1
  6
Continuous
 62
     7
100
AcDbLine
 10
-282.1276858093956
 20
91.09193629693084
 30
0.0
 11
-282.1276858093956
 21
91.30067005046578
 31
0.0
  0
LINE
  5
87
330
1F
100
AcDbEntity
  8
1
  6
Continuous
 62
     7
100
AcDbLine
 10
-282.1276858093956
 20
91.30067005046578
 30
0.0
 11
-282.3576858093957
 21
91.21238132240762
 31
0.0
  0
LINE
  5
88
330
1F
100
AcDbEntity
  8
1
  6
Continuous
 62
     7
100
AcDbLine
 10
-282.3576858093957
 20
91.21238132240762
 30
0.0
 11
-282.3576858093957
 21
91.00364756887268
 31
0.0
  0
LINE
  5
89
330
1F
100
AcDbEntity
  8
1
  6
Continuous
 62
     7
100
AcDbLine
 10
-282.3576858093957
 20
91.00364756887268
 30
0.0
 11
-282.5876858093957
 21
91.09193629693084
 31
0.0
  0
LINE
  5
8A
330
1F
100
AcDbEntity
  8
1
  6
Continuous
 62
     7
100
AcDbLine
 10
-282.5876858093957
 20
91.09193629693084
 30
0.0
 11
-282.5876858093957
 21
91.30067005046578
 31
0.0
  0
LINE
  5
8B
330
1F
100
AcDbEntity
  8
1
  6
Continuous
 62
     7
100
AcDbLine
 10
-282.5876858093957
 20
91.30067005046578
 30
0.0
 11
-282.3576858093957
 21
91.21238132240762
 31
0.0
  0
LINE
  5
8C
330
1F
100
AcDbEntity
  8
1
  6
Continuous
 62
     7
100
AcDbLine
 10
-282.9284745374538
 20
90.75114756887268
 30
0.0
 11
-282.9430986655883
 21
90.76714917009582
 31
0.0
  0
LINE
  5
8D
330
1F
100
AcDbEntity
  8
1
  6
Continuous
 62
     7
100
AcDbLine
 10
-282.9430986655883
 20
90.76714917009582
 30
0.0
 11
-283.7429295804992
 21
91.39204556755135
 31
0.0
  0
LINE
  5
8E
330
1F
100
AcDbEntity
  8
1
  6
Continuous
 62
     7
100
AcDbLine
 10
-283.7429295804992
 20
91.39204556755135
 30
0.0
 11
-283.1372082909888
 21
90.75114756887268
 31
0.0
  0
LINE
  5
8F
330
1F
100
AcDbEntity
  8
1
  6
Continuous
 62
     7
100
AcDbLine
 10
-282.9284745374538
 20
90.29114756887265
 30
0.0
 11
-282.9430986655883
 21
90.27514596764956
 31
0.0
  0
LINE
  5
90
330
1F
100
AcDbEntity
  8
1
  6
Continuous
 62
     7
100
AcDbLine
 10
-282.9430986655883
 20
90.27514596764956
 30
0.0
 11
-283.7429295804992
 21
89.65024957019403
 31
0.0
  0
LINE
  5
91
330
1F
100
AcDbEntity
  8
1
  6
Continuous
 62
     7
100
AcDbLine
 10
-283.7429295804992
 20
89.65024957019403
 30
0.0
 11
-283.1372082909888
 21
90.29114756887265
 31
0.0
  0
LINE
  5
92
330
1F
100
AcDbEntity
  8
1
  6
Continuous
 62
     7
100
AcDbLine
 10
-282.5876858093957
 20
89.95035884081449
 30
0.0
 11
-282.6036874106188
 21
89.93573471268002
 31
0.0
  0
LINE
  5
93
330
1F
100
AcDbEntity
  8
1
  6
Continuous
 62
     7
100
AcDbLine
 10
-282.6036874106188
 20
89.93573471268002
 30
0.0
 11
-283.2285838080743
 21
89.13590379776917
 31
0.0
  0
LINE
  5
94
330
1F
100
AcDbEntity
  8
1
  6
Continuous
 62
     7
100
AcDbLine
 10
-283.2285838080743
 20
89.13590379776917
 30
0.0
 11
-282.5876858093957
 21
89.74162508727954
 31
0.0
  0
LINE
  5
95
330
1F
100
AcDbEntity
  8
1
  6
Continuous
 62
     7
100
AcDbLine
 10
-282.1276858093956
 20
89.95035884081449
 30
0.0
 11
-282.1116842081725
 21
89.93573471268002
 31
0.0
  0
LINE
  5
96
330
1F
100
AcDbEntity
  8
1
  6
Continuous
 62
     7
100
AcDbLine
 10
-282.1116842081725
 20
89.93573471268002
 30
0.0
 11
-281.486787810717
 21
89.13590379776917
 31
0.0
  0
LINE
  5
97
330
1F
100
AcDbEntity
  8
1
  6
Continuous
 62
     7
100
AcDbLine
 10
-281.486787810717
 20
89.13590379776917
 30
0.0
 11
-282.1276858093956
 21
89.74162508727954
 31
0.0
  0
LINE
  5
98
330
1F
100
AcDbEntity
  8
1
  6
Continuous
 62
     7
100
AcDbLine
 10
-281.7868970813375
 20
90.29114756887265
 30
0.0
 11
-281.772272953203
 21
90.27514596764951
 31
0.0
  0
LINE
  5
99
330
1F
100
AcDbEntity
  8
1
  6
Continuous
 62
     7
100
AcDbLine
 10
-281.772272953203
 20
90.27514596764951
 30
0.0
 11
-280.9724420382922
 21
89.65024957019398
 31
0.0
  0
LINE
  5
9A
330
1F
100
AcDbEntity
  8
1
  6
Continuous
 62
     7
100
AcDbLine
 10
-280.9724420382922
 20
89.65024957019398
 30
0.0
 11
-281.5781633278026
 21
90.29114756887265
 31
0.0
  0
LINE
  5
9B
330
1F
100
AcDbEntity
  8
1
  6
Continuous
 62
     7
100
AcDbLine
 10
-281.7868970813375
 20
90.75114756887268
 30
0.0
 11
-281.772272953203
 21
90.76714917009576
 31
0.0
  0
LINE
  5
9C
330
1F
100
AcDbEntity
  8
1
  6
Continuous
 62
     7
100
AcDbLine
 10
-281.772272953203
 20
90.76714917009576
 30
0.0
 11
-280.9724420382922
 21
91.39204556755129
 31
0.0
  0
LINE
  5
9D
330
1F
100
AcDbEntity
  8
1
  6
Continuous
 62
     7
100
AcDbLine
 10
-280.9724420382922
 20
91.39204556755129
 30
0.0
 11
-281.5781633278026
 21
90.75114756887268
 31
0.0
  0
LINE
  5
9E
330
1F
100
AcDbEntity
  8
1
  6
Continuous
 62
     7
100
AcDbLine
 10
-282.1276858093956
 20
91.09193629693084
 30
0.0
 11
-282.1116842081725
 21
91.10656042506531
 31
0.0
  0
LINE
  5
9F
330
1F
100
AcDbEntity
  8
1
  6
Continuous
 62
     7
100
AcDbLine
 10
-282.1116842081725
 20
91.10656042506531
 30
0.0
 11
-281.486787810717
 21
91.90639133997615
 31
0.0
  0
LINE
  5
A0
330
1F
100
AcDbEntity
  8
1
  6
Continuous
 62
     7
100
AcDbLine
 10
-281.486787810717
 20
91.90639133997615
 30
0.0
 11
-282.1276858093956
 21
91.30067005046578
 31
0.0
  0
LINE
  5
A1
330
1F
100
AcDbEntity
  8
1
  6
Continuous
 62
     7
100
AcDbLine
 10
-282.5876858093957
 20
91.09193629693084
 30
0.0
 11
-282.6036874106188
 21
91.10656042506531
 31
0.0
  0
LINE
  5
A2
330
1F
100
AcDbEntity
  8
1
  6
Continuous
 62
     7
100
AcDbLine
 10
-282.6036874106188
 20
91.10656042506531
 30
0.0
 11
-283.2285838080743
 21
91.90639133997615
 31
0.0
  0
LINE
  5
A3
330
1F
100
AcDbEntity
  8
1
  6
Continuous
 62
     7
100
AcDbLine
 10
-283.2285838080743
 20
91.90639133997615
 30
0.0
 11
-282.5876858093957
 21
91.30067005046578
 31
0.0
  0
LINE
  5
A4
330
1F
100
AcDbEntity
  8
1
  6
Continuous
 62
     7
100
AcDbLine
 10
-316.2570704195008
 20
91.39204556755132
 30
0.0
 11
-316.8627917090112
 21
90.75114756887265
 31
0.0
  0
LINE
  5
A5
330
1F
100
AcDbEntity
  8
1
  6
Continuous
 62
     7
100
AcDbLine
 10
-317.0569013344117
 20
90.76714917009578
 30
0.0
 11
-316.2570704195008
 21
91.39204556755132
 31
0.0
  0
LINE
  5
A6
330
1F
100
AcDbEntity
  8
1
  6
Continuous
 62
     7
100
AcDbLine
 10
-317.0715254625462
 20
90.75114756887265
 30
0.0
 11
-317.0569013344117
 21
90.76714917009578
 31
0.0
  0
LINE
  5
A7
330
1F
100
AcDbEntity
  8
1
  6
Continuous
 62
     7
100
AcDbLine
 10
-316.2570704195008
 20
89.65024957019398
 30
0.0
 11
-316.8627917090112
 21
90.29114756887265
 31
0.0
  0
LINE
  5
A8
330
1F
100
AcDbEntity
  8
1
  6
Continuous
 62
     7
100
AcDbLine
 10
-317.0569013344117
 20
90.27514596764952
 30
0.0
 11
-316.2570704195008
 21
89.65024957019398
 31
0.0
  0
LINE
  5
A9
330
1F
100
AcDbEntity
  8
1
  6
Continuous
 62
     7
100
AcDbLine
 10
-317.0715254625462
 20
90.29114756887265
 30
0.0
 11
-317.0569013344117
 21
90.27514596764952
 31
0.0
  0
LINE
  5
AA
330
1F
100
AcDbEntity
  8
1
  6
Continuous
 62
     7
100
AcDbLine
 10
-316.7714161919257
 20
89.13590379776915
 30
0.0
 11
-317.4123141906043
 21
89.74162508727956
 31
0.0
  0
LINE
  5
AB
330
1F
100
AcDbEntity
  8
1
  6
Continuous
 62
     7
100
AcDbLine
 10
-317.3963125893813
 20
89.93573471267997
 30
0.0
 11
-316.7714161919257
 21
89.13590379776915
 31
0.0
  0
LINE
  5
AC
330
1F
100
AcDbEntity
  8
1
  6
Continuous
 62
     7
100
AcDbLine
 10
-317.4123141906043
 20
89.9503588408145
 30
0.0
 11
-317.3963125893813
 21
89.93573471267997
 31
0.0
  0
LINE
  5
AD
330
1F
100
AcDbEntity
  8
1
  6
Continuous
 62
     7
100
AcDbLine
 10
-318.5132121892831
 20
89.13590379776915
 30
0.0
 11
-317.8723141906044
 21
89.74162508727956
 31
0.0
  0
LINE
  5
AE
330
1F
100
AcDbEntity
  8
1
  6
Continuous
 62
     7
100
AcDbLine
 10
-317.8883157918275
 20
89.93573471267997
 30
0.0
 11
-318.5132121892831
 21
89.13590379776915
 31
0.0
  0
LINE
  5
AF
330
1F
100
AcDbEntity
  8
1
  6
Continuous
 62
     7
100
AcDbLine
 10
-317.8723141906044
 20
89.9503588408145
 30
0.0
 11
-317.8883157918275
 21
89.93573471267997
 31
0.0
  0
LINE
  5
B0
330
1F
100
AcDbEntity
  8
1
  6
Continuous
 62
     7
100
AcDbLine
 10
-319.0275579617079
 20
89.65024957019398
 30
0.0
 11
-318.4218366721975
 21
90.29114756887265
 31
0.0
  0
LINE
  5
B1
330
1F
100
AcDbEntity
  8
1
  6
Continuous
 62
     7
100
AcDbLine
 10
-318.227727046797
 20
90.27514596764952
 30
0.0
 11
-319.0275579617079
 21
89.65024957019398
 31
0.0
  0
LINE
  5
B2
330
1F
100
AcDbEntity
  8
1
  6
Continuous
 62
     7
100
AcDbLine
 10
-318.2131029186625
 20
90.29114756887265
 30
0.0
 11
-318.227727046797
 21
90.27514596764952
 31
0.0
  0
LINE
  5
B3
330
1F
100
AcDbEntity
  8
1
  6
Continuous
 62
     7
100
AcDbLine
 10
-319.0275579617079
 20
91.39204556755132
 30
0.0
 11
-318.4218366721975
 21
90.75114756887265
 31
0.0
  0
LINE
  5
B4
330
1F
100
AcDbEntity
  8
1
  6
Continuous
 62
     7
100
AcDbLine
 10
-318.227727046797
 20
90.76714917009578
 30
0.0
 11
-319.0275579617079
 21
91.39204556755132
 31
0.0
  0
LINE
  5
B5
330
1F
100
AcDbEntity
  8
1
  6
Continuous
 62
     7
100
AcDbLine
 10
-318.2131029186625
 20
90.75114756887265
 30
0.0
 11
-318.227727046797
 21
90.76714917009578
 31
0.0
  0
LINE
  5
B6
330
1F
100
AcDbEntity
  8
1
  6
Continuous
 62
     7
100
AcDbLine
 10
-318.513212189283
 20
91.90639133997615
 30
0.0
 11
-317.8723141906044
 21
91.30067005046574
 31
0.0
  0
LINE
  5
B7
330
1F
100
AcDbEntity
  8
1
  6
Continuous
 62
     7
100
AcDbLine
 10
-317.8883157918275
 20
91.10656042506533
 30
0.0
 11
-318.513212189283
 21
91.90639133997615
 31
0.0
  0
LINE
  5
B8
330
1F
100
AcDbEntity
  8
1
  6
Continuous
 62
     7
100
AcDbLine
 10
-317.8723141906044
 20
91.0919362969308
 30
0.0
 11
-317.8883157918275
 21
91.10656042506533
 31
0.0
  0
LINE
  5
B9
330
1F
100
AcDbEntity
  8
1
  6
Continuous
 62
     7
100
AcDbLine
 10
-316.7714161919257
 20
91.90639133997615
 30
0.0
 11
-317.4123141906043
 21
91.30067005046574
 31
0.0
  0
LINE
  5
BA
330
1F
100
AcDbEntity
  8
1
  6
Continuous
 62
     7
100
AcDbLine
 10
-317.3963125893812
 20
91.10656042506533
 30
0.0
 11
-316.7714161919257
 21
91.90639133997615
 31
0.0
  0
LINE
  5
BB
330
1F
100
AcDbEntity
  8
1
  6
Continuous
 62
     7
100
AcDbLine
 10
-317.4123141906043
 20
91.0919362969308
 30
0.0
 11
-317.3963125893812
 21
91.10656042506533
 31
0.0
  0
LINE
  5
BC
330
1F
100
AcDbEntity
  8
1
  6
Continuous
 62
     7
100
AcDbLine
 10
-316.8627917090112
 20
90.75114756887265
 30
0.0
 11
-316.9510804370694
 21
90.52114756887265
 31
0.0
  0
LINE
  5
BD
330
1F
100
AcDbEntity
  8
1
  6
Continuous
 62
     7
100
AcDbLine
 10
-317.0715254625462
 20
90.75114756887265
 30
0.0
 11
-316.8627917090112
 21
90.75114756887265
 31
0.0
  0
LINE
  5
BE
330
1F
100
AcDbEntity
  8
1
  6
Continuous
 62
     7
100
AcDbLine
 10
-317.1598141906043
 20
90.52114756887265
 30
0.0
 11
-317.0715254625462
 21
90.75114756887265
 31
0.0
  0
LINE
  5
BF
330
1F
100
AcDbEntity
  8
1
  6
Continuous
 62
     7
100
AcDbLine
 10
-316.9510804370694
 20
90.52114756887265
 30
0.0
 11
-317.1598141906043
 21
90.52114756887265
 31
0.0
  0
LINE
  5
C0
330
1F
100
AcDbEntity
  8
1
  6
Continuous
 62
     7
100
AcDbLine
 10
-316.8627917090112
 20
90.29114756887265
 30
0.0
 11
-316.9510804370694
 21
90.52114756887265
 31
0.0
  0
LINE
  5
C1
330
1F
100
AcDbEntity
  8
1
  6
Continuous
 62
     7
100
AcDbLine
 10
-317.0715254625462
 20
90.29114756887265
 30
0.0
 11
-316.8627917090112
 21
90.29114756887265
 31
0.0
  0
LINE
  5
C2
330
1F
100
AcDbEntity
  8
1
  6
Continuous
 62
     7
100
AcDbLine
 10
-317.1598141906043
 20
90.52114756887265
 30
0.0
 11
-317.0715254625462
 21
90.29114756887265
 31
0.0
  0
LINE
  5
C3
330
1F
100
AcDbEntity
  8
1
  6
Continuous
 62
     7
100
AcDbLine
 10
-317.4123141906043
 20
89.74162508727956
 30
0.0
 11
-317.6423141906044
 21
89.8299138153377
 31
0.0
  0
LINE
  5
C4
330
1F
100
AcDbEntity
  8
1
  6
Continuous
 62
     7
100
AcDbLine
 10
-317.4123141906043
 20
89.9503588408145
 30
0.0
 11
-317.4123141906043
 21
89.74162508727956
 31
0.0
  0
LINE
  5
C5
330
1F
100
AcDbEntity
  8
1
  6
Continuous
 62
     7
100
AcDbLine
 10
-317.6423141906044
 20
90.03864756887265
 30
0.0
 11
-317.4123141906043
 21
89.9503588408145
 31
0.0
  0
LINE
  5
C6
330
1F
100
AcDbEntity
  8
1
  6
Continuous
 62
     7
100
AcDbLine
 10
-317.6423141906044
 20
89.8299138153377
 30
0.0
 11
-317.6423141906044
 21
90.03864756887265
 31
0.0
  0
LINE
  5
C7
330
1F
100
AcDbEntity
  8
1
  6
Continuous
 62
     7
100
AcDbLine
 10
-317.8723141906044
 20
89.74162508727956
 30
0.0
 11
-317.6423141906044
 21
89.8299138153377
 31
0.0
  0
LINE
  5
C8
330
1F
100
AcDbEntity
  8
1
  6
Continuous
 62
     7
100
AcDbLine
 10
-317.8723141906044
 20
89.9503588408145
 30
0.0
 11
-317.8723141906044
 21
89.74162508727956
 31
0.0
  0
LINE
  5
C9
330
1F
100
AcDbEntity
  8
1
  6
Continuous
 62
     7
100
AcDbLine
 10
-317.6423141906044
 20
90.03864756887265
 30
0.0
 11
-317.8723141906044
 21
89.9503588408145
 31
0.0
  0
LINE
  5
CA
330
1F
100
AcDbEntity
  8
1
  6
Continuous
 62
     7
100
AcDbLine
 10
-318.4218366721975
 20
90.29114756887265
 30
0.0
 11
-318.3335479441393
 21
90.52114756887265
 31
0.0
  0
LINE
  5
CB
330
1F
100
AcDbEntity
  8
1
  6
Continuous
 62
     7
100
AcDbLine
 10
-318.2131029186625
 20
90.29114756887265
 30
0.0
 11
-318.4218366721975
 21
90.29114756887265
 31
0.0
  0
LINE
  5
CC
330
1F
100
AcDbEntity
  8
1
  6
Continuous
 62
     7
100
AcDbLine
 10
-318.1248141906044
 20
90.52114756887265
 30
0.0
 11
-318.2131029186625
 21
90.29114756887265
 31
0.0
  0
LINE
  5
CD
330
1F
100
AcDbEntity
  8
1
  6
Continuous
 62
     7
100
AcDbLine
 10
-318.3335479441393
 20
90.52114756887265
 30
0.0
 11
-318.1248141906044
 21
90.52114756887265
 31
0.0
  0
LINE
  5
CE
330
1F
100
AcDbEntity
  8
1
  6
Continuous
 62
     7
100
AcDbLine
 10
-318.4218366721975
 20
90.75114756887265
 30
0.0
 11
-318.3335479441393
 21
90.52114756887265
 31
0.0
  0
LINE
  5
CF
330
1F
100
AcDbEntity
  8
1
  6
Continuous
 62
     7
100
AcDbLine
 10
-318.2131029186625
 20
90.75114756887265
 30
0.0
 11
-318.4218366721975
 21
90.75114756887265
 31
0.0
  0
LINE
  5
D0
330
1F
100
AcDbEntity
  8
1
  6
Continuous
 62
     7
100
AcDbLine
 10
-318.1248141906044
 20
90.52114756887265
 30
0.0
 11
-318.2131029186625
 21
90.75114756887265
 31
0.0
  0
LINE
  5
D1
330
1F
100
AcDbEntity
  8
1
  6
Continuous
 62
     7
100
AcDbLine
 10
-317.8723141906044
 20
91.30067005046574
 30
0.0
 11
-317.6423141906044
 21
91.2123813224076
 31
0.0
  0
LINE
  5
D2
330
1F
100
AcDbEntity
  8
1
  6
Continuous
 62
     7
100
AcDbLine
 10
-317.8723141906044
 20
91.0919362969308
 30
0.0
 11
-317.8723141906044
 21
91.30067005046574
 31
0.0
  0
LINE
  5
D3
330
1F
100
AcDbEntity
  8
1
  6
Continuous
 62
     7
100
AcDbLine
 10
-317.6423141906044
 20
91.00364756887265
 30
0.0
 11
-317.8723141906044
 21
91.0919362969308
 31
0.0
  0
LINE
  5
D4
330
1F
100
AcDbEntity
  8
1
  6
Continuous
 62
     7
100
AcDbLine
 10
-317.6423141906044
 20
91.2123813224076
 30
0.0
 11
-317.6423141906044
 21
91.00364756887265
 31
0.0
  0
LINE
  5
D5
330
1F
100
AcDbEntity
  8
1
  6
Continuous
 62
     7
100
AcDbLine
 10
-317.4123141906043
 20
91.30067005046574
 30
0.0
 11
-317.6423141906044
 21
91.2123813224076
 31
0.0
  0
LINE
  5
D6
330
1F
100
AcDbEntity
  8
1
  6
Continuous
 62
     7
100
AcDbLine
 10
-317.4123141906043
 20
91.0919362969308
 30
0.0
 11
-317.4123141906043
 21
91.30067005046574
 31
0.0
  0
LINE
  5
D7
330
1F
100
AcDbEntity
  8
1
  6
Continuous
 62
     7
100
AcDbLine
 10
-317.6423141906044
 20
91.00364756887265
 30
0.0
 11
-317.4123141906043
 21
91.0919362969308
 31
0.0
  0
LINE
  5
D8
330
1F
100
AcDbEntity
  8
1
  6
Continuous
 62
     7
100
AcDbLine
 10
-317.1598141906043
 20
125.8057759500814
 30
0.0
 11
-317.0715254625462
 21
125.5757759500813
 31
0.0
  0
LINE
  5
D9
330
1F
100
AcDbEntity
  8
1
  6
Continuous
 62
     7
100
AcDbLine
 10
-317.0715254625462
 20
125.5757759500813
 30
0.0
 11
-316.8627917090113
 21
125.5757759500813
 31
0.0
  0
LINE
  5
DA
330
1F
100
AcDbEntity
  8
1
  6
Continuous
 62
     7
100
AcDbLine
 10
-316.8627917090113
 20
125.5757759500813
 30
0.0
 11
-316.9510804370694
 21
125.8057759500814
 31
0.0
  0
LINE
  5
DB
330
1F
100
AcDbEntity
  8
1
  6
Continuous
 62
     7
100
AcDbLine
 10
-316.9510804370694
 20
125.8057759500814
 30
0.0
 11
-317.1598141906043
 21
125.8057759500814
 31
0.0
  0
LINE
  5
DC
330
1F
100
AcDbEntity
  8
1
  6
Continuous
 62
     7
100
AcDbLine
 10
-317.1598141906043
 20
125.8057759500814
 30
0.0
 11
-317.0715254625462
 21
126.0357759500814
 31
0.0
  0
LINE
  5
DD
330
1F
100
AcDbEntity
  8
1
  6
Continuous
 62
     7
100
AcDbLine
 10
-317.0715254625462
 20
126.0357759500814
 30
0.0
 11
-316.8627917090113
 21
126.0357759500814
 31
0.0
  0
LINE
  5
DE
330
1F
100
AcDbEntity
  8
1
  6
Continuous
 62
     7
100
AcDbLine
 10
-316.8627917090113
 20
126.0357759500814
 30
0.0
 11
-316.9510804370694
 21
125.8057759500814
 31
0.0
  0
LINE
  5
DF
330
1F
100
AcDbEntity
  8
1
  6
Continuous
 62
     7
100
AcDbLine
 10
-317.6423141906044
 20
126.2882759500814
 30
0.0
 11
-317.4123141906043
 21
126.3765646781395
 31
0.0
  0
LINE
  5
E0
330
1F
100
AcDbEntity
  8
1
  6
Continuous
 62
     7
100
AcDbLine
 10
-317.4123141906043
 20
126.3765646781395
 30
0.0
 11
-317.4123141906043
 21
126.5852984316745
 31
0.0
  0
LINE
  5
E1
330
1F
100
AcDbEntity
  8
1
  6
Continuous
 62
     7
100
AcDbLine
 10
-317.4123141906043
 20
126.5852984316745
 30
0.0
 11
-317.6423141906044
 21
126.4970097036163
 31
0.0
  0
LINE
  5
E2
330
1F
100
AcDbEntity
  8
1
  6
Continuous
 62
     7
100
AcDbLine
 10
-317.6423141906044
 20
126.4970097036163
 30
0.0
 11
-317.6423141906044
 21
126.2882759500814
 31
0.0
  0
LINE
  5
E3
330
1F
100
AcDbEntity
  8
1
  6
Continuous
 62
     7
100
AcDbLine
 10
-317.6423141906044
 20
126.2882759500814
 30
0.0
 11
-317.8723141906044
 21
126.3765646781395
 31
0.0
  0
LINE
  5
E4
330
1F
100
AcDbEntity
  8
1
  6
Continuous
 62
     7
100
AcDbLine
 10
-317.8723141906044
 20
126.3765646781395
 30
0.0
 11
-317.8723141906044
 21
126.5852984316745
 31
0.0
  0
LINE
  5
E5
330
1F
100
AcDbEntity
  8
1
  6
Continuous
 62
     7
100
AcDbLine
 10
-317.8723141906044
 20
126.5852984316745
 30
0.0
 11
-317.6423141906044
 21
126.4970097036163
 31
0.0
  0
LINE
  5
E6
330
1F
100
AcDbEntity
  8
1
  6
Continuous
 62
     7
100
AcDbLine
 10
-318.1248141906044
 20
125.8057759500814
 30
0.0
 11
-318.2131029186625
 21
126.0357759500814
 31
0.0
  0
LINE
  5
E7
330
1F
100
AcDbEntity
  8
1
  6
Continuous
 62
     7
100
AcDbLine
 10
-318.2131029186625
 20
126.0357759500814
 30
0.0
 11
-318.4218366721975
 21
126.0357759500814
 31
0.0
  0
LINE
  5
E8
330
1F
100
AcDbEntity
  8
1
  6
Continuous
 62
     7
100
AcDbLine
 10
-318.4218366721975
 20
126.0357759500814
 30
0.0
 11
-318.3335479441393
 21
125.8057759500814
 31
0.0
  0
LINE
  5
E9
330
1F
100
AcDbEntity
  8
1
  6
Continuous
 62
     7
100
AcDbLine
 10
-318.3335479441393
 20
125.8057759500814
 30
0.0
 11
-318.1248141906044
 21
125.8057759500814
 31
0.0
  0
LINE
  5
EA
330
1F
100
AcDbEntity
  8
1
  6
Continuous
 62
     7
100
AcDbLine
 10
-318.1248141906044
 20
125.8057759500814
 30
0.0
 11
-318.2131029186625
 21
125.5757759500813
 31
0.0
  0
LINE
  5
EB
330
1F
100
AcDbEntity
  8
1
  6
Continuous
 62
     7
100
AcDbLine
 10
-318.2131029186625
 20
125.5757759500813
 30
0.0
 11
-318.4218366721975
 21
125.5757759500813
 31
0.0
  0
LINE
  5
EC
330
1F
100
AcDbEntity
  8
1
  6
Continuous
 62
     7
100
AcDbLine
 10
-318.4218366721975
 20
125.5757759500813
 30
0.0
 11
-318.3335479441393
 21
125.8057759500814
 31
0.0
  0
LINE
  5
ED
330
1F
100
AcDbEntity
  8
1
  6
Continuous
 62
     7
100
AcDbLine
 10
-317.6423141906044
 20
125.3232759500813
 30
0.0
 11
-317.8723141906044
 21
125.2349872220232
 31
0.0
  0
LINE
  5
EE
330
1F
100
AcDbEntity
  8
1
  6
Continuous
 62
     7
100
AcDbLine
 10
-317.8723141906044
 20
125.2349872220232
 30
0.0
 11
-317.8723141906044
 21
125.0262534684882
 31
0.0
  0
LINE
  5
EF
330
1F
100
AcDbEntity
  8
1
  6
Continuous
 62
     7
100
AcDbLine
 10
-317.8723141906044
 20
125.0262534684882
 30
0.0
 11
-317.6423141906044
 21
125.1145421965464
 31
0.0
  0
LINE
  5
F0
330
1F
100
AcDbEntity
  8
1
  6
Continuous
 62
     7
100
AcDbLine
 10
-317.6423141906044
 20
125.1145421965464
 30
0.0
 11
-317.6423141906044
 21
125.3232759500813
 31
0.0
  0
LINE
  5
F1
330
1F
100
AcDbEntity
  8
1
  6
Continuous
 62
     7
100
AcDbLine
 10
-317.6423141906044
 20
125.3232759500813
 30
0.0
 11
-317.4123141906043
 21
125.2349872220232
 31
0.0
  0
LINE
  5
F2
330
1F
100
AcDbEntity
  8
1
  6
Continuous
 62
     7
100
AcDbLine
 10
-317.4123141906043
 20
125.2349872220232
 30
0.0
 11
-317.4123141906043
 21
125.0262534684882
 31
0.0
  0
LINE
  5
F3
330
1F
100
AcDbEntity
  8
1
  6
Continuous
 62
     7
100
AcDbLine
 10
-317.4123141906043
 20
125.0262534684882
 30
0.0
 11
-317.6423141906044
 21
125.1145421965464
 31
0.0
  0
LINE
  5
F4
330
1F
100
AcDbEntity
  8
1
  6
Continuous
 62
     7
100
AcDbLine
 10
-317.0715254625462
 20
125.5757759500813
 30
0.0
 11
-317.0569013344117
 21
125.5597743488582
 31
0.0
  0
LINE
  5
F5
330
1F
100
AcDbEntity
  8
1
  6
Continuous
 62
     7
100
AcDbLine
 10
-317.0569013344117
 20
125.5597743488582
 30
0.0
 11
-316.2570704195008
 21
124.9348779514027
 31
0.0
  0
LINE
  5
F6
330
1F
100
AcDbEntity
  8
1
  6
Continuous
 62
     7
100
AcDbLine
 10
-316.2570704195008
 20
124.9348779514027
 30
0.0
 11
-316.8627917090113
 21
125.5757759500813
 31
0.0
  0
LINE
  5
F7
330
1F
100
AcDbEntity
  8
1
  6
Continuous
 62
     7
100
AcDbLine
 10
-317.0715254625462
 20
126.0357759500814
 30
0.0
 11
-317.0569013344117
 21
126.0517775513045
 31
0.0
  0
LINE
  5
F8
330
1F
100
AcDbEntity
  8
1
  6
Continuous
 62
     7
100
AcDbLine
 10
-317.0569013344117
 20
126.0517775513045
 30
0.0
 11
-316.2570704195008
 21
126.67667394876
 31
0.0
  0
LINE
  5
F9
330
1F
100
AcDbEntity
  8
1
  6
Continuous
 62
     7
100
AcDbLine
 10
-316.2570704195008
 20
126.67667394876
 30
0.0
 11
-316.8627917090113
 21
126.0357759500814
 31
0.0
  0
LINE
  5
FA
330
1F
100
AcDbEntity
  8
1
  6
Continuous
 62
     7
100
AcDbLine
 10
-317.4123141906043
 20
126.3765646781395
 30
0.0
 11
-317.3963125893813
 21
126.391188806274
 31
0.0
  0
LINE
  5
FB
330
1F
100
AcDbEntity
  8
1
  6
Continuous
 62
     7
100
AcDbLine
 10
-317.3963125893813
 20
126.391188806274
 30
0.0
 11
-316.7714161919257
 21
127.1910197211848
 31
0.0
  0
LINE
  5
FC
330
1F
100
AcDbEntity
  8
1
  6
Continuous
 62
     7
100
AcDbLine
 10
-316.7714161919257
 20
127.1910197211848
 30
0.0
 11
-317.4123141906043
 21
126.5852984316745
 31
0.0
  0
LINE
  5
FD
330
1F
100
AcDbEntity
  8
1
  6
Continuous
 62
     7
100
AcDbLine
 10
-317.8723141906044
 20
126.3765646781395
 30
0.0
 11
-317.8883157918275
 21
126.391188806274
 31
0.0
  0
LINE
  5
FE
330
1F
100
AcDbEntity
  8
1
  6
Continuous
 62
     7
100
AcDbLine
 10
-317.8883157918275
 20
126.391188806274
 30
0.0
 11
-318.5132121892831
 21
127.1910197211848
 31
0.0
  0
LINE
  5
FF
330
1F
100
AcDbEntity
  8
1
  6
Continuous
 62
     7
100
AcDbLine
 10
-318.5132121892831
 20
127.1910197211848
 30
0.0
 11
-317.8723141906044
 21
126.5852984316745
 31
0.0
  0
LINE
  5
100
330
1F
100
AcDbEntity
  8
1
  6
Continuous
 62
     7
100
AcDbLine
 10
-318.2131029186625
 20
126.0357759500814
 30
0.0
 11
-318.2277270467971
 21
126.0517775513045
 31
0.0
  0
LINE
  5
101
330
1F
100
AcDbEntity
  8
1
  6
Continuous
 62
     7
100
AcDbLine
 10
-318.2277270467971
 20
126.0517775513045
 30
0.0
 11
-319.0275579617079
 21
126.67667394876
 31
0.0
  0
LINE
  5
102
330
1F
100
AcDbEntity
  8
1
  6
Continuous
 62
     7
100
AcDbLine
 10
-319.0275579617079
 20
126.67667394876
 30
0.0
 11
-318.4218366721975
 21
126.0357759500814
 31
0.0
  0
LINE
  5
103
330
1F
100
AcDbEntity
  8
1
  6
Continuous
 62
     7
100
AcDbLine
 10
-318.2131029186625
 20
125.5757759500813
 30
0.0
 11
-318.2277270467971
 21
125.5597743488583
 31
0.0
  0
LINE
  5
104
330
1F
100
AcDbEntity
  8
1
  6
Continuous
 62
     7
100
AcDbLine
 10
-318.2277270467971
 20
125.5597743488583
 30
0.0
 11
-319.0275579617079
 21
124.9348779514027
 31
0.0
  0
LINE
  5
105
330
1F
100
AcDbEntity
  8
1
  6
Continuous
 62
     7
100
AcDbLine
 10
-319.0275579617079
 20
124.9348779514027
 30
0.0
 11
-318.4218366721975
 21
125.5757759500813
 31
0.0
  0
LINE
  5
106
330
1F
100
AcDbEntity
  8
1
  6
Continuous
 62
     7
100
AcDbLine
 10
-317.8723141906044
 20
125.2349872220232
 30
0.0
 11
-317.8883157918275
 21
125.2203630938887
 31
0.0
  0
LINE
  5
107
330
1F
100
AcDbEntity
  8
1
  6
Continuous
 62
     7
100
AcDbLine
 10
-317.8883157918275
 20
125.2203630938887
 30
0.0
 11
-318.5132121892831
 21
124.4205321789779
 31
0.0
  0
LINE
  5
108
330
1F
100
AcDbEntity
  8
1
  6
Continuous
 62
     7
100
AcDbLine
 10
-318.5132121892831
 20
124.4205321789779
 30
0.0
 11
-317.8723141906044
 21
125.0262534684882
 31
0.0
  0
LINE
  5
109
330
1F
100
AcDbEntity
  8
1
  6
Continuous
 62
     7
100
AcDbLine
 10
-317.4123141906043
 20
125.2349872220232
 30
0.0
 11
-317.3963125893813
 21
125.2203630938887
 31
0.0
  0
LINE
  5
10A
330
1F
100
AcDbEntity
  8
1
  6
Continuous
 62
     7
100
AcDbLine
 10
-317.3963125893813
 20
125.2203630938887
 30
0.0
 11
-316.7714161919257
 21
124.4205321789779
 31
0.0
  0
LINE
  5
10B
330
1F
100
AcDbEntity
  8
1
  6
Continuous
 62
     7
100
AcDbLine
 10
-316.7714161919257
 20
124.4205321789779
 30
0.0
 11
-317.4123141906043
 21
125.0262534684882
 31
0.0
  0
LINE
  5
10C
330
1F
100
AcDbEntity
  8
1
  6
Continuous
 62
     7
100
AcDbLine
 10
-283.7429295804992
 20
124.9348779514027
 30
0.0
 11
-283.1372082909888
 21
125.5757759500814
 31
0.0
  0
LINE
  5
10D
330
1F
100
AcDbEntity
  8
1
  6
Continuous
 62
     7
100
AcDbLine
 10
-282.9430986655883
 20
125.5597743488582
 30
0.0
 11
-283.7429295804992
 21
124.9348779514027
 31
0.0
  0
LINE
  5
10E
330
1F
100
AcDbEntity
  8
1
  6
Continuous
 62
     7
100
AcDbLine
 10
-282.9284745374539
 20
125.5757759500814
 30
0.0
 11
-282.9430986655883
 21
125.5597743488582
 31
0.0
  0
LINE
  5
10F
330
1F
100
AcDbEntity
  8
1
  6
Continuous
 62
     7
100
AcDbLine
 10
-283.7429295804992
 20
126.67667394876
 30
0.0
 11
-283.1372082909888
 21
126.0357759500814
 31
0.0
  0
LINE
  5
110
330
1F
100
AcDbEntity
  8
1
  6
Continuous
 62
     7
100
AcDbLine
 10
-282.9430986655883
 20
126.0517775513045
 30
0.0
 11
-283.7429295804992
 21
126.67667394876
 31
0.0
  0
LINE
  5
111
330
1F
100
AcDbEntity
  8
1
  6
Continuous
 62
     7
100
AcDbLine
 10
-282.9284745374539
 20
126.0357759500814
 30
0.0
 11
-282.9430986655883
 21
126.0517775513045
 31
0.0
  0
LINE
  5
112
330
1F
100
AcDbEntity
  8
1
  6
Continuous
 62
     7
100
AcDbLine
 10
-283.2285838080743
 20
127.1910197211849
 30
0.0
 11
-282.5876858093957
 21
126.5852984316745
 31
0.0
  0
LINE
  5
113
330
1F
100
AcDbEntity
  8
1
  6
Continuous
 62
     7
100
AcDbLine
 10
-282.6036874106188
 20
126.391188806274
 30
0.0
 11
-283.2285838080743
 21
127.1910197211849
 31
0.0
  0
LINE
  5
114
330
1F
100
AcDbEntity
  8
1
  6
Continuous
 62
     7
100
AcDbLine
 10
-282.5876858093957
 20
126.3765646781395
 30
0.0
 11
-282.6036874106188
 21
126.391188806274
 31
0.0
  0
LINE
  5
115
330
1F
100
AcDbEntity
  8
1
  6
Continuous
 62
     7
100
AcDbLine
 10
-281.486787810717
 20
127.1910197211849
 30
0.0
 11
-282.1276858093956
 21
126.5852984316745
 31
0.0
  0
LINE
  5
116
330
1F
100
AcDbEntity
  8
1
  6
Continuous
 62
     7
100
AcDbLine
 10
-282.1116842081725
 20
126.391188806274
 30
0.0
 11
-281.486787810717
 21
127.1910197211849
 31
0.0
  0
LINE
  5
117
330
1F
100
AcDbEntity
  8
1
  6
Continuous
 62
     7
100
AcDbLine
 10
-282.1276858093956
 20
126.3765646781395
 30
0.0
 11
-282.1116842081725
 21
126.391188806274
 31
0.0
  0
LINE
  5
118
330
1F
100
AcDbEntity
  8
1
  6
Continuous
 62
     7
100
AcDbLine
 10
-280.9724420382922
 20
126.67667394876
 30
0.0
 11
-281.5781633278026
 21
126.0357759500814
 31
0.0
  0
LINE
  5
119
330
1F
100
AcDbEntity
  8
1
  6
Continuous
 62
     7
100
AcDbLine
 10
-281.772272953203
 20
126.0517775513045
 30
0.0
 11
-280.9724420382922
 21
126.67667394876
 31
0.0
  0
LINE
  5
11A
330
1F
100
AcDbEntity
  8
1
  6
Continuous
 62
     7
100
AcDbLine
 10
-281.7868970813375
 20
126.0357759500814
 30
0.0
 11
-281.772272953203
 21
126.0517775513045
 31
0.0
  0
LINE
  5
11B
330
1F
100
AcDbEntity
  8
1
  6
Continuous
 62
     7
100
AcDbLine
 10
-280.9724420382922
 20
124.9348779514027
 30
0.0
 11
-281.5781633278026
 21
125.5757759500814
 31
0.0
  0
LINE
  5
11C
330
1F
100
AcDbEntity
  8
1
  6
Continuous
 62
     7
100
AcDbLine
 10
-281.772272953203
 20
125.5597743488582
 30
0.0
 11
-280.9724420382922
 21
124.9348779514027
 31
0.0
  0
LINE
  5
11D
330
1F
100
AcDbEntity
  8
1
  6
Continuous
 62
     7
100
AcDbLine
 10
-281.7868970813375
 20
125.5757759500814
 30
0.0
 11
-281.772272953203
 21
125.5597743488582
 31
0.0
  0
LINE
  5
11E
330
1F
100
AcDbEntity
  8
1
  6
Continuous
 62
     7
100
AcDbLine
 10
-281.486787810717
 20
124.4205321789779
 30
0.0
 11
-282.1276858093956
 21
125.0262534684883
 31
0.0
  0
LINE
  5
11F
330
1F
100
AcDbEntity
  8
1
  6
Continuous
 62
     7
100
AcDbLine
 10
-282.1116842081726
 20
125.2203630938887
 30
0.0
 11
-281.486787810717
 21
124.4205321789779
 31
0.0
  0
LINE
  5
120
330
1F
100
AcDbEntity
  8
1
  6
Continuous
 62
     7
100
AcDbLine
 10
-282.1276858093956
 20
125.2349872220232
 30
0.0
 11
-282.1116842081726
 21
125.2203630938887
 31
0.0
  0
LINE
  5
121
330
1F
100
AcDbEntity
  8
1
  6
Continuous
 62
     7
100
AcDbLine
 10
-283.2285838080744
 20
124.4205321789779
 30
0.0
 11
-282.5876858093957
 21
125.0262534684883
 31
0.0
  0
LINE
  5
122
330
1F
100
AcDbEntity
  8
1
  6
Continuous
 62
     7
100
AcDbLine
 10
-282.6036874106188
 20
125.2203630938887
 30
0.0
 11
-283.2285838080744
 21
124.4205321789779
 31
0.0
  0
LINE
  5
123
330
1F
100
AcDbEntity
  8
1
  6
Continuous
 62
     7
100
AcDbLine
 10
-282.5876858093957
 20
125.2349872220232
 30
0.0
 11
-282.6036874106188
 21
125.2203630938887
 31
0.0
  0
LINE
  5
124
330
1F
100
AcDbEntity
  8
1
  6
Continuous
 62
     7
100
AcDbLine
 10
-283.1372082909888
 20
125.5757759500814
 30
0.0
 11
-283.0489195629306
 21
125.8057759500814
 31
0.0
  0
LINE
  5
125
330
1F
100
AcDbEntity
  8
1
  6
Continuous
 62
     7
100
AcDbLine
 10
-282.9284745374539
 20
125.5757759500814
 30
0.0
 11
-283.1372082909888
 21
125.5757759500814
 31
0.0
  0
LINE
  5
126
330
1F
100
AcDbEntity
  8
1
  6
Continuous
 62
     7
100
AcDbLine
 10
-282.8401858093957
 20
125.8057759500814
 30
0.0
 11
-282.9284745374539
 21
125.5757759500814
 31
0.0
  0
LINE
  5
127
330
1F
100
AcDbEntity
  8
1
  6
Continuous
 62
     7
100
AcDbLine
 10
-283.0489195629306
 20
125.8057759500814
 30
0.0
 11
-282.8401858093957
 21
125.8057759500814
 31
0.0
  0
LINE
  5
128
330
1F
100
AcDbEntity
  8
1
  6
Continuous
 62
     7
100
AcDbLine
 10
-283.1372082909888
 20
126.0357759500814
 30
0.0
 11
-283.0489195629306
 21
125.8057759500814
 31
0.0
  0
LINE
  5
129
330
1F
100
AcDbEntity
  8
1
  6
Continuous
 62
     7
100
AcDbLine
 10
-282.9284745374539
 20
126.0357759500814
 30
0.0
 11
-283.1372082909888
 21
126.0357759500814
 31
0.0
  0
LINE
  5
12A
330
1F
100
AcDbEntity
  8
1
  6
Continuous
 62
     7
100
AcDbLine
 10
-282.8401858093957
 20
125.8057759500814
 30
0.0
 11
-282.9284745374539
 21
126.0357759500814
 31
0.0
  0
LINE
  5
12B
330
1F
100
AcDbEntity
  8
1
  6
Continuous
 62
     7
100
AcDbLine
 10
-282.5876858093957
 20
126.5852984316745
 30
0.0
 11
-282.3576858093957
 21
126.4970097036163
 31
0.0
  0
LINE
  5
12C
330
1F
100
AcDbEntity
  8
1
  6
Continuous
 62
     7
100
AcDbLine
 10
-282.5876858093957
 20
126.3765646781395
 30
0.0
 11
-282.5876858093957
 21
126.5852984316745
 31
0.0
  0
LINE
  5
12D
330
1F
100
AcDbEntity
  8
1
  6
Continuous
 62
     7
100
AcDbLine
 10
-282.3576858093957
 20
126.2882759500814
 30
0.0
 11
-282.5876858093957
 21
126.3765646781395
 31
0.0
  0
LINE
  5
12E
330
1F
100
AcDbEntity
  8
1
  6
Continuous
 62
     7
100
AcDbLine
 10
-282.3576858093957
 20
126.4970097036163
 30
0.0
 11
-282.3576858093957
 21
126.2882759500814
 31
0.0
  0
LINE
  5
12F
330
1F
100
AcDbEntity
  8
1
  6
Continuous
 62
     7
100
AcDbLine
 10
-282.1276858093956
 20
126.5852984316745
 30
0.0
 11
-282.3576858093957
 21
126.4970097036163
 31
0.0
  0
LINE
  5
130
330
1F
100
AcDbEntity
  8
1
  6
Continuous
 62
     7
100
AcDbLine
 10
-282.1276858093956
 20
126.3765646781395
 30
0.0
 11
-282.1276858093956
 21
126.5852984316745
 31
0.0
  0
LINE
  5
131
330
1F
100
AcDbEntity
  8
1
  6
Continuous
 62
     7
100
AcDbLine
 10
-282.3576858093957
 20
126.2882759500814
 30
0.0
 11
-282.1276858093956
 21
126.3765646781395
 31
0.0
  0
LINE
  5
132
330
1F
100
AcDbEntity
  8
1
  6
Continuous
 62
     7
100
AcDbLine
 10
-281.5781633278026
 20
126.0357759500814
 30
0.0
 11
-281.6664520558606
 21
125.8057759500814
 31
0.0
  0
LINE
  5
133
330
1F
100
AcDbEntity
  8
1
  6
Continuous
 62
     7
100
AcDbLine
 10
-281.7868970813375
 20
126.0357759500814
 30
0.0
 11
-281.5781633278026
 21
126.0357759500814
 31
0.0
  0
LINE
  5
134
330
1F
100
AcDbEntity
  8
1
  6
Continuous
 62
     7
100
AcDbLine
 10
-281.8751858093957
 20
125.8057759500814
 30
0.0
 11
-281.7868970813375
 21
126.0357759500814
 31
0.0
  0
LINE
  5
135
330
1F
100
AcDbEntity
  8
1
  6
Continuous
 62
     7
100
AcDbLine
 10
-281.6664520558606
 20
125.8057759500814
 30
0.0
 11
-281.8751858093957
 21
125.8057759500814
 31
0.0
  0
LINE
  5
136
330
1F
100
AcDbEntity
  8
1
  6
Continuous
 62
     7
100
AcDbLine
 10
-281.5781633278026
 20
125.5757759500814
 30
0.0
 11
-281.6664520558606
 21
125.8057759500814
 31
0.0
  0
LINE
  5
137
330
1F
100
AcDbEntity
  8
1
  6
Continuous
 62
     7
100
AcDbLine
 10
-281.7868970813375
 20
125.5757759500814
 30
0.0
 11
-281.5781633278026
 21
125.5757759500814
 31
0.0
  0
LINE
  5
138
330
1F
100
AcDbEntity
  8
1
  6
Continuous
 62
     7
100
AcDbLine
 10
-281.8751858093957
 20
125.8057759500814
 30
0.0
 11
-281.7868970813375
 21
125.5757759500814
 31
0.0
  0
LINE
  5
139
330
1F
100
AcDbEntity
  8
1
  6
Continuous
 62
     7
100
AcDbLine
 10
-282.1276858093956
 20
125.0262534684883
 30
0.0
 11
-282.3576858093957
 21
125.1145421965464
 31
0.0
  0
LINE
  5
13A
330
1F
100
AcDbEntity
  8
1
  6
Continuous
 62
     7
100
AcDbLine
 10
-282.1276858093956
 20
125.2349872220232
 30
0.0
 11
-282.1276858093956
 21
125.0262534684883
 31
0.0
  0
LINE
  5
13B
330
1F
100
AcDbEntity
  8
1
  6
Continuous
 62
     7
100
AcDbLine
 10
-282.3576858093957
 20
125.3232759500814
 30
0.0
 11
-282.1276858093956
 21
125.2349872220232
 31
0.0
  0
LINE
  5
13C
330
1F
100
AcDbEntity
  8
1
  6
Continuous
 62
     7
100
AcDbLine
 10
-282.3576858093957
 20
125.1145421965464
 30
0.0
 11
-282.3576858093957
 21
125.3232759500814
 31
0.0
  0
LINE
  5
13D
330
1F
100
AcDbEntity
  8
1
  6
Continuous
 62
     7
100
AcDbLine
 10
-282.5876858093957
 20
125.0262534684883
 30
0.0
 11
-282.3576858093957
 21
125.1145421965464
 31
0.0
  0
LINE
  5
13E
330
1F
100
AcDbEntity
  8
1
  6
Continuous
 62
     7
100
AcDbLine
 10
-282.5876858093957
 20
125.2349872220232
 30
0.0
 11
-282.5876858093957
 21
125.0262534684883
 31
0.0
  0
LINE
  5
13F
330
1F
100
AcDbEntity
  8
1
  6
Continuous
 62
     7
100
AcDbLine
 10
-282.3576858093957
 20
125.3232759500814
 30
0.0
 11
-282.5876858093957
 21
125.2349872220232
 31
0.0
  0
LINE
  5
140
330
1F
100
AcDbEntity
  8
1
  6
Continuous
 62
     2
100
AcDbLine
 10
-181.02680988267
 20
48.3908548605711
 30
0.0
 11
-181.02680988267
 21
32.100003425632
 31
0.0
  0
LINE
  5
141
330
1F
100
AcDbEntity
  8
1
  6
Continuous
 62
     7
100
AcDbLine
 10
1.93318666597503
 20
136.863461759477
 30
0.0
 11
1.93318666597503
 21
136.363461759477
 31
0.0
  0
LINE
  5
142
330
1F
100
AcDbEntity
  8
1
  6
Continuous
 62
     7
100
AcDbLine
 10
-8.56681333402497
 20
136.863461759477
 30
0.0
 11
-8.56681333402497
 21
136.363461759477
 31
0.0
  0
LINE
  5
143
330
1F
100
AcDbEntity
  8
1
  6
Continuous
 62
     7
100
AcDbLine
 10
-7.56681333402497
 20
137.863461759477
 30
0.0
 11
0.93318666597503
 21
137.863461759477
 31
0.0
  0
LINE
  5
144
330
1F
100
AcDbEntity
  8
1
  6
Continuous
 62
     7
100
AcDbLine
 10
22.52544856388175
 20
136.363461759477
 30
0.0
 11
-29.15907523193169
 21
136.363461759477
 31
0.0
  0
LINE
  5
145
330
1F
100
AcDbEntity
  8
1
  6
DASH_CENTER
 62
     3
100
AcDbLine
 10
24.25318666597503
 20
131.733461759477
 30
0.0
 11
16.25318666597503
 21
131.733461759477
 31
0.0
  0
LINE
  5
146
330
1F
100
AcDbEntity
  8
1
  6
DASH_CENTER
 62
     3
100
AcDbLine
 10
20.25318666597502
 20
80.59346175947701
 30
0.0
 11
20.25318666597502
 21
88.59346175947701
 31
0.0
  0
LINE
  5
147
330
1F
100
AcDbEntity
  8
1
  6
DASH_CENTER
 62
     3
100
AcDbLine
 10
-30.88681333402496
 20
84.59346175947701
 30
0.0
 11
-22.88681333402496
 21
84.59346175947701
 31
0.0
  0
LINE
  5
148
330
1F
100
AcDbEntity
  8
1
  6
DASH_CENTER
 62
     3
100
AcDbLine
 10
20.25318666597503
 20
135.733461759477
 30
0.0
 11
20.25318666597503
 21
127.733461759477
 31
0.0
  0
LINE
  5
149
330
1F
100
AcDbEntity
  8
1
  6
DASH_CENTER
 62
     3
100
AcDbLine
 10
24.25318666597502
 20
84.59346175947701
 30
0.0
 11
16.25318666597502
 21
84.59346175947701
 31
0.0
  0
LINE
  5
14A
330
1F
100
AcDbEntity
  8
1
  6
DASH_CENTER
 62
     3
100
AcDbLine
 10
-26.88681333402496
 20
80.59346175947701
 30
0.0
 11
-26.88681333402496
 21
88.59346175947701
 31
0.0
  0
LINE
  5
14B
330
1F
100
AcDbEntity
  8
1
  6
DASH_CENTER
 62
     3
100
AcDbLine
 10
-26.88681333402497
 20
135.733461759477
 30
0.0
 11
-26.88681333402497
 21
127.733461759477
 31
0.0
  0
LINE
  5
14C
330
1F
100
AcDbEntity
  8
1
  6
DASH_CENTER
 62
     3
100
AcDbLine
 10
-30.88681333402497
 20
131.733461759477
 30
0.0
 11
-22.88681333402497
 21
131.733461759477
 31
0.0
  0
LINE
  5
14D
330
1F
100
AcDbEntity
  8
1
  6
Continuous
 62
     7
100
AcDbLine
 10
-294.75
 20
136.863461759477
 30
0.0
 11
-294.75
 21
136.363461759477
 31
0.0
  0
LINE
  5
14E
330
1F
100
AcDbEntity
  8
1
  6
Continuous
 62
     7
100
AcDbLine
 10
-305.25
 20
136.863461759477
 30
0.0
 11
-305.25
 21
136.363461759477
 31
0.0
  0
LINE
  5
14F
330
1F
100
AcDbEntity
  8
1
  6
DASH_CENTER
 62
     3
100
AcDbLine
 10
-272.43
 20
131.733461759477
 30
0.0
 11
-280.43
 21
131.733461759477
 31
0.0
  0
LINE
  5
150
330
1F
100
AcDbEntity
  8
1
  6
DASH_CENTER
 62
     3
100
AcDbLine
 10
-276.43
 20
80.59346175947702
 30
0.0
 11
-276.43
 21
88.59346175947702
 31
0.0
  0
LINE
  5
151
330
1F
100
AcDbEntity
  8
1
  6
DASH_CENTER
 62
     3
100
AcDbLine
 10
-327.57
 20
84.59346175947702
 30
0.0
 11
-319.57
 21
84.59346175947702
 31
0.0
  0
LINE
  5
152
330
1F
100
AcDbEntity
  8
1
  6
DASH_CENTER
 62
     3
100
AcDbLine
 10
-276.43
 20
135.733461759477
 30
0.0
 11
-276.43
 21
127.733461759477
 31
0.0
  0
LINE
  5
153
330
1F
100
AcDbEntity
  8
1
  6
DASH_CENTER
 62
     3
100
AcDbLine
 10
-272.43
 20
84.59346175947702
 30
0.0
 11
-280.43
 21
84.59346175947702
 31
0.0
  0
LINE
  5
154
330
1F
100
AcDbEntity
  8
1
  6
DASH_CENTER
 62
     3
100
AcDbLine
 10
-323.57
 20
80.59346175947702
 30
0.0
 11
-323.57
 21
88.59346175947702
 31
0.0
  0
LINE
  5
155
330
1F
100
AcDbEntity
  8
1
  6
DASH_CENTER
 62
     3
100
AcDbLine
 10
-323.57
 20
135.733461759477
 30
0.0
 11
-323.57
 21
127.733461759477
 31
0.0
  0
LINE
  5
156
330
1F
100
AcDbEntity
  8
1
  6
DASH_CENTER
 62
     3
100
AcDbLine
 10
-327.57
 20
131.733461759477
 30
0.0
 11
-319.57
 21
131.733461759477
 31
0.0
  0
LINE
  5
157
330
1F
100
AcDbEntity
  8
1
  6
Continuous
 62
     7
100
AcDbLine
 10
-81.62377646720701
 20
136.363461759477
 30
0.0
 11
-81.62377646720701
 21
137.363461759477
 31
0.0
  0
LINE
  5
158
330
1F
100
AcDbEntity
  8
1
  6
Continuous
 62
     7
100
AcDbLine
 10
-88.423776467207
 20
136.363461759477
 30
0.0
 11
-88.42377646720699
 21
79.963461759477
 31
0.0
  0
LINE
  5
159
330
1F
100
AcDbEntity
  8
1
  6
DASH_CENTER
 62
     3
100
AcDbLine
 10
-74.72653961333098
 20
108.163461759477
 30
0.0
 11
-203.664143683725
 21
108.163461759477
 31
0.0
  0
LINE
  5
15A
330
1F
100
AcDbEntity
  8
1
  6
DASH_CENTER
 62
     3
100
AcDbLine
 10
-181.600960658861
 20
84.59346175947701
 30
0.0
 11
-175.623009327632
 21
84.59346175947701
 31
0.0
  0
LINE
  5
15B
330
1F
100
AcDbEntity
  8
1
  6
DASHED
 62
     4
100
AcDbLine
 10
-181.023776467207
 20
82.053461759477
 30
0.0
 11
-176.193776467207
 21
82.053461759477
 31
0.0
  0
LINE
  5
15C
330
1F
100
AcDbEntity
  8
1
  6
Continuous
 62
     7
100
AcDbLine
 10
-176.193776467207
 20
107.269815490763
 30
0.0
 11
-176.193776467207
 21
79.963461759477
 31
0.0
  0
LINE
  5
15D
330
1F
100
AcDbEntity
  8
1
  6
DASHED
 62
     4
100
AcDbLine
 10
-181.023776467207
 20
87.13346175947702
 30
0.0
 11
-176.193776467207
 21
87.13346175947702
 31
0.0
  0
LINE
  5
15E
330
1F
100
AcDbEntity
  8
1
  6
DASH_CENTER
 62
     3
100
AcDbLine
 10
-181.692148420308
 20
131.733461759477
 30
0.0
 11
-175.374232416218
 21
131.733461759477
 31
0.0
  0
LINE
  5
15F
330
1F
100
AcDbEntity
  8
1
  6
DASHED
 62
     4
100
AcDbLine
 10
-181.023776467207
 20
129.193461759477
 30
0.0
 11
-176.193776467207
 21
129.193461759477
 31
0.0
  0
LINE
  5
160
330
1F
100
AcDbEntity
  8
1
  6
DASHED
 62
     4
100
AcDbLine
 10
-181.023776467207
 20
134.273461759477
 30
0.0
 11
-176.193776467207
 21
134.273461759477
 31
0.0
  0
LINE
  5
161
330
1F
100
AcDbEntity
  8
1
  6
Continuous
 62
     7
100
AcDbLine
 10
-180.023776467207
 20
82.3195129250502
 30
0.0
 11
-177.193776467207
 21
82.3195129250502
 31
0.0
  0
LINE
  5
162
330
1F
100
AcDbEntity
  8
1
  6
Continuous
 62
     7
100
AcDbLine
 10
-180.023776467207
 20
134.007639731767
 30
0.0
 11
-177.193776467207
 21
134.007639731767
 31
0.0
  0
LINE
  5
163
330
1F
100
AcDbEntity
  8
1
  6
Continuous
 62
     3
100
AcDbLine
 10
-297.6
 20
150.0
 30
0.0
 11
-297.6
 21
137.863461759477
 31
0.0
  0
LINE
  5
164
330
1F
100
AcDbEntity
  8
1
  6
Continuous
 62
     3
100
AcDbLine
 10
-302.4
 20
150.0
 30
0.0
 11
-302.4
 21
137.863461759477
 31
0.0
  0
LINE
  5
165
330
1F
100
AcDbEntity
  8
1
  6
Continuous
 62
     3
100
AcDbLine
 10
-0.91681333402497
 20
150.012859639913
 30
0.0
 11
-0.91681333402497
 21
137.863461759477
 31
0.0
  0
LINE
  5
166
330
1F
100
AcDbEntity
  8
1
  6
Continuous
 62
     3
100
AcDbLine
 10
-5.71681333402497
 20
150.012859639913
 30
0.0
 11
-5.71681333402497
 21
137.863461759477
 31
0.0
  0
LINE
  5
167
330
1F
100
AcDbEntity
  8
1
  6
Continuous
 62
     3
100
AcDbLine
 10
-3.31681333402497
 20
150.012859639913
 30
0.0
 11
-3.31681333402497
 21
137.863461759477
 31
0.0
  0
LINE
  5
168
330
1F
100
AcDbEntity
  8
1
  6
Continuous
 62
     3
100
AcDbLine
 10
-84.223776467207
 20
186.363461759477
 30
0.0
 11
-83.62377646720701
 21
186.363461759477
 31
0.0
  0
LINE
  5
169
330
1F
100
AcDbEntity
  8
1
  6
Continuous
 62
     7
100
AcDbLine
 10
-84.223776467207
 20
195.963461759477
 30
0.0
 11
-84.223776467207
 21
186.363461759477
 31
0.0
  0
LINE
  5
16A
330
1F
100
AcDbEntity
  8
1
  6
Continuous
 62
     7
100
AcDbLine
 10
-87.823776467207
 20
195.963461759477
 30
0.0
 11
-87.823776467207
 21
186.363461759477
 31
0.0
  0
LINE
  5
16B
330
1F
100
AcDbEntity
  8
1
  6
Continuous
 62
     7
100
AcDbLine
 10
-86.62377646720701
 20
195.963461759477
 30
0.0
 11
-86.62377646720701
 21
186.363461759477
 31
0.0
  0
LINE
  5
16C
330
1F
100
AcDbEntity
  8
1
  6
Continuous
 62
     7
100
AcDbLine
 10
-85.42377646720699
 20
195.963461759477
 30
0.0
 11
-85.42377646720699
 21
186.363461759477
 31
0.0
  0
LINE
  5
16D
330
1F
100
AcDbEntity
  8
1
  6
Continuous
 62
     7
100
AcDbLine
 10
-79.42377646720699
 20
134.363461759477
 30
0.0
 11
-79.42377646720699
 21
81.963461759477
 31
0.0
  0
LINE
  5
16E
330
1F
100
AcDbEntity
  8
1
  6
Continuous
 62
     7
100
AcDbLine
 10
-274.1577381020933
 20
136.363461759477
 30
0.0
 11
-325.8422618979068
 21
136.363461759477
 31
0.0
  0
LINE
  5
16F
330
1F
100
AcDbEntity
  8
1
  6
Continuous
 62
     7
100
AcDbLine
 10
-90.42377646720699
 20
137.363461759477
 30
0.0
 11
-90.42377646720699
 21
136.363461759477
 31
0.0
  0
LINE
  5
170
330
1F
100
AcDbEntity
  8
1
  6
Continuous
 62
     7
100
AcDbLine
 10
-200.893776467207
 20
111.338461759477
 30
0.0
 11
-200.893776467207
 21
104.988461759477
 31
0.0
  0
LINE
  5
171
330
1F
100
AcDbEntity
  8
1
  6
DASH_CENTER
 62
     3
100
AcDbLine
 10
-35.82906536376501
 20
108.163461759477
 30
0.0
 11
28.053933121272
 21
108.163461759477
 31
0.0
  0
LINE
  5
172
330
1F
100
AcDbEntity
  8
1
  6
Continuous
 62
     7
100
AcDbLine
 10
24.88318666597502
 20
134.0057236573837
 30
0.0
 11
24.88318666597502
 21
82.32119986157029
 31
0.0
  0
LINE
  5
173
330
1F
100
AcDbEntity
  8
1
  6
Continuous
 62
     7
100
AcDbLine
 10
-31.51681333402496
 20
134.0057236573837
 30
0.0
 11
-31.51681333402496
 21
82.32119986157029
 31
0.0
  0
LINE
  5
174
330
1F
100
AcDbEntity
  8
1
  6
Continuous
 62
     7
100
AcDbLine
 10
-29.15907523193167
 20
79.963461759477
 30
0.0
 11
22.5254485638817
 21
79.963461759477
 31
0.0
  0
LINE
  5
175
330
1F
100
AcDbEntity
  8
1
  6
DASH_CENTER
 62
     3
100
AcDbLine
 10
-300.0
 20
139.003150894417
 30
0.0
 11
-300.0
 21
137.863461759477
 31
0.0
  0
LINE
  5
176
330
1F
100
AcDbEntity
  8
1
  6
DASH_CENTER
 62
     3
100
AcDbLine
 10
-331.370746455297
 20
108.163461759477
 30
0.0
 11
-267.48774797026
 21
108.163461759477
 31
0.0
  0
LINE
  5
177
330
1F
100
AcDbEntity
  8
1
  6
Continuous
 62
     7
100
AcDbLine
 10
-328.2
 20
134.0057236573837
 30
0.0
 11
-328.2
 21
82.32119986157029
 31
0.0
  0
LINE
  5
178
330
1F
100
AcDbEntity
  8
1
  6
Continuous
 62
     7
100
AcDbLine
 10
-271.8
 20
82.32119986157029
 30
0.0
 11
-271.8
 21
134.0057236573837
 31
0.0
  0
LINE
  5
179
330
1F
100
AcDbEntity
  8
1
  6
Continuous
 62
     7
100
AcDbLine
 10
-325.8422618979067
 20
79.963461759477
 30
0.0
 11
-274.1577381020933
 21
79.963461759477
 31
0.0
  0
LINE
  5
17A
330
1F
100
AcDbEntity
  8
1
  6
Continuous
 62
     7
100
AcDbLine
 10
-181.023776467207
 20
136.363461759477
 30
0.0
 11
-81.42377646720699
 21
136.363461759477
 31
0.0
  0
LINE
  5
17B
330
1F
100
AcDbEntity
  8
1
  6
Continuous
 62
     7
100
AcDbLine
 10
-176.193776467207
 20
136.363461759477
 30
0.0
 11
-176.193776467207
 21
108.938961564422
 31
0.0
  0
LINE
  5
17C
330
1F
100
AcDbEntity
  8
1
  6
Continuous
 62
     7
100
AcDbLine
 10
-181.023776467207
 20
79.963461759477
 30
0.0
 11
-81.42377646720699
 21
79.963461759477
 31
0.0
  0
LINE
  5
17D
330
1F
100
AcDbEntity
  8
1
  6
Continuous
 62
     7
100
AcDbLine
 10
-201.593776467207
 20
105.688461759477
 30
0.0
 11
-200.893776467207
 21
104.988461759477
 31
0.0
  0
LINE
  5
17E
330
1F
100
AcDbEntity
  8
1
  6
Continuous
 62
     7
100
AcDbLine
 10
-201.593776467207
 20
110.638461759477
 30
0.0
 11
-200.893776467207
 21
111.338461759477
 31
0.0
  0
LINE
  5
17F
330
1F
100
AcDbEntity
  8
1
  6
Continuous
 62
     7
100
AcDbLine
 10
-201.593776467207
 20
110.638461759477
 30
0.0
 11
-201.593776467207
 21
105.688461759477
 31
0.0
  0
LINE
  5
180
330
1F
100
AcDbEntity
  8
1
  6
Continuous
 62
     7
100
AcDbLine
 10
-200.893776467207
 20
104.988461759477
 30
0.0
 11
-182.543776467207
 21
104.988461759477
 31
0.0
  0
LINE
  5
181
330
1F
100
AcDbEntity
  8
1
  6
Continuous
 62
     7
100
AcDbLine
 10
-200.893776467207
 20
111.338461759477
 30
0.0
 11
-182.543776467207
 21
111.338461759477
 31
0.0
  0
LINE
  5
182
330
1F
100
AcDbEntity
  8
1
  6
Continuous
 62
     7
100
AcDbLine
 10
-182.543776467207
 20
127.213461759477
 30
0.0
 11
-182.543776467207
 21
89.113461759477
 31
0.0
  0
LINE
  5
183
330
1F
100
AcDbEntity
  8
1
  6
Continuous
 62
     7
100
AcDbLine
 10
-181.023776467207
 20
136.363461759477
 30
0.0
 11
-181.023776467207
 21
79.963461759477
 31
0.0
  0
LINE
  5
184
330
1F
100
AcDbEntity
  8
1
  6
Continuous
 62
     7
100
AcDbLine
 10
-182.543776467207
 20
89.113461759477
 30
0.0
 11
-181.023776467207
 21
89.113461759477
 31
0.0
  0
LINE
  5
185
330
1F
100
AcDbEntity
  8
1
  6
Continuous
 62
     7
100
AcDbLine
 10
-182.543776467207
 20
127.213461759477
 30
0.0
 11
-181.023776467207
 21
127.213461759477
 31
0.0
  0
LINE
  5
186
330
1F
100
AcDbEntity
  8
1
  6
Continuous
 62
     3
100
AcDbLine
 10
-301.2
 20
150.298685967598
 30
0.0
 11
-301.2
 21
137.863461759477
 31
0.0
  0
LINE
  5
187
330
1F
100
AcDbEntity
  8
1
  6
Continuous
 62
     3
100
AcDbLine
 10
-298.8
 20
149.755300571353
 30
0.0
 11
-298.8
 21
137.863461759477
 31
0.0
  0
LINE
  5
188
330
1F
100
AcDbEntity
  8
1
  6
Continuous
 62
     7
100
AcDbLine
 10
-304.25
 20
137.863461759477
 30
0.0
 11
-295.75
 21
137.863461759477
 31
0.0
  0
LINE
  5
189
330
1F
100
AcDbEntity
  8
1
  6
Continuous
 62
     3
100
AcDbLine
 10
-4.51681333402497
 20
150.408339908538
 30
0.0
 11
-4.51681333402497
 21
137.863461759477
 31
0.0
  0
LINE
  5
18A
330
1F
100
AcDbEntity
  8
1
  6
Continuous
 62
     3
100
AcDbLine
 10
-2.11681333402497
 20
149.623185444799
 30
0.0
 11
-2.11681333402497
 21
137.863461759477
 31
0.0
  0
LINE
  5
18B
330
1F
100
AcDbEntity
  8
1
  6
Continuous
 62
     3
100
AcDbLine
 10
-88.42377646720699
 20
186.363461759477
 30
0.0
 11
-88.42377646720699
 21
163.863461759477
 31
0.0
  0
LINE
  5
18C
330
1F
100
AcDbEntity
  8
1
  6
Continuous
 62
     3
100
AcDbLine
 10
-87.223776467207
 20
186.363461759477
 30
0.0
 11
-87.223776467207
 21
164.363461759477
 31
0.0
  0
LINE
  5
18D
330
1F
100
AcDbEntity
  8
1
  6
Continuous
 62
     3
100
AcDbLine
 10
-86.02377646720699
 20
186.363461759477
 30
0.0
 11
-86.02377646720699
 21
163.863461759477
 31
0.0
  0
LINE
  5
18E
330
1F
100
AcDbEntity
  8
1
  6
Continuous
 62
     3
100
AcDbLine
 10
-84.823776467207
 20
186.363461759477
 30
0.0
 11
-84.823776467207
 21
163.363461759477
 31
0.0
  0
LINE
  5
18F
330
1F
100
AcDbEntity
  8
1
  6
Continuous
 62
     3
100
AcDbLine
 10
-88.42377646720699
 20
186.363461759477
 30
0.0
 11
-84.223776467207
 21
186.363461759477
 31
0.0
  0
LINE
  5
190
330
1F
100
AcDbEntity
  8
1
  6
Continuous
 62
     3
100
AcDbLine
 10
-83.62377646720701
 20
186.363461759477
 30
0.0
 11
-83.62377646720701
 21
163.863461759477
 31
0.0
  0
LINE
  5
191
330
1F
100
AcDbEntity
  8
1
  6
Continuous
 62
     3
100
AcDbLine
 10
-88.42377646720699
 20
137.863461759477
 30
0.0
 11
-88.42377646720699
 21
161.863461759477
 31
0.0
  0
LINE
  5
192
330
1F
100
AcDbEntity
  8
1
  6
Continuous
 62
     3
100
AcDbLine
 10
-87.223776467207
 20
137.863461759477
 30
0.0
 11
-87.223776467207
 21
162.363461759477
 31
0.0
  0
LINE
  5
193
330
1F
100
AcDbEntity
  8
1
  6
Continuous
 62
     3
100
AcDbLine
 10
-86.02377646720699
 20
137.863461759477
 30
0.0
 11
-86.02377646720699
 21
161.863461759477
 31
0.0
  0
LINE
  5
194
330
1F
100
AcDbEntity
  8
1
  6
Continuous
 62
     3
100
AcDbLine
 10
-84.823776467207
 20
137.863461759477
 30
0.0
 11
-84.823776467207
 21
161.363461759477
 31
0.0
  0
LINE
  5
195
330
1F
100
AcDbEntity
  8
1
  6
Continuous
 62
     3
100
AcDbLine
 10
-83.62377646720701
 20
137.863461759477
 30
0.0
 11
-83.62377646720701
 21
161.863461759477
 31
0.0
  0
LINE
  5
196
330
1F
100
AcDbEntity
  8
1
  6
Continuous
 62
     7
100
AcDbLine
 10
-89.92377646720699
 20
137.863461759477
 30
0.0
 11
-82.12377646720701
 21
137.863461759477
 31
0.0
  0
LINE
  5
197
330
1F
100
AcDbEntity
  8
1
  6
DASH_CENTER
 62
     3
100
AcDbLine
 10
-3.31681333402497
 20
153.473045571717
 30
0.0
 11
-3.31681333402497
 21
75.0595837352692
 31
0.0
  0
LINE
  5
198
330
1F
100
AcDbEntity
  8
1
  6
DASH_CENTER
 62
     3
100
AcDbLine
 10
-300.0
 20
151.685384254617
 30
0.0
 11
-300.0
 21
75.2494702200777
 31
0.0
  0
LINE
  5
199
330
1F
100
AcDbEntity
  8
1
  6
Continuous
 62
     4
100
AcDbLine
 10
-203.2057702568235
 20
32.3155454877698
 30
0.0
 11
-202.073417315647
 21
35.8155454877698
 31
0.0
  0
LINE
  5
19A
330
1F
100
AcDbEntity
  8
1
  6
Continuous
 62
     4
100
AcDbLine
 10
-202.073417315647
 20
35.8155454877698
 30
0.0
 11
-200.9410643744705
 21
32.3155454877698
 31
0.0
  0
LINE
  5
19B
330
1F
100
AcDbEntity
  8
1
  6
Continuous
 62
     4
100
AcDbLine
 10
-202.8969467274117
 20
33.24887882110313
 30
0.0
 11
-201.2498879038823
 21
33.24887882110313
 31
0.0
  0
LINE
  5
19C
330
1F
100
AcDbEntity
  8
1
  6
Continuous
 62
     4
100
AcDbLine
 10
-216.4851820215293
 20
35.8155454877698
 30
0.0
 11
-217.1028290803529
 21
35.58221215443647
 31
0.0
  0
LINE
  5
19D
330
1F
100
AcDbEntity
  8
1
  6
Continuous
 62
     4
100
AcDbLine
 10
-217.1028290803529
 20
35.58221215443647
 30
0.0
 11
-217.4116526097646
 21
34.99887882110313
 31
0.0
  0
LINE
  5
19E
330
1F
100
AcDbEntity
  8
1
  6
Continuous
 62
     4
100
AcDbLine
 10
-217.4116526097646
 20
34.99887882110313
 30
0.0
 11
-217.6175349627058
 21
34.0655454877698
 31
0.0
  0
LINE
  5
19F
330
1F
100
AcDbEntity
  8
1
  6
Continuous
 62
     4
100
AcDbLine
 10
-217.6175349627058
 20
34.0655454877698
 30
0.0
 11
-217.4116526097646
 21
33.13221215443647
 31
0.0
  0
LINE
  5
1A0
330
1F
100
AcDbEntity
  8
1
  6
Continuous
 62
     4
100
AcDbLine
 10
-217.4116526097646
 20
33.13221215443647
 30
0.0
 11
-217.1028290803529
 21
32.54887882110314
 31
0.0
  0
LINE
  5
1A1
330
1F
100
AcDbEntity
  8
1
  6
Continuous
 62
     4
100
AcDbLine
 10
-217.1028290803529
 20
32.54887882110314
 30
0.0
 11
-216.4851820215293
 21
32.3155454877698
 31
0.0
  0
LINE
  5
1A2
330
1F
100
AcDbEntity
  8
1
  6
Continuous
 62
     4
100
AcDbLine
 10
-216.4851820215293
 20
32.3155454877698
 30
0.0
 11
-215.8675349627058
 21
32.54887882110314
 31
0.0
  0
LINE
  5
1A3
330
1F
100
AcDbEntity
  8
1
  6
Continuous
 62
     4
100
AcDbLine
 10
-215.8675349627058
 20
32.54887882110314
 30
0.0
 11
-215.4557702568235
 21
33.13221215443647
 31
0.0
  0
LINE
  5
1A4
330
1F
100
AcDbEntity
  8
1
  6
Continuous
 62
     4
100
AcDbLine
 10
-215.4557702568235
 20
33.13221215443647
 30
0.0
 11
-215.3528290803529
 21
34.0655454877698
 31
0.0
  0
LINE
  5
1A5
330
1F
100
AcDbEntity
  8
1
  6
Continuous
 62
     4
100
AcDbLine
 10
-215.3528290803529
 20
34.0655454877698
 30
0.0
 11
-215.4557702568235
 21
34.99887882110313
 31
0.0
  0
LINE
  5
1A6
330
1F
100
AcDbEntity
  8
1
  6
Continuous
 62
     4
100
AcDbLine
 10
-215.4557702568235
 20
34.99887882110313
 30
0.0
 11
-215.8675349627058
 21
35.58221215443647
 31
0.0
  0
LINE
  5
1A7
330
1F
100
AcDbEntity
  8
1
  6
Continuous
 62
     4
100
AcDbLine
 10
-215.8675349627058
 20
35.58221215443647
 30
0.0
 11
-216.4851820215293
 21
35.8155454877698
 31
0.0
  0
LINE
  5
1A8
330
1F
100
AcDbEntity
  8
1
  6
Continuous
 62
     4
100
AcDbLine
 10
-214.1175349627058
 20
32.89887882110314
 30
0.0
 11
-213.9116526097646
 21
32.66554548776981
 31
0.0
  0
LINE
  5
1A9
330
1F
100
AcDbEntity
  8
1
  6
Continuous
 62
     4
100
AcDbLine
 10
-213.9116526097646
 20
32.66554548776981
 30
0.0
 11
-214.1175349627058
 21
32.43221215443647
 31
0.0
  0
LINE
  5
1AA
330
1F
100
AcDbEntity
  8
1
  6
Continuous
 62
     4
100
AcDbLine
 10
-214.1175349627058
 20
32.43221215443647
 30
0.0
 11
-214.323417315647
 21
32.66554548776981
 31
0.0
  0
LINE
  5
1AB
330
1F
100
AcDbEntity
  8
1
  6
Continuous
 62
     4
100
AcDbLine
 10
-214.323417315647
 20
32.66554548776981
 30
0.0
 11
-214.1175349627058
 21
32.89887882110314
 31
0.0
  0
LINE
  5
1AC
330
1F
100
AcDbEntity
  8
1
  6
Continuous
 62
     4
100
AcDbLine
 10
-214.0145937862352
 20
32.78221215443647
 30
0.0
 11
-214.0145937862352
 21
32.54887882110314
 31
0.0
  0
LINE
  5
1AD
330
1F
100
AcDbEntity
  8
1
  6
Continuous
 62
     4
100
AcDbLine
 10
-214.0145937862352
 20
32.54887882110314
 30
0.0
 11
-214.2204761391764
 21
32.54887882110314
 31
0.0
  0
LINE
  5
1AE
330
1F
100
AcDbEntity
  8
1
  6
Continuous
 62
     4
100
AcDbLine
 10
-214.2204761391764
 20
32.54887882110314
 30
0.0
 11
-214.2204761391764
 21
32.78221215443647
 31
0.0
  0
LINE
  5
1AF
330
1F
100
AcDbEntity
  8
1
  6
Continuous
 62
     4
100
AcDbLine
 10
-214.2204761391764
 20
32.78221215443647
 30
0.0
 11
-214.0145937862352
 21
32.78221215443647
 31
0.0
  0
LINE
  5
1B0
330
1F
100
AcDbEntity
  8
1
  6
Continuous
 62
     4
100
AcDbLine
 10
-214.1175349627058
 20
32.78221215443647
 30
0.0
 11
-214.0145937862352
 21
32.66554548776981
 31
0.0
  0
LINE
  5
1B1
330
1F
100
AcDbEntity
  8
1
  6
Continuous
 62
     4
100
AcDbLine
 10
-214.0145937862352
 20
32.66554548776981
 30
0.0
 11
-214.1175349627058
 21
32.54887882110314
 31
0.0
  0
LINE
  5
1B2
330
1F
100
AcDbEntity
  8
1
  6
Continuous
 62
     4
100
AcDbLine
 10
-214.1175349627058
 20
32.54887882110314
 30
0.0
 11
-214.2204761391764
 21
32.66554548776981
 31
0.0
  0
LINE
  5
1B3
330
1F
100
AcDbEntity
  8
1
  6
Continuous
 62
     4
100
AcDbLine
 10
-214.2204761391764
 20
32.66554548776981
 30
0.0
 11
-214.1175349627058
 21
32.78221215443647
 31
0.0
  0
LINE
  5
1B4
330
1F
100
AcDbEntity
  8
1
  6
Continuous
 62
     4
100
AcDbLine
 10
-211.7498879038823
 20
35.8155454877698
 30
0.0
 11
-212.3675349627058
 21
35.58221215443647
 31
0.0
  0
LINE
  5
1B5
330
1F
100
AcDbEntity
  8
1
  6
Continuous
 62
     4
100
AcDbLine
 10
-212.3675349627058
 20
35.58221215443647
 30
0.0
 11
-212.6763584921176
 21
34.99887882110313
 31
0.0
  0
LINE
  5
1B6
330
1F
100
AcDbEntity
  8
1
  6
Continuous
 62
     4
100
AcDbLine
 10
-212.6763584921176
 20
34.99887882110313
 30
0.0
 11
-212.8822408450588
 21
34.0655454877698
 31
0.0
  0
LINE
  5
1B7
330
1F
100
AcDbEntity
  8
1
  6
Continuous
 62
     4
100
AcDbLine
 10
-212.8822408450588
 20
34.0655454877698
 30
0.0
 11
-212.6763584921176
 21
33.13221215443647
 31
0.0
  0
LINE
  5
1B8
330
1F
100
AcDbEntity
  8
1
  6
Continuous
 62
     4
100
AcDbLine
 10
-212.6763584921176
 20
33.13221215443647
 30
0.0
 11
-212.3675349627058
 21
32.54887882110314
 31
0.0
  0
LINE
  5
1B9
330
1F
100
AcDbEntity
  8
1
  6
Continuous
 62
     4
100
AcDbLine
 10
-212.3675349627058
 20
32.54887882110314
 30
0.0
 11
-211.7498879038823
 21
32.3155454877698
 31
0.0
  0
LINE
  5
1BA
330
1F
100
AcDbEntity
  8
1
  6
Continuous
 62
     4
100
AcDbLine
 10
-211.7498879038823
 20
32.3155454877698
 30
0.0
 11
-211.1322408450588
 21
32.54887882110314
 31
0.0
  0
LINE
  5
1BB
330
1F
100
AcDbEntity
  8
1
  6
Continuous
 62
     4
100
AcDbLine
 10
-211.1322408450588
 20
32.54887882110314
 30
0.0
 11
-210.7204761391764
 21
33.13221215443647
 31
0.0
  0
LINE
  5
1BC
330
1F
100
AcDbEntity
  8
1
  6
Continuous
 62
     4
100
AcDbLine
 10
-210.7204761391764
 20
33.13221215443647
 30
0.0
 11
-210.6175349627058
 21
34.0655454877698
 31
0.0
  0
LINE
  5
1BD
330
1F
100
AcDbEntity
  8
1
  6
Continuous
 62
     4
100
AcDbLine
 10
-210.6175349627058
 20
34.0655454877698
 30
0.0
 11
-210.7204761391764
 21
34.99887882110313
 31
0.0
  0
LINE
  5
1BE
330
1F
100
AcDbEntity
  8
1
  6
Continuous
 62
     4
100
AcDbLine
 10
-210.7204761391764
 20
34.99887882110313
 30
0.0
 11
-211.1322408450588
 21
35.58221215443647
 31
0.0
  0
LINE
  5
1BF
330
1F
100
AcDbEntity
  8
1
  6
Continuous
 62
     4
100
AcDbLine
 10
-211.1322408450588
 20
35.58221215443647
 30
0.0
 11
-211.7498879038823
 21
35.8155454877698
 31
0.0
  0
LINE
  5
1C0
330
1F
100
AcDbEntity
  8
1
  6
Continuous
 62
     4
100
AcDbLine
 10
-209.5881231979999
 20
35.8155454877698
 30
0.0
 11
-207.5292996685882
 21
35.8155454877698
 31
0.0
  0
LINE
  5
1C1
330
1F
100
AcDbEntity
  8
1
  6
Continuous
 62
     4
100
AcDbLine
 10
-207.5292996685882
 20
35.8155454877698
 30
0.0
 11
-208.3528290803529
 21
34.18221215443647
 31
0.0
  0
LINE
  5
1C2
330
1F
100
AcDbEntity
  8
1
  6
Continuous
 62
     4
100
AcDbLine
 10
-208.3528290803529
 20
34.18221215443647
 30
0.0
 11
-208.558711433294
 21
33.13221215443647
 31
0.0
  0
LINE
  5
1C3
330
1F
100
AcDbEntity
  8
1
  6
Continuous
 62
     4
100
AcDbLine
 10
-208.558711433294
 20
33.13221215443647
 30
0.0
 11
-208.558711433294
 21
32.3155454877698
 31
0.0
  0
LINE
  5
1C4
330
1F
100
AcDbEntity
  8
1
  6
Continuous
 62
     4
100
AcDbLine
 10
-225.698417315647
 20
31.4405454877698
 30
0.0
 11
-220.448417315647
 21
31.4405454877698
 31
0.0
  0
LINE
  5
1C5
330
1F
100
AcDbEntity
  8
1
  6
Continuous
 62
     4
100
AcDbLine
 10
-223.073417315647
 20
31.4405454877698
 30
0.0
 11
-223.073417315647
 21
36.6905454877698
 31
0.0
  0
LINE
  5
1C6
330
1F
100
AcDbEntity
  8
1
  6
Continuous
 62
     4
100
AcDbLine
 10
-226.573417315647
 20
30.5655454877698
 30
0.0
 11
-198.573417315647
 21
30.5655454877698
 31
0.0
  0
LINE
  5
1C7
330
1F
100
AcDbEntity
  8
1
  6
Continuous
 62
     4
100
AcDbLine
 10
-219.573417315647
 20
30.5655454877698
 30
0.0
 11
-219.573417315647
 21
37.5655454877698
 31
0.0
  0
LINE
  5
1C8
330
1F
100
AcDbEntity
  8
1
  6
Continuous
 62
     4
100
AcDbLine
 10
-198.573417315647
 20
37.5655454877698
 30
0.0
 11
-226.573417315647
 21
37.5655454877698
 31
0.0
  0
LINE
  5
1C9
330
1F
100
AcDbEntity
  8
1
  6
Continuous
 62
     4
100
AcDbLine
 10
-226.573417315647
 20
37.5655454877698
 30
0.0
 11
-226.573417315647
 21
30.5655454877698
 31
0.0
  0
LINE
  5
1CA
330
1F
100
AcDbEntity
  8
1
  6
Continuous
 62
     4
100
AcDbLine
 10
-198.573417315647
 20
30.5655454877698
 30
0.0
 11
-198.573417315647
 21
37.5655454877698
 31
0.0
  0
LINE
  5
1CB
330
1F
100
AcDbEntity
  8
1
  6
Continuous
 62
     4
100
AcDbLine
 10
-205.573417315647
 20
37.5655454877698
 30
0.0
 11
-205.573417315647
 21
30.5655454877698
 31
0.0
  0
LINE
  5
1CC
330
1F
100
AcDbEntity
  8
1
  6
Continuous
 62
     4
100
AcDbLine
 10
-223.846155176553
 20
175.1808892913466
 30
0.0
 11
-227.346155176553
 21
176.313242232523
 31
0.0
  0
LINE
  5
1CD
330
1F
100
AcDbEntity
  8
1
  6
Continuous
 62
     4
100
AcDbLine
 10
-227.346155176553
 20
176.313242232523
 30
0.0
 11
-223.846155176553
 21
177.4455951736995
 31
0.0
  0
LINE
  5
1CE
330
1F
100
AcDbEntity
  8
1
  6
Continuous
 62
     4
100
AcDbLine
 10
-224.7794885098863
 20
175.4897128207583
 30
0.0
 11
-224.7794885098863
 21
177.1367716442877
 31
0.0
  0
LINE
  5
1CF
330
1F
100
AcDbEntity
  8
1
  6
Continuous
 62
     4
100
AcDbLine
 10
-223.846155176553
 20
161.4468206638956
 30
0.0
 11
-227.236780176553
 21
162.1759873305622
 31
0.0
  0
LINE
  5
1D0
330
1F
100
AcDbEntity
  8
1
  6
Continuous
 62
     4
100
AcDbLine
 10
-226.361780176553
 20
162.0301539972289
 30
0.0
 11
-226.361780176553
 21
161.7384873305622
 31
0.0
  0
LINE
  5
1D1
330
1F
100
AcDbEntity
  8
1
  6
Continuous
 62
     4
100
AcDbLine
 10
-226.361780176553
 20
161.7384873305622
 30
0.0
 11
-226.143030176553
 21
161.4468206638956
 31
0.0
  0
LINE
  5
1D2
330
1F
100
AcDbEntity
  8
1
  6
Continuous
 62
     4
100
AcDbLine
 10
-226.143030176553
 20
161.4468206638956
 30
0.0
 11
-225.596155176553
 21
161.2280706638956
 31
0.0
  0
LINE
  5
1D3
330
1F
100
AcDbEntity
  8
1
  6
Continuous
 62
     4
100
AcDbLine
 10
-225.596155176553
 20
161.2280706638956
 30
0.0
 11
-225.158655176553
 21
161.2280706638956
 31
0.0
  0
LINE
  5
1D4
330
1F
100
AcDbEntity
  8
1
  6
Continuous
 62
     4
100
AcDbLine
 10
-225.158655176553
 20
161.2280706638956
 30
0.0
 11
-224.721155176553
 21
161.3739039972289
 31
0.0
  0
LINE
  5
1D5
330
1F
100
AcDbEntity
  8
1
  6
Continuous
 62
     4
100
AcDbLine
 10
-224.721155176553
 20
161.3739039972289
 30
0.0
 11
-224.611780176553
 21
161.5926539972289
 31
0.0
  0
LINE
  5
1D6
330
1F
100
AcDbEntity
  8
1
  6
Continuous
 62
     4
100
AcDbLine
 10
-224.611780176553
 20
161.5926539972289
 30
0.0
 11
-224.611780176553
 21
161.8843206638956
 31
0.0
  0
LINE
  5
1D7
330
1F
100
AcDbEntity
  8
1
  6
Continuous
 62
     4
100
AcDbLine
 10
-224.611780176553
 20
161.8843206638956
 30
0.0
 11
-224.830530176553
 21
162.1759873305622
 31
0.0
  0
LINE
  5
1D8
330
1F
100
AcDbEntity
  8
1
  6
Continuous
 62
     4
100
AcDbLine
 10
-224.830530176553
 20
162.1759873305622
 30
0.0
 11
-225.377405176553
 21
162.3947373305622
 31
0.0
  0
LINE
  5
1D9
330
1F
100
AcDbEntity
  8
1
  6
Continuous
 62
     4
100
AcDbLine
 10
-225.377405176553
 20
162.3947373305622
 30
0.0
 11
-225.814905176553
 21
162.3947373305622
 31
0.0
  0
LINE
  5
1DA
330
1F
100
AcDbEntity
  8
1
  6
Continuous
 62
     4
100
AcDbLine
 10
-225.814905176553
 20
162.3947373305622
 30
0.0
 11
-226.252405176553
 21
162.2489039972289
 31
0.0
  0
LINE
  5
1DB
330
1F
100
AcDbEntity
  8
1
  6
Continuous
 62
     4
100
AcDbLine
 10
-226.252405176553
 20
162.2489039972289
 30
0.0
 11
-226.361780176553
 21
162.0301539972289
 31
0.0
  0
LINE
  5
1DC
330
1F
100
AcDbEntity
  8
1
  6
Continuous
 62
     4
100
AcDbLine
 10
-227.346155176553
 20
164.1919187031112
 30
0.0
 11
-227.1128218432197
 21
163.7286834089936
 31
0.0
  0
LINE
  5
1DD
330
1F
100
AcDbEntity
  8
1
  6
Continuous
 62
     4
100
AcDbLine
 10
-227.1128218432197
 20
163.7286834089936
 30
0.0
 11
-226.5294885098863
 21
163.4970657619348
 31
0.0
  0
LINE
  5
1DE
330
1F
100
AcDbEntity
  8
1
  6
Continuous
 62
     4
100
AcDbLine
 10
-226.5294885098863
 20
163.4970657619348
 30
0.0
 11
-225.596155176553
 21
163.3426539972289
 31
0.0
  0
LINE
  5
1DF
330
1F
100
AcDbEntity
  8
1
  6
Continuous
 62
     4
100
AcDbLine
 10
-225.596155176553
 20
163.3426539972289
 30
0.0
 11
-224.6628218432197
 21
163.4970657619348
 31
0.0
  0
LINE
  5
1E0
330
1F
100
AcDbEntity
  8
1
  6
Continuous
 62
     4
100
AcDbLine
 10
-224.6628218432197
 20
163.4970657619348
 30
0.0
 11
-224.0794885098863
 21
163.7286834089936
 31
0.0
  0
LINE
  5
1E1
330
1F
100
AcDbEntity
  8
1
  6
Continuous
 62
     4
100
AcDbLine
 10
-224.0794885098863
 20
163.7286834089936
 30
0.0
 11
-223.846155176553
 21
164.1919187031112
 31
0.0
  0
LINE
  5
1E2
330
1F
100
AcDbEntity
  8
1
  6
Continuous
 62
     4
100
AcDbLine
 10
-223.846155176553
 20
164.1919187031112
 30
0.0
 11
-224.0794885098863
 21
164.6551539972289
 31
0.0
  0
LINE
  5
1E3
330
1F
100
AcDbEntity
  8
1
  6
Continuous
 62
     4
100
AcDbLine
 10
-224.0794885098863
 20
164.6551539972289
 30
0.0
 11
-224.6628218432197
 21
164.9639775266407
 31
0.0
  0
LINE
  5
1E4
330
1F
100
AcDbEntity
  8
1
  6
Continuous
 62
     4
100
AcDbLine
 10
-224.6628218432197
 20
164.9639775266407
 30
0.0
 11
-225.596155176553
 21
165.0411834089936
 31
0.0
  0
LINE
  5
1E5
330
1F
100
AcDbEntity
  8
1
  6
Continuous
 62
     4
100
AcDbLine
 10
-225.596155176553
 20
165.0411834089936
 30
0.0
 11
-226.5294885098863
 21
164.9639775266407
 31
0.0
  0
LINE
  5
1E6
330
1F
100
AcDbEntity
  8
1
  6
Continuous
 62
     4
100
AcDbLine
 10
-226.5294885098863
 20
164.9639775266407
 30
0.0
 11
-227.1128218432197
 21
164.6551539972289
 31
0.0
  0
LINE
  5
1E7
330
1F
100
AcDbEntity
  8
1
  6
Continuous
 62
     4
100
AcDbLine
 10
-227.1128218432197
 20
164.6551539972289
 30
0.0
 11
-227.346155176553
 21
164.1919187031112
 31
0.0
  0
LINE
  5
1E8
330
1F
100
AcDbEntity
  8
1
  6
Continuous
 62
     4
100
AcDbLine
 10
-224.4294885098863
 20
165.9676539972289
 30
0.0
 11
-224.196155176553
 21
166.1220657619348
 31
0.0
  0
LINE
  5
1E9
330
1F
100
AcDbEntity
  8
1
  6
Continuous
 62
     4
100
AcDbLine
 10
-224.196155176553
 20
166.1220657619348
 30
0.0
 11
-223.9628218432197
 21
165.9676539972289
 31
0.0
  0
LINE
  5
1EA
330
1F
100
AcDbEntity
  8
1
  6
Continuous
 62
     4
100
AcDbLine
 10
-223.9628218432197
 20
165.9676539972289
 30
0.0
 11
-224.196155176553
 21
165.813242232523
 31
0.0
  0
LINE
  5
1EB
330
1F
100
AcDbEntity
  8
1
  6
Continuous
 62
     4
100
AcDbLine
 10
-224.196155176553
 20
165.813242232523
 30
0.0
 11
-224.4294885098863
 21
165.9676539972289
 31
0.0
  0
LINE
  5
1EC
330
1F
100
AcDbEntity
  8
1
  6
Continuous
 62
     4
100
AcDbLine
 10
-224.3128218432197
 20
166.0448598795818
 30
0.0
 11
-224.0794885098863
 21
166.0448598795818
 31
0.0
  0
LINE
  5
1ED
330
1F
100
AcDbEntity
  8
1
  6
Continuous
 62
     4
100
AcDbLine
 10
-224.0794885098863
 20
166.0448598795818
 30
0.0
 11
-224.0794885098863
 21
165.8904481148759
 31
0.0
  0
LINE
  5
1EE
330
1F
100
AcDbEntity
  8
1
  6
Continuous
 62
     4
100
AcDbLine
 10
-224.0794885098863
 20
165.8904481148759
 30
0.0
 11
-224.3128218432197
 21
165.8904481148759
 31
0.0
  0
LINE
  5
1EF
330
1F
100
AcDbEntity
  8
1
  6
Continuous
 62
     4
100
AcDbLine
 10
-224.3128218432197
 20
165.8904481148759
 30
0.0
 11
-224.3128218432197
 21
166.0448598795818
 31
0.0
  0
LINE
  5
1F0
330
1F
100
AcDbEntity
  8
1
  6
Continuous
 62
     4
100
AcDbLine
 10
-224.3128218432197
 20
165.9676539972289
 30
0.0
 11
-224.196155176553
 21
166.0448598795818
 31
0.0
  0
LINE
  5
1F1
330
1F
100
AcDbEntity
  8
1
  6
Continuous
 62
     4
100
AcDbLine
 10
-224.196155176553
 20
166.0448598795818
 30
0.0
 11
-224.0794885098863
 21
165.9676539972289
 31
0.0
  0
LINE
  5
1F2
330
1F
100
AcDbEntity
  8
1
  6
Continuous
 62
     4
100
AcDbLine
 10
-224.0794885098863
 20
165.9676539972289
 30
0.0
 11
-224.196155176553
 21
165.8904481148759
 31
0.0
  0
LINE
  5
1F3
330
1F
100
AcDbEntity
  8
1
  6
Continuous
 62
     4
100
AcDbLine
 10
-224.196155176553
 20
165.8904481148759
 30
0.0
 11
-224.3128218432197
 21
165.9676539972289
 31
0.0
  0
LINE
  5
1F4
330
1F
100
AcDbEntity
  8
1
  6
Continuous
 62
     4
100
AcDbLine
 10
-227.346155176553
 20
167.7433892913466
 30
0.0
 11
-227.1128218432197
 21
167.2801539972289
 31
0.0
  0
LINE
  5
1F5
330
1F
100
AcDbEntity
  8
1
  6
Continuous
 62
     4
100
AcDbLine
 10
-227.1128218432197
 20
167.2801539972289
 30
0.0
 11
-226.5294885098863
 21
167.0485363501701
 31
0.0
  0
LINE
  5
1F6
330
1F
100
AcDbEntity
  8
1
  6
Continuous
 62
     4
100
AcDbLine
 10
-226.5294885098863
 20
167.0485363501701
 30
0.0
 11
-225.596155176553
 21
166.8941245854642
 31
0.0
  0
LINE
  5
1F7
330
1F
100
AcDbEntity
  8
1
  6
Continuous
 62
     4
100
AcDbLine
 10
-225.596155176553
 20
166.8941245854642
 30
0.0
 11
-224.6628218432197
 21
167.0485363501701
 31
0.0
  0
LINE
  5
1F8
330
1F
100
AcDbEntity
  8
1
  6
Continuous
 62
     4
100
AcDbLine
 10
-224.6628218432197
 20
167.0485363501701
 30
0.0
 11
-224.0794885098863
 21
167.2801539972289
 31
0.0
  0
LINE
  5
1F9
330
1F
100
AcDbEntity
  8
1
  6
Continuous
 62
     4
100
AcDbLine
 10
-224.0794885098863
 20
167.2801539972289
 30
0.0
 11
-223.846155176553
 21
167.7433892913466
 31
0.0
  0
LINE
  5
1FA
330
1F
100
AcDbEntity
  8
1
  6
Continuous
 62
     4
100
AcDbLine
 10
-223.846155176553
 20
167.7433892913466
 30
0.0
 11
-224.0794885098863
 21
168.2066245854642
 31
0.0
  0
LINE
  5
1FB
330
1F
100
AcDbEntity
  8
1
  6
Continuous
 62
     4
100
AcDbLine
 10
-224.0794885098863
 20
168.2066245854642
 30
0.0
 11
-224.6628218432197
 21
168.515448114876
 31
0.0
  0
LINE
  5
1FC
330
1F
100
AcDbEntity
  8
1
  6
Continuous
 62
     4
100
AcDbLine
 10
-224.6628218432197
 20
168.515448114876
 30
0.0
 11
-225.596155176553
 21
168.5926539972289
 31
0.0
  0
LINE
  5
1FD
330
1F
100
AcDbEntity
  8
1
  6
Continuous
 62
     4
100
AcDbLine
 10
-225.596155176553
 20
168.5926539972289
 30
0.0
 11
-226.5294885098863
 21
168.515448114876
 31
0.0
  0
LINE
  5
1FE
330
1F
100
AcDbEntity
  8
1
  6
Continuous
 62
     4
100
AcDbLine
 10
-226.5294885098863
 20
168.515448114876
 30
0.0
 11
-227.1128218432197
 21
168.2066245854642
 31
0.0
  0
LINE
  5
1FF
330
1F
100
AcDbEntity
  8
1
  6
Continuous
 62
     4
100
AcDbLine
 10
-227.1128218432197
 20
168.2066245854642
 30
0.0
 11
-227.346155176553
 21
167.7433892913466
 31
0.0
  0
LINE
  5
200
330
1F
100
AcDbEntity
  8
1
  6
Continuous
 62
     4
100
AcDbLine
 10
-227.346155176553
 20
169.3647128207583
 30
0.0
 11
-227.346155176553
 21
170.9088304678171
 31
0.0
  0
LINE
  5
201
330
1F
100
AcDbEntity
  8
1
  6
Continuous
 62
     4
100
AcDbLine
 10
-227.346155176553
 20
170.9088304678171
 30
0.0
 11
-225.7128218432197
 21
170.2911834089936
 31
0.0
  0
LINE
  5
202
330
1F
100
AcDbEntity
  8
1
  6
Continuous
 62
     4
100
AcDbLine
 10
-225.7128218432197
 20
170.2911834089936
 30
0.0
 11
-224.6628218432197
 21
170.1367716442877
 31
0.0
  0
LINE
  5
203
330
1F
100
AcDbEntity
  8
1
  6
Continuous
 62
     4
100
AcDbLine
 10
-224.6628218432197
 20
170.1367716442877
 30
0.0
 11
-223.846155176553
 21
170.1367716442877
 31
0.0
  0
LINE
  5
204
330
1F
100
AcDbEntity
  8
1
  6
Continuous
 62
     4
100
AcDbLine
 10
-225.946155176553
 20
153.563242232523
 30
0.0
 11
-225.246155176553
 21
153.563242232523
 31
0.0
  0
LINE
  5
205
330
1F
100
AcDbEntity
  8
1
  6
Continuous
 62
     4
100
AcDbLine
 10
-225.246155176553
 20
153.563242232523
 30
0.0
 11
-224.546155176553
 21
153.913242232523
 31
0.0
  0
LINE
  5
206
330
1F
100
AcDbEntity
  8
1
  6
Continuous
 62
     4
100
AcDbLine
 10
-224.546155176553
 20
153.913242232523
 30
0.0
 11
-224.196155176553
 21
154.263242232523
 31
0.0
  0
LINE
  5
207
330
1F
100
AcDbEntity
  8
1
  6
Continuous
 62
     4
100
AcDbLine
 10
-224.196155176553
 20
154.263242232523
 30
0.0
 11
-223.846155176553
 21
154.963242232523
 31
0.0
  0
LINE
  5
208
330
1F
100
AcDbEntity
  8
1
  6
Continuous
 62
     4
100
AcDbLine
 10
-223.846155176553
 20
154.963242232523
 30
0.0
 11
-223.846155176553
 21
155.663242232523
 31
0.0
  0
LINE
  5
209
330
1F
100
AcDbEntity
  8
1
  6
Continuous
 62
     4
100
AcDbLine
 10
-223.846155176553
 20
155.663242232523
 30
0.0
 11
-224.196155176553
 21
156.363242232523
 31
0.0
  0
LINE
  5
20A
330
1F
100
AcDbEntity
  8
1
  6
Continuous
 62
     4
100
AcDbLine
 10
-224.196155176553
 20
156.363242232523
 30
0.0
 11
-224.546155176553
 21
156.713242232523
 31
0.0
  0
LINE
  5
20B
330
1F
100
AcDbEntity
  8
1
  6
Continuous
 62
     4
100
AcDbLine
 10
-224.546155176553
 20
156.713242232523
 30
0.0
 11
-225.246155176553
 21
157.063242232523
 31
0.0
  0
LINE
  5
20C
330
1F
100
AcDbEntity
  8
1
  6
Continuous
 62
     4
100
AcDbLine
 10
-225.246155176553
 20
157.063242232523
 30
0.0
 11
-225.946155176553
 21
157.063242232523
 31
0.0
  0
LINE
  5
20D
330
1F
100
AcDbEntity
  8
1
  6
Continuous
 62
     4
100
AcDbLine
 10
-225.946155176553
 20
157.063242232523
 30
0.0
 11
-226.646155176553
 21
156.713242232523
 31
0.0
  0
LINE
  5
20E
330
1F
100
AcDbEntity
  8
1
  6
Continuous
 62
     4
100
AcDbLine
 10
-226.646155176553
 20
156.713242232523
 30
0.0
 11
-226.996155176553
 21
156.363242232523
 31
0.0
  0
LINE
  5
20F
330
1F
100
AcDbEntity
  8
1
  6
Continuous
 62
     4
100
AcDbLine
 10
-226.996155176553
 20
156.363242232523
 30
0.0
 11
-227.346155176553
 21
155.663242232523
 31
0.0
  0
LINE
  5
210
330
1F
100
AcDbEntity
  8
1
  6
Continuous
 62
     4
100
AcDbLine
 10
-227.346155176553
 20
155.663242232523
 30
0.0
 11
-227.346155176553
 21
154.963242232523
 31
0.0
  0
LINE
  5
211
330
1F
100
AcDbEntity
  8
1
  6
Continuous
 62
     4
100
AcDbLine
 10
-227.346155176553
 20
154.963242232523
 30
0.0
 11
-226.996155176553
 21
154.263242232523
 31
0.0
  0
LINE
  5
212
330
1F
100
AcDbEntity
  8
1
  6
Continuous
 62
     4
100
AcDbLine
 10
-226.996155176553
 20
154.263242232523
 30
0.0
 11
-226.646155176553
 21
153.913242232523
 31
0.0
  0
LINE
  5
213
330
1F
100
AcDbEntity
  8
1
  6
Continuous
 62
     4
100
AcDbLine
 10
-226.646155176553
 20
153.913242232523
 30
0.0
 11
-225.946155176553
 21
153.563242232523
 31
0.0
  0
LINE
  5
214
330
1F
100
AcDbEntity
  8
1
  6
Continuous
 62
     4
100
AcDbLine
 10
-225.946155176553
 20
152.688242232523
 30
0.0
 11
-225.246155176553
 21
152.688242232523
 31
0.0
  0
LINE
  5
215
330
1F
100
AcDbEntity
  8
1
  6
Continuous
 62
     4
100
AcDbLine
 10
-225.246155176553
 20
152.688242232523
 30
0.0
 11
-224.546155176553
 21
152.863242232523
 31
0.0
  0
LINE
  5
216
330
1F
100
AcDbEntity
  8
1
  6
Continuous
 62
     4
100
AcDbLine
 10
-224.546155176553
 20
152.863242232523
 30
0.0
 11
-224.021155176553
 21
153.213242232523
 31
0.0
  0
LINE
  5
217
330
1F
100
AcDbEntity
  8
1
  6
Continuous
 62
     4
100
AcDbLine
 10
-224.021155176553
 20
153.213242232523
 30
0.0
 11
-223.496155176553
 21
153.738242232523
 31
0.0
  0
LINE
  5
218
330
1F
100
AcDbEntity
  8
1
  6
Continuous
 62
     4
100
AcDbLine
 10
-223.496155176553
 20
153.738242232523
 30
0.0
 11
-223.146155176553
 21
154.263242232523
 31
0.0
  0
LINE
  5
219
330
1F
100
AcDbEntity
  8
1
  6
Continuous
 62
     4
100
AcDbLine
 10
-223.146155176553
 20
154.263242232523
 30
0.0
 11
-222.971155176553
 21
154.963242232523
 31
0.0
  0
LINE
  5
21A
330
1F
100
AcDbEntity
  8
1
  6
Continuous
 62
     4
100
AcDbLine
 10
-222.971155176553
 20
154.963242232523
 30
0.0
 11
-222.971155176553
 21
155.663242232523
 31
0.0
  0
LINE
  5
21B
330
1F
100
AcDbEntity
  8
1
  6
Continuous
 62
     4
100
AcDbLine
 10
-222.971155176553
 20
155.663242232523
 30
0.0
 11
-223.146155176553
 21
156.363242232523
 31
0.0
  0
LINE
  5
21C
330
1F
100
AcDbEntity
  8
1
  6
Continuous
 62
     4
100
AcDbLine
 10
-223.146155176553
 20
156.363242232523
 30
0.0
 11
-223.496155176553
 21
156.888242232523
 31
0.0
  0
LINE
  5
21D
330
1F
100
AcDbEntity
  8
1
  6
Continuous
 62
     4
100
AcDbLine
 10
-223.496155176553
 20
156.888242232523
 30
0.0
 11
-224.021155176553
 21
157.413242232523
 31
0.0
  0
LINE
  5
21E
330
1F
100
AcDbEntity
  8
1
  6
Continuous
 62
     4
100
AcDbLine
 10
-224.021155176553
 20
157.413242232523
 30
0.0
 11
-224.546155176553
 21
157.763242232523
 31
0.0
  0
LINE
  5
21F
330
1F
100
AcDbEntity
  8
1
  6
Continuous
 62
     4
100
AcDbLine
 10
-224.546155176553
 20
157.763242232523
 30
0.0
 11
-225.246155176553
 21
157.938242232523
 31
0.0
  0
LINE
  5
220
330
1F
100
AcDbEntity
  8
1
  6
Continuous
 62
     4
100
AcDbLine
 10
-225.246155176553
 20
157.938242232523
 30
0.0
 11
-225.946155176553
 21
157.938242232523
 31
0.0
  0
LINE
  5
221
330
1F
100
AcDbEntity
  8
1
  6
Continuous
 62
     4
100
AcDbLine
 10
-225.946155176553
 20
157.938242232523
 30
0.0
 11
-226.646155176553
 21
157.763242232523
 31
0.0
  0
LINE
  5
222
330
1F
100
AcDbEntity
  8
1
  6
Continuous
 62
     4
100
AcDbLine
 10
-226.646155176553
 20
157.763242232523
 30
0.0
 11
-227.171155176553
 21
157.413242232523
 31
0.0
  0
LINE
  5
223
330
1F
100
AcDbEntity
  8
1
  6
Continuous
 62
     4
100
AcDbLine
 10
-227.171155176553
 20
157.413242232523
 30
0.0
 11
-227.696155176553
 21
156.888242232523
 31
0.0
  0
LINE
  5
224
330
1F
100
AcDbEntity
  8
1
  6
Continuous
 62
     4
100
AcDbLine
 10
-227.696155176553
 20
156.888242232523
 30
0.0
 11
-228.046155176553
 21
156.363242232523
 31
0.0
  0
LINE
  5
225
330
1F
100
AcDbEntity
  8
1
  6
Continuous
 62
     4
100
AcDbLine
 10
-228.046155176553
 20
156.363242232523
 30
0.0
 11
-228.221155176553
 21
155.663242232523
 31
0.0
  0
LINE
  5
226
330
1F
100
AcDbEntity
  8
1
  6
Continuous
 62
     4
100
AcDbLine
 10
-228.221155176553
 20
155.663242232523
 30
0.0
 11
-228.221155176553
 21
154.963242232523
 31
0.0
  0
LINE
  5
227
330
1F
100
AcDbEntity
  8
1
  6
Continuous
 62
     4
100
AcDbLine
 10
-228.221155176553
 20
154.963242232523
 30
0.0
 11
-228.046155176553
 21
154.263242232523
 31
0.0
  0
LINE
  5
228
330
1F
100
AcDbEntity
  8
1
  6
Continuous
 62
     4
100
AcDbLine
 10
-228.046155176553
 20
154.263242232523
 30
0.0
 11
-227.696155176553
 21
153.738242232523
 31
0.0
  0
LINE
  5
229
330
1F
100
AcDbEntity
  8
1
  6
Continuous
 62
     4
100
AcDbLine
 10
-227.696155176553
 20
153.738242232523
 30
0.0
 11
-227.171155176553
 21
153.213242232523
 31
0.0
  0
LINE
  5
22A
330
1F
100
AcDbEntity
  8
1
  6
Continuous
 62
     4
100
AcDbLine
 10
-227.171155176553
 20
153.213242232523
 30
0.0
 11
-226.646155176553
 21
152.863242232523
 31
0.0
  0
LINE
  5
22B
330
1F
100
AcDbEntity
  8
1
  6
Continuous
 62
     4
100
AcDbLine
 10
-226.646155176553
 20
152.863242232523
 30
0.0
 11
-225.946155176553
 21
152.688242232523
 31
0.0
  0
LINE
  5
22C
330
1F
100
AcDbEntity
  8
1
  6
Continuous
 62
     4
100
AcDbLine
 10
-222.096155176553
 20
151.813242232523
 30
0.0
 11
-222.096155176553
 21
179.813242232523
 31
0.0
  0
LINE
  5
22D
330
1F
100
AcDbEntity
  8
1
  6
Continuous
 62
     4
100
AcDbLine
 10
-222.096155176553
 20
158.813242232523
 30
0.0
 11
-229.096155176553
 21
158.813242232523
 31
0.0
  0
LINE
  5
22E
330
1F
100
AcDbEntity
  8
1
  6
Continuous
 62
     4
100
AcDbLine
 10
-229.096155176553
 20
179.813242232523
 30
0.0
 11
-229.096155176553
 21
151.813242232523
 31
0.0
  0
LINE
  5
22F
330
1F
100
AcDbEntity
  8
1
  6
Continuous
 62
     4
100
AcDbLine
 10
-229.096155176553
 20
151.813242232523
 30
0.0
 11
-222.096155176553
 21
151.813242232523
 31
0.0
  0
LINE
  5
230
330
1F
100
AcDbEntity
  8
1
  6
Continuous
 62
     4
100
AcDbLine
 10
-222.096155176553
 20
179.813242232523
 30
0.0
 11
-229.096155176553
 21
179.813242232523
 31
0.0
  0
LINE
  5
231
330
1F
100
AcDbEntity
  8
1
  6
Continuous
 62
     4
100
AcDbLine
 10
-229.096155176553
 20
172.813242232523
 30
0.0
 11
-222.096155176553
 21
172.813242232523
 31
0.0
  0
LINE
  5
232
330
1F
100
AcDbEntity
  8
1
  6
Continuous
 62
     4
100
AcDbLine
 10
-210.7265043534675
 20
133.446702619857
 30
0.0
 11
-209.594151412291
 21
136.946702619857
 31
0.0
  0
LINE
  5
233
330
1F
100
AcDbEntity
  8
1
  6
Continuous
 62
     4
100
AcDbLine
 10
-209.594151412291
 20
136.946702619857
 30
0.0
 11
-208.4617984711146
 21
133.446702619857
 31
0.0
  0
LINE
  5
234
330
1F
100
AcDbEntity
  8
1
  6
Continuous
 62
     4
100
AcDbLine
 10
-210.4176808240557
 20
134.3800359531903
 30
0.0
 11
-208.7706220005263
 21
134.3800359531903
 31
0.0
  0
LINE
  5
235
330
1F
100
AcDbEntity
  8
1
  6
Continuous
 62
     4
100
AcDbLine
 10
-213.094151412291
 20
131.696702619857
 30
0.0
 11
-206.094151412291
 21
131.696702619857
 31
0.0
  0
LINE
  5
236
330
1F
100
AcDbEntity
  8
1
  6
Continuous
 62
     4
100
AcDbLine
 10
-206.094151412291
 20
131.696702619857
 30
0.0
 11
-206.094151412291
 21
138.696702619857
 31
0.0
  0
LINE
  5
237
330
1F
100
AcDbEntity
  8
1
  6
Continuous
 62
     4
100
AcDbLine
 10
-206.094151412291
 20
138.696702619857
 30
0.0
 11
-213.094151412291
 21
138.696702619857
 31
0.0
  0
LINE
  5
238
330
1F
100
AcDbEntity
  8
1
  6
Continuous
 62
     4
100
AcDbLine
 10
-213.094151412291
 20
138.696702619857
 30
0.0
 11
-213.094151412291
 21
131.696702619857
 31
0.0
  0
LINE
  5
239
330
1F
100
AcDbEntity
  8
1
  6
Continuous
 62
     2
100
AcDbLine
 10
-237.6347765571442
 20
74.18204583123858
 30
0.0
 11
-238.0759530277325
 21
74.01537916457191
 31
0.0
  0
LINE
  5
23A
330
1F
100
AcDbEntity
  8
1
  6
Continuous
 62
     2
100
AcDbLine
 10
-238.0759530277325
 20
74.01537916457191
 30
0.0
 11
-238.2965412630266
 21
73.59871249790525
 31
0.0
  0
LINE
  5
23B
330
1F
100
AcDbEntity
  8
1
  6
Continuous
 62
     2
100
AcDbLine
 10
-238.2965412630266
 20
73.59871249790525
 30
0.0
 11
-238.443600086556
 21
72.93204583123858
 31
0.0
  0
LINE
  5
23C
330
1F
100
AcDbEntity
  8
1
  6
Continuous
 62
     2
100
AcDbLine
 10
-238.443600086556
 20
72.93204583123858
 30
0.0
 11
-238.2965412630266
 21
72.26537916457191
 31
0.0
  0
LINE
  5
23D
330
1F
100
AcDbEntity
  8
1
  6
Continuous
 62
     2
100
AcDbLine
 10
-238.2965412630266
 20
72.26537916457191
 30
0.0
 11
-238.0759530277325
 21
71.84871249790525
 31
0.0
  0
LINE
  5
23E
330
1F
100
AcDbEntity
  8
1
  6
Continuous
 62
     2
100
AcDbLine
 10
-238.0759530277325
 20
71.84871249790525
 30
0.0
 11
-237.6347765571442
 21
71.68204583123858
 31
0.0
  0
LINE
  5
23F
330
1F
100
AcDbEntity
  8
1
  6
Continuous
 62
     2
100
AcDbLine
 10
-237.6347765571442
 20
71.68204583123858
 30
0.0
 11
-237.193600086556
 21
71.84871249790525
 31
0.0
  0
LINE
  5
240
330
1F
100
AcDbEntity
  8
1
  6
Continuous
 62
     2
100
AcDbLine
 10
-237.193600086556
 20
71.84871249790525
 30
0.0
 11
-236.8994824394972
 21
72.26537916457191
 31
0.0
  0
LINE
  5
241
330
1F
100
AcDbEntity
  8
1
  6
Continuous
 62
     2
100
AcDbLine
 10
-236.8994824394972
 20
72.26537916457191
 30
0.0
 11
-236.8259530277325
 21
72.93204583123858
 31
0.0
  0
LINE
  5
242
330
1F
100
AcDbEntity
  8
1
  6
Continuous
 62
     2
100
AcDbLine
 10
-236.8259530277325
 20
72.93204583123858
 30
0.0
 11
-236.8994824394972
 21
73.59871249790525
 31
0.0
  0
LINE
  5
243
330
1F
100
AcDbEntity
  8
1
  6
Continuous
 62
     2
100
AcDbLine
 10
-236.8994824394972
 20
73.59871249790525
 30
0.0
 11
-237.193600086556
 21
74.01537916457191
 31
0.0
  0
LINE
  5
244
330
1F
100
AcDbEntity
  8
1
  6
Continuous
 62
     2
100
AcDbLine
 10
-237.193600086556
 20
74.01537916457191
 30
0.0
 11
-237.6347765571442
 21
74.18204583123858
 31
0.0
  0
LINE
  5
245
330
1F
100
AcDbEntity
  8
1
  6
Continuous
 62
     2
100
AcDbLine
 10
-235.943600086556
 20
72.09871249790525
 30
0.0
 11
-235.7965412630266
 21
71.93204583123858
 31
0.0
  0
LINE
  5
246
330
1F
100
AcDbEntity
  8
1
  6
Continuous
 62
     2
100
AcDbLine
 10
-235.7965412630266
 20
71.93204583123858
 30
0.0
 11
-235.943600086556
 21
71.76537916457191
 31
0.0
  0
LINE
  5
247
330
1F
100
AcDbEntity
  8
1
  6
Continuous
 62
     2
100
AcDbLine
 10
-235.943600086556
 20
71.76537916457191
 30
0.0
 11
-236.0906589100854
 21
71.93204583123858
 31
0.0
  0
LINE
  5
248
330
1F
100
AcDbEntity
  8
1
  6
Continuous
 62
     2
100
AcDbLine
 10
-236.0906589100854
 20
71.93204583123858
 30
0.0
 11
-235.943600086556
 21
72.09871249790525
 31
0.0
  0
LINE
  5
249
330
1F
100
AcDbEntity
  8
1
  6
Continuous
 62
     2
100
AcDbLine
 10
-235.8700706747913
 20
72.01537916457191
 30
0.0
 11
-235.8700706747913
 21
71.84871249790525
 31
0.0
  0
LINE
  5
24A
330
1F
100
AcDbEntity
  8
1
  6
Continuous
 62
     2
100
AcDbLine
 10
-235.8700706747913
 20
71.84871249790525
 30
0.0
 11
-236.0171294983207
 21
71.84871249790525
 31
0.0
  0
LINE
  5
24B
330
1F
100
AcDbEntity
  8
1
  6
Continuous
 62
     2
100
AcDbLine
 10
-236.0171294983207
 20
71.84871249790525
 30
0.0
 11
-236.0171294983207
 21
72.01537916457191
 31
0.0
  0
LINE
  5
24C
330
1F
100
AcDbEntity
  8
1
  6
Continuous
 62
     2
100
AcDbLine
 10
-236.0171294983207
 20
72.01537916457191
 30
0.0
 11
-235.8700706747913
 21
72.01537916457191
 31
0.0
  0
LINE
  5
24D
330
1F
100
AcDbEntity
  8
1
  6
Continuous
 62
     2
100
AcDbLine
 10
-235.943600086556
 20
72.01537916457191
 30
0.0
 11
-235.8700706747913
 21
71.93204583123858
 31
0.0
  0
LINE
  5
24E
330
1F
100
AcDbEntity
  8
1
  6
Continuous
 62
     2
100
AcDbLine
 10
-235.8700706747913
 20
71.93204583123858
 30
0.0
 11
-235.943600086556
 21
71.84871249790525
 31
0.0
  0
LINE
  5
24F
330
1F
100
AcDbEntity
  8
1
  6
Continuous
 62
     2
100
AcDbLine
 10
-235.943600086556
 20
71.84871249790525
 30
0.0
 11
-236.0171294983207
 21
71.93204583123858
 31
0.0
  0
LINE
  5
250
330
1F
100
AcDbEntity
  8
1
  6
Continuous
 62
     2
100
AcDbLine
 10
-236.0171294983207
 20
71.93204583123858
 30
0.0
 11
-235.943600086556
 21
72.01537916457191
 31
0.0
  0
LINE
  5
251
330
1F
100
AcDbEntity
  8
1
  6
Continuous
 62
     2
100
AcDbLine
 10
-233.6641883218501
 20
74.18204583123858
 30
0.0
 11
-234.9141883218501
 21
74.18204583123858
 31
0.0
  0
LINE
  5
252
330
1F
100
AcDbEntity
  8
1
  6
Continuous
 62
     2
100
AcDbLine
 10
-234.9141883218501
 20
74.18204583123858
 30
0.0
 11
-234.9877177336148
 21
72.93204583123858
 31
0.0
  0
LINE
  5
253
330
1F
100
AcDbEntity
  8
1
  6
Continuous
 62
     2
100
AcDbLine
 10
-234.9877177336148
 20
72.93204583123858
 30
0.0
 11
-234.6200706747913
 21
73.18204583123858
 31
0.0
  0
LINE
  5
254
330
1F
100
AcDbEntity
  8
1
  6
Continuous
 62
     2
100
AcDbLine
 10
-234.6200706747913
 20
73.18204583123858
 30
0.0
 11
-234.3259530277325
 21
73.26537916457191
 31
0.0
  0
LINE
  5
255
330
1F
100
AcDbEntity
  8
1
  6
Continuous
 62
     2
100
AcDbLine
 10
-234.3259530277325
 20
73.26537916457191
 30
0.0
 11
-234.0318353806736
 21
73.18204583123858
 31
0.0
  0
LINE
  5
256
330
1F
100
AcDbEntity
  8
1
  6
Continuous
 62
     2
100
AcDbLine
 10
-234.0318353806736
 20
73.18204583123858
 30
0.0
 11
-233.8112471453795
 21
73.01537916457191
 31
0.0
  0
LINE
  5
257
330
1F
100
AcDbEntity
  8
1
  6
Continuous
 62
     2
100
AcDbLine
 10
-233.8112471453795
 20
73.01537916457191
 30
0.0
 11
-233.6641883218501
 21
72.84871249790525
 31
0.0
  0
LINE
  5
258
330
1F
100
AcDbEntity
  8
1
  6
Continuous
 62
     2
100
AcDbLine
 10
-233.6641883218501
 20
72.84871249790525
 30
0.0
 11
-233.5906589100854
 21
72.43204583123858
 31
0.0
  0
LINE
  5
259
330
1F
100
AcDbEntity
  8
1
  6
Continuous
 62
     2
100
AcDbLine
 10
-233.5906589100854
 20
72.43204583123858
 30
0.0
 11
-233.6641883218501
 21
72.01537916457191
 31
0.0
  0
LINE
  5
25A
330
1F
100
AcDbEntity
  8
1
  6
Continuous
 62
     2
100
AcDbLine
 10
-233.6641883218501
 20
72.01537916457191
 30
0.0
 11
-233.8112471453795
 21
71.84871249790525
 31
0.0
  0
LINE
  5
25B
330
1F
100
AcDbEntity
  8
1
  6
Continuous
 62
     2
100
AcDbLine
 10
-233.8112471453795
 20
71.84871249790525
 30
0.0
 11
-234.0318353806736
 21
71.68204583123858
 31
0.0
  0
LINE
  5
25C
330
1F
100
AcDbEntity
  8
1
  6
Continuous
 62
     2
100
AcDbLine
 10
-234.0318353806736
 20
71.68204583123858
 30
0.0
 11
-234.5465412630266
 21
71.68204583123858
 31
0.0
  0
LINE
  5
25D
330
1F
100
AcDbEntity
  8
1
  6
Continuous
 62
     2
100
AcDbLine
 10
-234.5465412630266
 20
71.68204583123858
 30
0.0
 11
-234.8406589100854
 21
71.84871249790525
 31
0.0
  0
LINE
  5
25E
330
1F
100
AcDbEntity
  8
1
  6
Continuous
 62
     2
100
AcDbLine
 10
-234.8406589100854
 20
71.84871249790525
 30
0.0
 11
-235.0612471453795
 21
72.01537916457191
 31
0.0
  0
LINE
  5
25F
330
1F
100
AcDbEntity
  8
1
  6
Continuous
 62
     2
100
AcDbLine
 10
-240.1291421868824
 20
72.48143904145458
 30
0.0
 11
-240.1291421868824
 21
73.51268904145458
 31
0.0
  0
LINE
  5
260
330
1F
100
AcDbEntity
  8
1
  6
Continuous
 62
     2
100
AcDbLine
 10
-240.6291421868824
 20
72.99706404145458
 30
0.0
 11
-239.6291421868824
 21
72.99706404145458
 31
0.0
  0
LINE
  5
261
330
1F
100
AcDbEntity
  8
1
  6
Continuous
 62
     2
100
AcDbLine
 10
-240.6291421868824
 20
72.29393904145458
 30
0.0
 11
-239.6291421868824
 21
72.29393904145458
 31
0.0
  0
LINE
  5
262
330
1F
100
AcDbEntity
  8
1
  6
Continuous
 62
     2
100
AcDbLine
 10
-260.4739257983648
 20
74.5817576247308
 30
0.0
 11
-262.3268669748354
 21
71.89842429139746
 31
0.0
  0
LINE
  5
263
330
1F
100
AcDbEntity
  8
1
  6
Continuous
 62
     2
100
AcDbLine
 10
-262.3268669748354
 20
71.89842429139746
 30
0.0
 11
-259.8562787395412
 21
71.89842429139746
 31
0.0
  0
LINE
  5
264
330
1F
100
AcDbEntity
  8
1
  6
Continuous
 62
     2
100
AcDbLine
 10
-260.4739257983648
 20
71.0817576247308
 30
0.0
 11
-260.4739257983648
 21
72.71509095806414
 31
0.0
  0
LINE
  5
265
330
1F
100
AcDbEntity
  8
1
  6
Continuous
 62
     2
100
AcDbLine
 10
-258.8268669748354
 20
72.8317576247308
 30
0.0
 11
-256.9739257983648
 21
72.8317576247308
 31
0.0
  0
LINE
  5
266
330
1F
100
AcDbEntity
  8
1
  6
Continuous
 62
     2
100
AcDbLine
 10
-254.9722918114367
 20
71.0817576247308
 30
0.0
 11
-254.0000695892144
 21
74.4723826247308
 31
0.0
  0
LINE
  5
267
330
1F
100
AcDbEntity
  8
1
  6
Continuous
 62
     2
100
AcDbLine
 10
-254.1945140336589
 20
73.5973826247308
 30
0.0
 11
-254.5834029225478
 21
73.5973826247308
 31
0.0
  0
LINE
  5
268
330
1F
100
AcDbEntity
  8
1
  6
Continuous
 62
     2
100
AcDbLine
 10
-254.5834029225478
 20
73.5973826247308
 30
0.0
 11
-254.9722918114367
 21
73.3786326247308
 31
0.0
  0
LINE
  5
269
330
1F
100
AcDbEntity
  8
1
  6
Continuous
 62
     2
100
AcDbLine
 10
-254.9722918114367
 20
73.3786326247308
 30
0.0
 11
-255.2639584781034
 21
72.8317576247308
 31
0.0
  0
LINE
  5
26A
330
1F
100
AcDbEntity
  8
1
  6
Continuous
 62
     2
100
AcDbLine
 10
-255.2639584781034
 20
72.8317576247308
 30
0.0
 11
-255.2639584781034
 21
72.3942576247308
 31
0.0
  0
LINE
  5
26B
330
1F
100
AcDbEntity
  8
1
  6
Continuous
 62
     2
100
AcDbLine
 10
-255.2639584781034
 20
72.3942576247308
 30
0.0
 11
-255.0695140336589
 21
71.9567576247308
 31
0.0
  0
LINE
  5
26C
330
1F
100
AcDbEntity
  8
1
  6
Continuous
 62
     2
100
AcDbLine
 10
-255.0695140336589
 20
71.9567576247308
 30
0.0
 11
-254.7778473669922
 21
71.8473826247308
 31
0.0
  0
LINE
  5
26D
330
1F
100
AcDbEntity
  8
1
  6
Continuous
 62
     2
100
AcDbLine
 10
-254.7778473669922
 20
71.8473826247308
 30
0.0
 11
-254.3889584781034
 21
71.8473826247308
 31
0.0
  0
LINE
  5
26E
330
1F
100
AcDbEntity
  8
1
  6
Continuous
 62
     2
100
AcDbLine
 10
-254.3889584781034
 20
71.8473826247308
 30
0.0
 11
-254.0000695892144
 21
72.0661326247308
 31
0.0
  0
LINE
  5
26F
330
1F
100
AcDbEntity
  8
1
  6
Continuous
 62
     2
100
AcDbLine
 10
-254.0000695892144
 20
72.0661326247308
 30
0.0
 11
-253.7084029225478
 21
72.6130076247308
 31
0.0
  0
LINE
  5
270
330
1F
100
AcDbEntity
  8
1
  6
Continuous
 62
     2
100
AcDbLine
 10
-253.7084029225478
 20
72.6130076247308
 30
0.0
 11
-253.7084029225478
 21
73.0505076247308
 31
0.0
  0
LINE
  5
271
330
1F
100
AcDbEntity
  8
1
  6
Continuous
 62
     2
100
AcDbLine
 10
-253.7084029225478
 20
73.0505076247308
 30
0.0
 11
-253.9028473669922
 21
73.4880076247308
 31
0.0
  0
LINE
  5
272
330
1F
100
AcDbEntity
  8
1
  6
Continuous
 62
     2
100
AcDbLine
 10
-253.9028473669922
 20
73.4880076247308
 30
0.0
 11
-254.1945140336589
 21
73.5973826247308
 31
0.0
  0
LINE
  5
273
330
1F
100
AcDbEntity
  8
1
  6
Continuous
 62
     2
100
AcDbLine
 10
-250.4886316807177
 20
74.5817576247308
 30
0.0
 11
-252.2386316807177
 21
74.5817576247308
 31
0.0
  0
LINE
  5
274
330
1F
100
AcDbEntity
  8
1
  6
Continuous
 62
     2
100
AcDbLine
 10
-252.2386316807177
 20
74.5817576247308
 30
0.0
 11
-252.3415728571883
 21
72.8317576247308
 31
0.0
  0
LINE
  5
275
330
1F
100
AcDbEntity
  8
1
  6
Continuous
 62
     2
100
AcDbLine
 10
-252.3415728571883
 20
72.8317576247308
 30
0.0
 11
-251.8268669748354
 21
73.18175762473079
 31
0.0
  0
LINE
  5
276
330
1F
100
AcDbEntity
  8
1
  6
Continuous
 62
     2
100
AcDbLine
 10
-251.8268669748354
 20
73.18175762473079
 30
0.0
 11
-251.415102268953
 21
73.29842429139747
 31
0.0
  0
LINE
  5
277
330
1F
100
AcDbEntity
  8
1
  6
Continuous
 62
     2
100
AcDbLine
 10
-251.415102268953
 20
73.29842429139747
 30
0.0
 11
-251.0033375630707
 21
73.18175762473079
 31
0.0
  0
LINE
  5
278
330
1F
100
AcDbEntity
  8
1
  6
Continuous
 62
     2
100
AcDbLine
 10
-251.0033375630707
 20
73.18175762473079
 30
0.0
 11
-250.6945140336589
 21
72.94842429139746
 31
0.0
  0
LINE
  5
279
330
1F
100
AcDbEntity
  8
1
  6
Continuous
 62
     2
100
AcDbLine
 10
-250.6945140336589
 20
72.94842429139746
 30
0.0
 11
-250.4886316807177
 21
72.71509095806414
 31
0.0
  0
LINE
  5
27A
330
1F
100
AcDbEntity
  8
1
  6
Continuous
 62
     2
100
AcDbLine
 10
-250.4886316807177
 20
72.71509095806414
 30
0.0
 11
-250.3856905042471
 21
72.1317576247308
 31
0.0
  0
LINE
  5
27B
330
1F
100
AcDbEntity
  8
1
  6
Continuous
 62
     2
100
AcDbLine
 10
-250.3856905042471
 20
72.1317576247308
 30
0.0
 11
-250.4886316807177
 21
71.54842429139747
 31
0.0
  0
LINE
  5
27C
330
1F
100
AcDbEntity
  8
1
  6
Continuous
 62
     2
100
AcDbLine
 10
-250.4886316807177
 20
71.54842429139747
 30
0.0
 11
-250.6945140336589
 21
71.31509095806413
 31
0.0
  0
LINE
  5
27D
330
1F
100
AcDbEntity
  8
1
  6
Continuous
 62
     2
100
AcDbLine
 10
-250.6945140336589
 20
71.31509095806413
 30
0.0
 11
-251.0033375630707
 21
71.0817576247308
 31
0.0
  0
LINE
  5
27E
330
1F
100
AcDbEntity
  8
1
  6
Continuous
 62
     2
100
AcDbLine
 10
-251.0033375630707
 20
71.0817576247308
 30
0.0
 11
-251.7239257983648
 21
71.0817576247308
 31
0.0
  0
LINE
  5
27F
330
1F
100
AcDbEntity
  8
1
  6
Continuous
 62
     2
100
AcDbLine
 10
-251.7239257983648
 20
71.0817576247308
 30
0.0
 11
-252.1356905042471
 21
71.31509095806413
 31
0.0
  0
LINE
  5
280
330
1F
100
AcDbEntity
  8
1
  6
Continuous
 62
     2
100
AcDbLine
 10
-252.1356905042471
 20
71.31509095806413
 30
0.0
 11
-252.4445140336589
 21
71.54842429139747
 31
0.0
  0
LINE
  5
281
330
1F
100
AcDbEntity
  8
1
  6
Continuous
 62
     2
100
AcDbLine
 10
-249.1503963866001
 20
71.66509095806413
 30
0.0
 11
-248.9445140336589
 21
71.43175762473079
 31
0.0
  0
LINE
  5
282
330
1F
100
AcDbEntity
  8
1
  6
Continuous
 62
     2
100
AcDbLine
 10
-248.9445140336589
 20
71.43175762473079
 30
0.0
 11
-249.1503963866001
 21
71.19842429139746
 31
0.0
  0
LINE
  5
283
330
1F
100
AcDbEntity
  8
1
  6
Continuous
 62
     2
100
AcDbLine
 10
-249.1503963866001
 20
71.19842429139746
 30
0.0
 11
-249.3562787395412
 21
71.43175762473079
 31
0.0
  0
LINE
  5
284
330
1F
100
AcDbEntity
  8
1
  6
Continuous
 62
     2
100
AcDbLine
 10
-249.3562787395412
 20
71.43175762473079
 30
0.0
 11
-249.1503963866001
 21
71.66509095806413
 31
0.0
  0
LINE
  5
285
330
1F
100
AcDbEntity
  8
1
  6
Continuous
 62
     2
100
AcDbLine
 10
-249.0474552101295
 20
71.54842429139747
 30
0.0
 11
-249.0474552101295
 21
71.31509095806413
 31
0.0
  0
LINE
  5
286
330
1F
100
AcDbEntity
  8
1
  6
Continuous
 62
     2
100
AcDbLine
 10
-249.0474552101295
 20
71.31509095806413
 30
0.0
 11
-249.2533375630707
 21
71.31509095806413
 31
0.0
  0
LINE
  5
287
330
1F
100
AcDbEntity
  8
1
  6
Continuous
 62
     2
100
AcDbLine
 10
-249.2533375630707
 20
71.31509095806413
 30
0.0
 11
-249.2533375630707
 21
71.54842429139747
 31
0.0
  0
LINE
  5
288
330
1F
100
AcDbEntity
  8
1
  6
Continuous
 62
     2
100
AcDbLine
 10
-249.2533375630707
 20
71.54842429139747
 30
0.0
 11
-249.0474552101295
 21
71.54842429139747
 31
0.0
  0
LINE
  5
289
330
1F
100
AcDbEntity
  8
1
  6
Continuous
 62
     2
100
AcDbLine
 10
-249.1503963866001
 20
71.54842429139747
 30
0.0
 11
-249.0474552101295
 21
71.43175762473079
 31
0.0
  0
LINE
  5
28A
330
1F
100
AcDbEntity
  8
1
  6
Continuous
 62
     2
100
AcDbLine
 10
-249.0474552101295
 20
71.43175762473079
 30
0.0
 11
-249.1503963866001
 21
71.31509095806413
 31
0.0
  0
LINE
  5
28B
330
1F
100
AcDbEntity
  8
1
  6
Continuous
 62
     2
100
AcDbLine
 10
-249.1503963866001
 20
71.31509095806413
 30
0.0
 11
-249.2533375630707
 21
71.43175762473079
 31
0.0
  0
LINE
  5
28C
330
1F
100
AcDbEntity
  8
1
  6
Continuous
 62
     2
100
AcDbLine
 10
-249.2533375630707
 20
71.43175762473079
 30
0.0
 11
-249.1503963866001
 21
71.54842429139747
 31
0.0
  0
LINE
  5
28D
330
1F
100
AcDbEntity
  8
1
  6
Continuous
 62
     2
100
AcDbLine
 10
-246.7827493277765
 20
74.5817576247308
 30
0.0
 11
-247.4003963866001
 21
74.34842429139746
 31
0.0
  0
LINE
  5
28E
330
1F
100
AcDbEntity
  8
1
  6
Continuous
 62
     2
100
AcDbLine
 10
-247.4003963866001
 20
74.34842429139746
 30
0.0
 11
-247.7092199160118
 21
73.76509095806414
 31
0.0
  0
LINE
  5
28F
330
1F
100
AcDbEntity
  8
1
  6
Continuous
 62
     2
100
AcDbLine
 10
-247.7092199160118
 20
73.76509095806414
 30
0.0
 11
-247.915102268953
 21
72.8317576247308
 31
0.0
  0
LINE
  5
290
330
1F
100
AcDbEntity
  8
1
  6
Continuous
 62
     2
100
AcDbLine
 10
-247.915102268953
 20
72.8317576247308
 30
0.0
 11
-247.7092199160118
 21
71.89842429139746
 31
0.0
  0
LINE
  5
291
330
1F
100
AcDbEntity
  8
1
  6
Continuous
 62
     2
100
AcDbLine
 10
-247.7092199160118
 20
71.89842429139746
 30
0.0
 11
-247.4003963866001
 21
71.31509095806413
 31
0.0
  0
LINE
  5
292
330
1F
100
AcDbEntity
  8
1
  6
Continuous
 62
     2
100
AcDbLine
 10
-247.4003963866001
 20
71.31509095806413
 30
0.0
 11
-246.7827493277765
 21
71.0817576247308
 31
0.0
  0
LINE
  5
293
330
1F
100
AcDbEntity
  8
1
  6
Continuous
 62
     2
100
AcDbLine
 10
-246.7827493277765
 20
71.0817576247308
 30
0.0
 11
-246.165102268953
 21
71.31509095806413
 31
0.0
  0
LINE
  5
294
330
1F
100
AcDbEntity
  8
1
  6
Continuous
 62
     2
100
AcDbLine
 10
-246.165102268953
 20
71.31509095806413
 30
0.0
 11
-245.7533375630707
 21
71.89842429139746
 31
0.0
  0
LINE
  5
295
330
1F
100
AcDbEntity
  8
1
  6
Continuous
 62
     2
100
AcDbLine
 10
-245.7533375630707
 20
71.89842429139746
 30
0.0
 11
-245.6503963866001
 21
72.8317576247308
 31
0.0
  0
LINE
  5
296
330
1F
100
AcDbEntity
  8
1
  6
Continuous
 62
     2
100
AcDbLine
 10
-245.6503963866001
 20
72.8317576247308
 30
0.0
 11
-245.7533375630707
 21
73.76509095806414
 31
0.0
  0
LINE
  5
297
330
1F
100
AcDbEntity
  8
1
  6
Continuous
 62
     2
100
AcDbLine
 10
-245.7533375630707
 20
73.76509095806414
 30
0.0
 11
-246.165102268953
 21
74.34842429139746
 31
0.0
  0
LINE
  5
298
330
1F
100
AcDbEntity
  8
1
  6
Continuous
 62
     2
100
AcDbLine
 10
-246.165102268953
 20
74.34842429139746
 30
0.0
 11
-246.7827493277765
 21
74.5817576247308
 31
0.0
  0
LINE
  5
299
330
1F
100
AcDbEntity
  8
1
  6
Continuous
 62
     2
100
AcDbLine
 10
-243.4886316807177
 20
74.5817576247308
 30
0.0
 11
-244.0033375630707
 21
74.46509095806414
 31
0.0
  0
LINE
  5
29A
330
1F
100
AcDbEntity
  8
1
  6
Continuous
 62
     2
100
AcDbLine
 10
-244.0033375630707
 20
74.46509095806414
 30
0.0
 11
-244.3121610924824
 21
74.11509095806413
 31
0.0
  0
LINE
  5
29B
330
1F
100
AcDbEntity
  8
1
  6
Continuous
 62
     2
100
AcDbLine
 10
-244.3121610924824
 20
74.11509095806413
 30
0.0
 11
-244.415102268953
 21
73.76509095806414
 31
0.0
  0
LINE
  5
29C
330
1F
100
AcDbEntity
  8
1
  6
Continuous
 62
     2
100
AcDbLine
 10
-244.415102268953
 20
73.76509095806414
 30
0.0
 11
-244.3121610924824
 21
73.41509095806413
 31
0.0
  0
LINE
  5
29D
330
1F
100
AcDbEntity
  8
1
  6
Continuous
 62
     2
100
AcDbLine
 10
-244.3121610924824
 20
73.41509095806413
 30
0.0
 11
-244.0033375630707
 21
73.06509095806413
 31
0.0
  0
LINE
  5
29E
330
1F
100
AcDbEntity
  8
1
  6
Continuous
 62
     2
100
AcDbLine
 10
-244.0033375630707
 20
73.06509095806413
 30
0.0
 11
-243.5915728571883
 21
72.94842429139746
 31
0.0
  0
LINE
  5
29F
330
1F
100
AcDbEntity
  8
1
  6
Continuous
 62
     2
100
AcDbLine
 10
-243.5915728571883
 20
72.94842429139746
 30
0.0
 11
-243.2827493277765
 21
72.94842429139746
 31
0.0
  0
LINE
  5
2A0
330
1F
100
AcDbEntity
  8
1
  6
Continuous
 62
     2
100
AcDbLine
 10
-243.2827493277765
 20
72.94842429139746
 30
0.0
 11
-242.8709846218942
 21
72.8317576247308
 31
0.0
  0
LINE
  5
2A1
330
1F
100
AcDbEntity
  8
1
  6
Continuous
 62
     2
100
AcDbLine
 10
-242.8709846218942
 20
72.8317576247308
 30
0.0
 11
-242.4592199160119
 21
72.4817576247308
 31
0.0
  0
LINE
  5
2A2
330
1F
100
AcDbEntity
  8
1
  6
Continuous
 62
     2
100
AcDbLine
 10
-242.4592199160119
 20
72.4817576247308
 30
0.0
 11
-242.2533375630707
 21
72.01509095806414
 31
0.0
  0
LINE
  5
2A3
330
1F
100
AcDbEntity
  8
1
  6
Continuous
 62
     2
100
AcDbLine
 10
-242.2533375630707
 20
72.01509095806414
 30
0.0
 11
-242.4592199160119
 21
71.43175762473079
 31
0.0
  0
LINE
  5
2A4
330
1F
100
AcDbEntity
  8
1
  6
Continuous
 62
     2
100
AcDbLine
 10
-242.4592199160119
 20
71.43175762473079
 30
0.0
 11
-242.8709846218942
 21
71.19842429139746
 31
0.0
  0
LINE
  5
2A5
330
1F
100
AcDbEntity
  8
1
  6
Continuous
 62
     2
100
AcDbLine
 10
-242.8709846218942
 20
71.19842429139746
 30
0.0
 11
-243.4886316807177
 21
71.0817576247308
 31
0.0
  0
LINE
  5
2A6
330
1F
100
AcDbEntity
  8
1
  6
Continuous
 62
     2
100
AcDbLine
 10
-243.4886316807177
 20
71.0817576247308
 30
0.0
 11
-244.1062787395413
 21
71.19842429139746
 31
0.0
  0
LINE
  5
2A7
330
1F
100
AcDbEntity
  8
1
  6
Continuous
 62
     2
100
AcDbLine
 10
-244.1062787395413
 20
71.19842429139746
 30
0.0
 11
-244.415102268953
 21
71.43175762473079
 31
0.0
  0
LINE
  5
2A8
330
1F
100
AcDbEntity
  8
1
  6
Continuous
 62
     2
100
AcDbLine
 10
-244.415102268953
 20
71.43175762473079
 30
0.0
 11
-244.6209846218942
 21
72.01509095806414
 31
0.0
  0
LINE
  5
2A9
330
1F
100
AcDbEntity
  8
1
  6
Continuous
 62
     2
100
AcDbLine
 10
-244.6209846218942
 20
72.01509095806414
 30
0.0
 11
-244.5180434454236
 21
72.4817576247308
 31
0.0
  0
LINE
  5
2AA
330
1F
100
AcDbEntity
  8
1
  6
Continuous
 62
     2
100
AcDbLine
 10
-244.5180434454236
 20
72.4817576247308
 30
0.0
 11
-244.2092199160119
 21
72.71509095806414
 31
0.0
  0
LINE
  5
2AB
330
1F
100
AcDbEntity
  8
1
  6
Continuous
 62
     2
100
AcDbLine
 10
-244.2092199160119
 20
72.71509095806414
 30
0.0
 11
-244.0033375630707
 21
72.8317576247308
 31
0.0
  0
LINE
  5
2AC
330
1F
100
AcDbEntity
  8
1
  6
Continuous
 62
     2
100
AcDbLine
 10
-244.0033375630707
 20
72.8317576247308
 30
0.0
 11
-243.5915728571883
 21
72.94842429139746
 31
0.0
  0
LINE
  5
2AD
330
1F
100
AcDbEntity
  8
1
  6
Continuous
 62
     2
100
AcDbLine
 10
-243.5915728571883
 20
72.94842429139746
 30
0.0
 11
-243.2827493277765
 21
72.94842429139746
 31
0.0
  0
LINE
  5
2AE
330
1F
100
AcDbEntity
  8
1
  6
Continuous
 62
     2
100
AcDbLine
 10
-243.2827493277765
 20
72.94842429139746
 30
0.0
 11
-242.8709846218942
 21
73.06509095806413
 31
0.0
  0
LINE
  5
2AF
330
1F
100
AcDbEntity
  8
1
  6
Continuous
 62
     2
100
AcDbLine
 10
-242.8709846218942
 20
73.06509095806413
 30
0.0
 11
-242.5621610924824
 21
73.41509095806413
 31
0.0
  0
LINE
  5
2B0
330
1F
100
AcDbEntity
  8
1
  6
Continuous
 62
     2
100
AcDbLine
 10
-242.5621610924824
 20
73.41509095806413
 30
0.0
 11
-242.4592199160119
 21
73.76509095806414
 31
0.0
  0
LINE
  5
2B1
330
1F
100
AcDbEntity
  8
1
  6
Continuous
 62
     2
100
AcDbLine
 10
-242.4592199160119
 20
73.76509095806414
 30
0.0
 11
-242.5621610924824
 21
74.11509095806413
 31
0.0
  0
LINE
  5
2B2
330
1F
100
AcDbEntity
  8
1
  6
Continuous
 62
     2
100
AcDbLine
 10
-242.5621610924824
 20
74.11509095806413
 30
0.0
 11
-242.665102268953
 21
74.34842429139746
 31
0.0
  0
LINE
  5
2B3
330
1F
100
AcDbEntity
  8
1
  6
Continuous
 62
     2
100
AcDbLine
 10
-242.665102268953
 20
74.34842429139746
 30
0.0
 11
-242.9739257983648
 21
74.46509095806414
 31
0.0
  0
LINE
  5
2B4
330
1F
100
AcDbEntity
  8
1
  6
Continuous
 62
     2
100
AcDbLine
 10
-242.9739257983648
 20
74.46509095806414
 30
0.0
 11
-243.4886316807177
 21
74.5817576247308
 31
0.0
  0
LINE
  5
2B5
330
1F
100
AcDbEntity
  8
1
  6
Continuous
 62
     2
100
AcDbLine
 10
-119.8760166642881
 20
67.51694044602311
 30
0.0
 11
-119.8760166642881
 21
71.01694044602311
 31
0.0
  0
LINE
  5
2B6
330
1F
100
AcDbEntity
  8
1
  6
Continuous
 62
     2
100
AcDbLine
 10
-119.8760166642881
 20
71.01694044602311
 30
0.0
 11
-117.8171931348763
 21
67.51694044602311
 31
0.0
  0
LINE
  5
2B7
330
1F
100
AcDbEntity
  8
1
  6
Continuous
 62
     2
100
AcDbLine
 10
-117.8171931348763
 20
67.51694044602311
 30
0.0
 11
-117.8171931348763
 21
71.01694044602311
 31
0.0
  0
LINE
  5
2B8
330
1F
100
AcDbEntity
  8
1
  6
Continuous
 62
     2
100
AcDbLine
 10
-116.7877813701705
 20
67.51694044602311
 30
0.0
 11
-115.655428428994
 21
71.01694044602311
 31
0.0
  0
LINE
  5
2B9
330
1F
100
AcDbEntity
  8
1
  6
Continuous
 62
     2
100
AcDbLine
 10
-115.655428428994
 20
71.01694044602311
 30
0.0
 11
-114.5230754878175
 21
67.51694044602311
 31
0.0
  0
LINE
  5
2BA
330
1F
100
AcDbEntity
  8
1
  6
Continuous
 62
     2
100
AcDbLine
 10
-116.4789578407587
 20
68.45027377935645
 30
0.0
 11
-114.8318990172293
 21
68.45027377935645
 31
0.0
  0
LINE
  5
2BB
330
1F
100
AcDbEntity
  8
1
  6
Continuous
 62
     2
100
AcDbLine
 10
-113.4936637231116
 20
67.51694044602311
 30
0.0
 11
-113.4936637231116
 21
71.01694044602311
 31
0.0
  0
LINE
  5
2BC
330
1F
100
AcDbEntity
  8
1
  6
Continuous
 62
     2
100
AcDbLine
 10
-113.4936637231116
 20
71.01694044602311
 30
0.0
 11
-112.155428428994
 21
67.63360711268977
 31
0.0
  0
LINE
  5
2BD
330
1F
100
AcDbEntity
  8
1
  6
Continuous
 62
     2
100
AcDbLine
 10
-112.155428428994
 20
67.63360711268977
 30
0.0
 11
-110.8171931348764
 21
71.01694044602311
 31
0.0
  0
LINE
  5
2BE
330
1F
100
AcDbEntity
  8
1
  6
Continuous
 62
     2
100
AcDbLine
 10
-110.8171931348764
 20
71.01694044602311
 30
0.0
 11
-110.8171931348764
 21
67.51694044602311
 31
0.0
  0
LINE
  5
2BF
330
1F
100
AcDbEntity
  8
1
  6
Continuous
 62
     2
100
AcDbLine
 10
-107.7289578407587
 20
71.01694044602311
 30
0.0
 11
-109.7877813701705
 21
71.01694044602311
 31
0.0
  0
LINE
  5
2C0
330
1F
100
AcDbEntity
  8
1
  6
Continuous
 62
     2
100
AcDbLine
 10
-109.7877813701705
 20
71.01694044602311
 30
0.0
 11
-109.7877813701705
 21
67.51694044602311
 31
0.0
  0
LINE
  5
2C1
330
1F
100
AcDbEntity
  8
1
  6
Continuous
 62
     2
100
AcDbLine
 10
-109.7877813701705
 20
67.51694044602311
 30
0.0
 11
-107.7289578407587
 21
67.51694044602311
 31
0.0
  0
LINE
  5
2C2
330
1F
100
AcDbEntity
  8
1
  6
Continuous
 62
     2
100
AcDbLine
 10
-109.7877813701705
 20
69.38360711268977
 30
0.0
 11
-107.9348401936999
 21
69.38360711268977
 31
0.0
  0
LINE
  5
2C3
330
1F
100
AcDbEntity
  8
1
  6
Continuous
 62
     2
100
AcDbLine
 10
-103.7142519584058
 20
67.51694044602311
 30
0.0
 11
-103.7142519584058
 21
71.01694044602311
 31
0.0
  0
LINE
  5
2C4
330
1F
100
AcDbEntity
  8
1
  6
Continuous
 62
     2
100
AcDbLine
 10
-103.7142519584058
 20
71.01694044602311
 30
0.0
 11
-102.3760166642881
 21
71.01694044602311
 31
0.0
  0
LINE
  5
2C5
330
1F
100
AcDbEntity
  8
1
  6
Continuous
 62
     2
100
AcDbLine
 10
-102.3760166642881
 20
71.01694044602311
 30
0.0
 11
-101.9642519584058
 21
70.78360711268978
 31
0.0
  0
LINE
  5
2C6
330
1F
100
AcDbEntity
  8
1
  6
Continuous
 62
     2
100
AcDbLine
 10
-101.9642519584058
 20
70.78360711268978
 30
0.0
 11
-101.7583696054646
 21
70.43360711268978
 31
0.0
  0
LINE
  5
2C7
330
1F
100
AcDbEntity
  8
1
  6
Continuous
 62
     2
100
AcDbLine
 10
-101.7583696054646
 20
70.43360711268978
 30
0.0
 11
-101.655428428994
 21
70.20027377935645
 31
0.0
  0
LINE
  5
2C8
330
1F
100
AcDbEntity
  8
1
  6
Continuous
 62
     2
100
AcDbLine
 10
-101.655428428994
 20
70.20027377935645
 30
0.0
 11
-101.7583696054646
 21
69.73360711268978
 31
0.0
  0
LINE
  5
2C9
330
1F
100
AcDbEntity
  8
1
  6
Continuous
 62
     2
100
AcDbLine
 10
-101.7583696054646
 20
69.73360711268978
 30
0.0
 11
-101.9642519584058
 21
69.50027377935645
 31
0.0
  0
LINE
  5
2CA
330
1F
100
AcDbEntity
  8
1
  6
Continuous
 62
     2
100
AcDbLine
 10
-101.9642519584058
 20
69.50027377935645
 30
0.0
 11
-102.3760166642881
 21
69.26694044602311
 31
0.0
  0
LINE
  5
2CB
330
1F
100
AcDbEntity
  8
1
  6
Continuous
 62
     2
100
AcDbLine
 10
-102.3760166642881
 20
69.26694044602311
 30
0.0
 11
-103.7142519584058
 21
69.26694044602311
 31
0.0
  0
LINE
  5
2CC
330
1F
100
AcDbEntity
  8
1
  6
Continuous
 62
     2
100
AcDbLine
 10
-100.6260166642881
 20
71.01694044602311
 30
0.0
 11
-100.6260166642881
 21
67.51694044602311
 31
0.0
  0
LINE
  5
2CD
330
1F
100
AcDbEntity
  8
1
  6
Continuous
 62
     2
100
AcDbLine
 10
-100.6260166642881
 20
67.51694044602311
 30
0.0
 11
-98.56719313487633
 21
67.51694044602311
 31
0.0
  0
LINE
  5
2CE
330
1F
100
AcDbEntity
  8
1
  6
Continuous
 62
     2
100
AcDbLine
 10
-97.53778137017045
 20
67.51694044602311
 30
0.0
 11
-96.40542842899399
 21
71.01694044602311
 31
0.0
  0
LINE
  5
2CF
330
1F
100
AcDbEntity
  8
1
  6
Continuous
 62
     2
100
AcDbLine
 10
-96.40542842899399
 20
71.01694044602311
 30
0.0
 11
-95.27307548781751
 21
67.51694044602311
 31
0.0
  0
LINE
  5
2D0
330
1F
100
AcDbEntity
  8
1
  6
Continuous
 62
     2
100
AcDbLine
 10
-97.22895784075868
 20
68.45027377935645
 30
0.0
 11
-95.58189901722928
 21
68.45027377935645
 31
0.0
  0
LINE
  5
2D1
330
1F
100
AcDbEntity
  8
1
  6
Continuous
 62
     2
100
AcDbLine
 10
-94.24366372311162
 20
71.01694044602311
 30
0.0
 11
-91.97895784075868
 21
71.01694044602311
 31
0.0
  0
LINE
  5
2D2
330
1F
100
AcDbEntity
  8
1
  6
Continuous
 62
     2
100
AcDbLine
 10
-93.11131078193516
 20
71.01694044602311
 30
0.0
 11
-93.11131078193516
 21
67.51694044602311
 31
0.0
  0
LINE
  5
2D3
330
1F
100
AcDbEntity
  8
1
  6
Continuous
 62
     2
100
AcDbLine
 10
-88.89072254664103
 20
71.01694044602311
 30
0.0
 11
-90.9495460760528
 21
71.01694044602311
 31
0.0
  0
LINE
  5
2D4
330
1F
100
AcDbEntity
  8
1
  6
Continuous
 62
     2
100
AcDbLine
 10
-90.9495460760528
 20
71.01694044602311
 30
0.0
 11
-90.9495460760528
 21
67.51694044602311
 31
0.0
  0
LINE
  5
2D5
330
1F
100
AcDbEntity
  8
1
  6
Continuous
 62
     2
100
AcDbLine
 10
-90.9495460760528
 20
67.51694044602311
 30
0.0
 11
-88.89072254664103
 21
67.51694044602311
 31
0.0
  0
LINE
  5
2D6
330
1F
100
AcDbEntity
  8
1
  6
Continuous
 62
     2
100
AcDbLine
 10
-90.9495460760528
 20
69.38360711268977
 30
0.0
 11
-89.0966048995822
 21
69.38360711268977
 31
0.0
  0
ARC
  5
2D7
330
1F
100
AcDbEntity
  8
1
  6
Continuous
 62
     7
100
AcDbCircle
 10
-282.3576858093957
 20
90.52114756887266
 30
0.0
 40
0.63499999999997
100
AcDbArc
 50
112.7930708302439
 51
157.2069291697494
  0
ARC
  5
2D8
330
1F
100
AcDbEntity
  8
1
  6
Continuous
 62
     7
100
AcDbCircle
 10
-282.3576858093957
 20
90.52114756887266
 30
0.0
 40
1.636265146448875
100
AcDbArc
 50
122.1574340530757
 51
147.842565946921
  0
ARC
  5
2D9
330
1F
100
AcDbEntity
  8
1
  6
Continuous
 62
     7
100
AcDbCircle
 10
-282.3576858093957
 20
90.52114756887266
 30
0.0
 40
0.6349999999999176
100
AcDbArc
 50
-157.2069291697541
 51
-112.7930708302439
  0
ARC
  5
2DA
330
1F
100
AcDbEntity
  8
1
  6
Continuous
 62
     7
100
AcDbCircle
 10
-282.3576858093957
 20
90.52114756887266
 30
0.0
 40
1.636265146448906
100
AcDbArc
 50
-147.8425659469226
 51
-122.1574340530757
  0
ARC
  5
2DB
330
1F
100
AcDbEntity
  8
1
  6
Continuous
 62
     7
100
AcDbCircle
 10
-282.3576858093957
 20
90.52114756887266
 30
0.0
 40
0.6350000000000141
100
AcDbArc
 50
-67.20692916974663
 51
-22.79307083024666
  0
ARC
  5
2DC
330
1F
100
AcDbEntity
  8
1
  6
Continuous
 62
     7
100
AcDbCircle
 10
-282.3576858093957
 20
90.52114756887266
 30
0.0
 40
1.636265146448966
100
AcDbArc
 50
-57.84256594691927
 51
-32.15743405307799
  0
ARC
  5
2DD
330
1F
100
AcDbEntity
  8
1
  6
Continuous
 62
     7
100
AcDbCircle
 10
-282.3576858093957
 20
90.52114756887266
 30
0.0
 40
0.6350000000000224
100
AcDbArc
 50
22.79307083024193
 51
67.20692916974663
  0
ARC
  5
2DE
330
1F
100
AcDbEntity
  8
1
  6
Continuous
 62
     7
100
AcDbCircle
 10
-282.3576858093957
 20
90.52114756887266
 30
0.0
 40
1.636265146448954
100
AcDbArc
 50
32.15743405307631
 51
57.84256594691927
  0
ARC
  5
2DF
330
1F
100
AcDbEntity
  8
1
  6
Continuous
 62
     7
100
AcDbCircle
 10
-317.6423141906044
 20
90.52114756887262
 30
0.0
 40
1.636265146448924
100
AcDbArc
 50
-57.84256594692069
 51
-32.15743405307566
  0
ARC
  5
2E0
330
1F
100
AcDbEntity
  8
1
  6
Continuous
 62
     7
100
AcDbCircle
 10
-317.6423141906044
 20
90.52114756887262
 30
0.0
 40
0.63499999999997
100
AcDbArc
 50
-67.2069291697561
 51
-22.79307083024193
  0
ARC
  5
2E1
330
1F
100
AcDbEntity
  8
1
  6
Continuous
 62
     7
100
AcDbCircle
 10
-317.6423141906044
 20
90.52114756887262
 30
0.0
 40
1.636265146448913
100
AcDbArc
 50
-147.8425659469222
 51
-122.1574340530793
  0
ARC
  5
2E2
330
1F
100
AcDbEntity
  8
1
  6
Continuous
 62
     7
100
AcDbCircle
 10
-317.6423141906044
 20
90.52114756887262
 30
0.0
 40
0.6349999999999176
100
AcDbArc
 50
-157.2069291697541
 51
-112.7930708302439
  0
ARC
  5
2E3
330
1F
100
AcDbEntity
  8
1
  6
Continuous
 62
     7
100
AcDbCircle
 10
-317.6423141906044
 20
90.52114756887262
 30
0.0
 40
1.636265146448941
100
AcDbArc
 50
122.1574340530766
 51
147.8425659469206
  0
ARC
  5
2E4
330
1F
100
AcDbEntity
  8
1
  6
Continuous
 62
     7
100
AcDbCircle
 10
-317.6423141906044
 20
90.52114756887262
 30
0.0
 40
0.6350000000000224
100
AcDbArc
 50
112.7930708302419
 51
157.2069291697494
  0
ARC
  5
2E5
330
1F
100
AcDbEntity
  8
1
  6
Continuous
 62
     7
100
AcDbCircle
 10
-317.6423141906044
 20
90.52114756887262
 30
0.0
 40
1.636265146449039
100
AcDbArc
 50
32.15743405307735
 51
57.84256594692175
  0
ARC
  5
2E6
330
1F
100
AcDbEntity
  8
1
  6
Continuous
 62
     7
100
AcDbCircle
 10
-317.6423141906044
 20
90.52114756887262
 30
0.0
 40
0.6350000000000445
100
AcDbArc
 50
22.79307083024666
 51
67.20692916974862
  0
ARC
  5
2E7
330
1F
100
AcDbEntity
  8
1
  6
Continuous
 62
     7
100
AcDbCircle
 10
-317.6423141906044
 20
125.8057759500814
 30
0.0
 40
0.6350000000000224
100
AcDbArc
 50
-67.20692916975807
 51
-22.7930708302502
  0
ARC
  5
2E8
330
1F
100
AcDbEntity
  8
1
  6
Continuous
 62
     7
100
AcDbCircle
 10
-317.6423141906044
 20
125.8057759500814
 30
0.0
 40
1.636265146448948
100
AcDbArc
 50
-57.84256594692122
 51
-32.15743405307735
  0
ARC
  5
2E9
330
1F
100
AcDbEntity
  8
1
  6
Continuous
 62
     7
100
AcDbCircle
 10
-317.6423141906044
 20
125.8057759500814
 30
0.0
 40
0.6350000000000224
100
AcDbArc
 50
22.79307083024193
 51
67.2069291697546
  0
ARC
  5
2EA
330
1F
100
AcDbEntity
  8
1
  6
Continuous
 62
     7
100
AcDbCircle
 10
-317.6423141906044
 20
125.8057759500814
 30
0.0
 40
1.636265146448987
100
AcDbArc
 50
32.1574340530744
 51
57.84256594691936
  0
ARC
  5
2EB
330
1F
100
AcDbEntity
  8
1
  6
Continuous
 62
     7
100
AcDbCircle
 10
-317.6423141906044
 20
125.8057759500814
 30
0.0
 40
0.6349999999999307
100
AcDbArc
 50
112.7930708302454
 51
157.2069291697581
  0
ARC
  5
2EC
330
1F
100
AcDbEntity
  8
1
  6
Continuous
 62
     7
100
AcDbCircle
 10
-317.6423141906044
 20
125.8057759500814
 30
0.0
 40
1.636265146448864
100
AcDbArc
 50
122.1574340530806
 51
147.8425659469235
  0
ARC
  5
2ED
330
1F
100
AcDbEntity
  8
1
  6
Continuous
 62
     7
100
AcDbCircle
 10
-317.6423141906044
 20
125.8057759500814
 30
0.0
 40
0.6350000000000224
100
AcDbArc
 50
-157.2069291697581
 51
-112.7930708302419
  0
ARC
  5
2EE
330
1F
100
AcDbEntity
  8
1
  6
Continuous
 62
     7
100
AcDbCircle
 10
-317.6423141906044
 20
125.8057759500814
 30
0.0
 40
1.636265146448943
100
AcDbArc
 50
-147.8425659469206
 51
-122.1574340530788
  0
ARC
  5
2EF
330
1F
100
AcDbEntity
  8
1
  6
Continuous
 62
     7
100
AcDbCircle
 10
-282.3576858093957
 20
125.8057759500814
 30
0.0
 40
1.636265146448887
100
AcDbArc
 50
122.1574340530754
 51
147.8425659469235
  0
ARC
  5
2F0
330
1F
100
AcDbEntity
  8
1
  6
Continuous
 62
     7
100
AcDbCircle
 10
-282.3576858093957
 20
125.8057759500814
 30
0.0
 40
0.6349999999999307
100
AcDbArc
 50
112.7930708302454
 51
157.2069291697541
  0
ARC
  5
2F1
330
1F
100
AcDbEntity
  8
1
  6
Continuous
 62
     7
100
AcDbCircle
 10
-282.3576858093957
 20
125.8057759500814
 30
0.0
 40
1.636265146448939
100
AcDbArc
 50
32.15743405307546
 51
57.84256594691954
  0
ARC
  5
2F2
330
1F
100
AcDbEntity
  8
1
  6
Continuous
 62
     7
100
AcDbCircle
 10
-282.3576858093957
 20
125.8057759500814
 30
0.0
 40
0.6350000000000224
100
AcDbArc
 50
22.79307083024193
 51
67.20692916974515
  0
ARC
  5
2F3
330
1F
100
AcDbEntity
  8
1
  6
Continuous
 62
     7
100
AcDbCircle
 10
-282.3576858093957
 20
125.8057759500814
 30
0.0
 40
1.636265146448978
100
AcDbArc
 50
-57.84256594691954
 51
-32.15743405307841
  0
ARC
  5
2F4
330
1F
100
AcDbEntity
  8
1
  6
Continuous
 62
     7
100
AcDbCircle
 10
-282.3576858093957
 20
125.8057759500814
 30
0.0
 40
0.6350000000000224
100
AcDbArc
 50
-67.20692916975807
 51
-22.7930708302502
  0
ARC
  5
2F5
330
1F
100
AcDbEntity
  8
1
  6
Continuous
 62
     7
100
AcDbCircle
 10
-282.3576858093957
 20
125.8057759500814
 30
0.0
 40
1.636265146448943
100
AcDbArc
 50
-147.8425659469206
 51
-122.1574340530788
  0
ARC
  5
2F6
330
1F
100
AcDbEntity
  8
1
  6
Continuous
 62
     7
100
AcDbCircle
 10
-282.3576858093957
 20
125.8057759500814
 30
0.0
 40
0.6349999999999562
100
AcDbArc
 50
-157.2069291697458
 51
-112.7930708302419
  0
ARC
  5
2F7
330
1F
100
AcDbEntity
  8
1
  6
Continuous
 62
     7
100
AcDbCircle
 10
-3.31681333402497
 20
108.163461759477
 30
0.0
 40
38.24999999999999
100
AcDbArc
 50
42.50190263102687
 51
47.4980973689731
  0
ARC
  5
2F8
330
1F
100
AcDbEntity
  8
1
  6
Continuous
 62
     7
100
AcDbCircle
 10
-3.31681333402497
 20
108.163461759477
 30
0.0
 40
38.25
100
AcDbArc
 50
-137.4980973689731
 51
-132.5019026310269
  0
ARC
  5
2F9
330
1F
100
AcDbEntity
  8
1
  6
Continuous
 62
     7
100
AcDbCircle
 10
-3.31681333402497
 20
108.163461759477
 30
0.0
 40
38.24999999999999
100
AcDbArc
 50
-47.49809736897317
 51
-42.50190263102689
  0
ARC
  5
2FA
330
1F
100
AcDbEntity
  8
1
  6
Continuous
 62
     7
100
AcDbCircle
 10
-3.31681333402497
 20
108.163461759477
 30
0.0
 40
38.25000000000001
100
AcDbArc
 50
132.5019026310269
 51
137.4980973689731
  0
ARC
  5
2FB
330
1F
100
AcDbEntity
  8
1
  6
Continuous
 62
     7
100
AcDbCircle
 10
-300.0
 20
108.163461759477
 30
0.0
 40
38.25000000000005
100
AcDbArc
 50
132.501902631027
 51
137.4980973689731
  0
ARC
  5
2FC
330
1F
100
AcDbEntity
  8
1
  6
Continuous
 62
     7
100
AcDbCircle
 10
-300.0
 20
108.163461759477
 30
0.0
 40
38.25000000000002
100
AcDbArc
 50
-47.49809736897311
 51
-42.50190263102689
  0
ARC
  5
2FD
330
1F
100
AcDbEntity
  8
1
  6
Continuous
 62
     7
100
AcDbCircle
 10
-300.0
 20
108.163461759477
 30
0.0
 40
38.25
100
AcDbArc
 50
-137.4980973689731
 51
-132.5019026310269
  0
ARC
  5
2FE
330
1F
100
AcDbEntity
  8
1
  6
Continuous
 62
     7
100
AcDbCircle
 10
-300.0
 20
108.163461759477
 30
0.0
 40
38.24999999999999
100
AcDbArc
 50
42.50190263102688
 51
47.49809736897309
  0
ARC
  5
2FF
330
1F
100
AcDbEntity
  8
1
  6
Continuous
 62
     3
100
AcDbCircle
 10
-301.2
 20
147.7387844771837
 30
0.0
 40
2.55990149041429
100
AcDbArc
 50
62.04564308366364
 51
117.9543569163364
  0
ARC
  5
300
330
1F
100
AcDbEntity
  8
1
  6
Continuous
 62
     3
100
AcDbCircle
 10
-298.8
 20
152.8200355784457
 30
0.0
 40
3.064735007092706
100
AcDbArc
 50
-113.051040475307
 51
-66.94895952469298
  0
ARC
  5
301
330
1F
100
AcDbEntity
  8
1
  6
Continuous
 62
     3
100
AcDbCircle
 10
-4.51681333402497
 20
148.390028541928
 30
0.0
 40
2.018311366610018
100
AcDbArc
 50
53.51898256997632
 51
126.4810174300237
  0
ARC
  5
302
330
1F
100
AcDbEntity
  8
1
  6
Continuous
 62
     3
100
AcDbCircle
 10
-2.11681333402497
 20
151.6657199496461
 30
0.0
 40
2.042534504847114
100
AcDbArc
 50
-125.9801811587342
 51
-54.01981884126567
  0
ARC
  5
303
330
1F
100
AcDbEntity
  8
1
  6
Continuous
 62
     3
100
AcDbCircle
 10
-87.223776467207
 20
162.673461759477
 30
0.0
 40
1.690000000000011
100
AcDbArc
 50
44.76027010391869
 51
135.2397298960806
  0
ARC
  5
304
330
1F
100
AcDbEntity
  8
1
  6
Continuous
 62
     3
100
AcDbCircle
 10
-84.823776467207
 20
165.053461759477
 30
0.0
 40
1.68999999999999
100
AcDbArc
 50
-135.2397298960806
 51
-44.76027010391937
  0
ARC
  5
305
330
1F
100
AcDbEntity
  8
1
  6
Continuous
 62
     3
100
AcDbCircle
 10
-87.223776467207
 20
160.673461759477
 30
0.0
 40
1.690000000000011
100
AcDbArc
 50
44.76027010391869
 51
135.2397298960806
  0
ARC
  5
306
330
1F
100
AcDbEntity
  8
1
  6
Continuous
 62
     3
100
AcDbCircle
 10
-84.823776467207
 20
163.053461759477
 30
0.0
 40
1.68999999999999
100
AcDbArc
 50
-135.2397298960806
 51
-44.76027010391937
  0
CIRCLE
  5
307
330
1F
100
AcDbEntity
  8
1
  6
Continuous
 62
     7
100
AcDbCircle
 10
-282.3576858093957
 20
90.52114756887266
 30
0.0
 40
2.75
  0
CIRCLE
  5
308
330
1F
100
AcDbEntity
  8
1
  6
Continuous
 62
     7
100
AcDbCircle
 10
-317.6423141906044
 20
90.52114756887262
 30
0.0
 40
2.75
  0
CIRCLE
  5
309
330
1F
100
AcDbEntity
  8
1
  6
Continuous
 62
     7
100
AcDbCircle
 10
-317.6423141906044
 20
125.8057759500814
 30
0.0
 40
2.749999999999915
  0
CIRCLE
  5
30A
330
1F
100
AcDbEntity
  8
1
  6
Continuous
 62
     7
100
AcDbCircle
 10
-282.3576858093957
 20
125.8057759500814
 30
0.0
 40
2.75
  0
CIRCLE
  5
30B
330
1F
100
AcDbEntity
  8
1
  6
Continuous
 62
     7
100
AcDbCircle
 10
-3.31681333402497
 20
108.163461759477
 30
0.0
 40
3.75
  0
CIRCLE
  5
30C
330
1F
100
AcDbEntity
  8
1
  6
Continuous
 62
     7
100
AcDbCircle
 10
-3.31681333402497
 20
108.163461759477
 30
0.0
 40
28.2
  0
CIRCLE
  5
30D
330
1F
100
AcDbEntity
  8
1
  6
Continuous
 62
     7
100
AcDbCircle
 10
-26.88681333402496
 20
131.733461759477
 30
0.0
 40
2.53999999999996
  0
CIRCLE
  5
30E
330
1F
100
AcDbEntity
  8
1
  6
Continuous
 62
     7
100
AcDbCircle
 10
20.25318666597502
 20
131.733461759477
 30
0.0
 40
2.54000000000002
  0
CIRCLE
  5
30F
330
1F
100
AcDbEntity
  8
1
  6
Continuous
 62
     7
100
AcDbCircle
 10
-26.88681333402496
 20
84.59346175947701
 30
0.0
 40
2.53999999999996
  0
CIRCLE
  5
310
330
1F
100
AcDbEntity
  8
1
  6
Continuous
 62
     7
100
AcDbCircle
 10
20.25318666597502
 20
84.59346175947701
 30
0.0
 40
2.54000000000002
  0
CIRCLE
  5
311
330
1F
100
AcDbEntity
  8
1
  6
Continuous
 62
     7
100
AcDbCircle
 10
-317.6423141906044
 20
125.8057759500814
 30
0.0
 40
3.499999999999915
  0
CIRCLE
  5
312
330
1F
100
AcDbEntity
  8
1
  6
Continuous
 62
     7
100
AcDbCircle
 10
-282.3576858093957
 20
125.8057759500814
 30
0.0
 40
3.5
  0
CIRCLE
  5
313
330
1F
100
AcDbEntity
  8
1
  6
Continuous
 62
     7
100
AcDbCircle
 10
-282.3576858093957
 20
90.52114756887266
 30
0.0
 40
3.5
  0
CIRCLE
  5
314
330
1F
100
AcDbEntity
  8
1
  6
Continuous
 62
     7
100
AcDbCircle
 10
-300.0
 20
108.163461759477
 30
0.0
 40
2.475000000000023
  0
CIRCLE
  5
315
330
1F
100
AcDbEntity
  8
1
  6
Continuous
 62
     7
100
AcDbCircle
 10
-300.0
 20
108.163461759477
 30
0.0
 40
3.175000000000011
  0
CIRCLE
  5
316
330
1F
100
AcDbEntity
  8
1
  6
Continuous
 62
     7
100
AcDbCircle
 10
-276.4299999999999
 20
131.733461759477
 30
0.0
 40
2.540000000000134
  0
CIRCLE
  5
317
330
1F
100
AcDbEntity
  8
1
  6
Continuous
 62
     7
100
AcDbCircle
 10
-323.57
 20
131.733461759477
 30
0.0
 40
2.54000000000002
  0
CIRCLE
  5
318
330
1F
100
AcDbEntity
  8
1
  6
Continuous
 62
     7
100
AcDbCircle
 10
-276.4299999999999
 20
84.59346175947701
 30
0.0
 40
2.540000000000134
  0
CIRCLE
  5
319
330
1F
100
AcDbEntity
  8
1
  6
Continuous
 62
     7
100
AcDbCircle
 10
-323.57
 20
84.59346175947701
 30
0.0
 40
2.54000000000002
  0
CIRCLE
  5
31A
330
1F
100
AcDbEntity
  8
1
  6
Continuous
 62
     7
100
AcDbCircle
 10
-300.0
 20
108.163461759477
 30
0.0
 40
19.05000000000001
  0
CIRCLE
  5
31B
330
1F
100
AcDbEntity
  8
1
  6
Continuous
 62
     7
100
AcDbCircle
 10
-317.6423141906044
 20
90.52114756887262
 30
0.0
 40
3.499999999999886
  0
SPLINE
  5
31C
330
1F
100
AcDbEntity
  8
1
  6
Continuous
 62
     7
100
AcDbSpline
210
0.0
220
0.0
230
1.0
 70
    11
 71
     3
 72
    39
 73
    35
 74
    33
 42
0.0000000001
 43
0.0000000001
 44
0.00000001
 40
0.0
 40
0.0
 40
0.0
 40
0.0
 40
0.121618732349172
 40
0.2433672738828115
 40
0.3111849873381615
 40
0.3790120728989065
 40
0.4508989574140196
 40
0.5227911808303857
 40
0.596227551864359
 40
0.6696667009577896
 40
0.7415621269030392
 40
0.8134474374775068
 40
0.8812772776735531
 40
0.9490855697840382
 40
1.011995229757632
 40
1.074841109821547
 40
1.134302356027345
 40
1.1937097503788
 40
1.253117144730191
 40
1.312578390935887
 40
1.375424270999819
 40
1.438333930973423
 40
1.506142223083913
 40
1.573972063279996
 40
1.645857373854535
 40
1.717752799799842
 40
1.791191948893331
 40
1.864628319927316
 40
1.936520543343673
 40
2.008407427858783
 40
2.076234513419486
 40
2.144052226874816
 40
2.265800768408399
 40
2.387419500757583
 40
2.387419500757583
 40
2.387419500757583
 40
2.387419500757583
 10
-138.8876690128349
 20
105.4511806990502
 30
0.0
 10
-138.9256550529788
 20
105.4352685362076
 30
0.0
 10
-139.0016676774885
 20
105.40342722675
 30
0.0
 10
-139.0662690417196
 20
105.3168140508616
 30
0.0
 10
-139.1006352122521
 20
105.2382341569738
 30
0.0
 10
-139.117356970884
 20
105.1707125286933
 30
0.0
 10
-139.1239242253774
 20
105.1002506685272
 30
0.0
 10
-139.1201041780493
 20
105.027697831428
 30
0.0
 10
-139.1061452943893
 20
104.9558838894338
 30
0.0
 10
-139.0823225050107
 20
104.8867095428024
 30
0.0
 10
-139.0493738888891
 20
104.8219669378077
 30
0.0
 10
-139.0084375232244
 20
104.7641940205449
 30
0.0
 10
-138.9601916931762
 20
104.7142441413551
 30
0.0
 10
-138.9067920839616
 20
104.6745742555757
 30
0.0
 10
-138.8487348898129
 20
104.6456609258303
 30
0.0
 10
-138.7888464200582
 20
104.6289417448438
 30
0.0
 10
-138.7279627288108
 20
104.6251652771319
 30
0.0
 10
-138.6687024993266
 20
104.6339865454812
 30
0.0
 10
-138.6129710009848
 20
104.6559772177391
 30
0.0
 10
-138.5621324115443
 20
104.689689580338
 30
0.0
 10
-138.5186270658362
 20
104.73411305068
 30
0.0
 10
-138.4828047257036
 20
104.7881813258219
 30
0.0
 10
-138.4563942504613
 20
104.8492362592793
 30
0.0
 10
-138.4395870756076
 20
104.9166170385978
 30
0.0
 10
-138.4330216016348
 20
104.9871180354305
 30
0.0
 10
-138.4368585655513
 20
105.0596610841238
 30
0.0
 10
-138.4508145980762
 20
105.1314792202863
 30
0.0
 10
-138.4746328212155
 20
105.2006513602291
 30
0.0
 10
-138.5076009817352
 20
105.2653939839377
 30
0.0
 10
-138.5485193210425
 20
105.3231321175928
 30
0.0
 10
-138.596761602954
 20
105.3732466836726
 30
0.0
 10
-138.6658135266098
 20
105.4241157827398
 30
0.0
 10
-138.7650665370973
 20
105.4668243112461
 30
0.0
 10
-138.8468160556599
 20
105.4563933818713
 30
0.0
 10
-138.8876690128349
 20
105.4511806990502
 30
0.0
 11
-138.8876690128349
 21
105.4511806990502
 31
0.0
 11
-138.995261409929
 21
105.3944797983011
 31
0.0
 11
-139.0716723120811
 21
105.2996954040271
 31
0.0
 11
-139.0988388932931
 21
105.2375566952897
 31
0.0
 11
-139.1153986230201
 21
105.1717821646031
 31
0.0
 11
-139.1221764930405
 21
105.1002155198356
 31
0.0
 11
-139.1184875428484
 21
105.0284180029271
 31
0.0
 11
-139.1044899942046
 21
104.956327995141
 31
0.0
 11
-139.080566502247
 21
104.886894752727
 31
0.0
 11
-139.0478707785422
 21
104.8228639638573
 31
0.0
 11
-139.0062093383675
 21
104.7642822066376
 31
0.0
 11
-138.9589497066316
 21
104.71562612347
 31
0.0
 11
-138.9043846225685
 21
104.6753692472856
 31
0.0
 11
-138.8479792073516
 21
104.6475114933884
 31
0.0
 11
-138.7873739183483
 21
104.6308800897844
 31
0.0
 11
-138.7280233341817
 21
104.6272540782799
 31
0.0
 11
-138.6692904435297
 21
104.6361807831188
 31
0.0
 11
-138.6139629157679
 21
104.6578164752822
 31
0.0
 11
-138.5643768079025
 21
104.6906319854428
 31
0.0
 11
-138.5202067898239
 21
104.735337847966
 31
0.0
 11
-138.4852871442835
 21
104.7876660781418
 31
0.0
 11
-138.4581608334174
 21
104.8498120976261
 31
0.0
 11
-138.4415608333445
 21
104.9155793175658
 31
0.0
 11
-138.4347718464047
 21
104.9871433276039
 31
0.0
 11
-138.4384719135162
 21
105.0589434792418
 31
0.0
 11
-138.4524701829407
 21
105.1310361770183
 31
0.0
 11
-138.4763929541176
 21
105.200466729442
 31
0.0
 11
-138.5090969879921
 21
105.2644896781095
 31
0.0
 11
-138.5507501179971
 21
105.3230792755315
 31
0.0
 11
-138.5979785299638
 21
105.3717618251645
 31
0.0
 11
-138.6525748337961
 21
105.4119922348835
 31
0.0
 11
-138.7661408133227
 21
105.455872477131
 31
0.0
 11
-138.8876690128349
 21
105.4511806990502
 31
0.0
  0
SPLINE
  5
31D
330
1F
100
AcDbEntity
  8
1
  6
Continuous
 62
     7
100
AcDbSpline
210
0.0
220
0.0
230
1.0
 70
    11
 71
     3
 72
    39
 73
    35
 74
    33
 42
0.0000000001
 43
0.0000000001
 44
0.00000001
 40
0.0
 40
0.0
 40
0.0
 40
0.0
 40
0.4037691252840209
 40
0.8083911053851636
 40
1.045429737778033
 40
1.282357567294068
 40
1.53915219736923
 40
1.795986980053491
 40
2.060241205307858
 40
2.324502573518483
 40
2.581339783000205
 40
2.838140068999767
 40
3.075123609701675
 40
3.312074513351936
 40
3.524456586820945
 40
3.736498362407924
 40
3.931090394907484
 40
4.125252367192181
 40
4.319411082377255
 40
4.514006935422006
 40
4.730912533322869
 40
4.948210117480839
 40
5.18030300074438
 40
5.412354935039325
 40
5.669133980838593
 40
5.925991404575586
 40
6.190258019818873
 40
6.454507443872033
 40
6.711341135843412
 40
6.968136697184103
 40
7.205064705479798
 40
7.442103213928285
 40
7.846725193179613
 40
8.250494314327579
 40
8.250494314327579
 40
8.250494314327579
 40
8.250494314327579
 10
-139.1715611529317
 20
106.5106805897611
 30
0.0
 10
-139.2969703694486
 20
106.4551128210912
 30
0.0
 10
-139.5480536960758
 20
106.3438599116291
 30
0.0
 10
-139.7471890481372
 20
106.0388131806502
 30
0.0
 10
-139.8509106662483
 20
105.7654784457786
 30
0.0
 10
-139.8990888766399
 20
105.5253653893271
 30
0.0
 10
-139.9142132376396
 20
105.2749826232501
 30
0.0
 10
-139.8952168866498
 20
105.0156408407925
 30
0.0
 10
-139.8434255277404
 20
104.7583321918224
 30
0.0
 10
-139.7596010321698
 20
104.5095965704547
 30
0.0
 10
-139.6464863423924
 20
104.275495709439
 30
0.0
 10
-139.5081094628075
 20
104.0660570515656
 30
0.0
 10
-139.3462413609586
 20
103.882932687913
 30
0.0
 10
-139.1688458118174
 20
103.7367042940691
 30
0.0
 10
-138.9761953978139
 20
103.6272393527555
 30
0.0
 10
-138.7787579479775
 20
103.5617190552092
 30
0.0
 10
-138.5777971200013
 20
103.5425899057734
 30
0.0
 10
-138.3832194986673
 20
103.5685442604895
 30
0.0
 10
-138.2017295135807
 20
103.6433533880551
 30
0.0
 10
-138.0359283373958
 20
103.7613479260205
 30
0.0
 10
-137.8958947223153
 20
103.9197041290784
 30
0.0
 10
-137.7841529099139
 20
104.1129969314639
 30
0.0
 10
-137.7053127463131
 20
104.3271419179887
 30
0.0
 10
-137.6576928773436
 20
104.5634860447621
 30
0.0
 10
-137.6426832183869
 20
104.8124097886464
 30
0.0
 10
-137.6617585870487
 20
105.0717057607043
 30
0.0
 10
-137.7135309334016
 20
105.3290376915176
 30
0.0
 10
-137.7973383895455
 20
105.5777669435373
 30
0.0
 10
-137.9105578535036
 20
105.8118596329415
 30
0.0
 10
-138.048845666124
 20
106.021136393962
 30
0.0
 10
-138.2106258669455
 20
106.2049917534633
 30
0.0
 10
-138.4371192470255
 20
106.3898452128694
 30
0.0
 10
-138.7620986691326
 20
106.5544559530105
 30
0.0
 10
-139.0351696889258
 20
106.5252621109437
 30
0.0
 10
-139.1715611529317
 20
106.5106805897611
 30
0.0
 11
-139.1715611529317
 21
106.5106805897611
 31
0.0
 11
-139.5235651148269
 21
106.3128859554993
 31
0.0
 11
-139.7606309715181
 21
105.9849854730779
 31
0.0
 11
-139.8447443615395
 21
105.7633726330487
 31
0.0
 11
-139.8925742612194
 21
105.5313228601642
 31
0.0
 11
-139.9084900279695
 21
105.2750219229747
 31
0.0
 11
-139.8901413079523
 21
105.0188434108582
 31
0.0
 11
-139.8380368698688
 21
104.7597769655266
 31
0.0
 11
-139.7536255617875
 21
104.5093597101376
 31
0.0
 11
-139.6414800806186
 21
104.2782996676643
 31
0.0
 11
-139.49949283647
 21
104.0643230114876
 31
0.0
 11
-139.3418542958316
 21
103.887373049439
 31
0.0
 11
-139.1583952892728
 21
103.7374113088078
 31
0.0
 11
-138.9731560422496
 21
103.6335240309858
 31
0.0
 11
-138.7714743184517
 21
103.5680549781442
 31
0.0
 11
-138.5777203556883
 21
103.5500144397428
 31
0.0
 11
-138.3853983034329
 21
103.5766808924079
 31
0.0
 11
-138.2055112422898
 21
103.6497442342124
 31
0.0
 11
-138.0467337095028
 21
103.7622486390341
 31
0.0
 11
-137.9019409044
 21
103.9237512148376
 31
0.0
 11
-137.7920989448131
 21
104.1112425052887
 31
0.0
 11
-137.7110693007527
 21
104.3287311331408
 31
0.0
 11
-137.6643851951452
 21
104.5560386220048
 31
0.0
 11
-137.6484165284967
 21
104.8123206542409
 31
0.0
 11
-137.6668181484123
 21
105.0685180713108
 31
0.0
 11
-137.718922339615
 21
105.3275972043788
 31
0.0
 11
-137.8033338945771
 21
105.5780017720314
 31
0.0
 11
-137.9155332283295
 21
105.8090317589101
 31
0.0
 11
-138.0574666198945
 21
106.0230384706813
 31
0.0
 11
-138.2149132859795
 21
106.2000848726603
 31
0.0
 11
-138.3985641670918
 21
106.3499501733612
 31
0.0
 11
-138.7678194665747
 21
106.5153873816822
 31
0.0
 11
-139.1715611529317
 21
106.5106805897611
 31
0.0
  0
SPLINE
  5
31E
330
1F
100
AcDbEntity
  8
1
  6
Continuous
 62
     7
100
AcDbSpline
210
0.0
220
0.0
230
1.0
 70
    11
 71
     3
 72
    39
 73
    35
 74
    33
 42
0.0000000001
 43
0.0000000001
 44
0.00000001
 40
0.0
 40
0.0
 40
0.0
 40
0.0
 40
0.4037691252840139
 40
0.8083911053851566
 40
1.045429737778
 40
1.282357567294034
 40
1.539152197369211
 40
1.795986980053457
 40
2.060241205307852
 40
2.32450257351845
 40
2.581339783000159
 40
2.83814006899971
 40
3.075123609701617
 40
3.312074513351897
 40
3.524456586820919
 40
3.736498362407898
 40
3.931090394907458
 40
4.125252367192159
 40
4.319411082377227
 40
4.514006935421994
 40
4.730912533322857
 40
4.948210117480803
 40
5.180303000744358
 40
5.412354935039274
 40
5.669133980838528
 40
5.925991404575507
 40
6.190258019818808
 40
6.454507443871968
 40
6.711341135843385
 40
6.968136697184076
 40
7.205064705479761
 40
7.442103213928248
 40
7.84672519317957
 40
8.250494314327536
 40
8.250494314327536
 40
8.250494314327536
 40
8.250494314327536
 10
-139.1715611529317
 20
99.71305774620748
 30
0.0
 10
-139.2969703694487
 20
99.65748997753762
 30
0.0
 10
-139.5480536960758
 20
99.54623706807547
 30
0.0
 10
-139.7471890481373
 20
99.24119033709668
 30
0.0
 10
-139.8509106662482
 20
98.96785560222503
 30
0.0
 10
-139.8990888766399
 20
98.7277425457735
 30
0.0
 10
-139.9142132376396
 20
98.47735977969647
 30
0.0
 10
-139.8952168866497
 20
98.21801799723895
 30
0.0
 10
-139.8434255277404
 20
97.96070934826878
 30
0.0
 10
-139.7596010321698
 20
97.71197372690114
 30
0.0
 10
-139.6464863423924
 20
97.47787286588544
 30
0.0
 10
-139.5081094628075
 20
97.268434208012
 30
0.0
 10
-139.3462413609585
 20
97.08530984435947
 30
0.0
 10
-139.1688458118174
 20
96.9390814505155
 30
0.0
 10
-138.9761953978139
 20
96.8296165092019
 30
0.0
 10
-138.7787579479775
 20
96.76409621165564
 30
0.0
 10
-138.5777971200013
 20
96.74496706221979
 30
0.0
 10
-138.3832194986673
 20
96.77092141693592
 30
0.0
 10
-138.2017295135807
 20
96.84573054450152
 30
0.0
 10
-138.0359283373958
 20
96.96372508246698
 30
0.0
 10
-137.8958947223153
 20
97.12208128552477
 30
0.0
 10
-137.7841529099139
 20
97.31537408791033
 30
0.0
 10
-137.7053127463132
 20
97.52951907443509
 30
0.0
 10
-137.6576928773437
 20
97.76586320120856
 30
0.0
 10
-137.6426832183868
 20
98.01478694509275
 30
0.0
 10
-137.6617585870488
 20
98.27408291715074
 30
0.0
 10
-137.7135309334016
 20
98.53141484796399
 30
0.0
 10
-137.7973383895454
 20
98.78014409998372
 30
0.0
 10
-137.9105578535036
 20
99.01423678938794
 30
0.0
 10
-138.048845666124
 20
99.22351355040843
 30
0.0
 10
-138.2106258669455
 20
99.40736890990965
 30
0.0
 10
-138.4371192470255
 20
99.59222236931586
 30
0.0
 10
-138.7620986691326
 20
99.75683310945688
 30
0.0
 10
-139.0351696889257
 20
99.72763926739003
 30
0.0
 10
-139.1715611529317
 20
99.71305774620748
 30
0.0
 11
-139.1715611529317
 21
99.71305774620748
 31
0.0
 11
-139.5235651148269
 21
99.51526311194574
 31
0.0
 11
-139.7606309715181
 21
99.18736262952433
 31
0.0
 11
-139.8447443615395
 21
98.96574978949518
 31
0.0
 11
-139.8925742612194
 21
98.7337000166106
 31
0.0
 11
-139.9084900279695
 21
98.47739907942112
 31
0.0
 11
-139.8901413079523
 21
98.22122056730467
 31
0.0
 11
-139.8380368698688
 21
97.96215412197297
 31
0.0
 11
-139.7536255617875
 21
97.71173686658403
 31
0.0
 11
-139.6414800806186
 21
97.48067682411076
 31
0.0
 11
-139.49949283647
 21
97.26670016793408
 31
0.0
 11
-139.3418542958316
 21
97.08975020588551
 31
0.0
 11
-139.1583952892728
 21
96.93978846525425
 31
0.0
 11
-138.9731560422496
 21
96.83590118743217
 31
0.0
 11
-138.7714743184517
 21
96.77043213459064
 31
0.0
 11
-138.5777203556883
 21
96.75239159618923
 31
0.0
 11
-138.3853983034329
 21
96.77905804885438
 31
0.0
 11
-138.2055112422898
 21
96.8521213906588
 31
0.0
 11
-138.0467337095028
 21
96.96462579548052
 31
0.0
 11
-137.9019409044
 21
97.12612837128407
 31
0.0
 11
-137.7920989448131
 21
97.31361966173509
 31
0.0
 11
-137.7110693007527
 21
97.53110828958728
 31
0.0
 11
-137.6643851951452
 21
97.75841577845125
 31
0.0
 11
-137.6484165284967
 21
98.01469781068731
 31
0.0
 11
-137.6668181484123
 21
98.2708952277572
 31
0.0
 11
-137.718922339615
 21
98.52997436082518
 31
0.0
 11
-137.8033338945771
 21
98.78037892847782
 31
0.0
 11
-137.9155332283295
 21
99.01140891535654
 31
0.0
 11
-138.0574666198945
 21
99.22541562712777
 31
0.0
 11
-138.2149132859795
 21
99.40246202910673
 31
0.0
 11
-138.3985641670918
 21
99.55232732980762
 31
0.0
 11
-138.7678194665747
 21
99.7177645381286
 31
0.0
 11
-139.1715611529317
 21
99.71305774620748
 31
0.0
  0
SPLINE
  5
31F
330
1F
100
AcDbEntity
  8
1
  6
Continuous
 62
     7
100
AcDbSpline
210
0.0
220
0.0
230
1.0
 70
    11
 71
     3
 72
    39
 73
    35
 74
    33
 42
0.0000000001
 43
0.0000000001
 44
0.00000001
 40
0.0
 40
0.0
 40
0.0
 40
0.0
 40
0.1216187323491919
 40
0.2433672738827872
 40
0.311184987338137
 40
0.3790120728988269
 40
0.4508989574139683
 40
0.5227911808303203
 40
0.5962275518642937
 40
0.6696667009577779
 40
0.7415621269030654
 40
0.8134474374775793
 40
0.8812772776736257
 40
0.949085569784094
 40
1.011995229757663
 40
1.074841109821563
 40
1.134302356027363
 40
1.193709750378815
 40
1.253117144730196
 40
1.312578390935908
 40
1.37542427099984
 40
1.438333930973444
 40
1.506142223083947
 40
1.57397206328003
 40
1.645857373854583
 40
1.717752799799904
 40
1.791191948893379
 40
1.864628319927338
 40
1.936520543343695
 40
2.008407427858792
 40
2.076234513419516
 40
2.144052226874821
 40
2.265800768408409
 40
2.387419500757593
 40
2.387419500757593
 40
2.387419500757593
 40
2.387419500757593
 10
-138.8876690128349
 20
98.65355785549662
 30
0.0
 10
-138.9256550529787
 20
98.63764569265403
 30
0.0
 10
-139.0016676774885
 20
98.60580438319639
 30
0.0
 10
-139.0662690417196
 20
98.51919120730804
 30
0.0
 10
-139.1006352122521
 20
98.44061131342025
 30
0.0
 10
-139.1173569708841
 20
98.37308968513976
 30
0.0
 10
-139.1239242253774
 20
98.30262782497368
 30
0.0
 10
-139.1201041780492
 20
98.23007498787447
 30
0.0
 10
-139.1061452943893
 20
98.1582610458803
 30
0.0
 10
-139.0823225050107
 20
98.08908669924878
 30
0.0
 10
-139.049373888889
 20
98.02434409425406
 30
0.0
 10
-139.0084375232245
 20
97.96657117699128
 30
0.0
 10
-138.9601916931761
 20
97.91662129780144
 30
0.0
 10
-138.9067920839616
 20
97.8769514120221
 30
0.0
 10
-138.8487348898129
 20
97.84803808227664
 30
0.0
 10
-138.7888464200582
 20
97.83131890129033
 30
0.0
 10
-138.7279627288108
 20
97.82754243357826
 30
0.0
 10
-138.6687024993267
 20
97.83636370192761
 30
0.0
 10
-138.6129710009847
 20
97.85835437418545
 30
0.0
 10
-138.5621324115443
 20
97.89206673678439
 30
0.0
 10
-138.5186270658362
 20
97.93649020712638
 30
0.0
 10
-138.4828047257036
 20
97.99055848226827
 30
0.0
 10
-138.4563942504613
 20
98.05161341572573
 30
0.0
 10
-138.4395870756076
 20
98.11899419504427
 30
0.0
 10
-138.4330216016348
 20
98.18949519187693
 30
0.0
 10
-138.4368585655514
 20
98.26203824057033
 30
0.0
 10
-138.4508145980762
 20
98.33385637673274
 30
0.0
 10
-138.4746328212155
 20
98.40302851667553
 30
0.0
 10
-138.5076009817352
 20
98.46777114038412
 30
0.0
 10
-138.5485193210426
 20
98.52550927403922
 30
0.0
 10
-138.596761602954
 20
98.57562384011904
 30
0.0
 10
-138.6658135266098
 20
98.62649293918624
 30
0.0
 10
-138.7650665370973
 20
98.66920146769249
 30
0.0
 10
-138.8468160556599
 20
98.65877053831773
 30
0.0
 10
-138.8876690128349
 20
98.65355785549662
 30
0.0
 11
-138.8876690128349
 21
98.65355785549662
 31
0.0
 11
-138.995261409929
 21
98.59685695474747
 31
0.0
 11
-139.0716723120811
 21
98.50207256047358
 31
0.0
 11
-139.0988388932931
 21
98.43993385173609
 31
0.0
 11
-139.1153986230201
 21
98.37415932104962
 31
0.0
 11
-139.1221764930405
 21
98.3025926762821
 31
0.0
 11
-139.1184875428484
 21
98.2307951593736
 31
0.0
 11
-139.1044899942046
 21
98.15870515158748
 31
0.0
 11
-139.080566502247
 21
98.08927190917342
 31
0.0
 11
-139.0478707785422
 21
98.0252411203037
 31
0.0
 11
-139.0062093383675
 21
97.96665936308392
 31
0.0
 11
-138.9589497066316
 21
97.91800327991628
 31
0.0
 11
-138.9043846225685
 21
97.8777464037319
 31
0.0
 11
-138.8479792073516
 21
97.84988864983475
 31
0.0
 11
-138.7873739183483
 21
97.83325724623081
 31
0.0
 11
-138.7280233341817
 21
97.82963123472632
 31
0.0
 11
-138.6692904435297
 21
97.83855793956525
 31
0.0
 11
-138.6139629157679
 21
97.86019363172863
 31
0.0
 11
-138.5643768079025
 21
97.8930091418892
 31
0.0
 11
-138.5202067898239
 21
97.93771500441245
 31
0.0
 11
-138.4852871442835
 21
97.99004323458824
 31
0.0
 11
-138.4581608334174
 21
98.05218925407249
 31
0.0
 11
-138.4415608333445
 21
98.11795647401225
 31
0.0
 11
-138.4347718464047
 21
98.18952048405033
 31
0.0
 11
-138.4384719135162
 21
98.26132063568826
 31
0.0
 11
-138.4524701829407
 21
98.33341333346475
 31
0.0
 11
-138.4763929541176
 21
98.40284388588843
 31
0.0
 11
-138.5090969879921
 21
98.4668668345559
 31
0.0
 11
-138.5507501179971
 21
98.52545643197794
 31
0.0
 11
-138.5979785299638
 21
98.57413898161093
 31
0.0
 11
-138.6525748337961
 21
98.61436939132993
 31
0.0
 11
-138.7661408133227
 21
98.65824963357741
 31
0.0
 11
-138.8876690128349
 21
98.65355785549662
 31
0.0
  0
SPLINE
  5
320
330
1F
100
AcDbEntity
  8
1
  6
Continuous
 62
     7
100
AcDbSpline
210
0.0
220
0.0
230
1.0
 70
     8
 71
     3
 72
    31
 73
    27
 74
    25
 42
0.0000000001
 43
0.0000000001
 44
0.00000001
 40
0.0
 40
0.0
 40
0.0
 40
0.0
 40
0.5642786467864086
 40
1.132022769770669
 40
1.350292347143541
 40
1.569839976223269
 40
1.799895032820013
 40
2.029479619040085
 40
2.259244921739565
 40
2.489150472879648
 40
2.708033744439349
 40
2.926829836884539
 40
3.127734154391512
 40
3.328560885290061
 40
3.512436950102231
 40
3.695845347433985
 40
3.872027738621686
 40
4.04857318754889
 40
4.232574636494067
 40
4.416005113333968
 40
4.615841688564888
 40
4.81718007666018
 40
5.123074322036556
 40
5.427457837773368
 40
5.825593724476641
 40
6.224422202527071
 40
6.224422202527071
 40
6.224422202527071
 40
6.224422202527071
 10
-139.4703547281823
 20
91.52862516655074
 30
0.0
 10
-139.5613221188981
 20
91.3643831099474
 30
0.0
 10
-139.7438155699323
 20
91.03489031611618
 30
0.0
 10
-139.8849104744491
 20
90.59551282270718
 30
0.0
 10
-139.8733330025198
 20
90.25836330773777
 30
0.0
 10
-139.8312822175086
 20
90.0391240027324
 30
0.0
 10
-139.7597583818923
 20
89.82360584184174
 30
0.0
 10
-139.6587833068233
 20
89.61643726455148
 30
0.0
 10
-139.5315621646248
 20
89.42431848066552
 30
0.0
 10
-139.3820432057306
 20
89.25365986237199
 30
0.0
 10
-139.2134110291438
 20
89.1073681137761
 30
0.0
 10
-139.0330315177172
 20
88.99269981784518
 30
0.0
 10
-138.8423574566301
 20
88.91026705512255
 30
0.0
 10
-138.6511786610038
 20
88.86517269849199
 30
0.0
 10
-138.4607420496484
 20
88.85837009067632
 30
0.0
 10
-138.2806996009371
 20
88.88973888977453
 30
0.0
 10
-138.1153190687691
 20
88.96150152700379
 30
0.0
 10
-137.9696726017685
 20
89.06796453706272
 30
0.0
 10
-137.8505505401094
 20
89.20670988350965
 30
0.0
 10
-137.7600678147251
 20
89.37444902501989
 30
0.0
 10
-137.7073487889439
 20
89.56339996393223
 30
0.0
 10
-137.6768658457246
 20
89.7972735356776
 30
0.0
 10
-137.6594499733955
 20
90.06781666358913
 30
0.0
 10
-137.6768847385446
 20
90.40366209213803
 30
0.0
 10
-137.7488794038198
 20
90.76867237254221
 30
0.0
 10
-137.8781787950042
 20
91.00238362225787
 30
0.0
 10
-137.9428846735599
 20
91.11934079895195
 30
0.0
 11
-139.4703547281823
 21
91.52862516655074
 31
0.0
 11
-139.7273035281052
 21
91.0262431351869
 31
0.0
 11
-139.8738555281925
 21
90.47773980752737
 31
0.0
 11
-139.8677492457955
 21
90.25955566116971
 31
0.0
 11
-139.8274039815053
 21
90.04374690072684
 31
0.0
 11
-139.7549695704566
 21
89.8253926354565
 31
0.0
 11
-139.654436689394
 21
89.61898957817512
 31
0.0
 11
-139.5274797565312
 21
89.4274849267364
 31
0.0
 11
-139.3758160600126
 21
89.25469984172234
 31
0.0
 11
-139.2101195814082
 21
89.11168039008449
 31
0.0
 11
-139.0251478532672
 21
88.99481640992884
 31
0.0
 11
-138.8404060686821
 21
88.91586694621151
 31
0.0
 11
-138.6447278302028
 21
88.87068506013962
 31
0.0
 11
-138.460946603042
 21
88.86478016775384
 31
0.0
 11
-138.2804402600025
 21
88.89727786512303
 31
0.0
 11
-138.1186965921885
 21
88.96712928519965
 31
0.0
 11
-137.9762235999443
 21
89.07138734013004
 31
0.0
 11
-137.8559059822838
 21
89.21060014160479
 31
0.0
 11
-137.7687708689912
 21
89.37201331289259
 31
0.0
 11
-137.7121694825705
 21
89.56366648885187
 31
0.0
 11
-137.6831039281721
 21
89.76289585432876
 31
0.0
 11
-137.6653585543065
 21
90.06827494834266
 31
0.0
 11
-137.6816047281823
 21
90.37222459299898
 31
0.0
 11
-137.7681011365148
 21
90.76085109187235
 31
0.0
 11
-137.9428846735599
 21
91.11934079895195
 31
0.0
  0
SPLINE
  5
321
330
1F
100
AcDbEntity
  8
1
  6
Continuous
 62
     7
100
AcDbSpline
210
0.0
220
0.0
230
1.0
 70
     8
 71
     3
 72
    33
 73
    29
 74
    27
 42
0.0000000001
 43
0.0000000001
 44
0.00000001
 40
0.0
 40
0.0
 40
0.0
 40
0.0
 40
0.3431646928541895
 40
0.6865278656292461
 40
0.8230750923411647
 40
0.9592245116839759
 40
1.09554102398131
 40
1.232202072420029
 40
1.36533466899039
 40
1.498294674634329
 40
1.62595917724148
 40
1.753619881261264
 40
1.876384896859654
 40
1.999077715871135
 40
2.119802097130203
 40
2.240529957880453
 40
2.363230110061143
 40
2.485988008566319
 40
2.613623483033126
 40
2.741310927340769
 40
2.874350551496394
 40
3.007416491764814
 40
3.143873484302691
 40
3.280333641353273
 40
3.416781792712308
 40
3.553255389719574
 40
3.813088770635682
 40
4.072795459220968
 40
4.072795459220968
 40
4.072795459220968
 40
4.072795459220968
 10
-139.1148129425125
 20
91.43335803220498
 30
0.0
 10
-139.1799017009692
 20
91.33904943610767
 30
0.0
 10
-139.3101168639805
 20
91.1503776976177
 30
0.0
 10
-139.4151617175262
 20
90.89374515067247
 30
0.0
 10
-139.4613691922439
 20
90.6933789489595
 30
0.0
 10
-139.4742137216373
 20
90.55706528847836
 30
0.0
 10
-139.4638867135202
 20
90.42043702517194
 30
0.0
 10
-139.4322710527491
 20
90.28825643062888
 30
0.0
 10
-139.3813282774304
 20
90.1634719256642
 30
0.0
 10
-139.3125282887872
 20
90.05096248268036
 30
0.0
 10
-139.2268457155152
 20
89.95312437107488
 30
0.0
 10
-139.1279392544329
 20
89.87385986625006
 30
0.0
 10
-139.017482893785
 20
89.81515672297378
 30
0.0
 10
-138.9000759906708
 20
89.77895802314666
 30
0.0
 10
-138.7784803240696
 20
89.76705705245848
 30
0.0
 10
-138.6568821510326
 20
89.77895815585647
 30
0.0
 10
-138.5394741089221
 20
89.815156748126
 30
0.0
 10
-138.429023782443
 20
89.87385453635903
 30
0.0
 10
-138.3301292989939
 20
89.95313083393967
 30
0.0
 10
-138.2444351312927
 20
90.05098658532677
 30
0.0
 10
-138.1755317861352
 20
90.16344285903578
 30
0.0
 10
-138.1246150236936
 20
90.28819171062892
 30
0.0
 10
-138.0935720303347
 20
90.42049279104161
 30
0.0
 10
-138.0831456931028
 20
90.55703716452837
 30
0.0
 10
-138.0934741377783
 20
90.69378987121773
 30
0.0
 10
-138.1346114554765
 20
90.86662930665071
 30
0.0
 10
-138.2305459765025
 20
91.0703875796452
 30
0.0
 10
-138.365221091346
 20
91.18207958456904
 30
0.0
 10
-138.4325422281823
 20
91.23791196871616
 30
0.0
 11
-139.1148129425125
 21
91.43335803220498
 31
0.0
 11
-139.2994360915951
 21
91.14408947317281
 31
0.0
 11
-139.4286295601886
 21
90.8259585000015
 31
0.0
 11
-139.458417879563
 21
90.69270010007278
 31
0.0
 11
-139.4703547281823
 21
90.55707496953856
 31
0.0
 11
-139.4603142396086
 21
90.42112872974462
 31
0.0
 11
-139.4286295601886
 21
90.2881914390756
 31
0.0
 11
-139.3780931536953
 21
90.16502342420034
 31
0.0
 11
-139.3084867272652
 21
90.05173923068479
 31
0.0
 11
-139.2242324587272
 21
89.95582550143261
 31
0.0
 11
-139.1244172281823
 21
89.87623797036093
 31
0.0
 11
-139.0159517616753
 21
89.81873586926629
 31
0.0
 11
-138.8986225611056
 21
89.78285570022187
 31
0.0
 11
-138.7784814763743
 21
89.7710025997851
 31
0.0
 11
-138.658336895259
 21
89.7828557002219
 31
0.0
 11
-138.5410005538293
 21
89.81873759433397
 31
0.0
 11
-138.4325422281823
 21
89.87623797036093
 31
0.0
 11
-138.3327534393474
 21
89.95581819381646
 31
0.0
 11
-138.2484727290993
 21
90.0517392306848
 31
0.0
 11
-138.1787617435211
 21
90.1650526018516
 31
0.0
 11
-138.128329896176
 21
90.2881914390756
 31
0.0
 11
-138.097051492326
 21
90.42101527829537
 31
0.0
 11
-138.0866047281824
 21
90.55707496953858
 31
0.0
 11
-138.0970199178858
 21
90.69312504058868
 31
0.0
 11
-138.128329896176
 21
90.82595850000146
 31
0.0
 11
-138.2452462370548
 21
91.05800150264065
 31
0.0
 11
-138.4325422281823
 21
91.23791196871616
 31
0.0
  0
ARC
  5
322
330
1F
100
AcDbEntity
  8
1
  6
Continuous
 62
     7
100
AcDbCircle
 10
-124.693776467207
 20
85.163461759477
 30
0.0
 40
2.0
100
AcDbArc
 50
-90.0
 51
0.0
  0
ARC
  5
323
330
1F
100
AcDbEntity
  8
1
  6
Continuous
 62
     7
100
AcDbCircle
 10
-124.693776467207
 20
131.163461759477
 30
0.0
 40
2.0
100
AcDbArc
 50
0.0
 51
89.99999999999714
  0
ARC
  5
324
330
1F
100
AcDbEntity
  8
1
  6
Continuous
 62
     7
100
AcDbCircle
 10
-140.693776467207
 20
85.163461759477
 30
0.0
 40
2.0
100
AcDbArc
 50
180.0
 51
-90.0
  0
ARC
  5
325
330
1F
100
AcDbEntity
  8
1
  6
Continuous
 62
     7
100
AcDbCircle
 10
-140.693776467207
 20
131.163461759477
 30
0.0
 40
1.999999999999886
100
AcDbArc
 50
89.99999999999756
 51
180.0
  0
ARC
  5
326
330
1F
100
AcDbEntity
  8
1
  6
Continuous
 62
     7
100
AcDbCircle
 10
0.93318666597503
 20
136.863461759477
 30
0.0
 40
1.0
100
AcDbArc
 50
0.0
 51
90.0
  0
ARC
  5
327
330
1F
100
AcDbEntity
  8
1
  6
Continuous
 62
     7
100
AcDbCircle
 10
-7.56681333402497
 20
136.863461759477
 30
0.0
 40
1.0
100
AcDbArc
 50
90.0
 51
180.0
  0
ARC
  5
328
330
1F
100
AcDbEntity
  8
1
  6
Continuous
 62
     7
100
AcDbCircle
 10
-295.75
 20
136.863461759477
 30
0.0
 40
1.0
100
AcDbArc
 50
0.0
 51
90.0
  0
ARC
  5
329
330
1F
100
AcDbEntity
  8
1
  6
Continuous
 62
     7
100
AcDbCircle
 10
-304.25
 20
136.863461759477
 30
0.0
 40
1.0
100
AcDbArc
 50
90.0
 51
180.0
  0
ARC
  5
32A
330
1F
100
AcDbEntity
  8
1
  6
Continuous
 62
     7
100
AcDbCircle
 10
-82.12377646720701
 20
137.363461759477
 30
0.0
 40
0.5
100
AcDbArc
 50
0.0
 51
90.0
  0
ARC
  5
32B
330
1F
100
AcDbEntity
  8
1
  6
Continuous
 62
     7
100
AcDbCircle
 10
-81.42377646720699
 20
81.963461759477
 30
0.0
 40
2.0
100
AcDbArc
 50
-90.0
 51
0.0
  0
ARC
  5
32C
330
1F
100
AcDbEntity
  8
1
  6
Continuous
 62
     7
100
AcDbCircle
 10
-81.42377646720699
 20
134.363461759477
 30
0.0
 40
2.0
100
AcDbArc
 50
0.0
 51
90.0
  0
ARC
  5
32D
330
1F
100
AcDbEntity
  8
1
  6
Continuous
 62
     7
100
AcDbCircle
 10
-89.92377646720699
 20
137.363461759477
 30
0.0
 40
0.5
100
AcDbArc
 50
90.0
 51
180.0
  0
SOLID
  5
32E
330
1F
100
AcDbEntity
  8
1
 62
     2
100
AcDbTrace
 10
-130.4303287388445
 20
80.45437962018092
 30
0.0
 11
-131.2086159023232
 21
79.96086597589822
 31
0.0
 12
-132.693776467207
 22
83.16346175947695
 32
0.0
 13
-132.693776467207
 23
83.16346175947695
 33
0.0
  0
LEADER
  5
32F
330
1F
100
AcDbEntity
  8
1
  6
Continuous
 62
     2
100
AcDbLeader
  3
Standard
 71
     0
 76
     3
 10
-132.693776467207
 20
83.16346175947695
 30
0.0
 10
-121.578614649984
 20
65.6344879153859
 30
0.0
 10
-116.578614649984
 20
65.6344879153859
 30
0.0
  0
SOLID
  5
330
330
1F
100
AcDbEntity
  8
1
 62
     4
100
AcDbTrace
 10
-184.52680988267
 20
33.60476174621392
 30
0.0
 11
-184.52680988267
 21
34.52632922932569
 31
0.0
 12
-181.02680988267
 22
34.0655454877698
 32
0.0
 13
-181.02680988267
 23
34.0655454877698
 33
0.0
  0
LEADER
  5
331
330
1F
100
AcDbEntity
  8
1
  6
Continuous
 62
     4
100
AcDbLeader
  3
Standard
 71
     0
 76
     2
 10
-181.02680988267
 20
34.0655454877698
 30
0.0
 10
-198.542872098652
 20
34.0655454877698
 30
0.0
  0
SOLID
  5
332
330
1F
100
AcDbEntity
  8
1
 62
     4
100
AcDbTrace
 10
-226.0569389181089
 20
130.260852234328
 30
0.0
 11
-225.1353714349971
 21
130.260852234328
 31
0.0
 12
-225.596155176553
 22
126.760852234328
 32
0.0
 13
-225.596155176553
 23
126.760852234328
 33
0.0
  0
LEADER
  5
333
330
1F
100
AcDbEntity
  8
1
  6
Continuous
 62
     4
100
AcDbLeader
  3
Standard
 71
     0
 76
     2
 10
-225.596155176553
 20
126.760852234328
 30
0.0
 10
-225.596155176553
 20
151.813242232523
 30
0.0
  0
SOLID
  5
334
330
1F
100
AcDbEntity
  8
1
 62
     4
100
AcDbTrace
 10
-209.594151412291
 20
113.909396955319
 30
0.0
 11
-211.4496615067031
 21
111.284396955319
 31
0.0
 12
-207.7386413178789
 22
111.284396955319
 32
0.0
 13
-207.7386413178789
 23
111.284396955319
 33
0.0
  0
LEADER
  5
335
330
1F
100
AcDbEntity
  8
1
  6
Continuous
 62
     4
100
AcDbLeader
  3
Standard
 71
     0
 76
     2
 10
-209.594151412291
 20
111.284396955319
 30
0.0
 10
-209.594151412291
 20
131.696702619857
 30
0.0
  0
SOLID
  5
336
330
1F
100
AcDbEntity
  8
1
 62
     2
100
AcDbTrace
 10
-272.0568416762334
 20
80.38476869406163
 30
0.0
 11
-272.7690921287294
 21
79.7999730726278
 31
0.0
 12
-274.6339487757862
 22
82.7974105352632
 32
0.0
 13
-274.6339487757862
 23
82.7974105352632
 33
0.0
  0
LEADER
  5
337
330
1F
100
AcDbEntity
  8
1
  6
Continuous
 62
     2
100
AcDbLeader
  3
Standard
 71
     0
 76
     3
 10
-274.6339487757862
 20
82.7974105352632
 30
0.0
 10
-264.039828104143
 20
69.8943261659335
 30
0.0
 10
-259.039828104143
 20
69.8943261659335
 30
0.0
  0
DIMENSION
  5
34A
330
1F
100
AcDbEntity
  8
1
100
AcDbDimension
  2
*D1
 10
-182.543776467207
 20
64.8787957900704
 30
0.0
 11
-189.220105912571
 21
68.6287957900704
 31
0.0
 70
    32
  1
<>
 71
     5
 42
-1.0
 53
0.00013888888889
  3
ME10_DIM_10
100
AcDbAlignedDimension
 13
-181.023776467207
 23
79.963461759477
 33
0.0
 14
-182.543776467207
 24
89.113461759477
 34
0.0
100
AcDbRotatedDimension
  0
DIMENSION
  5
355
330
1F
100
AcDbEntity
  8
1
100
AcDbDimension
  2
*D3
 10
-181.023776467207
 20
49.8205409709436
 30
0.0
 11
-130.223776467207
 21
53.5705409709436
 31
0.0
 70
    32
  1
<>
 71
     5
 42
-1.0
 53
0.00013888888889
  3
ME10_DIM_11
100
AcDbAlignedDimension
 13
-79.42377646720699
 23
81.963461759477
 33
0.0
 14
-181.023776467207
 24
79.963461759477
 34
0.0
100
AcDbRotatedDimension
  0
DIMENSION
  5
361
330
1F
100
AcDbEntity
  8
1
100
AcDbDimension
  2
*D4
 10
-201.593776467207
 20
49.8205409709436
 30
0.0
 11
-191.308776467207
 21
53.5705409709436
 31
0.0
 70
    32
  1
<>
 71
     5
 42
-1.0
 53
0.00013888888889
  3
ME10_DIM_12
100
AcDbAlignedDimension
 13
-181.023776467207
 23
79.963461759477
 33
0.0
 14
-201.593776467207
 24
105.688461759477
 34
0.0
100
AcDbRotatedDimension
  0
DIMENSION
  5
36D
330
1F
100
AcDbEntity
  8
1
100
AcDbDimension
  2
*D5
 10
-323.57
 20
59.8467032100681
 30
0.0
 11
-300.0
 21
63.5967032100681
 31
0.0
 70
    32
  1
<>
 71
     5
 42
-1.0
 53
0.00013888888889
  3
ME10_DIM_13
100
AcDbAlignedDimension
 13
-276.43
 23
80.59346175947702
 33
0.0
 14
-323.57
 24
80.59346175947702
 34
0.0
100
AcDbRotatedDimension
  0
DIMENSION
  5
378
330
1F
100
AcDbEntity
  8
1
100
AcDbDimension
  2
*D6
 10
-328.2
 20
49.9750780456778
 30
0.0
 11
-300.0
 21
53.7250780456778
 31
0.0
 70
    32
  1
<>
 71
     5
 42
-1.0
 53
0.00013888888889
  3
ME10_DIM_14
100
AcDbAlignedDimension
 13
-271.8
 23
82.32119986157029
 33
0.0
 14
-328.2
 24
82.32119986157029
 34
0.0
100
AcDbRotatedDimension
  0
DIMENSION
  5
383
330
1F
100
AcDbEntity
  8
1
100
AcDbDimension
  2
*D7
 10
-299.9999999999999
 20
69.9815717121755
 30
0.0
 11
-288.215
 21
73.7315717121755
 31
0.0
 70
    32
  1
<>
 71
     5
 42
-1.0
 53
0.00013888888889
  3
ME10_DIM_15
100
AcDbAlignedDimension
 13
-276.43
 23
80.59346175947702
 33
0.0
 14
-300.0
 24
75.2494702200777
 34
0.0
100
AcDbRotatedDimension
  0
DIMENSION
  5
390
330
1F
100
AcDbEntity
  8
1
100
AcDbDimension
  2
*D8
 10
-66.982901953931
 20
195.963461759477
 30
0.0
 11
-70.732901953931
 21
173.036767447627
 31
0.0
 70
    32
  1
<>
 71
     5
 42
-1.0
 53
90.0
  3
ME10_DIM_16
100
AcDbAlignedDimension
 13
-84.223776467207
 23
186.363461759477
 33
0.0
 14
-84.223776467207
 24
195.963461759477
 34
0.0
 50
90.0
100
AcDbRotatedDimension
  0
DIMENSION
  5
39D
330
1F
100
AcDbEntity
  8
1
100
AcDbDimension
  2
*D9
 10
-215.700715704896
 20
111.338461759477
 30
0.0
 11
-220.763215704896
 21
108.163461759477
 31
0.0
 70
    32
  1
<>
 71
     5
 42
-1.0
 53
90.0
  3
ME10_DIM_17
100
AcDbAlignedDimension
 13
-200.893776467207
 23
104.988461759477
 33
0.0
 14
-200.893776467207
 24
111.338461759477
 34
0.0
 50
90.0
100
AcDbRotatedDimension
  0
DIMENSION
  5
3A8
330
1F
100
AcDbEntity
  8
1
100
AcDbDimension
  2
*D10
 10
-55.61481386653159
 20
136.363461759477
 30
0.0
 11
-59.36481386653159
 21
108.163461759477
 31
0.0
 70
    32
  1
<>
 71
     5
 42
-1.0
 53
90.0
  3
ME10_DIM_18
100
AcDbAlignedDimension
 13
-81.42377646720699
 23
79.963461759477
 33
0.0
 14
-81.42377646720699
 24
136.363461759477
 34
0.0
 50
90.0
100
AcDbRotatedDimension
  0
DIMENSION
  5
3B5
330
1F
100
AcDbEntity
  8
1
100
AcDbDimension
  2
*D11
 10
-181.023776467207
 20
64.8787957900704
 30
0.0
 11
-168.850484785382
 21
68.6287957900704
 31
0.0
 70
    32
  1
<>
 71
     5
 42
-1.0
 53
0.00013888888889
  3
ME10_DIM_19
100
AcDbAlignedDimension
 13
-176.193776467207
 23
79.963461759477
 33
0.0
 14
-181.023776467207
 24
79.963461759477
 34
0.0
100
AcDbRotatedDimension
  0
DIMENSION
  5
3C0
330
1F
100
AcDbEntity
  8
1
100
AcDbDimension
  2
*D12
 10
-225.606025158195
 20
127.213461759477
 30
0.0
 11
-229.356025158195
 21
108.163461759477
 31
0.0
 70
    32
  1
<>
 71
     5
 42
-1.0
 53
90.0
  3
ME10_DIM_20
100
AcDbAlignedDimension
 13
-182.543776467207
 23
89.113461759477
 33
0.0
 14
-182.543776467207
 24
127.213461759477
 34
0.0
 50
90.0
100
AcDbRotatedDimension
  0
DIMENSION
  5
3CB
330
1F
100
AcDbEntity
  8
1
100
AcDbDimension
  2
*D13
 10
-55.61481386653159
 20
136.363461759477
 30
0.0
 11
-59.36481386653159
 21
166.163461759477
 31
0.0
 70
    32
  1
305
 71
     5
 42
-1.0
 53
90.0
  3
ME10_DIM_21
100
AcDbAlignedDimension
 13
-84.223776467207
 23
195.963461759477
 33
0.0
 14
-81.42377646720699
 24
136.363461759477
 34
0.0
 50
90.0
100
AcDbRotatedDimension
  0
ENDSEC
  0
SECTION
  2
OBJECTS
  0
DICTIONARY
  5
C
330
0
100
AcDbDictionary
281
     1
  3
ACAD_GROUP
350
D
  3
ACAD_LAYOUT
350
1A
  3
ACAD_MLINESTYLE
350
17
  3
ACAD_PLOTSETTINGS
350
19
  3
ACAD_PLOTSTYLENAME
350
E
  0
DICTIONARY
  5
D
102
{ACAD_REACTORS
330
C
102
}
330
C
100
AcDbDictionary
281
     1
  0
DICTIONARY
  5
1A
102
{ACAD_REACTORS
330
C
102
}
330
C
100
AcDbDictionary
281
     1
  3
Layout1
350
1E
  3
Layout2
350
26
  3
Model
350
22
  0
DICTIONARY
  5
17
102
{ACAD_REACTORS
330
C
102
}
330
C
100
AcDbDictionary
281
     1
  3
Standard
350
18
  0
DICTIONARY
  5
19
102
{ACAD_REACTORS
330
C
102
}
330
C
100
AcDbDictionary
281
     1
  0
ACDBDICTIONARYWDFLT
  5
E
102
{ACAD_REACTORS
330
C
102
}
330
C
100
AcDbDictionary
281
     1
  3
Normal
350
F
100
AcDbDictionaryWithDefault
340
F
  0
LAYOUT
  5
1E
102
{ACAD_REACTORS
330
1A
102
}
330
1A
100
AcDbPlotSettings
  1

  2

  4

  6

 40
0.0
 41
0.0
 42
0.0
 43
0.0
 44
0.0
 45
0.0
 46
0.0
 47
0.0
 48
0.0
 49
0.0
140
0.0
141
0.0
142
1.0
143
1.0
 70
   688
 72
     0
 73
     0
 74
     5
  7

 75
    16
147
1.0
148
0.0
149
0.0
100
AcDbLayout
  1
Layout1
 70
     1
 71
     1
 10
0.0
 20
0.0
 11
0.0
 21
0.0
 12
0.0
 22
0.0
 32
0.0
 14
0.0
 24
0.0
 34
0.0
 15
0.0
 25
0.0
 35
0.0
146
0.0
 13
0.0
 23
0.0
 33
0.0
 16
1.0
 26
0.0
 36
0.0
 17
0.0
 27
1.0
 37
0.0
 76
     0
330
1B
  0
LAYOUT
  5
26
102
{ACAD_REACTORS
330
1A
102
}
330
1A
100
AcDbPlotSettings
  1

  2

  4

  6

 40
0.0
 41
0.0
 42
0.0
 43
0.0
 44
0.0
 45
0.0
 46
0.0
 47
0.0
 48
0.0
 49
0.0
140
0.0
141
0.0
142
1.0
143
1.0
 70
   688
 72
     0
 73
     0
 74
     5
  7

 75
    16
147
1.0
148
0.0
149
0.0
100
AcDbLayout
  1
Layout2
 70
     1
 71
     2
 10
0.0
 20
0.0
 11
0.0
 21
0.0
 12
0.0
 22
0.0
 32
0.0
 14
0.0
 24
0.0
 34
0.0
 15
0.0
 25
0.0
 35
0.0
146
0.0
 13
0.0
 23
0.0
 33
0.0
 16
1.0
 26
0.0
 36
0.0
 17
0.0
 27
1.0
 37
0.0
 76
     0
330
23
  0
LAYOUT
  5
22
102
{ACAD_REACTORS
330
1A
102
}
330
1A
100
AcDbPlotSettings
  1

  2

  4

  6

 40
0.0
 41
0.0
 42
0.0
 43
0.0
 44
0.0
 45
0.0
 46
0.0
 47
0.0
 48
0.0
 49
0.0
140
0.0
141
0.0
142
1.0
143
1.0
 70
  1712
 72
     0
 73
     0
 74
     0
  7

 75
     0
147
1.0
148
0.0
149
0.0
100
AcDbLayout
  1
Model
 70
     1
 71
     0
 10
0.0
 20
0.0
 11
0.0
 21
0.0
 12
0.0
 22
0.0
 32
0.0
 14
-331.370746455297
 24
30.5655454877698
 34
0.0
 15
28.053933121272
 25
202.963461759477
 35
0.0
146
0.0
 13
0.0
 23
0.0
 33
0.0
 16
1.0
 26
0.0
 36
0.0
 17
0.0
 27
1.0
 37
0.0
 76
     0
330
1F
  0
MLINESTYLE
  5
18
102
{ACAD_REACTORS
330
17
102
}
330
17
100
AcDbMlineStyle
  2
Standard
 70
     0
  3

 62
   256
 51
90.0
 52
90.0
 71
     2
 49
0.5
 62
   256
  6
BYLAYER
 49
-0.5
 62
   256
  6
BYLAYER
  0
ACDBPLACEHOLDER
  5
F
102
{ACAD_REACTORS
330
E
102
}
330
E
  0
ENDSEC
  0
EOF
