  0
SECTION
  2
HEADER
  9
$ACADVER
  1
AC1015
  9
$ACADMAINTVER
 70
     6
  9
$DWGCODEPAGE
  3
DOS932
  9
$INSBASE
 10
0.0
 20
0.0
 30
0.0
  9
$EXTMIN
 10
418.537756412607
 20
229.4962357183884
 30
0.0
  9
$EXTMAX
 10
756.3707916657963
 20
379.1128251810713
 30
0.0
  9
$LIMMIN
 10
0.0
 20
0.0
  9
$LIMMAX
 10
12.0
 20
9.0
  9
$ORTHOMODE
 70
     0
  9
$REGENMODE
 70
     1
  9
$FILLMODE
 70
     1
  9
$QTEXTMODE
 70
     0
  9
$MIRRTEXT
 70
     1
  9
$LTSCALE
 40
1.0
  9
$ATTMODE
 70
     1
  9
$TEXTSIZE
 40
0.2
  9
$TRACEWID
 40
0.05
  9
$TEXTSTYLE
  7
Standard
  9
$CLAYER
  8
0
  9
$CELTYPE
  6
ByLayer
  9
$CECOLOR
 62
   256
  9
$CELTSCALE
 40
1.0
  9
$DISPSILH
 70
     0
  9
$DIMSCALE
 40
1.0
  9
$DIMASZ
 40
0.18
  9
$DIMEXO
 40
0.0625
  9
$DIMDLI
 40
0.38
  9
$DIMRND
 40
0.0
  9
$DIMDLE
 40
0.0
  9
$DIMEXE
 40
0.18
  9
$DIMTP
 40
0.0
  9
$DIMTM
 40
0.0
  9
$DIMTXT
 40
0.18
  9
$DIMCEN
 40
0.09
  9
$DIMTSZ
 40
0.0
  9
$DIMTOL
 70
     0
  9
$DIMLIM
 70
     0
  9
$DIMTIH
 70
     1
  9
$DIMTOH
 70
     1
  9
$DIMSE1
 70
     0
  9
$DIMSE2
 70
     0
  9
$DIMTAD
 70
     0
  9
$DIMZIN
 70
     0
  9
$DIMBLK
  1

  9
$DIMASO
 70
     1
  9
$DIMSHO
 70
     1
  9
$DIMPOST
  1

  9
$DIMAPOST
  1

  9
$DIMALT
 70
     0
  9
$DIMALTD
 70
     2
  9
$DIMALTF
 40
25.4
  9
$DIMLFAC
 40
1.0
  9
$DIMTOFL
 70
     0
  9
$DIMTVP
 40
0.0
  9
$DIMTIX
 70
     0
  9
$DIMSOXD
 70
     0
  9
$DIMSAH
 70
     0
  9
$DIMBLK1
  1

  9
$DIMBLK2
  1

  9
$DIMSTYLE
  2
Standard
  9
$DIMCLRD
 70
     0
  9
$DIMCLRE
 70
     0
  9
$DIMCLRT
 70
     0
  9
$DIMTFAC
 40
1.0
  9
$DIMGAP
 40
0.09
  9
$DIMJUST
 70
     0
  9
$DIMSD1
 70
     0
  9
$DIMSD2
 70
     0
  9
$DIMTOLJ
 70
     1
  9
$DIMTZIN
 70
     0
  9
$DIMALTZ
 70
     0
  9
$DIMALTTZ
 70
     0
  9
$DIMUPT
 70
     0
  9
$DIMDEC
 70
     4
  9
$DIMTDEC
 70
     4
  9
$DIMALTU
 70
     2
  9
$DIMALTTD
 70
     2
  9
$DIMTXSTY
  7
Standard
  9
$DIMAUNIT
 70
     0
  9
$DIMADEC
 70
     0
  9
$DIMALTRND
 40
0.0
  9
$DIMAZIN
 70
     0
  9
$DIMDSEP
 70
    46
  9
$DIMATFIT
 70
     3
  9
$DIMFRAC
 70
     0
  9
$DIMLDRBLK
  1

  9
$DIMLUNIT
 70
     2
  9
$DIMLWD
 70
    -2
  9
$DIMLWE
 70
    -2
  9
$DIMTMOVE
 70
     0
  9
$LUNITS
 70
     2
  9
$LUPREC
 70
     4
  9
$SKETCHINC
 40
0.1
  9
$FILLETRAD
 40
0.5
  9
$AUNITS
 70
     0
  9
$AUPREC
 70
     0
  9
$MENU
  1
.
  9
$ELEVATION
 40
0.0
  9
$PELEVATION
 40
0.0
  9
$THICKNESS
 40
0.0
  9
$LIMCHECK
 70
     0
  9
$CHAMFERA
 40
0.5
  9
$CHAMFERB
 40
0.5
  9
$CHAMFERC
 40
1.0
  9
$CHAMFERD
 40
0.0
  9
$SKPOLY
 70
     0
  9
$TDCREATE
 40
2454823.554236643
  9
$TDUCREATE
 40
2454823.179236643
  9
$TDUPDATE
 40
2454823.554236655
  9
$TDUUPDATE
 40
2454823.179236655
  9
$TDINDWG
 40
0.0000000116
  9
$TDUSRTIMER
 40
0.0000000116
  9
$USRTIMER
 70
     1
  9
$ANGBASE
 50
0.0
  9
$ANGDIR
 70
     0
  9
$PDMODE
 70
     0
  9
$PDSIZE
 40
0.0
  9
$PLINEWID
 40
0.0
  9
$SPLFRAME
 70
     0
  9
$SPLINETYPE
 70
     6
  9
$SPLINESEGS
 70
     8
  9
$HANDSEED
  5
3C3
  9
$SURFTAB1
 70
     6
  9
$SURFTAB2
 70
     6
  9
$SURFTYPE
 70
     6
  9
$SURFU
 70
     6
  9
$SURFV
 70
     6
  9
$UCSBASE
  2

  9
$UCSNAME
  2

  9
$UCSORG
 10
0.0
 20
0.0
 30
0.0
  9
$UCSXDIR
 10
1.0
 20
0.0
 30
0.0
  9
$UCSYDIR
 10
0.0
 20
1.0
 30
0.0
  9
$UCSORTHOREF
  2

  9
$UCSORTHOVIEW
 70
     0
  9
$UCSORGTOP
 10
0.0
 20
0.0
 30
0.0
  9
$UCSORGBOTTOM
 10
0.0
 20
0.0
 30
0.0
  9
$UCSORGLEFT
 10
0.0
 20
0.0
 30
0.0
  9
$UCSORGRIGHT
 10
0.0
 20
0.0
 30
0.0
  9
$UCSORGFRONT
 10
0.0
 20
0.0
 30
0.0
  9
$UCSORGBACK
 10
0.0
 20
0.0
 30
0.0
  9
$PUCSBASE
  2

  9
$PUCSNAME
  2

  9
$PUCSORG
 10
0.0
 20
0.0
 30
0.0
  9
$PUCSXDIR
 10
1.0
 20
0.0
 30
0.0
  9
$PUCSYDIR
 10
0.0
 20
1.0
 30
0.0
  9
$PUCSORTHOREF
  2

  9
$PUCSORTHOVIEW
 70
     0
  9
$PUCSORGTOP
 10
0.0
 20
0.0
 30
0.0
  9
$PUCSORGBOTTOM
 10
0.0
 20
0.0
 30
0.0
  9
$PUCSORGLEFT
 10
0.0
 20
0.0
 30
0.0
  9
$PUCSORGRIGHT
 10
0.0
 20
0.0
 30
0.0
  9
$PUCSORGFRONT
 10
0.0
 20
0.0
 30
0.0
  9
$PUCSORGBACK
 10
0.0
 20
0.0
 30
0.0
  9
$USERI1
 70
     0
  9
$USERI2
 70
     0
  9
$USERI3
 70
     0
  9
$USERI4
 70
     0
  9
$USERI5
 70
     0
  9
$USERR1
 40
14.5
  9
$USERR2
 40
0.0
  9
$USERR3
 40
0.0
  9
$USERR4
 40
0.0
  9
$USERR5
 40
0.0
  9
$WORLDVIEW
 70
     1
  9
$SHADEDGE
 70
     3
  9
$SHADEDIF
 70
    70
  9
$TILEMODE
 70
     1
  9
$MAXACTVP
 70
    64
  9
$PINSBASE
 10
0.0
 20
0.0
 30
0.0
  9
$PLIMCHECK
 70
     0
  9
$PEXTMIN
 10
1.00000000000000E+20
 20
1.00000000000000E+20
 30
1.00000000000000E+20
  9
$PEXTMAX
 10
-1.00000000000000E+20
 20
-1.00000000000000E+20
 30
-1.00000000000000E+20
  9
$PLIMMIN
 10
0.0
 20
0.0
  9
$PLIMMAX
 10
12.0
 20
9.0
  9
$UNITMODE
 70
     0
  9
$VISRETAIN
 70
     1
  9
$PLINEGEN
 70
     0
  9
$PSLTSCALE
 70
     1
  9
$TREEDEPTH
 70
  3020
  9
$CMLSTYLE
  2
Standard
  9
$CMLJUST
 70
     0
  9
$CMLSCALE
 40
1.0
  9
$PROXYGRAPHICS
 70
     1
  9
$MEASUREMENT
 70
     1
  9
$CELWEIGHT
370
    -1
  9
$ENDCAPS
280
     0
  9
$JOINSTYLE
280
     0
  9
$LWDISPLAY
290
     0
  9
$INSUNITS
 70
     1
  9
$HYPERLINKBASE
  1

  9
$STYLESHEET
  1

  9
$XEDIT
290
     1
  9
$CEPSNTYPE
380
     0
  9
$PSTYLEMODE
290
     1
  9
$FINGERPRINTGUID
  2
{341D0293-217A-41B8-B9DA-7BD4D0D6F7FE}
  9
$VERSIONGUID
  2
{FAEB1C32-E019-11D5-929B-00C0DF256EC4}
  9
$EXTNAMES
290
     1
  9
$PSVPSCALE
 40
0.0
  9
$OLESTARTUP
290
     0
  0
ENDSEC
  0
SECTION
  2
CLASSES
  0
CLASS
  1
ACDBDICTIONARYWDFLT
  2
AcDbDictionaryWithDefault
  3
ObjectDBX Classes
 90
        0
280
     0
281
     0
  0
CLASS
  1

  2
exOdDbCircle
  3

 90
        0
280
     0
281
     1
  0
CLASS
  1

  2
exOdDbSpline
  3

 90
        0
280
     0
281
     1
  0
CLASS
  1
ACDBPLACEHOLDER
  2
AcDbPlaceHolder
  3
ObjectDBX Classes
 90
        0
280
     0
281
     0
  0
CLASS
  1
LAYOUT
  2
AcDbLayout
  3
ObjectDBX Classes
 90
        0
280
     0
281
     0
  0
ENDSEC
  0
SECTION
  2
TABLES
  0
TABLE
  2
VPORT
  5
8
330
0
100
AcDbSymbolTable
 70
     1
  0
VPORT
  5
29
330
8
100
AcDbSymbolTableRecord
100
AcDbViewportTableRecord
  2
*Active
 70
     0
 10
0.0
 20
0.0
 11
1.0
 21
1.0
 12
587.4542740392017
 22
304.3045304497298
 13
0.0
 23
0.0
 14
0.5
 24
0.5
 15
0.5
 25
0.5
 16
0.0
 26
0.0
 36
1.0
 17
0.0
 27
0.0
 37
0.0
 40
231.87203310971
 41
1.60267857142857
 42
50.0
 43
0.0
 44
0.0
 50
0.0
 51
0.0
 71
     0
 72
   100
 73
     1
 74
     3
 75
     0
 76
     0
 77
     0
 78
     0
281
     0
 65
     1
110
0.0
120
0.0
130
0.0
111
1.0
121
0.0
131
0.0
112
0.0
122
1.0
132
0.0
 79
     0
146
0.0
  0
ENDTAB
  0
TABLE
  2
LTYPE
  5
5
330
0
100
AcDbSymbolTable
 70
     8
  0
LTYPE
  5
14
330
5
100
AcDbSymbolTableRecord
100
AcDbLinetypeTableRecord
  2
ByBlock
 70
     0
  3

 72
    65
 73
     0
 40
0.0
  0
LTYPE
  5
15
330
5
100
AcDbSymbolTableRecord
100
AcDbLinetypeTableRecord
  2
ByLayer
 70
     0
  3

 72
    65
 73
     0
 40
0.0
  0
LTYPE
  5
16
330
5
100
AcDbSymbolTableRecord
100
AcDbLinetypeTableRecord
  2
Continuous
 70
     0
  3
Solid line
 72
    65
 73
     0
 40
0.0
  0
LTYPE
  5
2A
330
5
100
AcDbSymbolTableRecord
100
AcDbLinetypeTableRecord
  2
DASHED
 70
     0
  3
Dashed
 72
    65
 73
     2
 40
15.0
 49
7.0
 74
     0
 49
-8.0
 74
     0
  0
LTYPE
  5
2B
330
5
100
AcDbSymbolTableRecord
100
AcDbLinetypeTableRecord
  2
DOTTED
 70
     0
  3
Dotted
 72
    65
 73
     2
 40
1.0
 49
0.0
 74
     0
 49
-1.0
 74
     0
  0
LTYPE
  5
2C
330
5
100
AcDbSymbolTableRecord
100
AcDbLinetypeTableRecord
  2
DOT_CENTER
 70
     0
  3
Dot_Center
 72
    65
 73
     4
 40
14.0
 49
12.0
 74
     0
 49
-1.0
 74
     0
 49
0.0
 74
     0
 49
-1.0
 74
     0
  0
LTYPE
  5
2D
330
5
100
AcDbSymbolTableRecord
100
AcDbLinetypeTableRecord
  2
LONG_DASHED
 70
     0
  3
Long_Dashed
 72
    65
 73
     2
 40
15.0
 49
10.0
 74
     0
 49
-5.0
 74
     0
  0
LTYPE
  5
2E
330
5
100
AcDbSymbolTableRecord
100
AcDbLinetypeTableRecord
  2
DASH_CENTER
 70
     0
  3
Dash_Center
 72
    65
 73
     4
 40
14.0
 49
11.0
 74
     0
 49
-1.0
 74
     0
 49
1.0
 74
     0
 49
-1.0
 74
     0
  0
LTYPE
  5
2F
330
5
100
AcDbSymbolTableRecord
100
AcDbLinetypeTableRecord
  2
PHANTOM
 70
     0
  3
Phantom
 72
    65
 73
     6
 40
13.0
 49
10.0
 74
     0
 49
-1.0
 74
     0
 49
0.0
 74
     0
 49
-1.0
 74
     0
 49
0.0
 74
     0
 49
-1.0
 74
     0
  0
LTYPE
  5
30
330
5
100
AcDbSymbolTableRecord
100
AcDbLinetypeTableRecord
  2
CENTER_DASH_DASH
 70
     0
  3
Center_Dash_Dash
 72
    65
 73
     6
 40
14.0
 49
9.0
 74
     0
 49
-1.0
 74
     0
 49
1.0
 74
     0
 49
-1.0
 74
     0
 49
1.0
 74
     0
 49
-1.0
 74
     0
  0
ENDTAB
  0
TABLE
  2
LAYER
  5
2
330
0
100
AcDbSymbolTable
 70
     2
  0
LAYER
  5
10
330
2
100
AcDbSymbolTableRecord
100
AcDbLayerTableRecord
  2
0
 70
     0
 62
     7
  6
Continuous
370
    -3
390
F
  0
LAYER
  5
31
330
2
100
AcDbSymbolTableRecord
100
AcDbLayerTableRecord
  2
1
 70
     0
 62
     7
  6
Continuous
370
    -3
390
F
  0
ENDTAB
  0
TABLE
  2
STYLE
  5
3
330
0
100
AcDbSymbolTable
 70
     3
  0
STYLE
  5
11
330
3
100
AcDbSymbolTableRecord
100
AcDbTextStyleTableRecord
  2
Standard
 70
     0
 40
0.0
 41
1.0
 50
0.0
 71
     0
 42
0.2
  3
txt
  4

  0
STYLE
  5
334
330
3
100
AcDbSymbolTableRecord
100
AcDbTextStyleTableRecord
  2
CONVERTER_11
 70
     0
 40
0.0
 41
0.89
 50
0.0
 71
     0
 42
0.2
  3
msmincho.ttc
  4

1001
ACAD
1000
MS Mincho
1071
    32785
  0
STYLE
  5
340
330
3
100
AcDbSymbolTableRecord
100
AcDbTextStyleTableRecord
  2
CONVERTER_12
 70
     0
 40
0.0
 41
0.95
 50
0.0
 71
     0
 42
0.2
  3
txt.shx
  4

  0
ENDTAB
  0
TABLE
  2
VIEW
  5
6
330
0
100
AcDbSymbolTable
 70
     0
  0
ENDTAB
  0
TABLE
  2
UCS
  5
7
330
0
100
AcDbSymbolTable
 70
     0
  0
ENDTAB
  0
TABLE
  2
APPID
  5
9
330
0
100
AcDbSymbolTable
 70
     1
  0
APPID
  5
12
330
9
100
AcDbSymbolTableRecord
100
AcDbRegAppTableRecord
  2
ACAD
 70
     0
  0
ENDTAB
  0
TABLE
  2
DIMSTYLE
  5
A
330
0
100
AcDbSymbolTable
 70
    13
100
AcDbDimStyleTable
  0
DIMSTYLE
105
27
330
A
100
AcDbSymbolTableRecord
100
AcDbDimStyleTableRecord
  2
Standard
 70
     0
340
11
  0
DIMSTYLE
105
338
102
{ACAD_REACTORS
330
339
102
}
330
A
100
AcDbSymbolTableRecord
100
AcDbDimStyleTableRecord
  2
ME10_DIM_10
 70
     0
  3
φ<>
 41
3.5
 42
1.0
 44
1.5
 48
0.012
 71
     1
 73
     0
 74
     0
 77
     1
 78
     8
140
3.5
146
0.7
147
2.0
172
     1
173
     1
176
     2
177
     2
178
     2
272
     0
340
334
  0
DIMSTYLE
105
344
102
{ACAD_REACTORS
330
345
102
}
330
A
100
AcDbSymbolTableRecord
100
AcDbDimStyleTableRecord
  2
ME10_DIM_11
 70
     0
 41
3.5
 42
1.0
 44
1.5
 47
0.25
 48
0.25
 71
     1
 73
     0
 74
     0
 77
     1
 78
     8
140
3.5
146
0.7
147
2.0
172
     1
173
     1
176
     2
177
     2
178
     2
272
     2
340
340
  0
DIMSTYLE
105
34F
102
{ACAD_REACTORS
330
350
102
}
330
A
100
AcDbSymbolTableRecord
100
AcDbDimStyleTableRecord
  2
ME10_DIM_12
 70
     0
 41
3.5
 42
1.0
 44
1.5
 47
0.1
 48
0.1
 71
     1
 73
     0
 74
     0
 77
     1
 78
     8
140
3.5
146
0.7
147
2.0
172
     1
173
     1
176
     2
177
     2
178
     2
272
     1
340
340
  0
DIMSTYLE
105
35A
102
{ACAD_REACTORS
330
35B
102
}
330
A
100
AcDbSymbolTableRecord
100
AcDbDimStyleTableRecord
  2
ME10_DIM_13
 70
     0
 41
3.5
 42
1.0
 44
1.5
 47
0.1
 48
0.1
 71
     1
 73
     0
 74
     0
 77
     1
 78
     8
140
3.5
146
0.7
147
2.0
172
     1
173
     1
176
     2
177
     2
178
     2
272
     1
340
340
  0
DIMSTYLE
105
365
102
{ACAD_REACTORS
330
366
102
}
330
A
100
AcDbSymbolTableRecord
100
AcDbDimStyleTableRecord
  2
ME10_DIM_14
 70
     0
 41
3.5
 42
1.0
 44
1.5
 47
0.25
 48
0.25
 71
     1
 73
     0
 74
     0
 77
     1
 78
     8
140
3.5
146
0.7
147
2.0
172
     1
173
     1
176
     2
177
     2
178
     2
272
     2
340
340
  0
DIMSTYLE
105
370
102
{ACAD_REACTORS
330
371
102
}
330
A
100
AcDbSymbolTableRecord
100
AcDbDimStyleTableRecord
  2
ME10_DIM_15
 70
     0
  3
MAX.
 41
3.5
 42
1.0
 44
1.5
 73
     0
 74
     0
 77
     1
 78
     8
140
3.5
147
2.0
172
     1
173
     1
176
     2
177
     2
178
     2
340
340
  0
DIMSTYLE
105
37D
102
{ACAD_REACTORS
330
37E
102
}
330
A
100
AcDbSymbolTableRecord
100
AcDbDimStyleTableRecord
  2
ME10_DIM_16
 70
     0
 41
3.5
 42
1.0
 44
1.5
 73
     0
 74
     0
 77
     1
 78
     8
140
3.5
147
2.0
172
     1
173
     1
176
     2
177
     2
178
     3
340
340
  0
DIMSTYLE
105
38B
102
{ACAD_REACTORS
330
38C
102
}
330
A
100
AcDbSymbolTableRecord
100
AcDbDimStyleTableRecord
  2
ME10_DIM_17
 70
     0
 41
3.5
 42
1.0
 44
1.5
 73
     0
 74
     0
 77
     1
 78
     8
140
3.5
147
2.0
172
     1
173
     1
176
     2
177
     2
178
     2
340
340
343
388
  0
DIMSTYLE
105
398
102
{ACAD_REACTORS
330
399
102
}
330
A
100
AcDbSymbolTableRecord
100
AcDbDimStyleTableRecord
  2
ME10_DIM_18
 70
     0
 41
3.5
 42
1.0
 44
1.5
 47
0.2
 48
0.2
 71
     1
 73
     0
 74
     0
 77
     1
 78
     8
140
3.5
146
0.7
147
2.0
172
     1
173
     1
176
     2
177
     2
178
     2
272
     1
340
340
  0
DIMSTYLE
105
3A3
102
{ACAD_REACTORS
330
3A4
102
}
330
A
100
AcDbSymbolTableRecord
100
AcDbDimStyleTableRecord
  2
ME10_DIM_19
 70
     0
 41
3.5
 42
1.0
 44
1.5
 47
1.0
 48
1.0
 71
     1
 73
     0
 74
     0
 77
     1
 78
     8
140
3.5
146
0.7
147
2.0
172
     1
173
     1
176
     2
177
     2
178
     2
272
     0
340
340
  0
DIMSTYLE
105
3AE
102
{ACAD_REACTORS
330
3AF
102
}
330
A
100
AcDbSymbolTableRecord
100
AcDbDimStyleTableRecord
  2
ME10_DIM_20
 70
     0
  3
φ<>
 41
3.5
 42
1.0
 44
1.5
 48
0.025
 71
     1
 73
     0
 74
     0
 77
     1
 78
     8
140
3.5
146
0.7
147
2.0
172
     1
173
     1
176
     2
177
     2
178
     2
272
     0
340
334
  0
DIMSTYLE
105
3B9
102
{ACAD_REACTORS
330
3BA
102
}
330
A
100
AcDbSymbolTableRecord
100
AcDbDimStyleTableRecord
  2
ME10_DIM_21
 70
     0
 41
3.5
 42
1.0
 44
1.5
 73
     0
 74
     0
 77
     1
 78
     8
140
3.5
147
2.0
172
     1
173
     1
176
     2
177
     2
178
     3
340
340
  0
ENDTAB
  0
TABLE
  2
BLOCK_RECORD
  5
1
330
0
100
AcDbSymbolTable
 70
    15
  0
BLOCK_RECORD
  5
1F
330
1
100
AcDbSymbolTableRecord
100
AcDbBlockTableRecord
  2
*Model_Space
340
22
  0
BLOCK_RECORD
  5
1B
330
1
100
AcDbSymbolTableRecord
100
AcDbBlockTableRecord
  2
*Paper_Space
340
1E
  0
BLOCK_RECORD
  5
23
330
1
100
AcDbSymbolTableRecord
100
AcDbBlockTableRecord
  2
*Paper_Space0
340
26
  0
BLOCK_RECORD
  5
32C
330
1
100
AcDbSymbolTableRecord
100
AcDbBlockTableRecord
  2
*D1
340
0
  0
BLOCK_RECORD
  5
33A
330
1
100
AcDbSymbolTableRecord
100
AcDbBlockTableRecord
  2
*D2
340
0
  0
BLOCK_RECORD
  5
346
330
1
100
AcDbSymbolTableRecord
100
AcDbBlockTableRecord
  2
*D3
340
0
  0
BLOCK_RECORD
  5
351
330
1
100
AcDbSymbolTableRecord
100
AcDbBlockTableRecord
  2
*D4
340
0
  0
BLOCK_RECORD
  5
35C
330
1
100
AcDbSymbolTableRecord
100
AcDbBlockTableRecord
  2
*D5
340
0
  0
BLOCK_RECORD
  5
367
330
1
100
AcDbSymbolTableRecord
100
AcDbBlockTableRecord
  2
*D6
340
0
  0
BLOCK_RECORD
  5
372
330
1
100
AcDbSymbolTableRecord
100
AcDbBlockTableRecord
  2
*D7
340
0
  0
BLOCK_RECORD
  5
37F
330
1
100
AcDbSymbolTableRecord
100
AcDbBlockTableRecord
  2
*D8
340
0
  0
BLOCK_RECORD
  5
388
330
1
100
AcDbSymbolTableRecord
100
AcDbBlockTableRecord
  2
_None
340
0
  0
BLOCK_RECORD
  5
38D
330
1
100
AcDbSymbolTableRecord
100
AcDbBlockTableRecord
  2
*D10
340
0
  0
BLOCK_RECORD
  5
39A
330
1
100
AcDbSymbolTableRecord
100
AcDbBlockTableRecord
  2
*D11
340
0
  0
BLOCK_RECORD
  5
3A5
330
1
100
AcDbSymbolTableRecord
100
AcDbBlockTableRecord
  2
*D12
340
0
  0
BLOCK_RECORD
  5
3B0
330
1
100
AcDbSymbolTableRecord
100
AcDbBlockTableRecord
  2
*D13
340
0
  0
BLOCK_RECORD
  5
3BB
330
1
100
AcDbSymbolTableRecord
100
AcDbBlockTableRecord
  2
*D14
340
0
102
{BLKREFS
331
3C2
102
}
  0
ENDTAB
  0
ENDSEC
  0
SECTION
  2
BLOCKS
  0
BLOCK
  5
20
330
1F
100
AcDbEntity
  8
0
100
AcDbBlockBegin
  2
*Model_Space
 70
     0
 71
     0
 10
0.0
 20
0.0
 30
0.0
  3
*Model_Space
  1

  0
ENDBLK
  5
21
330
1F
100
AcDbEntity
  8
0
100
AcDbBlockEnd
  0
BLOCK
  5
1C
330
1B
100
AcDbEntity
 67
     1
  8
0
100
AcDbBlockBegin
  2
*Paper_Space
 70
     0
 71
     0
 10
0.0
 20
0.0
 30
0.0
  3
*Paper_Space
  1

  0
ENDBLK
  5
1D
330
1B
100
AcDbEntity
 67
     1
  8
0
100
AcDbBlockEnd
  0
BLOCK
  5
24
330
23
100
AcDbEntity
  8
0
100
AcDbBlockBegin
  2
*Paper_Space0
 70
     0
 71
     0
 10
0.0
 20
0.0
 30
0.0
  3
*Paper_Space0
  1

  0
ENDBLK
  5
25
330
23
100
AcDbEntity
  8
0
100
AcDbBlockEnd
  0
BLOCK
  5
336
330
32C
100
AcDbEntity
  8
0
100
AcDbBlockBegin
  2
*D1
 70
     1
 71
     0
 10
0.0
 20
0.0
 30
0.0
  3
*D1
  1

  0
LINE
  5
32D
330
32C
100
AcDbEntity
  8
1
  6
Continuous
 62
     2
100
AcDbLine
 10
543.6303812689351
 20
278.500765810816
 30
0.0
 11
543.6303812689351
 21
283.500765810816
 31
0.0
  0
LINE
  5
32E
330
32C
100
AcDbEntity
  8
1
  6
Continuous
 62
     2
100
AcDbLine
 10
543.6303812689351
 20
278.500765810816
 30
0.0
 11
543.6303812689351
 21
271.500765810816
 31
0.0
  0
LINE
  5
32F
330
32C
100
AcDbEntity
  8
1
  6
Continuous
 62
     2
100
AcDbLine
 10
543.6303812689351
 20
283.500765810816
 30
0.0
 11
543.6303812689351
 21
290.500765810816
 31
0.0
  0
LINE
  5
330
330
32C
100
AcDbEntity
  8
1
  6
Continuous
 62
     2
100
AcDbLine
 10
561.5509156225173
 20
278.500765810816
 30
0.0
 11
542.1303812689351
 21
278.500765810816
 31
0.0
  0
LINE
  5
331
330
32C
100
AcDbEntity
  8
1
  6
Continuous
 62
     2
100
AcDbLine
 10
561.5509156225173
 20
283.500765810816
 30
0.0
 11
542.1303812689351
 21
283.500765810816
 31
0.0
  0
SOLID
  5
332
330
32C
100
AcDbEntity
  8
1
 62
     2
100
AcDbTrace
 10
543.1695975273792
 20
287.000765810816
 30
0.0
 11
544.0911650104911
 21
287.000765810816
 31
0.0
 12
543.6303812689351
 22
283.500765810816
 32
0.0
 13
543.6303812689351
 23
283.500765810816
 33
0.0
  0
SOLID
  5
333
330
32C
100
AcDbEntity
  8
1
 62
     2
100
AcDbTrace
 10
544.0911650104911
 20
275.000765810816
 30
0.0
 11
543.1695975273792
 21
275.000765810816
 31
0.0
 12
543.6303812689351
 22
278.500765810816
 32
0.0
 13
543.6303812689351
 23
278.500765810816
 33
0.0
  0
MTEXT
  5
335
330
32C
100
AcDbEntity
  8
1
 62
     2
100
AcDbMText
 10
540.3178812689351
 20
269.800880189901
 30
0.0
 40
3.5
 41
0.0
 71
     7
 72
     1
  1
\C2;φ\C2;\C2;5\C2;\H2.45;\S 0^ -0.012;
  7
CONVERTER_11
 11
0.0
 21
1.0
 31
0.0
 73
     1
 44
0.60024009603842
  0
ENDBLK
  5
337
330
32C
100
AcDbEntity
  8
0
100
AcDbBlockEnd
  0
BLOCK
  5
342
330
33A
100
AcDbEntity
  8
0
100
AcDbBlockBegin
  2
*D2
 70
     1
 71
     0
 10
0.0
 20
0.0
 30
0.0
  3
*D2
  1

  0
LINE
  5
33B
330
33A
100
AcDbEntity
  8
1
  6
Continuous
 62
     2
100
AcDbLine
 10
424.037756412607
 20
302.000765810816
 30
0.0
 11
424.037756412607
 21
260.000765810816
 31
0.0
  0
LINE
  5
33C
330
33A
100
AcDbEntity
  8
1
  6
Continuous
 62
     2
100
AcDbLine
 10
449.9580466958511
 20
260.000765810816
 30
0.0
 11
422.537756412607
 21
260.000765810816
 31
0.0
  0
LINE
  5
33D
330
33A
100
AcDbEntity
  8
1
  6
Continuous
 62
     2
100
AcDbLine
 10
449.9580466958511
 20
302.000765810816
 30
0.0
 11
422.537756412607
 21
302.000765810816
 31
0.0
  0
SOLID
  5
33E
330
33A
100
AcDbEntity
  8
1
 62
     2
100
AcDbTrace
 10
424.4985401541629
 20
298.500765810816
 30
0.0
 11
423.5769726710511
 21
298.500765810816
 31
0.0
 12
424.037756412607
 22
302.000765810816
 32
0.0
 13
424.037756412607
 23
302.000765810816
 33
0.0
  0
SOLID
  5
33F
330
33A
100
AcDbEntity
  8
1
 62
     2
100
AcDbTrace
 10
423.5769726710511
 20
263.500765810816
 30
0.0
 11
424.4985401541629
 21
263.500765810816
 31
0.0
 12
424.037756412607
 22
260.000765810816
 32
0.0
 13
424.037756412607
 23
260.000765810816
 33
0.0
  0
MTEXT
  5
341
330
33A
100
AcDbEntity
  8
1
 62
     2
100
AcDbMText
 10
422.037756412607
 20
272.3434128696396
 30
0.0
 40
3.5
 41
0.0
 71
     7
 72
     1
  1
\C2;42\C2;\H2.45;{\Fgdt;`}0.25
  7
CONVERTER_12
 11
0.0
 21
1.0
 31
0.0
 73
     1
 44
0.60024009603842
  0
ENDBLK
  5
343
330
33A
100
AcDbEntity
  8
0
100
AcDbBlockEnd
  0
BLOCK
  5
34D
330
346
100
AcDbEntity
  8
0
100
AcDbBlockBegin
  2
*D3
 70
     1
 71
     0
 10
0.0
 20
0.0
 30
0.0
  3
*D3
  1

  0
LINE
  5
347
330
346
100
AcDbEntity
  8
1
  6
Continuous
 62
     2
100
AcDbLine
 10
434.037756412607
 20
296.500765810816
 30
0.0
 11
434.037756412607
 21
265.500765810816
 31
0.0
  0
LINE
  5
348
330
346
100
AcDbEntity
  8
1
  6
Continuous
 62
     2
100
AcDbLine
 10
447.387756412607
 20
265.500765810816
 30
0.0
 11
432.537756412607
 21
265.500765810816
 31
0.0
  0
LINE
  5
349
330
346
100
AcDbEntity
  8
1
  6
Continuous
 62
     2
100
AcDbLine
 10
447.387756412607
 20
296.500765810816
 30
0.0
 11
432.537756412607
 21
296.500765810816
 31
0.0
  0
SOLID
  5
34A
330
346
100
AcDbEntity
  8
1
 62
     2
100
AcDbTrace
 10
434.4985401541629
 20
293.000765810816
 30
0.0
 11
433.5769726710511
 21
293.000765810816
 31
0.0
 12
434.037756412607
 22
296.500765810816
 32
0.0
 13
434.037756412607
 23
296.500765810816
 33
0.0
  0
SOLID
  5
34B
330
346
100
AcDbEntity
  8
1
 62
     2
100
AcDbTrace
 10
433.5769726710511
 20
269.000765810816
 30
0.0
 11
434.4985401541629
 21
269.000765810816
 31
0.0
 12
434.037756412607
 22
265.500765810816
 32
0.0
 13
434.037756412607
 23
265.500765810816
 33
0.0
  0
MTEXT
  5
34C
330
346
100
AcDbEntity
  8
1
 62
     2
100
AcDbMText
 10
432.037756412607
 20
274.5772363990513
 30
0.0
 40
3.5
 41
0.0
 71
     7
 72
     1
  1
\C2;31\C2;\H2.45;{\Fgdt;`}0.1
  7
CONVERTER_12
 11
0.0
 21
1.0
 31
0.0
 73
     1
 44
0.60024009603842
  0
ENDBLK
  5
34E
330
346
100
AcDbEntity
  8
0
100
AcDbBlockEnd
  0
BLOCK
  5
358
330
351
100
AcDbEntity
  8
0
100
AcDbBlockBegin
  2
*D4
 70
     1
 71
     0
 10
0.0
 20
0.0
 30
0.0
  3
*D4
  1

  0
LINE
  5
352
330
351
100
AcDbEntity
  8
1
  6
Continuous
 62
     2
100
AcDbLine
 10
450.787756412607
 20
240.9493562092861
 30
0.0
 11
481.787756412607
 21
240.9493562092861
 31
0.0
  0
LINE
  5
353
330
351
100
AcDbEntity
  8
1
  6
Continuous
 62
     2
100
AcDbLine
 10
450.787756412607
 20
262.100765810816
 30
0.0
 11
450.787756412607
 21
239.4493562092861
 31
0.0
  0
LINE
  5
354
330
351
100
AcDbEntity
  8
1
  6
Continuous
 62
     2
100
AcDbLine
 10
481.787756412607
 20
262.100765810816
 30
0.0
 11
481.787756412607
 21
239.4493562092861
 31
0.0
  0
SOLID
  5
355
330
351
100
AcDbEntity
  8
1
 62
     2
100
AcDbTrace
 10
454.287756412607
 20
241.410139950842
 30
0.0
 11
454.287756412607
 21
240.4885724677302
 31
0.0
 12
450.787756412607
 22
240.9493562092861
 32
0.0
 13
450.787756412607
 23
240.9493562092861
 33
0.0
  0
SOLID
  5
356
330
351
100
AcDbEntity
  8
1
 62
     2
100
AcDbTrace
 10
478.287756412607
 20
240.4885724677302
 30
0.0
 11
478.287756412607
 21
241.410139950842
 31
0.0
 12
481.787756412607
 22
240.9493562092861
 32
0.0
 13
481.787756412607
 23
240.9493562092861
 33
0.0
  0
MTEXT
  5
357
330
351
100
AcDbEntity
  8
1
 62
     2
100
AcDbMText
 10
459.8642270008423
 20
242.9493562092861
 30
0.0
 40
3.5
 41
0.0
 71
     7
 72
     1
  1
\C2;31\C2;\H2.45;{\Fgdt;`}0.1
  7
CONVERTER_12
 11
0.9999999999970621
 21
2.424068405545307E-6
 31
0.0
 73
     1
 44
0.60024009603842
  0
ENDBLK
  5
359
330
351
100
AcDbEntity
  8
0
100
AcDbBlockEnd
  0
BLOCK
  5
363
330
35C
100
AcDbEntity
  8
0
100
AcDbBlockBegin
  2
*D5
 70
     1
 71
     0
 10
0.0
 20
0.0
 30
0.0
  3
*D5
  1

  0
LINE
  5
35D
330
35C
100
AcDbEntity
  8
1
  6
Continuous
 62
     2
100
AcDbLine
 10
445.287756412607
 20
230.9962357183884
 30
0.0
 11
487.287756412607
 21
230.9962357183884
 31
0.0
  0
LINE
  5
35E
330
35C
100
AcDbEntity
  8
1
  6
Continuous
 62
     2
100
AcDbLine
 10
445.287756412607
 20
264.6710560940601
 30
0.0
 11
445.287756412607
 21
229.4962357183884
 31
0.0
  0
LINE
  5
35F
330
35C
100
AcDbEntity
  8
1
  6
Continuous
 62
     2
100
AcDbLine
 10
487.287756412607
 20
264.6710560940601
 30
0.0
 11
487.287756412607
 21
229.4962357183884
 31
0.0
  0
SOLID
  5
360
330
35C
100
AcDbEntity
  8
1
 62
     2
100
AcDbTrace
 10
448.787756412607
 20
231.4570194599443
 30
0.0
 11
448.787756412607
 21
230.5354519768325
 31
0.0
 12
445.287756412607
 22
230.9962357183884
 32
0.0
 13
445.287756412607
 23
230.9962357183884
 33
0.0
  0
SOLID
  5
361
330
35C
100
AcDbEntity
  8
1
 62
     2
100
AcDbTrace
 10
483.787756412607
 20
230.5354519768325
 30
0.0
 11
483.787756412607
 21
231.4570194599443
 31
0.0
 12
487.287756412607
 22
230.9962357183884
 32
0.0
 13
487.287756412607
 23
230.9962357183884
 33
0.0
  0
MTEXT
  5
362
330
35C
100
AcDbEntity
  8
1
 62
     2
100
AcDbMText
 10
457.6304034714306
 20
232.9962357183884
 30
0.0
 40
3.5
 41
0.0
 71
     7
 72
     1
  1
\C2;42\C2;\H2.45;{\Fgdt;`}0.25
  7
CONVERTER_12
 11
0.9999999999970621
 21
2.424068405545307E-6
 31
0.0
 73
     1
 44
0.60024009603842
  0
ENDBLK
  5
364
330
35C
100
AcDbEntity
  8
0
100
AcDbBlockEnd
  0
BLOCK
  5
36E
330
367
100
AcDbEntity
  8
0
100
AcDbBlockBegin
  2
*D6
 70
     1
 71
     0
 10
0.0
 20
0.0
 30
0.0
  3
*D6
  1

  0
LINE
  5
368
330
367
100
AcDbEntity
  8
1
  6
Continuous
 62
     2
100
AcDbLine
 10
586.2509156225173
 20
231.250765810816
 30
0.0
 11
619.7509156225173
 21
231.250765810816
 31
0.0
  0
LINE
  5
369
330
367
100
AcDbEntity
  8
1
  6
Continuous
 62
     2
100
AcDbLine
 10
619.7509156225173
 20
259.500765810816
 30
0.0
 11
619.7509156225173
 21
229.750765810816
 31
0.0
  0
LINE
  5
36A
330
367
100
AcDbEntity
  8
1
  6
Continuous
 62
     2
100
AcDbLine
 10
586.2509156225173
 20
259.500765810816
 30
0.0
 11
586.2509156225173
 21
229.750765810816
 31
0.0
  0
SOLID
  5
36B
330
367
100
AcDbEntity
  8
1
 62
     2
100
AcDbTrace
 10
589.7509156225173
 20
231.7115495523719
 30
0.0
 11
589.7509156225173
 21
230.7899820692601
 31
0.0
 12
586.2509156225173
 22
231.250765810816
 32
0.0
 13
586.2509156225173
 23
231.250765810816
 33
0.0
  0
SOLID
  5
36C
330
367
100
AcDbEntity
  8
1
 62
     2
100
AcDbTrace
 10
616.2509156225173
 20
230.7899820692601
 30
0.0
 11
616.2509156225173
 21
231.7115495523719
 31
0.0
 12
619.7509156225173
 22
231.250765810816
 32
0.0
 13
619.7509156225173
 23
231.250765810816
 33
0.0
  0
MTEXT
  5
36D
330
367
100
AcDbEntity
  8
1
 62
     2
100
AcDbMText
 10
593.8391509166349
 20
233.250765810816
 30
0.0
 40
3.5
 41
0.0
 71
     7
 72
     1
  1
\C2;34\C2;MAX.
  7
CONVERTER_12
 11
0.9999999999970621
 21
2.424068405545307E-6
 31
0.0
 73
     1
 44
0.60024009603842
  0
ENDBLK
  5
36F
330
367
100
AcDbEntity
  8
0
100
AcDbBlockEnd
  0
BLOCK
  5
37B
330
372
100
AcDbEntity
  8
0
100
AcDbBlockBegin
  2
*D7
 70
     1
 71
     0
 10
0.0
 20
0.0
 30
0.0
  3
*D7
  1

  0
LINE
  5
373
330
372
100
AcDbEntity
  8
1
  6
Continuous
 62
     2
100
AcDbLine
 10
586.2509156225173
 20
311.5983111085997
 30
0.0
 11
590.7509156225173
 21
311.5983111085997
 31
0.0
  0
LINE
  5
374
330
372
100
AcDbEntity
  8
1
  6
Continuous
 62
     2
100
AcDbLine
 10
586.2509156225173
 20
311.5983111085997
 30
0.0
 11
579.2509156225173
 21
311.5983111085997
 31
0.0
  0
LINE
  5
375
330
372
100
AcDbEntity
  8
1
  6
Continuous
 62
     2
100
AcDbLine
 10
590.7509156225173
 20
311.5983111085997
 30
0.0
 11
597.7509156225173
 21
311.5983111085997
 31
0.0
  0
LINE
  5
376
330
372
100
AcDbEntity
  8
1
  6
Continuous
 62
     2
100
AcDbLine
 10
586.2509156225173
 20
302.500765810816
 30
0.0
 11
586.2509156225173
 21
313.0983111085997
 31
0.0
  0
LINE
  5
377
330
372
100
AcDbEntity
  8
1
  6
Continuous
 62
     2
100
AcDbLine
 10
590.7509156225173
 20
298.500765810816
 30
0.0
 11
590.7509156225173
 21
313.0983111085997
 31
0.0
  0
SOLID
  5
378
330
372
100
AcDbEntity
  8
1
 62
     2
100
AcDbTrace
 10
582.7509156225173
 20
311.1375273670438
 30
0.0
 11
582.7509156225173
 21
312.0590948501556
 31
0.0
 12
586.2509156225173
 22
311.5983111085997
 32
0.0
 13
586.2509156225173
 23
311.5983111085997
 33
0.0
  0
SOLID
  5
379
330
372
100
AcDbEntity
  8
1
 62
     2
100
AcDbTrace
 10
594.2509156225173
 20
312.0590948501556
 30
0.0
 11
594.2509156225173
 21
311.1375273670438
 31
0.0
 12
590.7509156225173
 22
311.5983111085997
 32
0.0
 13
590.7509156225173
 23
311.5983111085997
 33
0.0
  0
MTEXT
  5
37A
330
372
100
AcDbEntity
  8
1
 62
     3
100
AcDbMText
 10
587.6018176890268
 20
313.5983111085997
 30
0.0
 40
3.5
 41
0.0
 71
     7
 72
     1
  1
4-4.5MIN.
  7
CONVERTER_12
 11
0.9999999999970621
 21
2.424068405545307E-6
 31
0.0
 73
     1
 44
0.60024009603842
  0
ENDBLK
  5
37C
330
372
100
AcDbEntity
  8
0
100
AcDbBlockEnd
  0
BLOCK
  5
386
330
37F
100
AcDbEntity
  8
0
100
AcDbBlockBegin
  2
*D8
 70
     1
 71
     0
 10
0.0
 20
0.0
 30
0.0
  3
*D8
  1

  0
LINE
  5
380
330
37F
100
AcDbEntity
  8
1
  6
Continuous
 62
     2
100
AcDbLine
 10
634.0009156225173
 20
377.9989349973251
 30
0.0
 11
634.0009156225173
 21
355.255284023297
 31
0.0
  0
LINE
  5
381
330
37F
100
AcDbEntity
  8
1
  6
Continuous
 62
     2
100
AcDbLine
 10
634.0009156225173
 20
355.255284023297
 30
0.0
 11
634.0009156225173
 21
352.000765810816
 31
0.0
  0
LINE
  5
382
330
37F
100
AcDbEntity
  8
1
  6
Continuous
 62
     2
100
AcDbLine
 10
616.2509156225173
 20
352.000765810816
 30
0.0
 11
635.5009156225173
 21
352.000765810816
 31
0.0
  0
LINE
  5
383
330
37F
100
AcDbEntity
  8
1
  6
Continuous
 62
     2
100
AcDbLine
 10
615.6778393996963
 20
355.255284023297
 30
0.0
 11
635.5009156225173
 21
355.255284023297
 31
0.0
  0
SOLID
  5
384
330
37F
100
AcDbEntity
  8
1
 62
     2
100
AcDbTrace
 10
633.5401318809613
 20
358.755284023297
 30
0.0
 11
634.4616993640732
 21
358.755284023297
 31
0.0
 12
634.0009156225173
 22
355.255284023297
 32
0.0
 13
634.0009156225173
 23
355.255284023297
 33
0.0
  0
MTEXT
  5
385
330
37F
100
AcDbEntity
  8
1
 62
     2
100
AcDbMText
 10
632.0009156225173
 20
359.7783467620309
 30
0.0
 40
3.5
 41
0.0
 71
     7
 72
     1
  1
9.6MAX.
  7
CONVERTER_12
 11
0.0
 21
1.0
 31
0.0
 73
     1
 44
0.60024009603842
  0
ENDBLK
  5
387
330
37F
100
AcDbEntity
  8
0
100
AcDbBlockEnd
  0
BLOCK
  5
389
330
388
100
AcDbEntity
  8
0
100
AcDbBlockBegin
  2
_None
 70
     0
 71
     0
 10
0.0
 20
0.0
 30
0.0
  3
_None
  1

  0
ENDBLK
  5
38A
330
388
100
AcDbEntity
  8
0
100
AcDbBlockEnd
  0
BLOCK
  5
396
330
38D
100
AcDbEntity
  8
0
100
AcDbBlockBegin
  2
*D10
 70
     1
 71
     0
 10
0.0
 20
0.0
 30
0.0
  3
*D10
  1

  0
LINE
  5
38E
330
38D
100
AcDbEntity
  8
1
  6
Continuous
 62
     2
100
AcDbLine
 10
567.5601843291245
 20
241.250765810816
 30
0.0
 11
584.2509156225173
 21
241.250765810816
 31
0.0
  0
LINE
  5
38F
330
38D
100
AcDbEntity
  8
1
  6
Continuous
 62
     2
100
AcDbLine
 10
584.2509156225173
 20
241.250765810816
 30
0.0
 11
586.2509156225173
 21
241.250765810816
 31
0.0
  0
LINE
  5
390
330
38D
100
AcDbEntity
  8
1
  6
Continuous
 62
     2
100
AcDbLine
 10
586.2509156225173
 20
241.250765810816
 30
0.0
 11
593.2509156225173
 21
241.250765810816
 31
0.0
  0
LINE
  5
391
330
38D
100
AcDbEntity
  8
1
  6
Continuous
 62
     2
100
AcDbLine
 10
586.2509156225173
 20
259.500765810816
 30
0.0
 11
586.2509156225173
 21
239.750765810816
 31
0.0
  0
LINE
  5
392
330
38D
100
AcDbEntity
  8
1
  6
Continuous
 62
     2
100
AcDbLine
 10
584.2509156225173
 20
269.2007658108161
 30
0.0
 11
584.2509156225173
 21
239.750765810816
 31
0.0
  0
SOLID
  5
393
330
38D
100
AcDbEntity
  8
1
 62
     2
100
AcDbTrace
 10
580.7509156225173
 20
240.7899820692601
 30
0.0
 11
580.7509156225173
 21
241.7115495523719
 31
0.0
 12
584.2509156225173
 22
241.250765810816
 32
0.0
 13
584.2509156225173
 23
241.250765810816
 33
0.0
  0
SOLID
  5
394
330
38D
100
AcDbEntity
  8
1
 62
     2
100
AcDbTrace
 10
589.7509156225173
 20
241.7115495523719
 30
0.0
 11
589.7509156225173
 21
240.7899820692601
 31
0.0
 12
586.2509156225173
 22
241.250765810816
 32
0.0
 13
586.2509156225173
 23
241.250765810816
 33
0.0
  0
MTEXT
  5
395
330
38D
100
AcDbEntity
  8
1
 62
     2
100
AcDbMText
 10
567.5601843291245
 20
243.250765810816
 30
0.0
 40
3.5
 41
0.0
 71
     7
 72
     1
  1
\C2;2\C2;\H2.45;{\Fgdt;`}0.2
  7
CONVERTER_12
 11
0.9999999999970621
 21
2.424068405545307E-6
 31
0.0
 73
     1
 44
0.60024009603842
  0
ENDBLK
  5
397
330
38D
100
AcDbEntity
  8
0
100
AcDbBlockEnd
  0
BLOCK
  5
3A1
330
39A
100
AcDbEntity
  8
0
100
AcDbBlockBegin
  2
*D11
 70
     1
 71
     0
 10
0.0
 20
0.0
 30
0.0
  3
*D11
  1

  0
LINE
  5
39B
330
39A
100
AcDbEntity
  8
1
  6
Continuous
 62
     2
100
AcDbLine
 10
562.2509156225174
 20
231.250765810816
 30
0.0
 11
586.2509156225173
 21
231.250765810816
 31
0.0
  0
LINE
  5
39C
330
39A
100
AcDbEntity
  8
1
  6
Continuous
 62
     2
100
AcDbLine
 10
586.2509156225173
 20
259.500765810816
 30
0.0
 11
586.2509156225173
 21
229.750765810816
 31
0.0
  0
LINE
  5
39D
330
39A
100
AcDbEntity
  8
1
  6
Continuous
 62
     2
100
AcDbLine
 10
562.2509156225174
 20
277.800765810816
 30
0.0
 11
562.2509156225174
 21
229.750765810816
 31
0.0
  0
SOLID
  5
39E
330
39A
100
AcDbEntity
  8
1
 62
     2
100
AcDbTrace
 10
565.7509156225174
 20
231.7115495523719
 30
0.0
 11
565.7509156225174
 21
230.7899820692601
 31
0.0
 12
562.2509156225174
 22
231.250765810816
 32
0.0
 13
562.2509156225174
 23
231.250765810816
 33
0.0
  0
SOLID
  5
39F
330
39A
100
AcDbEntity
  8
1
 62
     2
100
AcDbTrace
 10
582.7509156225173
 20
230.7899820692601
 30
0.0
 11
582.7509156225173
 21
231.7115495523719
 31
0.0
 12
586.2509156225173
 22
231.250765810816
 32
0.0
 13
586.2509156225173
 23
231.250765810816
 33
0.0
  0
MTEXT
  5
3A0
330
39A
100
AcDbEntity
  8
1
 62
     2
100
AcDbMText
 10
568.764150916635
 20
233.250765810816
 30
0.0
 40
3.5
 41
0.0
 71
     7
 72
     1
  1
\C2;24\C2;\H2.45;{\Fgdt;`}1
  7
CONVERTER_12
 11
0.9999999999970621
 21
2.424068405545307E-6
 31
0.0
 73
     1
 44
0.60024009603842
  0
ENDBLK
  5
3A2
330
39A
100
AcDbEntity
  8
0
100
AcDbBlockEnd
  0
BLOCK
  5
3AC
330
3A5
100
AcDbEntity
  8
0
100
AcDbBlockBegin
  2
*D12
 70
     1
 71
     0
 10
0.0
 20
0.0
 30
0.0
  3
*D12
  1

  0
LINE
  5
3A6
330
3A5
100
AcDbEntity
  8
1
  6
Continuous
 62
     2
100
AcDbLine
 10
530.4355927967542
 20
270.000765810816
 30
0.0
 11
530.4355927967542
 21
292.000765810816
 31
0.0
  0
LINE
  5
3A7
330
3A5
100
AcDbEntity
  8
1
  6
Continuous
 62
     2
100
AcDbLine
 10
583.4509156225173
 20
270.000765810816
 30
0.0
 11
528.9355927967542
 21
270.000765810816
 31
0.0
  0
LINE
  5
3A8
330
3A5
100
AcDbEntity
  8
1
  6
Continuous
 62
     2
100
AcDbLine
 10
583.4509156225173
 20
292.000765810816
 30
0.0
 11
528.9355927967542
 21
292.000765810816
 31
0.0
  0
SOLID
  5
3A9
330
3A5
100
AcDbEntity
  8
1
 62
     2
100
AcDbTrace
 10
530.8963765383102
 20
288.500765810816
 30
0.0
 11
529.9748090551983
 21
288.500765810816
 31
0.0
 12
530.4355927967542
 22
292.000765810816
 32
0.0
 13
530.4355927967542
 23
292.000765810816
 33
0.0
  0
SOLID
  5
3AA
330
3A5
100
AcDbEntity
  8
1
 62
     2
100
AcDbTrace
 10
529.9748090551983
 20
273.500765810816
 30
0.0
 11
530.8963765383102
 21
273.500765810816
 31
0.0
 12
530.4355927967542
 22
270.000765810816
 32
0.0
 13
530.4355927967542
 23
270.000765810816
 33
0.0
  0
MTEXT
  5
3AB
330
3A5
100
AcDbEntity
  8
1
 62
     2
100
AcDbMText
 10
527.1230927967542
 20
267.8707331310774
 30
0.0
 40
3.5
 41
0.0
 71
     7
 72
     1
  1
\C2;φ\C2;\C2;22\C2;\H2.45;\S 0^ -0.025;
  7
CONVERTER_11
 11
0.0
 21
1.0
 31
0.0
 73
     1
 44
0.60024009603842
  0
ENDBLK
  5
3AD
330
3A5
100
AcDbEntity
  8
0
100
AcDbBlockEnd
  0
BLOCK
  5
3B7
330
3B0
100
AcDbEntity
  8
0
100
AcDbBlockBegin
  2
*D13
 70
     1
 71
     0
 10
0.0
 20
0.0
 30
0.0
  3
*D13
  1

  0
LINE
  5
3B1
330
3B0
100
AcDbEntity
  8
1
  6
Continuous
 62
     2
100
AcDbLine
 10
634.0009156225173
 20
302.000765810816
 30
0.0
 11
634.0009156225173
 21
352.000765810816
 31
0.0
  0
LINE
  5
3B2
330
3B0
100
AcDbEntity
  8
1
  6
Continuous
 62
     2
100
AcDbLine
 10
616.2509156225173
 20
352.000765810816
 30
0.0
 11
635.5009156225173
 21
352.000765810816
 31
0.0
  0
LINE
  5
3B3
330
3B0
100
AcDbEntity
  8
1
  6
Continuous
 62
     2
100
AcDbLine
 10
620.2509156225173
 20
302.000765810816
 30
0.0
 11
635.5009156225173
 21
302.000765810816
 31
0.0
  0
SOLID
  5
3B4
330
3B0
100
AcDbEntity
  8
1
 62
     2
100
AcDbTrace
 10
633.5401318809613
 20
305.500765810816
 30
0.0
 11
634.4616993640732
 21
305.500765810816
 31
0.0
 12
634.0009156225173
 22
302.000765810816
 32
0.0
 13
634.0009156225173
 23
302.000765810816
 33
0.0
  0
SOLID
  5
3B5
330
3B0
100
AcDbEntity
  8
1
 62
     2
100
AcDbTrace
 10
634.4616993640732
 20
348.500765810816
 30
0.0
 11
633.5401318809613
 21
348.500765810816
 31
0.0
 12
634.0009156225173
 22
352.000765810816
 32
0.0
 13
634.0009156225173
 23
352.000765810816
 33
0.0
  0
MTEXT
  5
3B6
330
3B0
100
AcDbEntity
  8
1
 62
     3
100
AcDbMText
 10
632.0009156225173
 20
317.7360599284631
 30
0.0
 40
3.5
 41
0.0
 71
     7
 72
     1
  1
300MIN.
  7
CONVERTER_12
 11
0.0
 21
1.0
 31
0.0
 73
     1
 44
0.60024009603842
  0
ENDBLK
  5
3B8
330
3B0
100
AcDbEntity
  8
0
100
AcDbBlockEnd
  0
BLOCK
  5
3C0
330
3BB
100
AcDbEntity
  8
0
100
AcDbBlockBegin
  2
*D14
 70
     1
 71
     0
 10
0.0
 20
0.0
 30
0.0
  3
*D14
  1

  0
LINE
  5
3BC
330
3BB
100
AcDbEntity
  8
1
  6
Continuous
 62
     2
100
AcDbLine
 10
476.2432289703841
 20
256.9822611497979
 30
0.0
 11
453.8051253135658
 21
311.1162757973185
 31
0.0
  0
LINE
  5
3BD
330
3BB
100
AcDbEntity
  8
1
  6
Continuous
 62
     2
100
AcDbLine
 10
453.8051253135658
 20
311.1162757973185
 30
0.0
 11
439.4660730259841
 21
311.1162757973185
 31
0.0
  0
SOLID
  5
3BE
330
3BB
100
AcDbEntity
  8
1
 62
     2
100
AcDbTrace
 10
474.4774024166725
 20
260.0390860120838
 30
0.0
 11
475.3287359893096
 21
260.3919567731707
 31
0.0
 12
476.2432289703841
 22
256.9822611497979
 32
0.0
 13
476.2432289703841
 23
256.9822611497979
 33
0.0
  0
MTEXT
  5
3BF
330
3BB
100
AcDbEntity
  8
1
 62
     2
100
AcDbMText
 10
437.7121841371121
 20
313.1162618831659
 30
0.0
 40
3.5
 41
0.0
 71
     7
 72
     1
  1
\C2;φ\C2;52
  7
CONVERTER_11
 11
0.9999999999970621
 21
2.424068405545307E-6
 31
0.0
 73
     1
 44
0.60024009603842
  0
ENDBLK
  5
3C1
330
3BB
100
AcDbEntity
  8
0
100
AcDbBlockEnd
  0
ENDSEC
  0
SECTION
  2
ENTITIES
  0
LINE
  5
32
330
1F
100
AcDbEntity
  8
1
  6
Continuous
 62
     2
100
AcDbLine
 10
567.4510642571952
 20
317.5530422297878
 30
0.0
 11
567.1422407277835
 21
317.7863755631211
 31
0.0
  0
LINE
  5
33
330
1F
100
AcDbEntity
  8
1
  6
Continuous
 62
     2
100
AcDbLine
 10
567.8628289630776
 20
317.3197088964544
 30
0.0
 11
567.4510642571952
 21
317.5530422297878
 31
0.0
  0
LINE
  5
34
330
1F
100
AcDbEntity
  8
1
  6
Continuous
 62
     2
100
AcDbLine
 10
568.5834171983718
 20
317.3197088964544
 30
0.0
 11
567.8628289630776
 21
317.3197088964544
 31
0.0
  0
LINE
  5
35
330
1F
100
AcDbEntity
  8
1
  6
Continuous
 62
     2
100
AcDbLine
 10
568.8922407277835
 20
317.5530422297878
 30
0.0
 11
568.5834171983718
 21
317.3197088964544
 31
0.0
  0
LINE
  5
36
330
1F
100
AcDbEntity
  8
1
  6
Continuous
 62
     2
100
AcDbLine
 10
569.0981230807247
 20
317.7863755631211
 30
0.0
 11
568.8922407277835
 21
317.5530422297878
 31
0.0
  0
LINE
  5
37
330
1F
100
AcDbEntity
  8
1
  6
Continuous
 62
     2
100
AcDbLine
 10
569.2010642571952
 20
318.3697088964544
 30
0.0
 11
569.0981230807247
 21
317.7863755631211
 31
0.0
  0
LINE
  5
38
330
1F
100
AcDbEntity
  8
1
  6
Continuous
 62
     2
100
AcDbLine
 10
569.0981230807247
 20
318.9530422297877
 30
0.0
 11
569.2010642571952
 21
318.3697088964544
 31
0.0
  0
LINE
  5
39
330
1F
100
AcDbEntity
  8
1
  6
Continuous
 62
     2
100
AcDbLine
 10
568.8922407277835
 20
319.1863755631211
 30
0.0
 11
569.0981230807247
 21
318.9530422297877
 31
0.0
  0
LINE
  5
3A
330
1F
100
AcDbEntity
  8
1
  6
Continuous
 62
     2
100
AcDbLine
 10
568.5834171983718
 20
319.4197088964544
 30
0.0
 11
568.8922407277835
 21
319.1863755631211
 31
0.0
  0
LINE
  5
3B
330
1F
100
AcDbEntity
  8
1
  6
Continuous
 62
     2
100
AcDbLine
 10
568.1716524924893
 20
319.5363755631211
 30
0.0
 11
568.5834171983718
 21
319.4197088964544
 31
0.0
  0
LINE
  5
3C
330
1F
100
AcDbEntity
  8
1
  6
Continuous
 62
     2
100
AcDbLine
 10
567.759887786607
 20
319.4197088964544
 30
0.0
 11
568.1716524924893
 21
319.5363755631211
 31
0.0
  0
LINE
  5
3D
330
1F
100
AcDbEntity
  8
1
  6
Continuous
 62
     2
100
AcDbLine
 10
567.2451819042541
 20
319.0697088964544
 30
0.0
 11
567.759887786607
 21
319.4197088964544
 31
0.0
  0
LINE
  5
3E
330
1F
100
AcDbEntity
  8
1
  6
Continuous
 62
     2
100
AcDbLine
 10
567.3481230807247
 20
320.8197088964544
 30
0.0
 11
567.2451819042541
 21
319.0697088964544
 31
0.0
  0
LINE
  5
3F
330
1F
100
AcDbEntity
  8
1
  6
Continuous
 62
     2
100
AcDbLine
 10
569.0981230807247
 20
320.8197088964544
 30
0.0
 11
567.3481230807247
 21
320.8197088964544
 31
0.0
  0
LINE
  5
40
330
1F
100
AcDbEntity
  8
1
  6
Continuous
 62
     2
100
AcDbLine
 10
565.8040054336658
 20
317.6697088964544
 30
0.0
 11
565.9069466101364
 21
317.7863755631211
 31
0.0
  0
LINE
  5
41
330
1F
100
AcDbEntity
  8
1
  6
Continuous
 62
     2
100
AcDbLine
 10
565.9069466101364
 20
317.5530422297878
 30
0.0
 11
565.8040054336658
 21
317.6697088964544
 31
0.0
  0
LINE
  5
42
330
1F
100
AcDbEntity
  8
1
  6
Continuous
 62
     2
100
AcDbLine
 10
566.0098877866069
 20
317.6697088964544
 30
0.0
 11
565.9069466101364
 21
317.5530422297878
 31
0.0
  0
LINE
  5
43
330
1F
100
AcDbEntity
  8
1
  6
Continuous
 62
     2
100
AcDbLine
 10
565.9069466101364
 20
317.7863755631211
 30
0.0
 11
566.0098877866069
 21
317.6697088964544
 31
0.0
  0
LINE
  5
44
330
1F
100
AcDbEntity
  8
1
  6
Continuous
 62
     2
100
AcDbLine
 10
565.8040054336658
 20
317.7863755631211
 30
0.0
 11
566.0098877866069
 21
317.7863755631211
 31
0.0
  0
LINE
  5
45
330
1F
100
AcDbEntity
  8
1
  6
Continuous
 62
     2
100
AcDbLine
 10
565.8040054336658
 20
317.5530422297878
 30
0.0
 11
565.8040054336658
 21
317.7863755631211
 31
0.0
  0
LINE
  5
46
330
1F
100
AcDbEntity
  8
1
  6
Continuous
 62
     2
100
AcDbLine
 10
566.0098877866069
 20
317.5530422297878
 30
0.0
 11
565.8040054336658
 21
317.5530422297878
 31
0.0
  0
LINE
  5
47
330
1F
100
AcDbEntity
  8
1
  6
Continuous
 62
     2
100
AcDbLine
 10
566.0098877866069
 20
317.7863755631211
 30
0.0
 11
566.0098877866069
 21
317.5530422297878
 31
0.0
  0
LINE
  5
48
330
1F
100
AcDbEntity
  8
1
  6
Continuous
 62
     2
100
AcDbLine
 10
565.7010642571952
 20
317.6697088964544
 30
0.0
 11
565.9069466101364
 21
317.9030422297877
 31
0.0
  0
LINE
  5
49
330
1F
100
AcDbEntity
  8
1
  6
Continuous
 62
     2
100
AcDbLine
 10
565.9069466101364
 20
317.4363755631211
 30
0.0
 11
565.7010642571952
 21
317.6697088964544
 31
0.0
  0
LINE
  5
4A
330
1F
100
AcDbEntity
  8
1
  6
Continuous
 62
     2
100
AcDbLine
 10
566.1128289630775
 20
317.6697088964544
 30
0.0
 11
565.9069466101364
 21
317.4363755631211
 31
0.0
  0
LINE
  5
4B
330
1F
100
AcDbEntity
  8
1
  6
Continuous
 62
     2
100
AcDbLine
 10
565.9069466101364
 20
317.9030422297877
 30
0.0
 11
566.1128289630775
 21
317.6697088964544
 31
0.0
  0
LINE
  5
4C
330
1F
100
AcDbEntity
  8
1
  6
Continuous
 62
     2
100
AcDbLine
 10
564.1569466101364
 20
320.5863755631211
 30
0.0
 11
563.5392995513129
 21
320.8197088964544
 31
0.0
  0
LINE
  5
4D
330
1F
100
AcDbEntity
  8
1
  6
Continuous
 62
     2
100
AcDbLine
 10
564.5687113160187
 20
320.0030422297878
 30
0.0
 11
564.1569466101364
 21
320.5863755631211
 31
0.0
  0
LINE
  5
4E
330
1F
100
AcDbEntity
  8
1
  6
Continuous
 62
     2
100
AcDbLine
 10
564.6716524924893
 20
319.0697088964544
 30
0.0
 11
564.5687113160187
 21
320.0030422297878
 31
0.0
  0
LINE
  5
4F
330
1F
100
AcDbEntity
  8
1
  6
Continuous
 62
     2
100
AcDbLine
 10
564.5687113160187
 20
318.1363755631211
 30
0.0
 11
564.6716524924893
 21
319.0697088964544
 31
0.0
  0
LINE
  5
50
330
1F
100
AcDbEntity
  8
1
  6
Continuous
 62
     2
100
AcDbLine
 10
564.1569466101364
 20
317.5530422297878
 30
0.0
 11
564.5687113160187
 21
318.1363755631211
 31
0.0
  0
LINE
  5
51
330
1F
100
AcDbEntity
  8
1
  6
Continuous
 62
     2
100
AcDbLine
 10
563.5392995513129
 20
317.3197088964544
 30
0.0
 11
564.1569466101364
 21
317.5530422297878
 31
0.0
  0
LINE
  5
52
330
1F
100
AcDbEntity
  8
1
  6
Continuous
 62
     2
100
AcDbLine
 10
562.9216524924893
 20
317.5530422297878
 30
0.0
 11
563.5392995513129
 21
317.3197088964544
 31
0.0
  0
LINE
  5
53
330
1F
100
AcDbEntity
  8
1
  6
Continuous
 62
     2
100
AcDbLine
 10
562.6128289630776
 20
318.1363755631211
 30
0.0
 11
562.9216524924893
 21
317.5530422297878
 31
0.0
  0
LINE
  5
54
330
1F
100
AcDbEntity
  8
1
  6
Continuous
 62
     2
100
AcDbLine
 10
562.4069466101364
 20
319.0697088964544
 30
0.0
 11
562.6128289630776
 21
318.1363755631211
 31
0.0
  0
LINE
  5
55
330
1F
100
AcDbEntity
  8
1
  6
Continuous
 62
     2
100
AcDbLine
 10
562.6128289630776
 20
320.0030422297878
 30
0.0
 11
562.4069466101364
 21
319.0697088964544
 31
0.0
  0
LINE
  5
56
330
1F
100
AcDbEntity
  8
1
  6
Continuous
 62
     2
100
AcDbLine
 10
562.9216524924893
 20
320.5863755631211
 30
0.0
 11
562.6128289630776
 21
320.0030422297878
 31
0.0
  0
LINE
  5
57
330
1F
100
AcDbEntity
  8
1
  6
Continuous
 62
     2
100
AcDbLine
 10
563.5392995513129
 20
320.8197088964544
 30
0.0
 11
562.9216524924893
 21
320.5863755631211
 31
0.0
  0
LINE
  5
58
330
1F
100
AcDbEntity
  8
1
  6
Continuous
 62
     2
100
AcDbLine
 10
560.6569466101364
 20
319.0697088964544
 30
0.0
 11
559.3187113160187
 21
319.0697088964544
 31
0.0
  0
LINE
  5
59
330
1F
100
AcDbEntity
  8
1
  6
Continuous
 62
     2
100
AcDbLine
 10
561.0687113160187
 20
319.3030422297878
 30
0.0
 11
560.6569466101364
 21
319.0697088964544
 31
0.0
  0
LINE
  5
5A
330
1F
100
AcDbEntity
  8
1
  6
Continuous
 62
     2
100
AcDbLine
 10
561.2745936689599
 20
319.5363755631211
 30
0.0
 11
561.0687113160187
 21
319.3030422297878
 31
0.0
  0
LINE
  5
5B
330
1F
100
AcDbEntity
  8
1
  6
Continuous
 62
     2
100
AcDbLine
 10
561.3775348454304
 20
320.0030422297878
 30
0.0
 11
561.2745936689599
 21
319.5363755631211
 31
0.0
  0
LINE
  5
5C
330
1F
100
AcDbEntity
  8
1
  6
Continuous
 62
     2
100
AcDbLine
 10
561.2745936689599
 20
320.2363755631211
 30
0.0
 11
561.3775348454304
 21
320.0030422297878
 31
0.0
  0
LINE
  5
5D
330
1F
100
AcDbEntity
  8
1
  6
Continuous
 62
     2
100
AcDbLine
 10
561.0687113160187
 20
320.5863755631211
 30
0.0
 11
561.2745936689599
 21
320.2363755631211
 31
0.0
  0
LINE
  5
5E
330
1F
100
AcDbEntity
  8
1
  6
Continuous
 62
     2
100
AcDbLine
 10
560.6569466101364
 20
320.8197088964544
 30
0.0
 11
561.0687113160187
 21
320.5863755631211
 31
0.0
  0
LINE
  5
5F
330
1F
100
AcDbEntity
  8
1
  6
Continuous
 62
     2
100
AcDbLine
 10
559.3187113160187
 20
320.8197088964544
 30
0.0
 11
560.6569466101364
 21
320.8197088964544
 31
0.0
  0
LINE
  5
60
330
1F
100
AcDbEntity
  8
1
  6
Continuous
 62
     2
100
AcDbLine
 10
559.3187113160187
 20
317.3197088964544
 30
0.0
 11
559.3187113160187
 21
320.8197088964544
 31
0.0
  0
LINE
  5
61
330
1F
100
AcDbEntity
  8
1
  6
Continuous
 62
     2
100
AcDbLine
 10
553.2451819042541
 20
317.6697088964544
 30
0.0
 11
553.0392995513129
 21
317.9030422297877
 31
0.0
  0
LINE
  5
62
330
1F
100
AcDbEntity
  8
1
  6
Continuous
 62
     2
100
AcDbLine
 10
553.6569466101364
 20
317.4363755631211
 30
0.0
 11
553.2451819042541
 21
317.6697088964544
 31
0.0
  0
LINE
  5
63
330
1F
100
AcDbEntity
  8
1
  6
Continuous
 62
     2
100
AcDbLine
 10
554.1716524924893
 20
317.3197088964544
 30
0.0
 11
553.6569466101364
 21
317.4363755631211
 31
0.0
  0
LINE
  5
64
330
1F
100
AcDbEntity
  8
1
  6
Continuous
 62
     2
100
AcDbLine
 10
554.7892995513129
 20
317.4363755631211
 30
0.0
 11
554.1716524924893
 21
317.3197088964544
 31
0.0
  0
LINE
  5
65
330
1F
100
AcDbEntity
  8
1
  6
Continuous
 62
     2
100
AcDbLine
 10
555.0981230807246
 20
317.6697088964544
 30
0.0
 11
554.7892995513129
 21
317.4363755631211
 31
0.0
  0
LINE
  5
66
330
1F
100
AcDbEntity
  8
1
  6
Continuous
 62
     2
100
AcDbLine
 10
555.3040054336658
 20
318.2530422297878
 30
0.0
 11
555.0981230807246
 21
317.6697088964544
 31
0.0
  0
LINE
  5
67
330
1F
100
AcDbEntity
  8
1
  6
Continuous
 62
     2
100
AcDbLine
 10
555.0981230807246
 20
318.8363755631211
 30
0.0
 11
555.3040054336658
 21
318.2530422297878
 31
0.0
  0
LINE
  5
68
330
1F
100
AcDbEntity
  8
1
  6
Continuous
 62
     2
100
AcDbLine
 10
554.5834171983716
 20
319.1863755631211
 30
0.0
 11
555.0981230807246
 21
318.8363755631211
 31
0.0
  0
LINE
  5
69
330
1F
100
AcDbEntity
  8
1
  6
Continuous
 62
     2
100
AcDbLine
 10
554.0687113160187
 20
319.1863755631211
 30
0.0
 11
554.5834171983716
 21
319.1863755631211
 31
0.0
  0
LINE
  5
6A
330
1F
100
AcDbEntity
  8
1
  6
Continuous
 62
     2
100
AcDbLine
 10
554.5834171983716
 20
319.1863755631211
 30
0.0
 11
554.0687113160187
 21
319.1863755631211
 31
0.0
  0
LINE
  5
6B
330
1F
100
AcDbEntity
  8
1
  6
Continuous
 62
     2
100
AcDbLine
 10
554.9951819042541
 20
319.4197088964544
 30
0.0
 11
554.5834171983716
 21
319.1863755631211
 31
0.0
  0
LINE
  5
6C
330
1F
100
AcDbEntity
  8
1
  6
Continuous
 62
     2
100
AcDbLine
 10
555.2010642571952
 20
319.8863755631211
 30
0.0
 11
554.9951819042541
 21
319.4197088964544
 31
0.0
  0
LINE
  5
6D
330
1F
100
AcDbEntity
  8
1
  6
Continuous
 62
     2
100
AcDbLine
 10
555.0981230807246
 20
320.2363755631211
 30
0.0
 11
555.2010642571952
 21
319.8863755631211
 31
0.0
  0
LINE
  5
6E
330
1F
100
AcDbEntity
  8
1
  6
Continuous
 62
     2
100
AcDbLine
 10
554.7892995513129
 20
320.7030422297877
 30
0.0
 11
555.0981230807246
 21
320.2363755631211
 31
0.0
  0
LINE
  5
6F
330
1F
100
AcDbEntity
  8
1
  6
Continuous
 62
     2
100
AcDbLine
 10
554.1716524924893
 20
320.8197088964544
 30
0.0
 11
554.7892995513129
 21
320.7030422297877
 31
0.0
  0
LINE
  5
70
330
1F
100
AcDbEntity
  8
1
  6
Continuous
 62
     2
100
AcDbLine
 10
553.5540054336658
 20
320.7030422297877
 30
0.0
 11
554.1716524924893
 21
320.8197088964544
 31
0.0
  0
LINE
  5
71
330
1F
100
AcDbEntity
  8
1
  6
Continuous
 62
     2
100
AcDbLine
 10
553.1422407277835
 20
320.2363755631211
 30
0.0
 11
553.5540054336658
 21
320.7030422297877
 31
0.0
  0
LINE
  5
72
330
1F
100
AcDbEntity
  8
1
  6
Continuous
 62
     2
100
AcDbLine
 10
552.0098877866069
 20
320.8197088964544
 30
0.0
 11
552.0098877866069
 21
317.3197088964544
 31
0.0
  0
LINE
  5
73
330
1F
100
AcDbEntity
  8
1
  6
Continuous
 62
     2
100
AcDbLine
 10
550.6716524924893
 20
317.4363755631211
 30
0.0
 11
552.0098877866069
 21
320.8197088964544
 31
0.0
  0
LINE
  5
74
330
1F
100
AcDbEntity
  8
1
  6
Continuous
 62
     2
100
AcDbLine
 10
549.3334171983716
 20
320.8197088964544
 30
0.0
 11
550.6716524924893
 21
317.4363755631211
 31
0.0
  0
LINE
  5
75
330
1F
100
AcDbEntity
  8
1
  6
Continuous
 62
     2
100
AcDbLine
 10
549.3334171983716
 20
317.3197088964544
 30
0.0
 11
549.3334171983716
 21
320.8197088964544
 31
0.0
  0
LINE
  5
76
330
1F
100
AcDbEntity
  8
1
  6
Continuous
 62
     2
100
AcDbLine
 10
546.4510642571952
 20
319.0697088964544
 30
0.0
 11
548.3040054336658
 21
319.0697088964544
 31
0.0
  0
LINE
  5
77
330
1F
100
AcDbEntity
  8
1
  6
Continuous
 62
     2
100
AcDbLine
 10
544.8040054336658
 20
317.3197088964544
 30
0.0
 11
544.8040054336658
 21
318.9530422297877
 31
0.0
  0
LINE
  5
78
330
1F
100
AcDbEntity
  8
1
  6
Continuous
 62
     2
100
AcDbLine
 10
542.9510642571952
 20
318.1363755631211
 30
0.0
 11
545.4216524924893
 21
318.1363755631211
 31
0.0
  0
LINE
  5
79
330
1F
100
AcDbEntity
  8
1
  6
Continuous
 62
     2
100
AcDbLine
 10
544.8040054336658
 20
320.8197088964544
 30
0.0
 11
542.9510642571952
 21
318.1363755631211
 31
0.0
  0
LINE
  5
7A
330
1F
100
AcDbEntity
  8
1
  6
Continuous
 62
     2
100
AcDbLine
 10
548.4717530873121
 20
262.0021455088552
 30
0.0
 11
548.1629295579004
 21
262.2354788421885
 31
0.0
  0
LINE
  5
7B
330
1F
100
AcDbEntity
  8
1
  6
Continuous
 62
     2
100
AcDbLine
 10
548.8835177931945
 20
261.7688121755218
 30
0.0
 11
548.4717530873121
 21
262.0021455088552
 31
0.0
  0
LINE
  5
7C
330
1F
100
AcDbEntity
  8
1
  6
Continuous
 62
     2
100
AcDbLine
 10
549.6041060284887
 20
261.7688121755218
 30
0.0
 11
548.8835177931945
 21
261.7688121755218
 31
0.0
  0
LINE
  5
7D
330
1F
100
AcDbEntity
  8
1
  6
Continuous
 62
     2
100
AcDbLine
 10
549.9129295579004
 20
262.0021455088552
 30
0.0
 11
549.6041060284887
 21
261.7688121755218
 31
0.0
  0
LINE
  5
7E
330
1F
100
AcDbEntity
  8
1
  6
Continuous
 62
     2
100
AcDbLine
 10
550.1188119108416
 20
262.2354788421885
 30
0.0
 11
549.9129295579004
 21
262.0021455088552
 31
0.0
  0
LINE
  5
7F
330
1F
100
AcDbEntity
  8
1
  6
Continuous
 62
     2
100
AcDbLine
 10
550.2217530873121
 20
262.8188121755218
 30
0.0
 11
550.1188119108416
 21
262.2354788421885
 31
0.0
  0
LINE
  5
80
330
1F
100
AcDbEntity
  8
1
  6
Continuous
 62
     2
100
AcDbLine
 10
550.1188119108416
 20
263.4021455088551
 30
0.0
 11
550.2217530873121
 21
262.8188121755218
 31
0.0
  0
LINE
  5
81
330
1F
100
AcDbEntity
  8
1
  6
Continuous
 62
     2
100
AcDbLine
 10
549.9129295579004
 20
263.6354788421885
 30
0.0
 11
550.1188119108416
 21
263.4021455088551
 31
0.0
  0
LINE
  5
82
330
1F
100
AcDbEntity
  8
1
  6
Continuous
 62
     2
100
AcDbLine
 10
549.6041060284887
 20
263.8688121755218
 30
0.0
 11
549.9129295579004
 21
263.6354788421885
 31
0.0
  0
LINE
  5
83
330
1F
100
AcDbEntity
  8
1
  6
Continuous
 62
     2
100
AcDbLine
 10
549.1923413226062
 20
263.9854788421885
 30
0.0
 11
549.6041060284887
 21
263.8688121755218
 31
0.0
  0
LINE
  5
84
330
1F
100
AcDbEntity
  8
1
  6
Continuous
 62
     2
100
AcDbLine
 10
548.7805766167239
 20
263.8688121755218
 30
0.0
 11
549.1923413226062
 21
263.9854788421885
 31
0.0
  0
LINE
  5
85
330
1F
100
AcDbEntity
  8
1
  6
Continuous
 62
     2
100
AcDbLine
 10
548.265870734371
 20
263.5188121755218
 30
0.0
 11
548.7805766167239
 21
263.8688121755218
 31
0.0
  0
LINE
  5
86
330
1F
100
AcDbEntity
  8
1
  6
Continuous
 62
     2
100
AcDbLine
 10
548.3688119108416
 20
265.2688121755218
 30
0.0
 11
548.265870734371
 21
263.5188121755218
 31
0.0
  0
LINE
  5
87
330
1F
100
AcDbEntity
  8
1
  6
Continuous
 62
     2
100
AcDbLine
 10
550.1188119108416
 20
265.2688121755218
 30
0.0
 11
548.3688119108416
 21
265.2688121755218
 31
0.0
  0
LINE
  5
88
330
1F
100
AcDbEntity
  8
1
  6
Continuous
 62
     2
100
AcDbLine
 10
546.8246942637828
 20
262.1188121755218
 30
0.0
 11
546.9276354402534
 21
262.2354788421885
 31
0.0
  0
LINE
  5
89
330
1F
100
AcDbEntity
  8
1
  6
Continuous
 62
     2
100
AcDbLine
 10
546.9276354402534
 20
262.0021455088552
 30
0.0
 11
546.8246942637828
 21
262.1188121755218
 31
0.0
  0
LINE
  5
8A
330
1F
100
AcDbEntity
  8
1
  6
Continuous
 62
     2
100
AcDbLine
 10
547.0305766167239
 20
262.1188121755218
 30
0.0
 11
546.9276354402534
 21
262.0021455088552
 31
0.0
  0
LINE
  5
8B
330
1F
100
AcDbEntity
  8
1
  6
Continuous
 62
     2
100
AcDbLine
 10
546.9276354402534
 20
262.2354788421885
 30
0.0
 11
547.0305766167239
 21
262.1188121755218
 31
0.0
  0
LINE
  5
8C
330
1F
100
AcDbEntity
  8
1
  6
Continuous
 62
     2
100
AcDbLine
 10
546.8246942637828
 20
262.2354788421885
 30
0.0
 11
547.0305766167239
 21
262.2354788421885
 31
0.0
  0
LINE
  5
8D
330
1F
100
AcDbEntity
  8
1
  6
Continuous
 62
     2
100
AcDbLine
 10
546.8246942637828
 20
262.0021455088552
 30
0.0
 11
546.8246942637828
 21
262.2354788421885
 31
0.0
  0
LINE
  5
8E
330
1F
100
AcDbEntity
  8
1
  6
Continuous
 62
     2
100
AcDbLine
 10
547.0305766167239
 20
262.0021455088552
 30
0.0
 11
546.8246942637828
 21
262.0021455088552
 31
0.0
  0
LINE
  5
8F
330
1F
100
AcDbEntity
  8
1
  6
Continuous
 62
     2
100
AcDbLine
 10
547.0305766167239
 20
262.2354788421885
 30
0.0
 11
547.0305766167239
 21
262.0021455088552
 31
0.0
  0
LINE
  5
90
330
1F
100
AcDbEntity
  8
1
  6
Continuous
 62
     2
100
AcDbLine
 10
546.7217530873122
 20
262.1188121755218
 30
0.0
 11
546.9276354402534
 21
262.3521455088551
 31
0.0
  0
LINE
  5
91
330
1F
100
AcDbEntity
  8
1
  6
Continuous
 62
     2
100
AcDbLine
 10
546.9276354402534
 20
261.8854788421885
 30
0.0
 11
546.7217530873122
 21
262.1188121755218
 31
0.0
  0
LINE
  5
92
330
1F
100
AcDbEntity
  8
1
  6
Continuous
 62
     2
100
AcDbLine
 10
547.1335177931945
 20
262.1188121755218
 30
0.0
 11
546.9276354402534
 21
261.8854788421885
 31
0.0
  0
LINE
  5
93
330
1F
100
AcDbEntity
  8
1
  6
Continuous
 62
     2
100
AcDbLine
 10
546.9276354402534
 20
262.3521455088551
 30
0.0
 11
547.1335177931945
 21
262.1188121755218
 31
0.0
  0
LINE
  5
94
330
1F
100
AcDbEntity
  8
1
  6
Continuous
 62
     2
100
AcDbLine
 10
545.1776354402534
 20
265.0354788421885
 30
0.0
 11
544.5599883814299
 21
265.2688121755218
 31
0.0
  0
LINE
  5
95
330
1F
100
AcDbEntity
  8
1
  6
Continuous
 62
     2
100
AcDbLine
 10
545.5894001461357
 20
264.4521455088552
 30
0.0
 11
545.1776354402534
 21
265.0354788421885
 31
0.0
  0
LINE
  5
96
330
1F
100
AcDbEntity
  8
1
  6
Continuous
 62
     2
100
AcDbLine
 10
545.6923413226064
 20
263.5188121755218
 30
0.0
 11
545.5894001461357
 21
264.4521455088552
 31
0.0
  0
LINE
  5
97
330
1F
100
AcDbEntity
  8
1
  6
Continuous
 62
     2
100
AcDbLine
 10
545.5894001461357
 20
262.5854788421885
 30
0.0
 11
545.6923413226064
 21
263.5188121755218
 31
0.0
  0
LINE
  5
98
330
1F
100
AcDbEntity
  8
1
  6
Continuous
 62
     2
100
AcDbLine
 10
545.1776354402534
 20
262.0021455088552
 30
0.0
 11
545.5894001461357
 21
262.5854788421885
 31
0.0
  0
LINE
  5
99
330
1F
100
AcDbEntity
  8
1
  6
Continuous
 62
     2
100
AcDbLine
 10
544.5599883814299
 20
261.7688121755218
 30
0.0
 11
545.1776354402534
 21
262.0021455088552
 31
0.0
  0
LINE
  5
9A
330
1F
100
AcDbEntity
  8
1
  6
Continuous
 62
     2
100
AcDbLine
 10
543.9423413226064
 20
262.0021455088552
 30
0.0
 11
544.5599883814299
 21
261.7688121755218
 31
0.0
  0
LINE
  5
9B
330
1F
100
AcDbEntity
  8
1
  6
Continuous
 62
     2
100
AcDbLine
 10
543.6335177931946
 20
262.5854788421885
 30
0.0
 11
543.9423413226064
 21
262.0021455088552
 31
0.0
  0
LINE
  5
9C
330
1F
100
AcDbEntity
  8
1
  6
Continuous
 62
     2
100
AcDbLine
 10
543.4276354402534
 20
263.5188121755218
 30
0.0
 11
543.6335177931946
 21
262.5854788421885
 31
0.0
  0
LINE
  5
9D
330
1F
100
AcDbEntity
  8
1
  6
Continuous
 62
     2
100
AcDbLine
 10
543.6335177931946
 20
264.4521455088552
 30
0.0
 11
543.4276354402534
 21
263.5188121755218
 31
0.0
  0
LINE
  5
9E
330
1F
100
AcDbEntity
  8
1
  6
Continuous
 62
     2
100
AcDbLine
 10
543.9423413226064
 20
265.0354788421885
 30
0.0
 11
543.6335177931946
 21
264.4521455088552
 31
0.0
  0
LINE
  5
9F
330
1F
100
AcDbEntity
  8
1
  6
Continuous
 62
     2
100
AcDbLine
 10
544.5599883814299
 20
265.2688121755218
 30
0.0
 11
543.9423413226064
 21
265.0354788421885
 31
0.0
  0
LINE
  5
A0
330
1F
100
AcDbEntity
  8
1
  6
Continuous
 62
     2
100
AcDbLine
 10
542.1923413226064
 20
262.2354788421885
 30
0.0
 11
542.3982236755475
 21
262.5854788421885
 31
0.0
  0
LINE
  5
A1
330
1F
100
AcDbEntity
  8
1
  6
Continuous
 62
     2
100
AcDbLine
 10
541.7805766167239
 20
261.8854788421885
 30
0.0
 11
542.1923413226064
 21
262.2354788421885
 31
0.0
  0
LINE
  5
A2
330
1F
100
AcDbEntity
  8
1
  6
Continuous
 62
     2
100
AcDbLine
 10
541.265870734371
 20
261.7688121755218
 30
0.0
 11
541.7805766167239
 21
261.8854788421885
 31
0.0
  0
LINE
  5
A3
330
1F
100
AcDbEntity
  8
1
  6
Continuous
 62
     2
100
AcDbLine
 10
540.6482236755475
 20
262.0021455088552
 30
0.0
 11
541.265870734371
 21
261.7688121755218
 31
0.0
  0
LINE
  5
A4
330
1F
100
AcDbEntity
  8
1
  6
Continuous
 62
     2
100
AcDbLine
 10
540.3394001461357
 20
262.7021455088552
 30
0.0
 11
540.6482236755475
 21
262.0021455088552
 31
0.0
  0
LINE
  5
A5
330
1F
100
AcDbEntity
  8
1
  6
Continuous
 62
     2
100
AcDbLine
 10
540.2364589696651
 20
263.5188121755218
 30
0.0
 11
540.3394001461357
 21
262.7021455088552
 31
0.0
  0
LINE
  5
A6
330
1F
100
AcDbEntity
  8
1
  6
Continuous
 62
     2
100
AcDbLine
 10
540.3394001461357
 20
264.3354788421885
 30
0.0
 11
540.2364589696651
 21
263.5188121755218
 31
0.0
  0
LINE
  5
A7
330
1F
100
AcDbEntity
  8
1
  6
Continuous
 62
     2
100
AcDbLine
 10
540.6482236755475
 20
264.9188121755218
 30
0.0
 11
540.3394001461357
 21
264.3354788421885
 31
0.0
  0
LINE
  5
A8
330
1F
100
AcDbEntity
  8
1
  6
Continuous
 62
     2
100
AcDbLine
 10
541.265870734371
 20
265.2688121755218
 30
0.0
 11
540.6482236755475
 21
264.9188121755218
 31
0.0
  0
LINE
  5
A9
330
1F
100
AcDbEntity
  8
1
  6
Continuous
 62
     2
100
AcDbLine
 10
541.7805766167239
 20
265.1521455088551
 30
0.0
 11
541.265870734371
 21
265.2688121755218
 31
0.0
  0
LINE
  5
AA
330
1F
100
AcDbEntity
  8
1
  6
Continuous
 62
     2
100
AcDbLine
 10
542.0894001461357
 20
264.9188121755218
 30
0.0
 11
541.7805766167239
 21
265.1521455088551
 31
0.0
  0
LINE
  5
AB
330
1F
100
AcDbEntity
  8
1
  6
Continuous
 62
     2
100
AcDbLine
 10
542.3982236755475
 20
264.5688121755218
 30
0.0
 11
542.0894001461357
 21
264.9188121755218
 31
0.0
  0
LINE
  5
AC
330
1F
100
AcDbEntity
  8
1
  6
Continuous
 62
     4
100
AcDbLine
 10
565.7186614467944
 20
303.9956773177056
 30
0.0
 11
565.7186614467944
 21
296.9956773177056
 31
0.0
  0
LINE
  5
AD
330
1F
100
AcDbEntity
  8
1
  6
Continuous
 62
     4
100
AcDbLine
 10
572.7186614467944
 20
303.9956773177056
 30
0.0
 11
565.7186614467944
 21
303.9956773177056
 31
0.0
  0
LINE
  5
AE
330
1F
100
AcDbEntity
  8
1
  6
Continuous
 62
     4
100
AcDbLine
 10
572.7186614467944
 20
296.9956773177056
 30
0.0
 11
572.7186614467944
 21
303.9956773177056
 31
0.0
  0
LINE
  5
AF
330
1F
100
AcDbEntity
  8
1
  6
Continuous
 62
     4
100
AcDbLine
 10
565.7186614467944
 20
296.9956773177056
 30
0.0
 11
572.7186614467944
 21
296.9956773177056
 31
0.0
  0
LINE
  5
B0
330
1F
100
AcDbEntity
  8
1
  6
Continuous
 62
     4
100
AcDbLine
 10
568.3951320350296
 20
299.6790106510389
 30
0.0
 11
570.0421908585591
 21
299.6790106510389
 31
0.0
  0
LINE
  5
B1
330
1F
100
AcDbEntity
  8
1
  6
Continuous
 62
     4
100
AcDbLine
 10
569.2186614467944
 20
302.2456773177056
 30
0.0
 11
570.3510143879708
 21
298.7456773177056
 31
0.0
  0
LINE
  5
B2
330
1F
100
AcDbEntity
  8
1
  6
Continuous
 62
     4
100
AcDbLine
 10
568.0863085056179
 20
298.7456773177056
 30
0.0
 11
569.2186614467944
 21
302.2456773177056
 31
0.0
  0
LINE
  5
B3
330
1F
100
AcDbEntity
  8
1
  6
Continuous
 62
     4
100
AcDbLine
 10
579.1598181065112
 20
355.4370814235581
 30
0.0
 11
579.1598181065112
 21
348.4370814235581
 31
0.0
  0
LINE
  5
B4
330
1F
100
AcDbEntity
  8
1
  6
Continuous
 62
     4
100
AcDbLine
 10
586.1598181065112
 20
348.4370814235581
 30
0.0
 11
586.1598181065112
 21
355.4370814235581
 31
0.0
  0
LINE
  5
B5
330
1F
100
AcDbEntity
  8
1
  6
Continuous
 62
     4
100
AcDbLine
 10
558.1598181065112
 20
355.4370814235581
 30
0.0
 11
558.1598181065112
 21
348.4370814235581
 31
0.0
  0
LINE
  5
B6
330
1F
100
AcDbEntity
  8
1
  6
Continuous
 62
     4
100
AcDbLine
 10
586.1598181065112
 20
355.4370814235581
 30
0.0
 11
558.1598181065112
 21
355.4370814235581
 31
0.0
  0
LINE
  5
B7
330
1F
100
AcDbEntity
  8
1
  6
Continuous
 62
     4
100
AcDbLine
 10
565.1598181065112
 20
348.4370814235581
 30
0.0
 11
565.1598181065112
 21
355.4370814235581
 31
0.0
  0
LINE
  5
B8
330
1F
100
AcDbEntity
  8
1
  6
Continuous
 62
     4
100
AcDbLine
 10
558.1598181065112
 20
348.4370814235581
 30
0.0
 11
586.1598181065112
 21
348.4370814235581
 31
0.0
  0
LINE
  5
B9
330
1F
100
AcDbEntity
  8
1
  6
Continuous
 62
     4
100
AcDbLine
 10
561.6598181065112
 20
349.3120814235581
 30
0.0
 11
561.6598181065112
 21
354.5620814235581
 31
0.0
  0
LINE
  5
BA
330
1F
100
AcDbEntity
  8
1
  6
Continuous
 62
     4
100
AcDbLine
 10
559.0348181065112
 20
349.3120814235581
 30
0.0
 11
564.2848181065112
 21
349.3120814235581
 31
0.0
  0
LINE
  5
BB
330
1F
100
AcDbEntity
  8
1
  6
Continuous
 62
     4
100
AcDbLine
 10
575.45393575357
 20
350.4204147568914
 30
0.0
 11
575.1451122241583
 21
350.6537480902247
 31
0.0
  0
LINE
  5
BC
330
1F
100
AcDbEntity
  8
1
  6
Continuous
 62
     4
100
AcDbLine
 10
575.8657004594525
 20
350.1870814235581
 30
0.0
 11
575.45393575357
 21
350.4204147568914
 31
0.0
  0
LINE
  5
BD
330
1F
100
AcDbEntity
  8
1
  6
Continuous
 62
     4
100
AcDbLine
 10
576.5862886947466
 20
350.1870814235581
 30
0.0
 11
575.8657004594525
 21
350.1870814235581
 31
0.0
  0
LINE
  5
BE
330
1F
100
AcDbEntity
  8
1
  6
Continuous
 62
     4
100
AcDbLine
 10
576.8951122241583
 20
350.4204147568914
 30
0.0
 11
576.5862886947466
 21
350.1870814235581
 31
0.0
  0
LINE
  5
BF
330
1F
100
AcDbEntity
  8
1
  6
Continuous
 62
     4
100
AcDbLine
 10
577.1009945770995
 20
350.6537480902247
 30
0.0
 11
576.8951122241583
 21
350.4204147568914
 31
0.0
  0
LINE
  5
C0
330
1F
100
AcDbEntity
  8
1
  6
Continuous
 62
     4
100
AcDbLine
 10
577.20393575357
 20
351.2370814235581
 30
0.0
 11
577.1009945770995
 21
350.6537480902247
 31
0.0
  0
LINE
  5
C1
330
1F
100
AcDbEntity
  8
1
  6
Continuous
 62
     4
100
AcDbLine
 10
577.1009945770995
 20
351.8204147568914
 30
0.0
 11
577.20393575357
 21
351.2370814235581
 31
0.0
  0
LINE
  5
C2
330
1F
100
AcDbEntity
  8
1
  6
Continuous
 62
     4
100
AcDbLine
 10
576.8951122241583
 20
352.0537480902248
 30
0.0
 11
577.1009945770995
 21
351.8204147568914
 31
0.0
  0
LINE
  5
C3
330
1F
100
AcDbEntity
  8
1
  6
Continuous
 62
     4
100
AcDbLine
 10
576.5862886947466
 20
352.2870814235581
 30
0.0
 11
576.8951122241583
 21
352.0537480902248
 31
0.0
  0
LINE
  5
C4
330
1F
100
AcDbEntity
  8
1
  6
Continuous
 62
     4
100
AcDbLine
 10
576.1745239888642
 20
352.4037480902247
 30
0.0
 11
576.5862886947466
 21
352.2870814235581
 31
0.0
  0
LINE
  5
C5
330
1F
100
AcDbEntity
  8
1
  6
Continuous
 62
     4
100
AcDbLine
 10
575.7627592829818
 20
352.2870814235581
 30
0.0
 11
576.1745239888642
 21
352.4037480902247
 31
0.0
  0
LINE
  5
C6
330
1F
100
AcDbEntity
  8
1
  6
Continuous
 62
     4
100
AcDbLine
 10
575.2480534006289
 20
351.9370814235581
 30
0.0
 11
575.7627592829818
 21
352.2870814235581
 31
0.0
  0
LINE
  5
C7
330
1F
100
AcDbEntity
  8
1
  6
Continuous
 62
     4
100
AcDbLine
 10
575.3509945770995
 20
353.6870814235581
 30
0.0
 11
575.2480534006289
 21
351.9370814235581
 31
0.0
  0
LINE
  5
C8
330
1F
100
AcDbEntity
  8
1
  6
Continuous
 62
     4
100
AcDbLine
 10
577.1009945770995
 20
353.6870814235581
 30
0.0
 11
575.3509945770995
 21
353.6870814235581
 31
0.0
  0
LINE
  5
C9
330
1F
100
AcDbEntity
  8
1
  6
Continuous
 62
     4
100
AcDbLine
 10
573.6009945770995
 20
353.4537480902247
 30
0.0
 11
572.983347518276
 21
353.6870814235581
 31
0.0
  0
LINE
  5
CA
330
1F
100
AcDbEntity
  8
1
  6
Continuous
 62
     4
100
AcDbLine
 10
574.0127592829818
 20
352.8704147568914
 30
0.0
 11
573.6009945770995
 21
353.4537480902247
 31
0.0
  0
LINE
  5
CB
330
1F
100
AcDbEntity
  8
1
  6
Continuous
 62
     4
100
AcDbLine
 10
574.1157004594525
 20
351.9370814235581
 30
0.0
 11
574.0127592829818
 21
352.8704147568914
 31
0.0
  0
LINE
  5
CC
330
1F
100
AcDbEntity
  8
1
  6
Continuous
 62
     4
100
AcDbLine
 10
574.0127592829818
 20
351.0037480902248
 30
0.0
 11
574.1157004594525
 21
351.9370814235581
 31
0.0
  0
LINE
  5
CD
330
1F
100
AcDbEntity
  8
1
  6
Continuous
 62
     4
100
AcDbLine
 10
573.6009945770995
 20
350.4204147568914
 30
0.0
 11
574.0127592829818
 21
351.0037480902248
 31
0.0
  0
LINE
  5
CE
330
1F
100
AcDbEntity
  8
1
  6
Continuous
 62
     4
100
AcDbLine
 10
572.983347518276
 20
350.1870814235581
 30
0.0
 11
573.6009945770995
 21
350.4204147568914
 31
0.0
  0
LINE
  5
CF
330
1F
100
AcDbEntity
  8
1
  6
Continuous
 62
     4
100
AcDbLine
 10
572.3657004594525
 20
350.4204147568914
 30
0.0
 11
572.983347518276
 21
350.1870814235581
 31
0.0
  0
LINE
  5
D0
330
1F
100
AcDbEntity
  8
1
  6
Continuous
 62
     4
100
AcDbLine
 10
572.0568769300407
 20
351.0037480902248
 30
0.0
 11
572.3657004594525
 21
350.4204147568914
 31
0.0
  0
LINE
  5
D1
330
1F
100
AcDbEntity
  8
1
  6
Continuous
 62
     4
100
AcDbLine
 10
571.8509945770995
 20
351.9370814235581
 30
0.0
 11
572.0568769300407
 21
351.0037480902248
 31
0.0
  0
LINE
  5
D2
330
1F
100
AcDbEntity
  8
1
  6
Continuous
 62
     4
100
AcDbLine
 10
572.0568769300407
 20
352.8704147568914
 30
0.0
 11
571.8509945770995
 21
351.9370814235581
 31
0.0
  0
LINE
  5
D3
330
1F
100
AcDbEntity
  8
1
  6
Continuous
 62
     4
100
AcDbLine
 10
572.3657004594525
 20
353.4537480902247
 30
0.0
 11
572.0568769300407
 21
352.8704147568914
 31
0.0
  0
LINE
  5
D4
330
1F
100
AcDbEntity
  8
1
  6
Continuous
 62
     4
100
AcDbLine
 10
572.983347518276
 20
353.6870814235581
 30
0.0
 11
572.3657004594525
 21
353.4537480902247
 31
0.0
  0
LINE
  5
D5
330
1F
100
AcDbEntity
  8
1
  6
Continuous
 62
     4
100
AcDbLine
 10
570.5127592829818
 20
350.5370814235581
 30
0.0
 11
570.6157004594525
 21
350.6537480902247
 31
0.0
  0
LINE
  5
D6
330
1F
100
AcDbEntity
  8
1
  6
Continuous
 62
     4
100
AcDbLine
 10
570.6157004594525
 20
350.4204147568914
 30
0.0
 11
570.5127592829818
 21
350.5370814235581
 31
0.0
  0
LINE
  5
D7
330
1F
100
AcDbEntity
  8
1
  6
Continuous
 62
     4
100
AcDbLine
 10
570.718641635923
 20
350.5370814235581
 30
0.0
 11
570.6157004594525
 21
350.4204147568914
 31
0.0
  0
LINE
  5
D8
330
1F
100
AcDbEntity
  8
1
  6
Continuous
 62
     4
100
AcDbLine
 10
570.6157004594525
 20
350.6537480902247
 30
0.0
 11
570.718641635923
 21
350.5370814235581
 31
0.0
  0
LINE
  5
D9
330
1F
100
AcDbEntity
  8
1
  6
Continuous
 62
     4
100
AcDbLine
 10
570.5127592829818
 20
350.6537480902247
 30
0.0
 11
570.718641635923
 21
350.6537480902247
 31
0.0
  0
LINE
  5
DA
330
1F
100
AcDbEntity
  8
1
  6
Continuous
 62
     4
100
AcDbLine
 10
570.5127592829818
 20
350.4204147568914
 30
0.0
 11
570.5127592829818
 21
350.6537480902247
 31
0.0
  0
LINE
  5
DB
330
1F
100
AcDbEntity
  8
1
  6
Continuous
 62
     4
100
AcDbLine
 10
570.718641635923
 20
350.4204147568914
 30
0.0
 11
570.5127592829818
 21
350.4204147568914
 31
0.0
  0
LINE
  5
DC
330
1F
100
AcDbEntity
  8
1
  6
Continuous
 62
     4
100
AcDbLine
 10
570.718641635923
 20
350.6537480902247
 30
0.0
 11
570.718641635923
 21
350.4204147568914
 31
0.0
  0
LINE
  5
DD
330
1F
100
AcDbEntity
  8
1
  6
Continuous
 62
     4
100
AcDbLine
 10
570.4098181065112
 20
350.5370814235581
 30
0.0
 11
570.6157004594525
 21
350.7704147568914
 31
0.0
  0
LINE
  5
DE
330
1F
100
AcDbEntity
  8
1
  6
Continuous
 62
     4
100
AcDbLine
 10
570.6157004594525
 20
350.3037480902248
 30
0.0
 11
570.4098181065112
 21
350.5370814235581
 31
0.0
  0
LINE
  5
DF
330
1F
100
AcDbEntity
  8
1
  6
Continuous
 62
     4
100
AcDbLine
 10
570.8215828123936
 20
350.5370814235581
 30
0.0
 11
570.6157004594525
 21
350.3037480902248
 31
0.0
  0
LINE
  5
E0
330
1F
100
AcDbEntity
  8
1
  6
Continuous
 62
     4
100
AcDbLine
 10
570.6157004594525
 20
350.7704147568914
 30
0.0
 11
570.8215828123936
 21
350.5370814235581
 31
0.0
  0
LINE
  5
E1
330
1F
100
AcDbEntity
  8
1
  6
Continuous
 62
     4
100
AcDbLine
 10
568.8657004594525
 20
353.4537480902247
 30
0.0
 11
568.2480534006289
 21
353.6870814235581
 31
0.0
  0
LINE
  5
E2
330
1F
100
AcDbEntity
  8
1
  6
Continuous
 62
     4
100
AcDbLine
 10
569.2774651653348
 20
352.8704147568914
 30
0.0
 11
568.8657004594525
 21
353.4537480902247
 31
0.0
  0
LINE
  5
E3
330
1F
100
AcDbEntity
  8
1
  6
Continuous
 62
     4
100
AcDbLine
 10
569.3804063418054
 20
351.9370814235581
 30
0.0
 11
569.2774651653348
 21
352.8704147568914
 31
0.0
  0
LINE
  5
E4
330
1F
100
AcDbEntity
  8
1
  6
Continuous
 62
     4
100
AcDbLine
 10
569.2774651653348
 20
351.0037480902248
 30
0.0
 11
569.3804063418054
 21
351.9370814235581
 31
0.0
  0
LINE
  5
E5
330
1F
100
AcDbEntity
  8
1
  6
Continuous
 62
     4
100
AcDbLine
 10
568.8657004594525
 20
350.4204147568914
 30
0.0
 11
569.2774651653348
 21
351.0037480902248
 31
0.0
  0
LINE
  5
E6
330
1F
100
AcDbEntity
  8
1
  6
Continuous
 62
     4
100
AcDbLine
 10
568.2480534006289
 20
350.1870814235581
 30
0.0
 11
568.8657004594525
 21
350.4204147568914
 31
0.0
  0
LINE
  5
E7
330
1F
100
AcDbEntity
  8
1
  6
Continuous
 62
     4
100
AcDbLine
 10
567.6304063418054
 20
350.4204147568914
 30
0.0
 11
568.2480534006289
 21
350.1870814235581
 31
0.0
  0
LINE
  5
E8
330
1F
100
AcDbEntity
  8
1
  6
Continuous
 62
     4
100
AcDbLine
 10
567.3215828123937
 20
351.0037480902248
 30
0.0
 11
567.6304063418054
 21
350.4204147568914
 31
0.0
  0
LINE
  5
E9
330
1F
100
AcDbEntity
  8
1
  6
Continuous
 62
     4
100
AcDbLine
 10
567.1157004594525
 20
351.9370814235581
 30
0.0
 11
567.3215828123937
 21
351.0037480902248
 31
0.0
  0
LINE
  5
EA
330
1F
100
AcDbEntity
  8
1
  6
Continuous
 62
     4
100
AcDbLine
 10
567.3215828123937
 20
352.8704147568914
 30
0.0
 11
567.1157004594525
 21
351.9370814235581
 31
0.0
  0
LINE
  5
EB
330
1F
100
AcDbEntity
  8
1
  6
Continuous
 62
     4
100
AcDbLine
 10
567.6304063418054
 20
353.4537480902247
 30
0.0
 11
567.3215828123937
 21
352.8704147568914
 31
0.0
  0
LINE
  5
EC
330
1F
100
AcDbEntity
  8
1
  6
Continuous
 62
     4
100
AcDbLine
 10
568.2480534006289
 20
353.6870814235581
 30
0.0
 11
567.6304063418054
 21
353.4537480902247
 31
0.0
  0
LINE
  5
ED
330
1F
100
AcDbEntity
  8
1
  6
Continuous
 62
     4
100
AcDbLine
 10
581.8362886947465
 20
351.1204147568914
 30
0.0
 11
583.483347518276
 21
351.1204147568914
 31
0.0
  0
LINE
  5
EE
330
1F
100
AcDbEntity
  8
1
  6
Continuous
 62
     4
100
AcDbLine
 10
582.6598181065112
 20
353.6870814235581
 30
0.0
 11
583.7921710476877
 21
350.1870814235581
 31
0.0
  0
LINE
  5
EF
330
1F
100
AcDbEntity
  8
1
  6
Continuous
 62
     4
100
AcDbLine
 10
581.5274651653348
 20
350.1870814235581
 30
0.0
 11
582.6598181065112
 21
353.6870814235581
 31
0.0
  0
LINE
  5
F0
330
1F
100
AcDbEntity
  8
1
  6
Continuous
 62
     4
100
AcDbLine
 10
551.4324558439214
 20
342.1073244929904
 30
0.0
 11
551.4324558439214
 21
335.1073244929904
 31
0.0
  0
LINE
  5
F1
330
1F
100
AcDbEntity
  8
1
  6
Continuous
 62
     4
100
AcDbLine
 10
558.4324558439214
 20
335.1073244929904
 30
0.0
 11
558.4324558439214
 21
342.1073244929904
 31
0.0
  0
LINE
  5
F2
330
1F
100
AcDbEntity
  8
1
  6
Continuous
 62
     4
100
AcDbLine
 10
530.4324558439214
 20
342.1073244929904
 30
0.0
 11
530.4324558439214
 21
335.1073244929904
 31
0.0
  0
LINE
  5
F3
330
1F
100
AcDbEntity
  8
1
  6
Continuous
 62
     4
100
AcDbLine
 10
558.4324558439214
 20
342.1073244929904
 30
0.0
 11
530.4324558439214
 21
342.1073244929904
 31
0.0
  0
LINE
  5
F4
330
1F
100
AcDbEntity
  8
1
  6
Continuous
 62
     4
100
AcDbLine
 10
537.4324558439214
 20
335.1073244929904
 30
0.0
 11
537.4324558439214
 21
342.1073244929904
 31
0.0
  0
LINE
  5
F5
330
1F
100
AcDbEntity
  8
1
  6
Continuous
 62
     4
100
AcDbLine
 10
530.4324558439214
 20
335.1073244929904
 30
0.0
 11
558.4324558439214
 21
335.1073244929904
 31
0.0
  0
LINE
  5
F6
330
1F
100
AcDbEntity
  8
1
  6
Continuous
 62
     4
100
AcDbLine
 10
531.4824558439213
 20
339.6573244929904
 30
0.0
 11
531.3074558439214
 21
338.9573244929904
 31
0.0
  0
LINE
  5
F7
330
1F
100
AcDbEntity
  8
1
  6
Continuous
 62
     4
100
AcDbLine
 10
531.8324558439214
 20
340.1823244929904
 30
0.0
 11
531.4824558439213
 21
339.6573244929904
 31
0.0
  0
LINE
  5
F8
330
1F
100
AcDbEntity
  8
1
  6
Continuous
 62
     4
100
AcDbLine
 10
532.3574558439213
 20
340.7073244929904
 30
0.0
 11
531.8324558439214
 21
340.1823244929904
 31
0.0
  0
LINE
  5
F9
330
1F
100
AcDbEntity
  8
1
  6
Continuous
 62
     4
100
AcDbLine
 10
532.8824558439214
 20
341.0573244929904
 30
0.0
 11
532.3574558439213
 21
340.7073244929904
 31
0.0
  0
LINE
  5
FA
330
1F
100
AcDbEntity
  8
1
  6
Continuous
 62
     4
100
AcDbLine
 10
533.5824558439214
 20
341.2323244929904
 30
0.0
 11
532.8824558439214
 21
341.0573244929904
 31
0.0
  0
LINE
  5
FB
330
1F
100
AcDbEntity
  8
1
  6
Continuous
 62
     4
100
AcDbLine
 10
534.2824558439214
 20
341.2323244929904
 30
0.0
 11
533.5824558439214
 21
341.2323244929904
 31
0.0
  0
LINE
  5
FC
330
1F
100
AcDbEntity
  8
1
  6
Continuous
 62
     4
100
AcDbLine
 10
534.9824558439213
 20
341.0573244929904
 30
0.0
 11
534.2824558439214
 21
341.2323244929904
 31
0.0
  0
LINE
  5
FD
330
1F
100
AcDbEntity
  8
1
  6
Continuous
 62
     4
100
AcDbLine
 10
535.5074558439214
 20
340.7073244929904
 30
0.0
 11
534.9824558439213
 21
341.0573244929904
 31
0.0
  0
LINE
  5
FE
330
1F
100
AcDbEntity
  8
1
  6
Continuous
 62
     4
100
AcDbLine
 10
536.0324558439214
 20
340.1823244929904
 30
0.0
 11
535.5074558439214
 21
340.7073244929904
 31
0.0
  0
LINE
  5
FF
330
1F
100
AcDbEntity
  8
1
  6
Continuous
 62
     4
100
AcDbLine
 10
536.3824558439214
 20
339.6573244929904
 30
0.0
 11
536.0324558439214
 21
340.1823244929904
 31
0.0
  0
LINE
  5
100
330
1F
100
AcDbEntity
  8
1
  6
Continuous
 62
     4
100
AcDbLine
 10
536.5574558439214
 20
338.9573244929904
 30
0.0
 11
536.3824558439214
 21
339.6573244929904
 31
0.0
  0
LINE
  5
101
330
1F
100
AcDbEntity
  8
1
  6
Continuous
 62
     4
100
AcDbLine
 10
536.5574558439214
 20
338.2573244929904
 30
0.0
 11
536.5574558439214
 21
338.9573244929904
 31
0.0
  0
LINE
  5
102
330
1F
100
AcDbEntity
  8
1
  6
Continuous
 62
     4
100
AcDbLine
 10
536.3824558439214
 20
337.5573244929904
 30
0.0
 11
536.5574558439214
 21
338.2573244929904
 31
0.0
  0
LINE
  5
103
330
1F
100
AcDbEntity
  8
1
  6
Continuous
 62
     4
100
AcDbLine
 10
536.0324558439214
 20
337.0323244929904
 30
0.0
 11
536.3824558439214
 21
337.5573244929904
 31
0.0
  0
LINE
  5
104
330
1F
100
AcDbEntity
  8
1
  6
Continuous
 62
     4
100
AcDbLine
 10
535.5074558439214
 20
336.5073244929904
 30
0.0
 11
536.0324558439214
 21
337.0323244929904
 31
0.0
  0
LINE
  5
105
330
1F
100
AcDbEntity
  8
1
  6
Continuous
 62
     4
100
AcDbLine
 10
534.9824558439213
 20
336.1573244929904
 30
0.0
 11
535.5074558439214
 21
336.5073244929904
 31
0.0
  0
LINE
  5
106
330
1F
100
AcDbEntity
  8
1
  6
Continuous
 62
     4
100
AcDbLine
 10
534.2824558439214
 20
335.9823244929904
 30
0.0
 11
534.9824558439213
 21
336.1573244929904
 31
0.0
  0
LINE
  5
107
330
1F
100
AcDbEntity
  8
1
  6
Continuous
 62
     4
100
AcDbLine
 10
533.5824558439214
 20
335.9823244929904
 30
0.0
 11
534.2824558439214
 21
335.9823244929904
 31
0.0
  0
LINE
  5
108
330
1F
100
AcDbEntity
  8
1
  6
Continuous
 62
     4
100
AcDbLine
 10
532.8824558439214
 20
336.1573244929904
 30
0.0
 11
533.5824558439214
 21
335.9823244929904
 31
0.0
  0
LINE
  5
109
330
1F
100
AcDbEntity
  8
1
  6
Continuous
 62
     4
100
AcDbLine
 10
532.3574558439213
 20
336.5073244929904
 30
0.0
 11
532.8824558439214
 21
336.1573244929904
 31
0.0
  0
LINE
  5
10A
330
1F
100
AcDbEntity
  8
1
  6
Continuous
 62
     4
100
AcDbLine
 10
531.8324558439214
 20
337.0323244929904
 30
0.0
 11
532.3574558439213
 21
336.5073244929904
 31
0.0
  0
LINE
  5
10B
330
1F
100
AcDbEntity
  8
1
  6
Continuous
 62
     4
100
AcDbLine
 10
531.4824558439213
 20
337.5573244929904
 30
0.0
 11
531.8324558439214
 21
337.0323244929904
 31
0.0
  0
LINE
  5
10C
330
1F
100
AcDbEntity
  8
1
  6
Continuous
 62
     4
100
AcDbLine
 10
531.3074558439214
 20
338.2573244929904
 30
0.0
 11
531.4824558439213
 21
337.5573244929904
 31
0.0
  0
LINE
  5
10D
330
1F
100
AcDbEntity
  8
1
  6
Continuous
 62
     4
100
AcDbLine
 10
531.3074558439214
 20
338.9573244929904
 30
0.0
 11
531.3074558439214
 21
338.2573244929904
 31
0.0
  0
LINE
  5
10E
330
1F
100
AcDbEntity
  8
1
  6
Continuous
 62
     4
100
AcDbLine
 10
532.5324558439214
 20
339.6573244929904
 30
0.0
 11
532.1824558439214
 21
338.9573244929904
 31
0.0
  0
LINE
  5
10F
330
1F
100
AcDbEntity
  8
1
  6
Continuous
 62
     4
100
AcDbLine
 10
532.8824558439214
 20
340.0073244929904
 30
0.0
 11
532.5324558439214
 21
339.6573244929904
 31
0.0
  0
LINE
  5
110
330
1F
100
AcDbEntity
  8
1
  6
Continuous
 62
     4
100
AcDbLine
 10
533.5824558439214
 20
340.3573244929904
 30
0.0
 11
532.8824558439214
 21
340.0073244929904
 31
0.0
  0
LINE
  5
111
330
1F
100
AcDbEntity
  8
1
  6
Continuous
 62
     4
100
AcDbLine
 10
534.2824558439214
 20
340.3573244929904
 30
0.0
 11
533.5824558439214
 21
340.3573244929904
 31
0.0
  0
LINE
  5
112
330
1F
100
AcDbEntity
  8
1
  6
Continuous
 62
     4
100
AcDbLine
 10
534.9824558439213
 20
340.0073244929904
 30
0.0
 11
534.2824558439214
 21
340.3573244929904
 31
0.0
  0
LINE
  5
113
330
1F
100
AcDbEntity
  8
1
  6
Continuous
 62
     4
100
AcDbLine
 10
535.3324558439214
 20
339.6573244929904
 30
0.0
 11
534.9824558439213
 21
340.0073244929904
 31
0.0
  0
LINE
  5
114
330
1F
100
AcDbEntity
  8
1
  6
Continuous
 62
     4
100
AcDbLine
 10
535.6824558439214
 20
338.9573244929904
 30
0.0
 11
535.3324558439214
 21
339.6573244929904
 31
0.0
  0
LINE
  5
115
330
1F
100
AcDbEntity
  8
1
  6
Continuous
 62
     4
100
AcDbLine
 10
535.6824558439214
 20
338.2573244929904
 30
0.0
 11
535.6824558439214
 21
338.9573244929904
 31
0.0
  0
LINE
  5
116
330
1F
100
AcDbEntity
  8
1
  6
Continuous
 62
     4
100
AcDbLine
 10
535.3324558439214
 20
337.5573244929904
 30
0.0
 11
535.6824558439214
 21
338.2573244929904
 31
0.0
  0
LINE
  5
117
330
1F
100
AcDbEntity
  8
1
  6
Continuous
 62
     4
100
AcDbLine
 10
534.9824558439213
 20
337.2073244929904
 30
0.0
 11
535.3324558439214
 21
337.5573244929904
 31
0.0
  0
LINE
  5
118
330
1F
100
AcDbEntity
  8
1
  6
Continuous
 62
     4
100
AcDbLine
 10
534.2824558439214
 20
336.8573244929904
 30
0.0
 11
534.9824558439213
 21
337.2073244929904
 31
0.0
  0
LINE
  5
119
330
1F
100
AcDbEntity
  8
1
  6
Continuous
 62
     4
100
AcDbLine
 10
533.5824558439214
 20
336.8573244929904
 30
0.0
 11
534.2824558439214
 21
336.8573244929904
 31
0.0
  0
LINE
  5
11A
330
1F
100
AcDbEntity
  8
1
  6
Continuous
 62
     4
100
AcDbLine
 10
532.8824558439214
 20
337.2073244929904
 30
0.0
 11
533.5824558439214
 21
336.8573244929904
 31
0.0
  0
LINE
  5
11B
330
1F
100
AcDbEntity
  8
1
  6
Continuous
 62
     4
100
AcDbLine
 10
532.5324558439214
 20
337.5573244929904
 30
0.0
 11
532.8824558439214
 21
337.2073244929904
 31
0.0
  0
LINE
  5
11C
330
1F
100
AcDbEntity
  8
1
  6
Continuous
 62
     4
100
AcDbLine
 10
532.1824558439214
 20
338.2573244929904
 30
0.0
 11
532.5324558439214
 21
337.5573244929904
 31
0.0
  0
LINE
  5
11D
330
1F
100
AcDbEntity
  8
1
  6
Continuous
 62
     4
100
AcDbLine
 10
532.1824558439214
 20
338.9573244929904
 30
0.0
 11
532.1824558439214
 21
338.2573244929904
 31
0.0
  0
LINE
  5
11E
330
1F
100
AcDbEntity
  8
1
  6
Continuous
 62
     4
100
AcDbLine
 10
549.1034117262743
 20
340.2406578263237
 30
0.0
 11
548.7173823145096
 21
340.3573244929904
 31
0.0
  0
LINE
  5
11F
330
1F
100
AcDbEntity
  8
1
  6
Continuous
 62
     4
100
AcDbLine
 10
549.3350293733331
 20
340.1239911596571
 30
0.0
 11
549.1034117262743
 21
340.2406578263237
 31
0.0
  0
LINE
  5
120
330
1F
100
AcDbEntity
  8
1
  6
Continuous
 62
     4
100
AcDbLine
 10
549.412235255686
 20
339.8906578263238
 30
0.0
 11
549.3350293733331
 21
340.1239911596571
 31
0.0
  0
LINE
  5
121
330
1F
100
AcDbEntity
  8
1
  6
Continuous
 62
     4
100
AcDbLine
 10
549.489441138039
 20
339.5406578263238
 30
0.0
 11
549.412235255686
 21
339.8906578263238
 31
0.0
  0
LINE
  5
122
330
1F
100
AcDbEntity
  8
1
  6
Continuous
 62
     4
100
AcDbLine
 10
549.412235255686
 20
339.1906578263237
 30
0.0
 11
549.489441138039
 21
339.5406578263238
 31
0.0
  0
LINE
  5
123
330
1F
100
AcDbEntity
  8
1
  6
Continuous
 62
     4
100
AcDbLine
 10
549.1806176086272
 20
338.8406578263238
 30
0.0
 11
549.412235255686
 21
339.1906578263237
 31
0.0
  0
LINE
  5
124
330
1F
100
AcDbEntity
  8
1
  6
Continuous
 62
     4
100
AcDbLine
 10
548.8717940792155
 20
338.7239911596571
 30
0.0
 11
549.1806176086272
 21
338.8406578263238
 31
0.0
  0
LINE
  5
125
330
1F
100
AcDbEntity
  8
1
  6
Continuous
 62
     4
100
AcDbLine
 10
548.6401764321566
 20
338.7239911596571
 30
0.0
 11
548.8717940792155
 21
338.7239911596571
 31
0.0
  0
LINE
  5
126
330
1F
100
AcDbEntity
  8
1
  6
Continuous
 62
     4
100
AcDbLine
 10
548.3313529027449
 20
338.6073244929904
 30
0.0
 11
548.6401764321566
 21
338.7239911596571
 31
0.0
  0
LINE
  5
127
330
1F
100
AcDbEntity
  8
1
  6
Continuous
 62
     4
100
AcDbLine
 10
548.176941138039
 20
338.4906578263237
 30
0.0
 11
548.3313529027449
 21
338.6073244929904
 31
0.0
  0
LINE
  5
128
330
1F
100
AcDbEntity
  8
1
  6
Continuous
 62
     4
100
AcDbLine
 10
547.9453234909802
 20
338.2573244929904
 30
0.0
 11
548.176941138039
 21
338.4906578263237
 31
0.0
  0
LINE
  5
129
330
1F
100
AcDbEntity
  8
1
  6
Continuous
 62
     4
100
AcDbLine
 10
547.8681176086272
 20
337.7906578263238
 30
0.0
 11
547.9453234909802
 21
338.2573244929904
 31
0.0
  0
LINE
  5
12A
330
1F
100
AcDbEntity
  8
1
  6
Continuous
 62
     4
100
AcDbLine
 10
548.0225293733331
 20
337.2073244929904
 30
0.0
 11
547.8681176086272
 21
337.7906578263238
 31
0.0
  0
LINE
  5
12B
330
1F
100
AcDbEntity
  8
1
  6
Continuous
 62
     4
100
AcDbLine
 10
548.254147020392
 20
336.9739911596571
 30
0.0
 11
548.0225293733331
 21
337.2073244929904
 31
0.0
  0
LINE
  5
12C
330
1F
100
AcDbEntity
  8
1
  6
Continuous
 62
     4
100
AcDbLine
 10
548.7173823145096
 20
336.8573244929904
 30
0.0
 11
548.254147020392
 21
336.9739911596571
 31
0.0
  0
LINE
  5
12D
330
1F
100
AcDbEntity
  8
1
  6
Continuous
 62
     4
100
AcDbLine
 10
549.1806176086272
 20
336.9739911596571
 30
0.0
 11
548.7173823145096
 21
336.8573244929904
 31
0.0
  0
LINE
  5
12E
330
1F
100
AcDbEntity
  8
1
  6
Continuous
 62
     4
100
AcDbLine
 10
549.489441138039
 20
337.2073244929904
 30
0.0
 11
549.1806176086272
 21
336.9739911596571
 31
0.0
  0
LINE
  5
12F
330
1F
100
AcDbEntity
  8
1
  6
Continuous
 62
     4
100
AcDbLine
 10
549.6438529027449
 20
337.7906578263238
 30
0.0
 11
549.489441138039
 21
337.2073244929904
 31
0.0
  0
LINE
  5
130
330
1F
100
AcDbEntity
  8
1
  6
Continuous
 62
     4
100
AcDbLine
 10
549.489441138039
 20
338.2573244929904
 30
0.0
 11
549.6438529027449
 21
337.7906578263238
 31
0.0
  0
LINE
  5
131
330
1F
100
AcDbEntity
  8
1
  6
Continuous
 62
     4
100
AcDbLine
 10
549.1806176086272
 20
338.6073244929904
 30
0.0
 11
549.489441138039
 21
338.2573244929904
 31
0.0
  0
LINE
  5
132
330
1F
100
AcDbEntity
  8
1
  6
Continuous
 62
     4
100
AcDbLine
 10
548.8717940792155
 20
338.7239911596571
 30
0.0
 11
549.1806176086272
 21
338.6073244929904
 31
0.0
  0
LINE
  5
133
330
1F
100
AcDbEntity
  8
1
  6
Continuous
 62
     4
100
AcDbLine
 10
548.6401764321566
 20
338.7239911596571
 30
0.0
 11
548.8717940792155
 21
338.7239911596571
 31
0.0
  0
LINE
  5
134
330
1F
100
AcDbEntity
  8
1
  6
Continuous
 62
     4
100
AcDbLine
 10
548.3313529027449
 20
338.8406578263238
 30
0.0
 11
548.6401764321566
 21
338.7239911596571
 31
0.0
  0
LINE
  5
135
330
1F
100
AcDbEntity
  8
1
  6
Continuous
 62
     4
100
AcDbLine
 10
548.099735255686
 20
339.1906578263237
 30
0.0
 11
548.3313529027449
 21
338.8406578263238
 31
0.0
  0
LINE
  5
136
330
1F
100
AcDbEntity
  8
1
  6
Continuous
 62
     4
100
AcDbLine
 10
548.0225293733331
 20
339.5406578263238
 30
0.0
 11
548.099735255686
 21
339.1906578263237
 31
0.0
  0
LINE
  5
137
330
1F
100
AcDbEntity
  8
1
  6
Continuous
 62
     4
100
AcDbLine
 10
548.099735255686
 20
339.8906578263238
 30
0.0
 11
548.0225293733331
 21
339.5406578263238
 31
0.0
  0
LINE
  5
138
330
1F
100
AcDbEntity
  8
1
  6
Continuous
 62
     4
100
AcDbLine
 10
548.3313529027449
 20
340.2406578263237
 30
0.0
 11
548.099735255686
 21
339.8906578263238
 31
0.0
  0
LINE
  5
139
330
1F
100
AcDbEntity
  8
1
  6
Continuous
 62
     4
100
AcDbLine
 10
548.7173823145096
 20
340.3573244929904
 30
0.0
 11
548.3313529027449
 21
340.2406578263237
 31
0.0
  0
LINE
  5
13A
330
1F
100
AcDbEntity
  8
1
  6
Continuous
 62
     4
100
AcDbLine
 10
546.7100293733331
 20
340.1239911596571
 30
0.0
 11
546.2467940792154
 21
340.3573244929904
 31
0.0
  0
LINE
  5
13B
330
1F
100
AcDbEntity
  8
1
  6
Continuous
 62
     4
100
AcDbLine
 10
547.0188529027448
 20
339.5406578263238
 30
0.0
 11
546.7100293733331
 21
340.1239911596571
 31
0.0
  0
LINE
  5
13C
330
1F
100
AcDbEntity
  8
1
  6
Continuous
 62
     4
100
AcDbLine
 10
547.0960587850979
 20
338.6073244929904
 30
0.0
 11
547.0188529027448
 21
339.5406578263238
 31
0.0
  0
LINE
  5
13D
330
1F
100
AcDbEntity
  8
1
  6
Continuous
 62
     4
100
AcDbLine
 10
547.0188529027448
 20
337.6739911596571
 30
0.0
 11
547.0960587850979
 21
338.6073244929904
 31
0.0
  0
LINE
  5
13E
330
1F
100
AcDbEntity
  8
1
  6
Continuous
 62
     4
100
AcDbLine
 10
546.7100293733331
 20
337.0906578263238
 30
0.0
 11
547.0188529027448
 21
337.6739911596571
 31
0.0
  0
LINE
  5
13F
330
1F
100
AcDbEntity
  8
1
  6
Continuous
 62
     4
100
AcDbLine
 10
546.2467940792154
 20
336.8573244929904
 30
0.0
 11
546.7100293733331
 21
337.0906578263238
 31
0.0
  0
LINE
  5
140
330
1F
100
AcDbEntity
  8
1
  6
Continuous
 62
     4
100
AcDbLine
 10
545.7835587850979
 20
337.0906578263238
 30
0.0
 11
546.2467940792154
 21
336.8573244929904
 31
0.0
  0
LINE
  5
141
330
1F
100
AcDbEntity
  8
1
  6
Continuous
 62
     4
100
AcDbLine
 10
545.551941138039
 20
337.6739911596571
 30
0.0
 11
545.7835587850979
 21
337.0906578263238
 31
0.0
  0
LINE
  5
142
330
1F
100
AcDbEntity
  8
1
  6
Continuous
 62
     4
100
AcDbLine
 10
545.3975293733331
 20
338.6073244929904
 30
0.0
 11
545.551941138039
 21
337.6739911596571
 31
0.0
  0
LINE
  5
143
330
1F
100
AcDbEntity
  8
1
  6
Continuous
 62
     4
100
AcDbLine
 10
545.551941138039
 20
339.5406578263238
 30
0.0
 11
545.3975293733331
 21
338.6073244929904
 31
0.0
  0
LINE
  5
144
330
1F
100
AcDbEntity
  8
1
  6
Continuous
 62
     4
100
AcDbLine
 10
545.7835587850979
 20
340.1239911596571
 30
0.0
 11
545.551941138039
 21
339.5406578263238
 31
0.0
  0
LINE
  5
145
330
1F
100
AcDbEntity
  8
1
  6
Continuous
 62
     4
100
AcDbLine
 10
546.2467940792154
 20
340.3573244929904
 30
0.0
 11
545.7835587850979
 21
340.1239911596571
 31
0.0
  0
LINE
  5
146
330
1F
100
AcDbEntity
  8
1
  6
Continuous
 62
     4
100
AcDbLine
 10
544.3938529027449
 20
337.2073244929904
 30
0.0
 11
544.4710587850979
 21
337.3239911596571
 31
0.0
  0
LINE
  5
147
330
1F
100
AcDbEntity
  8
1
  6
Continuous
 62
     4
100
AcDbLine
 10
544.4710587850979
 20
337.0906578263238
 30
0.0
 11
544.3938529027449
 21
337.2073244929904
 31
0.0
  0
LINE
  5
148
330
1F
100
AcDbEntity
  8
1
  6
Continuous
 62
     4
100
AcDbLine
 10
544.5482646674508
 20
337.2073244929904
 30
0.0
 11
544.4710587850979
 21
337.0906578263238
 31
0.0
  0
LINE
  5
149
330
1F
100
AcDbEntity
  8
1
  6
Continuous
 62
     4
100
AcDbLine
 10
544.4710587850979
 20
337.3239911596571
 30
0.0
 11
544.5482646674508
 21
337.2073244929904
 31
0.0
  0
LINE
  5
14A
330
1F
100
AcDbEntity
  8
1
  6
Continuous
 62
     4
100
AcDbLine
 10
544.3938529027449
 20
337.3239911596571
 30
0.0
 11
544.5482646674508
 21
337.3239911596571
 31
0.0
  0
LINE
  5
14B
330
1F
100
AcDbEntity
  8
1
  6
Continuous
 62
     4
100
AcDbLine
 10
544.3938529027449
 20
337.0906578263238
 30
0.0
 11
544.3938529027449
 21
337.3239911596571
 31
0.0
  0
LINE
  5
14C
330
1F
100
AcDbEntity
  8
1
  6
Continuous
 62
     4
100
AcDbLine
 10
544.5482646674508
 20
337.0906578263238
 30
0.0
 11
544.3938529027449
 21
337.0906578263238
 31
0.0
  0
LINE
  5
14D
330
1F
100
AcDbEntity
  8
1
  6
Continuous
 62
     4
100
AcDbLine
 10
544.5482646674508
 20
337.3239911596571
 30
0.0
 11
544.5482646674508
 21
337.0906578263238
 31
0.0
  0
LINE
  5
14E
330
1F
100
AcDbEntity
  8
1
  6
Continuous
 62
     4
100
AcDbLine
 10
544.316647020392
 20
337.2073244929904
 30
0.0
 11
544.4710587850979
 21
337.4406578263237
 31
0.0
  0
LINE
  5
14F
330
1F
100
AcDbEntity
  8
1
  6
Continuous
 62
     4
100
AcDbLine
 10
544.4710587850979
 20
336.9739911596571
 30
0.0
 11
544.316647020392
 21
337.2073244929904
 31
0.0
  0
LINE
  5
150
330
1F
100
AcDbEntity
  8
1
  6
Continuous
 62
     4
100
AcDbLine
 10
544.6254705498037
 20
337.2073244929904
 30
0.0
 11
544.4710587850979
 21
336.9739911596571
 31
0.0
  0
LINE
  5
151
330
1F
100
AcDbEntity
  8
1
  6
Continuous
 62
     4
100
AcDbLine
 10
544.4710587850979
 20
337.4406578263237
 30
0.0
 11
544.6254705498037
 21
337.2073244929904
 31
0.0
  0
LINE
  5
152
330
1F
100
AcDbEntity
  8
1
  6
Continuous
 62
     4
100
AcDbLine
 10
543.1585587850979
 20
340.1239911596571
 30
0.0
 11
542.6953234909802
 21
340.3573244929904
 31
0.0
  0
LINE
  5
153
330
1F
100
AcDbEntity
  8
1
  6
Continuous
 62
     4
100
AcDbLine
 10
543.4673823145096
 20
339.5406578263238
 30
0.0
 11
543.1585587850979
 21
340.1239911596571
 31
0.0
  0
LINE
  5
154
330
1F
100
AcDbEntity
  8
1
  6
Continuous
 62
     4
100
AcDbLine
 10
543.5445881968626
 20
338.6073244929904
 30
0.0
 11
543.4673823145096
 21
339.5406578263238
 31
0.0
  0
LINE
  5
155
330
1F
100
AcDbEntity
  8
1
  6
Continuous
 62
     4
100
AcDbLine
 10
543.4673823145096
 20
337.6739911596571
 30
0.0
 11
543.5445881968626
 21
338.6073244929904
 31
0.0
  0
LINE
  5
156
330
1F
100
AcDbEntity
  8
1
  6
Continuous
 62
     4
100
AcDbLine
 10
543.1585587850979
 20
337.0906578263238
 30
0.0
 11
543.4673823145096
 21
337.6739911596571
 31
0.0
  0
LINE
  5
157
330
1F
100
AcDbEntity
  8
1
  6
Continuous
 62
     4
100
AcDbLine
 10
542.6953234909802
 20
336.8573244929904
 30
0.0
 11
543.1585587850979
 21
337.0906578263238
 31
0.0
  0
LINE
  5
158
330
1F
100
AcDbEntity
  8
1
  6
Continuous
 62
     4
100
AcDbLine
 10
542.2320881968626
 20
337.0906578263238
 30
0.0
 11
542.6953234909802
 21
336.8573244929904
 31
0.0
  0
LINE
  5
159
330
1F
100
AcDbEntity
  8
1
  6
Continuous
 62
     4
100
AcDbLine
 10
542.0004705498037
 20
337.6739911596571
 30
0.0
 11
542.2320881968626
 21
337.0906578263238
 31
0.0
  0
LINE
  5
15A
330
1F
100
AcDbEntity
  8
1
  6
Continuous
 62
     4
100
AcDbLine
 10
541.8460587850979
 20
338.6073244929904
 30
0.0
 11
542.0004705498037
 21
337.6739911596571
 31
0.0
  0
LINE
  5
15B
330
1F
100
AcDbEntity
  8
1
  6
Continuous
 62
     4
100
AcDbLine
 10
542.0004705498037
 20
339.5406578263238
 30
0.0
 11
541.8460587850979
 21
338.6073244929904
 31
0.0
  0
LINE
  5
15C
330
1F
100
AcDbEntity
  8
1
  6
Continuous
 62
     4
100
AcDbLine
 10
542.2320881968626
 20
340.1239911596571
 30
0.0
 11
542.0004705498037
 21
339.5406578263238
 31
0.0
  0
LINE
  5
15D
330
1F
100
AcDbEntity
  8
1
  6
Continuous
 62
     4
100
AcDbLine
 10
542.6953234909802
 20
340.3573244929904
 30
0.0
 11
542.2320881968626
 21
340.1239911596571
 31
0.0
  0
LINE
  5
15E
330
1F
100
AcDbEntity
  8
1
  6
Continuous
 62
     4
100
AcDbLine
 10
540.7523087850979
 20
339.2635744929904
 30
0.0
 11
540.5335587850979
 21
339.3729494929904
 31
0.0
  0
LINE
  5
15F
330
1F
100
AcDbEntity
  8
1
  6
Continuous
 62
     4
100
AcDbLine
 10
540.8981421184312
 20
338.8260744929904
 30
0.0
 11
540.7523087850979
 21
339.2635744929904
 31
0.0
  0
LINE
  5
160
330
1F
100
AcDbEntity
  8
1
  6
Continuous
 62
     4
100
AcDbLine
 10
540.8981421184312
 20
338.3885744929904
 30
0.0
 11
540.8981421184312
 21
338.8260744929904
 31
0.0
  0
LINE
  5
161
330
1F
100
AcDbEntity
  8
1
  6
Continuous
 62
     4
100
AcDbLine
 10
540.6793921184312
 20
337.8416994929904
 30
0.0
 11
540.8981421184312
 21
338.3885744929904
 31
0.0
  0
LINE
  5
162
330
1F
100
AcDbEntity
  8
1
  6
Continuous
 62
     4
100
AcDbLine
 10
540.3877254517645
 20
337.6229494929904
 30
0.0
 11
540.6793921184312
 21
337.8416994929904
 31
0.0
  0
LINE
  5
163
330
1F
100
AcDbEntity
  8
1
  6
Continuous
 62
     4
100
AcDbLine
 10
540.0960587850979
 20
337.6229494929904
 30
0.0
 11
540.3877254517645
 21
337.6229494929904
 31
0.0
  0
LINE
  5
164
330
1F
100
AcDbEntity
  8
1
  6
Continuous
 62
     4
100
AcDbLine
 10
539.8773087850979
 20
337.7323244929904
 30
0.0
 11
540.0960587850979
 21
337.6229494929904
 31
0.0
  0
LINE
  5
165
330
1F
100
AcDbEntity
  8
1
  6
Continuous
 62
     4
100
AcDbLine
 10
539.7314754517645
 20
338.1698244929904
 30
0.0
 11
539.8773087850979
 21
337.7323244929904
 31
0.0
  0
LINE
  5
166
330
1F
100
AcDbEntity
  8
1
  6
Continuous
 62
     4
100
AcDbLine
 10
539.7314754517645
 20
338.6073244929904
 30
0.0
 11
539.7314754517645
 21
338.1698244929904
 31
0.0
  0
LINE
  5
167
330
1F
100
AcDbEntity
  8
1
  6
Continuous
 62
     4
100
AcDbLine
 10
539.9502254517645
 20
339.1541994929904
 30
0.0
 11
539.7314754517645
 21
338.6073244929904
 31
0.0
  0
LINE
  5
168
330
1F
100
AcDbEntity
  8
1
  6
Continuous
 62
     4
100
AcDbLine
 10
540.2418921184312
 20
339.3729494929904
 30
0.0
 11
539.9502254517645
 21
339.1541994929904
 31
0.0
  0
LINE
  5
169
330
1F
100
AcDbEntity
  8
1
  6
Continuous
 62
     4
100
AcDbLine
 10
540.5335587850979
 20
339.3729494929904
 30
0.0
 11
540.2418921184312
 21
339.3729494929904
 31
0.0
  0
LINE
  5
16A
330
1F
100
AcDbEntity
  8
1
  6
Continuous
 62
     4
100
AcDbLine
 10
539.9502254517645
 20
336.8573244929904
 30
0.0
 11
540.6793921184312
 21
340.2479494929904
 31
0.0
  0
LINE
  5
16B
330
1F
100
AcDbEntity
  8
1
  6
Continuous
 62
     4
100
AcDbLine
 10
554.1089264321566
 20
337.7906578263238
 30
0.0
 11
555.7559852556861
 21
337.7906578263238
 31
0.0
  0
LINE
  5
16C
330
1F
100
AcDbEntity
  8
1
  6
Continuous
 62
     4
100
AcDbLine
 10
554.9324558439214
 20
340.3573244929904
 30
0.0
 11
556.0648087850979
 21
336.8573244929904
 31
0.0
  0
LINE
  5
16D
330
1F
100
AcDbEntity
  8
1
  6
Continuous
 62
     4
100
AcDbLine
 10
553.8001029027449
 20
336.8573244929904
 30
0.0
 11
554.9324558439214
 21
340.3573244929904
 31
0.0
  0
LINE
  5
16E
330
1F
100
AcDbEntity
  8
1
  6
Continuous
 62
     2
100
AcDbLine
 10
599.1584684024305
 20
377.3628251810713
 30
0.0
 11
598.9525860494892
 21
376.6628251810713
 31
0.0
  0
LINE
  5
16F
330
1F
100
AcDbEntity
  8
1
  6
Continuous
 62
     2
100
AcDbLine
 10
599.4672919318422
 20
377.7128251810713
 30
0.0
 11
599.1584684024305
 21
377.3628251810713
 31
0.0
  0
LINE
  5
170
330
1F
100
AcDbEntity
  8
1
  6
Continuous
 62
     2
100
AcDbLine
 10
599.8790566377245
 20
377.8294918477379
 30
0.0
 11
599.4672919318422
 21
377.7128251810713
 31
0.0
  0
LINE
  5
171
330
1F
100
AcDbEntity
  8
1
  6
Continuous
 62
     2
100
AcDbLine
 10
600.2908213436069
 20
377.7128251810713
 30
0.0
 11
599.8790566377245
 21
377.8294918477379
 31
0.0
  0
LINE
  5
172
330
1F
100
AcDbEntity
  8
1
  6
Continuous
 62
     2
100
AcDbLine
 10
600.7025860494892
 20
377.3628251810713
 30
0.0
 11
600.2908213436069
 21
377.7128251810713
 31
0.0
  0
LINE
  5
173
330
1F
100
AcDbEntity
  8
1
  6
Continuous
 62
     2
100
AcDbLine
 10
600.8055272259598
 20
377.1294918477379
 30
0.0
 11
600.7025860494892
 21
377.3628251810713
 31
0.0
  0
LINE
  5
174
330
1F
100
AcDbEntity
  8
1
  6
Continuous
 62
     2
100
AcDbLine
 10
600.9084684024305
 20
376.6628251810713
 30
0.0
 11
600.8055272259598
 21
377.1294918477379
 31
0.0
  0
LINE
  5
175
330
1F
100
AcDbEntity
  8
1
  6
Continuous
 62
     2
100
AcDbLine
 10
600.7025860494892
 20
376.0794918477379
 30
0.0
 11
600.9084684024305
 21
376.6628251810713
 31
0.0
  0
LINE
  5
176
330
1F
100
AcDbEntity
  8
1
  6
Continuous
 62
     2
100
AcDbLine
 10
600.3937625200775
 20
375.729491847738
 30
0.0
 11
600.7025860494892
 21
376.0794918477379
 31
0.0
  0
LINE
  5
177
330
1F
100
AcDbEntity
  8
1
  6
Continuous
 62
     2
100
AcDbLine
 10
599.8790566377245
 20
375.6128251810713
 30
0.0
 11
600.3937625200775
 21
375.729491847738
 31
0.0
  0
LINE
  5
178
330
1F
100
AcDbEntity
  8
1
  6
Continuous
 62
     2
100
AcDbLine
 10
599.261409578901
 20
375.8461585144046
 30
0.0
 11
599.8790566377245
 21
375.6128251810713
 31
0.0
  0
LINE
  5
179
330
1F
100
AcDbEntity
  8
1
  6
Continuous
 62
     2
100
AcDbLine
 10
599.0555272259598
 20
376.1961585144046
 30
0.0
 11
599.261409578901
 21
375.8461585144046
 31
0.0
  0
LINE
  5
17A
330
1F
100
AcDbEntity
  8
1
  6
Continuous
 62
     2
100
AcDbLine
 10
598.9525860494892
 20
376.6628251810713
 30
0.0
 11
599.0555272259598
 21
376.1961585144046
 31
0.0
  0
LINE
  5
17B
330
1F
100
AcDbEntity
  8
1
  6
Continuous
 62
     2
100
AcDbLine
 10
598.9525860494892
 20
378.0628251810713
 30
0.0
 11
598.9525860494892
 21
376.6628251810713
 31
0.0
  0
LINE
  5
17C
330
1F
100
AcDbEntity
  8
1
  6
Continuous
 62
     2
100
AcDbLine
 10
599.0555272259598
 20
378.529491847738
 30
0.0
 11
598.9525860494892
 21
378.0628251810713
 31
0.0
  0
LINE
  5
17D
330
1F
100
AcDbEntity
  8
1
  6
Continuous
 62
     2
100
AcDbLine
 10
599.3643507553716
 20
378.8794918477379
 30
0.0
 11
599.0555272259598
 21
378.529491847738
 31
0.0
  0
LINE
  5
17E
330
1F
100
AcDbEntity
  8
1
  6
Continuous
 62
     2
100
AcDbLine
 10
599.5702331083128
 20
378.9961585144046
 30
0.0
 11
599.3643507553716
 21
378.8794918477379
 31
0.0
  0
LINE
  5
17F
330
1F
100
AcDbEntity
  8
1
  6
Continuous
 62
     2
100
AcDbLine
 10
599.8790566377245
 20
379.1128251810713
 30
0.0
 11
599.5702331083128
 21
378.9961585144046
 31
0.0
  0
LINE
  5
180
330
1F
100
AcDbEntity
  8
1
  6
Continuous
 62
     2
100
AcDbLine
 10
600.2908213436069
 20
378.9961585144046
 30
0.0
 11
599.8790566377245
 21
379.1128251810713
 31
0.0
  0
LINE
  5
181
330
1F
100
AcDbEntity
  8
1
  6
Continuous
 62
     2
100
AcDbLine
 10
600.5996448730186
 20
378.8794918477379
 30
0.0
 11
600.2908213436069
 21
378.9961585144046
 31
0.0
  0
LINE
  5
182
330
1F
100
AcDbEntity
  8
1
  6
Continuous
 62
     2
100
AcDbLine
 10
600.9084684024305
 20
378.529491847738
 30
0.0
 11
600.5996448730186
 21
378.8794918477379
 31
0.0
  0
LINE
  5
183
330
1F
100
AcDbEntity
  8
1
  6
Continuous
 62
     2
100
AcDbLine
 10
595.6584684024305
 20
375.6128251810713
 30
0.0
 11
597.9231742847834
 21
375.6128251810713
 31
0.0
  0
LINE
  5
184
330
1F
100
AcDbEntity
  8
1
  6
Continuous
 62
     2
100
AcDbLine
 10
595.8643507553717
 20
376.1961585144046
 30
0.0
 11
595.6584684024305
 21
375.6128251810713
 31
0.0
  0
LINE
  5
185
330
1F
100
AcDbEntity
  8
1
  6
Continuous
 62
     2
100
AcDbLine
 10
596.0702331083128
 20
376.5461585144046
 30
0.0
 11
595.8643507553717
 21
376.1961585144046
 31
0.0
  0
LINE
  5
186
330
1F
100
AcDbEntity
  8
1
  6
Continuous
 62
     2
100
AcDbLine
 10
596.4819978141952
 20
376.8961585144047
 30
0.0
 11
596.0702331083128
 21
376.5461585144046
 31
0.0
  0
LINE
  5
187
330
1F
100
AcDbEntity
  8
1
  6
Continuous
 62
     2
100
AcDbLine
 10
596.8937625200775
 20
377.1294918477379
 30
0.0
 11
596.4819978141952
 21
376.8961585144047
 31
0.0
  0
LINE
  5
188
330
1F
100
AcDbEntity
  8
1
  6
Continuous
 62
     2
100
AcDbLine
 10
597.4084684024305
 20
377.479491847738
 30
0.0
 11
596.8937625200775
 21
377.1294918477379
 31
0.0
  0
LINE
  5
189
330
1F
100
AcDbEntity
  8
1
  6
Continuous
 62
     2
100
AcDbLine
 10
597.7172919318422
 20
377.9461585144046
 30
0.0
 11
597.4084684024305
 21
377.479491847738
 31
0.0
  0
LINE
  5
18A
330
1F
100
AcDbEntity
  8
1
  6
Continuous
 62
     2
100
AcDbLine
 10
597.8202331083128
 20
378.4128251810713
 30
0.0
 11
597.7172919318422
 21
377.9461585144046
 31
0.0
  0
LINE
  5
18B
330
1F
100
AcDbEntity
  8
1
  6
Continuous
 62
     2
100
AcDbLine
 10
597.4084684024305
 20
378.8794918477379
 30
0.0
 11
597.8202331083128
 21
378.4128251810713
 31
0.0
  0
LINE
  5
18C
330
1F
100
AcDbEntity
  8
1
  6
Continuous
 62
     2
100
AcDbLine
 10
596.7908213436069
 20
379.1128251810713
 30
0.0
 11
597.4084684024305
 21
378.8794918477379
 31
0.0
  0
LINE
  5
18D
330
1F
100
AcDbEntity
  8
1
  6
Continuous
 62
     2
100
AcDbLine
 10
596.1731742847834
 20
378.8794918477379
 30
0.0
 11
596.7908213436069
 21
379.1128251810713
 31
0.0
  0
LINE
  5
18E
330
1F
100
AcDbEntity
  8
1
  6
Continuous
 62
     2
100
AcDbLine
 10
595.7614095789011
 20
378.4128251810713
 30
0.0
 11
596.1731742847834
 21
378.8794918477379
 31
0.0
  0
LINE
  5
18F
330
1F
100
AcDbEntity
  8
1
  6
Continuous
 62
     2
100
AcDbLine
 10
594.6290566377245
 20
377.2461585144046
 30
0.0
 11
593.7025860494892
 21
377.2461585144046
 31
0.0
  0
LINE
  5
190
330
1F
100
AcDbEntity
  8
1
  6
Continuous
 62
     2
100
AcDbLine
 10
594.6290566377245
 20
376.5461585144046
 30
0.0
 11
594.6290566377245
 21
377.2461585144046
 31
0.0
  0
LINE
  5
191
330
1F
100
AcDbEntity
  8
1
  6
Continuous
 62
     2
100
AcDbLine
 10
594.5261154612539
 20
376.1961585144046
 30
0.0
 11
594.6290566377245
 21
376.5461585144046
 31
0.0
  0
LINE
  5
192
330
1F
100
AcDbEntity
  8
1
  6
Continuous
 62
     2
100
AcDbLine
 10
594.3202331083128
 20
375.9628251810713
 30
0.0
 11
594.5261154612539
 21
376.1961585144046
 31
0.0
  0
LINE
  5
193
330
1F
100
AcDbEntity
  8
1
  6
Continuous
 62
     2
100
AcDbLine
 10
594.011409578901
 20
375.729491847738
 30
0.0
 11
594.3202331083128
 21
375.9628251810713
 31
0.0
  0
LINE
  5
194
330
1F
100
AcDbEntity
  8
1
  6
Continuous
 62
     2
100
AcDbLine
 10
593.496703696548
 20
375.6128251810713
 30
0.0
 11
594.011409578901
 21
375.729491847738
 31
0.0
  0
LINE
  5
195
330
1F
100
AcDbEntity
  8
1
  6
Continuous
 62
     2
100
AcDbLine
 10
592.9819978141951
 20
375.729491847738
 30
0.0
 11
593.496703696548
 21
375.6128251810713
 31
0.0
  0
LINE
  5
196
330
1F
100
AcDbEntity
  8
1
  6
Continuous
 62
     2
100
AcDbLine
 10
592.6731742847833
 20
376.1961585144046
 30
0.0
 11
592.9819978141951
 21
375.729491847738
 31
0.0
  0
LINE
  5
197
330
1F
100
AcDbEntity
  8
1
  6
Continuous
 62
     2
100
AcDbLine
 10
592.5702331083128
 20
376.429491847738
 30
0.0
 11
592.6731742847833
 21
376.1961585144046
 31
0.0
  0
LINE
  5
198
330
1F
100
AcDbEntity
  8
1
  6
Continuous
 62
     2
100
AcDbLine
 10
592.3643507553716
 20
377.3628251810713
 30
0.0
 11
592.5702331083128
 21
376.429491847738
 31
0.0
  0
LINE
  5
199
330
1F
100
AcDbEntity
  8
1
  6
Continuous
 62
     2
100
AcDbLine
 10
592.4672919318422
 20
377.8294918477379
 30
0.0
 11
592.3643507553716
 21
377.3628251810713
 31
0.0
  0
LINE
  5
19A
330
1F
100
AcDbEntity
  8
1
  6
Continuous
 62
     2
100
AcDbLine
 10
592.6731742847833
 20
378.529491847738
 30
0.0
 11
592.4672919318422
 21
377.8294918477379
 31
0.0
  0
LINE
  5
19B
330
1F
100
AcDbEntity
  8
1
  6
Continuous
 62
     2
100
AcDbLine
 10
592.7761154612539
 20
378.7628251810713
 30
0.0
 11
592.6731742847833
 21
378.529491847738
 31
0.0
  0
LINE
  5
19C
330
1F
100
AcDbEntity
  8
1
  6
Continuous
 62
     2
100
AcDbLine
 10
593.0849389906657
 20
378.9961585144046
 30
0.0
 11
592.7761154612539
 21
378.7628251810713
 31
0.0
  0
LINE
  5
19D
330
1F
100
AcDbEntity
  8
1
  6
Continuous
 62
     2
100
AcDbLine
 10
593.496703696548
 20
379.1128251810713
 30
0.0
 11
593.0849389906657
 21
378.9961585144046
 31
0.0
  0
LINE
  5
19E
330
1F
100
AcDbEntity
  8
1
  6
Continuous
 62
     2
100
AcDbLine
 10
594.011409578901
 20
378.9961585144046
 30
0.0
 11
593.496703696548
 21
379.1128251810713
 31
0.0
  0
LINE
  5
19F
330
1F
100
AcDbEntity
  8
1
  6
Continuous
 62
     2
100
AcDbLine
 10
594.2172919318422
 20
378.8794918477379
 30
0.0
 11
594.011409578901
 21
378.9961585144046
 31
0.0
  0
LINE
  5
1A0
330
1F
100
AcDbEntity
  8
1
  6
Continuous
 62
     2
100
AcDbLine
 10
594.4231742847833
 20
378.6461585144047
 30
0.0
 11
594.2172919318422
 21
378.8794918477379
 31
0.0
  0
LINE
  5
1A1
330
1F
100
AcDbEntity
  8
1
  6
Continuous
 62
     2
100
AcDbLine
 10
594.6290566377245
 20
378.2961585144046
 30
0.0
 11
594.4231742847833
 21
378.6461585144047
 31
0.0
  0
LINE
  5
1A2
330
1F
100
AcDbEntity
  8
1
  6
Continuous
 62
     2
100
AcDbLine
 10
590.6143507553716
 20
375.6128251810713
 30
0.0
 11
591.3349389906657
 21
379.1128251810713
 31
0.0
  0
LINE
  5
1A3
330
1F
100
AcDbEntity
  8
1
  6
Continuous
 62
     2
100
AcDbLine
 10
589.7908213436068
 20
378.9961585144046
 30
0.0
 11
590.6143507553716
 21
375.6128251810713
 31
0.0
  0
LINE
  5
1A4
330
1F
100
AcDbEntity
  8
1
  6
Continuous
 62
     2
100
AcDbLine
 10
589.0702331083128
 20
375.6128251810713
 30
0.0
 11
589.7908213436068
 21
378.9961585144046
 31
0.0
  0
LINE
  5
1A5
330
1F
100
AcDbEntity
  8
1
  6
Continuous
 62
     2
100
AcDbLine
 10
588.246703696548
 20
379.1128251810713
 30
0.0
 11
589.0702331083128
 21
375.6128251810713
 31
0.0
  0
LINE
  5
1A6
330
1F
100
AcDbEntity
  8
1
  6
Continuous
 62
     2
100
AcDbLine
 10
585.261409578901
 20
376.5461585144046
 30
0.0
 11
586.9084684024305
 21
376.5461585144046
 31
0.0
  0
LINE
  5
1A7
330
1F
100
AcDbEntity
  8
1
  6
Continuous
 62
     2
100
AcDbLine
 10
586.0849389906657
 20
379.1128251810713
 30
0.0
 11
587.2172919318422
 21
375.6128251810713
 31
0.0
  0
LINE
  5
1A8
330
1F
100
AcDbEntity
  8
1
  6
Continuous
 62
     2
100
AcDbLine
 10
584.9525860494892
 20
375.6128251810713
 30
0.0
 11
586.0849389906657
 21
379.1128251810713
 31
0.0
  0
LINE
  5
1A9
330
1F
100
AcDbEntity
  8
1
  6
Continuous
 62
     2
100
AcDbLine
 10
601.2172919318422
 20
370.0022814267257
 30
0.0
 11
601.2172919318422
 21
369.185614760059
 31
0.0
  0
LINE
  5
1AA
330
1F
100
AcDbEntity
  8
1
  6
Continuous
 62
     2
100
AcDbLine
 10
601.4231742847834
 20
371.0522814267257
 30
0.0
 11
601.2172919318422
 21
370.0022814267257
 31
0.0
  0
LINE
  5
1AB
330
1F
100
AcDbEntity
  8
1
  6
Continuous
 62
     2
100
AcDbLine
 10
602.246703696548
 20
372.685614760059
 30
0.0
 11
601.4231742847834
 21
371.0522814267257
 31
0.0
  0
LINE
  5
1AC
330
1F
100
AcDbEntity
  8
1
  6
Continuous
 62
     2
100
AcDbLine
 10
600.1878801671363
 20
372.685614760059
 30
0.0
 11
602.246703696548
 21
372.685614760059
 31
0.0
  0
LINE
  5
1AD
330
1F
100
AcDbEntity
  8
1
  6
Continuous
 62
     2
100
AcDbLine
 10
598.6437625200775
 20
372.4522814267257
 30
0.0
 11
598.026115461254
 21
372.685614760059
 31
0.0
  0
LINE
  5
1AE
330
1F
100
AcDbEntity
  8
1
  6
Continuous
 62
     2
100
AcDbLine
 10
599.0555272259598
 20
371.8689480933924
 30
0.0
 11
598.6437625200775
 21
372.4522814267257
 31
0.0
  0
LINE
  5
1AF
330
1F
100
AcDbEntity
  8
1
  6
Continuous
 62
     2
100
AcDbLine
 10
599.1584684024305
 20
370.935614760059
 30
0.0
 11
599.0555272259598
 21
371.8689480933924
 31
0.0
  0
LINE
  5
1B0
330
1F
100
AcDbEntity
  8
1
  6
Continuous
 62
     2
100
AcDbLine
 10
599.0555272259598
 20
370.0022814267257
 30
0.0
 11
599.1584684024305
 21
370.935614760059
 31
0.0
  0
LINE
  5
1B1
330
1F
100
AcDbEntity
  8
1
  6
Continuous
 62
     2
100
AcDbLine
 10
598.6437625200775
 20
369.4189480933924
 30
0.0
 11
599.0555272259598
 21
370.0022814267257
 31
0.0
  0
LINE
  5
1B2
330
1F
100
AcDbEntity
  8
1
  6
Continuous
 62
     2
100
AcDbLine
 10
598.026115461254
 20
369.185614760059
 30
0.0
 11
598.6437625200775
 21
369.4189480933924
 31
0.0
  0
LINE
  5
1B3
330
1F
100
AcDbEntity
  8
1
  6
Continuous
 62
     2
100
AcDbLine
 10
597.4084684024305
 20
369.4189480933924
 30
0.0
 11
598.026115461254
 21
369.185614760059
 31
0.0
  0
LINE
  5
1B4
330
1F
100
AcDbEntity
  8
1
  6
Continuous
 62
     2
100
AcDbLine
 10
597.0996448730187
 20
370.0022814267257
 30
0.0
 11
597.4084684024305
 21
369.4189480933924
 31
0.0
  0
LINE
  5
1B5
330
1F
100
AcDbEntity
  8
1
  6
Continuous
 62
     2
100
AcDbLine
 10
596.8937625200775
 20
370.935614760059
 30
0.0
 11
597.0996448730187
 21
370.0022814267257
 31
0.0
  0
LINE
  5
1B6
330
1F
100
AcDbEntity
  8
1
  6
Continuous
 62
     2
100
AcDbLine
 10
597.0996448730187
 20
371.8689480933924
 30
0.0
 11
596.8937625200775
 21
370.935614760059
 31
0.0
  0
LINE
  5
1B7
330
1F
100
AcDbEntity
  8
1
  6
Continuous
 62
     2
100
AcDbLine
 10
597.4084684024305
 20
372.4522814267257
 30
0.0
 11
597.0996448730187
 21
371.8689480933924
 31
0.0
  0
LINE
  5
1B8
330
1F
100
AcDbEntity
  8
1
  6
Continuous
 62
     2
100
AcDbLine
 10
598.026115461254
 20
372.685614760059
 30
0.0
 11
597.4084684024305
 21
372.4522814267257
 31
0.0
  0
LINE
  5
1B9
330
1F
100
AcDbEntity
  8
1
  6
Continuous
 62
     2
100
AcDbLine
 10
595.3496448730186
 20
372.4522814267257
 30
0.0
 11
594.7319978141951
 21
372.685614760059
 31
0.0
  0
LINE
  5
1BA
330
1F
100
AcDbEntity
  8
1
  6
Continuous
 62
     2
100
AcDbLine
 10
595.761409578901
 20
371.8689480933924
 30
0.0
 11
595.3496448730186
 21
372.4522814267257
 31
0.0
  0
LINE
  5
1BB
330
1F
100
AcDbEntity
  8
1
  6
Continuous
 62
     2
100
AcDbLine
 10
595.8643507553716
 20
370.935614760059
 30
0.0
 11
595.761409578901
 21
371.8689480933924
 31
0.0
  0
LINE
  5
1BC
330
1F
100
AcDbEntity
  8
1
  6
Continuous
 62
     2
100
AcDbLine
 10
595.761409578901
 20
370.0022814267257
 30
0.0
 11
595.8643507553716
 21
370.935614760059
 31
0.0
  0
LINE
  5
1BD
330
1F
100
AcDbEntity
  8
1
  6
Continuous
 62
     2
100
AcDbLine
 10
595.3496448730186
 20
369.4189480933924
 30
0.0
 11
595.761409578901
 21
370.0022814267257
 31
0.0
  0
LINE
  5
1BE
330
1F
100
AcDbEntity
  8
1
  6
Continuous
 62
     2
100
AcDbLine
 10
594.7319978141951
 20
369.185614760059
 30
0.0
 11
595.3496448730186
 21
369.4189480933924
 31
0.0
  0
LINE
  5
1BF
330
1F
100
AcDbEntity
  8
1
  6
Continuous
 62
     2
100
AcDbLine
 10
594.1143507553716
 20
369.4189480933924
 30
0.0
 11
594.7319978141951
 21
369.185614760059
 31
0.0
  0
LINE
  5
1C0
330
1F
100
AcDbEntity
  8
1
  6
Continuous
 62
     2
100
AcDbLine
 10
593.8055272259598
 20
370.0022814267257
 30
0.0
 11
594.1143507553716
 21
369.4189480933924
 31
0.0
  0
LINE
  5
1C1
330
1F
100
AcDbEntity
  8
1
  6
Continuous
 62
     2
100
AcDbLine
 10
593.5996448730186
 20
370.935614760059
 30
0.0
 11
593.8055272259598
 21
370.0022814267257
 31
0.0
  0
LINE
  5
1C2
330
1F
100
AcDbEntity
  8
1
  6
Continuous
 62
     2
100
AcDbLine
 10
593.8055272259598
 20
371.8689480933924
 30
0.0
 11
593.5996448730186
 21
370.935614760059
 31
0.0
  0
LINE
  5
1C3
330
1F
100
AcDbEntity
  8
1
  6
Continuous
 62
     2
100
AcDbLine
 10
594.1143507553716
 20
372.4522814267257
 30
0.0
 11
593.8055272259598
 21
371.8689480933924
 31
0.0
  0
LINE
  5
1C4
330
1F
100
AcDbEntity
  8
1
  6
Continuous
 62
     2
100
AcDbLine
 10
594.7319978141951
 20
372.685614760059
 30
0.0
 11
594.1143507553716
 21
372.4522814267257
 31
0.0
  0
LINE
  5
1C5
330
1F
100
AcDbEntity
  8
1
  6
Continuous
 62
     2
100
AcDbLine
 10
592.0555272259598
 20
372.685614760059
 30
0.0
 11
592.0555272259598
 21
369.185614760059
 31
0.0
  0
LINE
  5
1C6
330
1F
100
AcDbEntity
  8
1
  6
Continuous
 62
     2
100
AcDbLine
 10
591.5408213436069
 20
372.335614760059
 30
0.0
 11
592.0555272259598
 21
372.685614760059
 31
0.0
  0
LINE
  5
1C7
330
1F
100
AcDbEntity
  8
1
  6
Continuous
 62
     2
100
AcDbLine
 10
587.9378801671363
 20
369.185614760059
 30
0.0
 11
589.996703696548
 21
369.185614760059
 31
0.0
  0
LINE
  5
1C8
330
1F
100
AcDbEntity
  8
1
  6
Continuous
 62
     2
100
AcDbLine
 10
587.9378801671363
 20
372.685614760059
 30
0.0
 11
587.9378801671363
 21
369.185614760059
 31
0.0
  0
LINE
  5
1C9
330
1F
100
AcDbEntity
  8
1
  6
Continuous
 62
     2
100
AcDbLine
 10
586.9084684024305
 20
369.885614760059
 30
0.0
 11
586.9084684024305
 21
372.685614760059
 31
0.0
  0
LINE
  5
1CA
330
1F
100
AcDbEntity
  8
1
  6
Continuous
 62
     2
100
AcDbLine
 10
586.7025860494892
 20
369.5356147600591
 30
0.0
 11
586.9084684024305
 21
369.885614760059
 31
0.0
  0
LINE
  5
1CB
330
1F
100
AcDbEntity
  8
1
  6
Continuous
 62
     2
100
AcDbLine
 10
586.3937625200775
 20
369.3022814267257
 30
0.0
 11
586.7025860494892
 21
369.5356147600591
 31
0.0
  0
LINE
  5
1CC
330
1F
100
AcDbEntity
  8
1
  6
Continuous
 62
     2
100
AcDbLine
 10
585.8790566377245
 20
369.185614760059
 30
0.0
 11
586.3937625200775
 21
369.3022814267257
 31
0.0
  0
LINE
  5
1CD
330
1F
100
AcDbEntity
  8
1
  6
Continuous
 62
     2
100
AcDbLine
 10
585.4672919318422
 20
369.3022814267257
 30
0.0
 11
585.8790566377245
 21
369.185614760059
 31
0.0
  0
LINE
  5
1CE
330
1F
100
AcDbEntity
  8
1
  6
Continuous
 62
     2
100
AcDbLine
 10
585.0555272259598
 20
369.5356147600591
 30
0.0
 11
585.4672919318422
 21
369.3022814267257
 31
0.0
  0
LINE
  5
1CF
330
1F
100
AcDbEntity
  8
1
  6
Continuous
 62
     2
100
AcDbLine
 10
584.9525860494892
 20
369.885614760059
 30
0.0
 11
585.0555272259598
 21
369.5356147600591
 31
0.0
  0
LINE
  5
1D0
330
1F
100
AcDbEntity
  8
1
  6
Continuous
 62
     2
100
AcDbLine
 10
584.9525860494892
 20
372.685614760059
 30
0.0
 11
584.9525860494892
 21
369.885614760059
 31
0.0
  0
LINE
  5
1D1
330
1F
100
AcDbEntity
  8
1
  6
Continuous
 62
     2
100
AcDbLine
 10
754.3119681363846
 20
259.361606618012
 30
0.0
 11
756.1649093128552
 21
259.361606618012
 31
0.0
  0
LINE
  5
1D2
330
1F
100
AcDbEntity
  8
1
  6
Continuous
 62
     2
100
AcDbLine
 10
754.3119681363846
 20
257.4949399513453
 30
0.0
 11
756.3707916657963
 21
257.4949399513453
 31
0.0
  0
LINE
  5
1D3
330
1F
100
AcDbEntity
  8
1
  6
Continuous
 62
     2
100
AcDbLine
 10
754.3119681363846
 20
260.9949399513453
 30
0.0
 11
754.3119681363846
 21
257.4949399513453
 31
0.0
  0
LINE
  5
1D4
330
1F
100
AcDbEntity
  8
1
  6
Continuous
 62
     2
100
AcDbLine
 10
756.3707916657963
 20
260.9949399513453
 30
0.0
 11
754.3119681363846
 21
260.9949399513453
 31
0.0
  0
LINE
  5
1D5
330
1F
100
AcDbEntity
  8
1
  6
Continuous
 62
     2
100
AcDbLine
 10
752.1502034305023
 20
260.9949399513453
 30
0.0
 11
752.1502034305023
 21
257.4949399513453
 31
0.0
  0
LINE
  5
1D6
330
1F
100
AcDbEntity
  8
1
  6
Continuous
 62
     2
100
AcDbLine
 10
751.0178504893258
 20
260.9949399513453
 30
0.0
 11
753.2825563716788
 21
260.9949399513453
 31
0.0
  0
LINE
  5
1D7
330
1F
100
AcDbEntity
  8
1
  6
Continuous
 62
     2
100
AcDbLine
 10
748.0325563716788
 20
258.4282732846787
 30
0.0
 11
749.6796151952083
 21
258.4282732846787
 31
0.0
  0
LINE
  5
1D8
330
1F
100
AcDbEntity
  8
1
  6
Continuous
 62
     2
100
AcDbLine
 10
748.8560857834435
 20
260.9949399513453
 30
0.0
 11
749.98843872462
 21
257.4949399513453
 31
0.0
  0
LINE
  5
1D9
330
1F
100
AcDbEntity
  8
1
  6
Continuous
 62
     2
100
AcDbLine
 10
747.723732842267
 20
257.4949399513453
 30
0.0
 11
748.8560857834435
 21
260.9949399513453
 31
0.0
  0
LINE
  5
1DA
330
1F
100
AcDbEntity
  8
1
  6
Continuous
 62
     2
100
AcDbLine
 10
744.6354975481494
 20
257.4949399513453
 30
0.0
 11
746.6943210775611
 21
257.4949399513453
 31
0.0
  0
LINE
  5
1DB
330
1F
100
AcDbEntity
  8
1
  6
Continuous
 62
     2
100
AcDbLine
 10
744.6354975481494
 20
260.9949399513453
 30
0.0
 11
744.6354975481494
 21
257.4949399513453
 31
0.0
  0
LINE
  5
1DC
330
1F
100
AcDbEntity
  8
1
  6
Continuous
 62
     2
100
AcDbLine
 10
742.8854975481494
 20
259.2449399513453
 30
0.0
 11
741.5472622540317
 21
259.2449399513453
 31
0.0
  0
LINE
  5
1DD
330
1F
100
AcDbEntity
  8
1
  6
Continuous
 62
     2
100
AcDbLine
 10
743.2972622540317
 20
259.4782732846787
 30
0.0
 11
742.8854975481494
 21
259.2449399513453
 31
0.0
  0
LINE
  5
1DE
330
1F
100
AcDbEntity
  8
1
  6
Continuous
 62
     2
100
AcDbLine
 10
743.5031446069729
 20
259.711606618012
 30
0.0
 11
743.2972622540317
 21
259.4782732846787
 31
0.0
  0
LINE
  5
1DF
330
1F
100
AcDbEntity
  8
1
  6
Continuous
 62
     2
100
AcDbLine
 10
743.6060857834434
 20
260.1782732846787
 30
0.0
 11
743.5031446069729
 21
259.711606618012
 31
0.0
  0
LINE
  5
1E0
330
1F
100
AcDbEntity
  8
1
  6
Continuous
 62
     2
100
AcDbLine
 10
743.5031446069729
 20
260.411606618012
 30
0.0
 11
743.6060857834434
 21
260.1782732846787
 31
0.0
  0
LINE
  5
1E1
330
1F
100
AcDbEntity
  8
1
  6
Continuous
 62
     2
100
AcDbLine
 10
743.2972622540317
 20
260.761606618012
 30
0.0
 11
743.5031446069729
 21
260.411606618012
 31
0.0
  0
LINE
  5
1E2
330
1F
100
AcDbEntity
  8
1
  6
Continuous
 62
     2
100
AcDbLine
 10
742.8854975481494
 20
260.9949399513453
 30
0.0
 11
743.2972622540317
 21
260.761606618012
 31
0.0
  0
LINE
  5
1E3
330
1F
100
AcDbEntity
  8
1
  6
Continuous
 62
     2
100
AcDbLine
 10
741.5472622540317
 20
260.9949399513453
 30
0.0
 11
742.8854975481494
 21
260.9949399513453
 31
0.0
  0
LINE
  5
1E4
330
1F
100
AcDbEntity
  8
1
  6
Continuous
 62
     2
100
AcDbLine
 10
741.5472622540317
 20
257.4949399513453
 30
0.0
 11
741.5472622540317
 21
260.9949399513453
 31
0.0
  0
LINE
  5
1E5
330
1F
100
AcDbEntity
  8
1
  6
Continuous
 62
     2
100
AcDbLine
 10
735.473732842267
 20
259.361606618012
 30
0.0
 11
737.3266740187377
 21
259.361606618012
 31
0.0
  0
LINE
  5
1E6
330
1F
100
AcDbEntity
  8
1
  6
Continuous
 62
     2
100
AcDbLine
 10
735.473732842267
 20
257.4949399513453
 30
0.0
 11
737.5325563716788
 21
257.4949399513453
 31
0.0
  0
LINE
  5
1E7
330
1F
100
AcDbEntity
  8
1
  6
Continuous
 62
     2
100
AcDbLine
 10
735.473732842267
 20
260.9949399513453
 30
0.0
 11
735.473732842267
 21
257.4949399513453
 31
0.0
  0
LINE
  5
1E8
330
1F
100
AcDbEntity
  8
1
  6
Continuous
 62
     2
100
AcDbLine
 10
737.5325563716788
 20
260.9949399513453
 30
0.0
 11
735.473732842267
 21
260.9949399513453
 31
0.0
  0
LINE
  5
1E9
330
1F
100
AcDbEntity
  8
1
  6
Continuous
 62
     2
100
AcDbLine
 10
734.4443210775611
 20
260.9949399513453
 30
0.0
 11
734.4443210775611
 21
257.4949399513453
 31
0.0
  0
LINE
  5
1EA
330
1F
100
AcDbEntity
  8
1
  6
Continuous
 62
     2
100
AcDbLine
 10
733.1060857834435
 20
257.611606618012
 30
0.0
 11
734.4443210775611
 21
260.9949399513453
 31
0.0
  0
LINE
  5
1EB
330
1F
100
AcDbEntity
  8
1
  6
Continuous
 62
     2
100
AcDbLine
 10
731.7678504893258
 20
260.9949399513453
 30
0.0
 11
733.1060857834435
 21
257.611606618012
 31
0.0
  0
LINE
  5
1EC
330
1F
100
AcDbEntity
  8
1
  6
Continuous
 62
     2
100
AcDbLine
 10
731.7678504893258
 20
257.4949399513453
 30
0.0
 11
731.7678504893258
 21
260.9949399513453
 31
0.0
  0
LINE
  5
1ED
330
1F
100
AcDbEntity
  8
1
  6
Continuous
 62
     2
100
AcDbLine
 10
728.7825563716788
 20
258.4282732846787
 30
0.0
 11
730.4296151952083
 21
258.4282732846787
 31
0.0
  0
LINE
  5
1EE
330
1F
100
AcDbEntity
  8
1
  6
Continuous
 62
     2
100
AcDbLine
 10
729.6060857834435
 20
260.9949399513453
 30
0.0
 11
730.73843872462
 21
257.4949399513453
 31
0.0
  0
LINE
  5
1EF
330
1F
100
AcDbEntity
  8
1
  6
Continuous
 62
     2
100
AcDbLine
 10
728.473732842267
 20
257.4949399513453
 30
0.0
 11
729.6060857834435
 21
260.9949399513453
 31
0.0
  0
LINE
  5
1F0
330
1F
100
AcDbEntity
  8
1
  6
Continuous
 62
     2
100
AcDbLine
 10
727.4443210775611
 20
257.4949399513453
 30
0.0
 11
727.4443210775611
 21
260.9949399513453
 31
0.0
  0
LINE
  5
1F1
330
1F
100
AcDbEntity
  8
1
  6
Continuous
 62
     2
100
AcDbLine
 10
725.3854975481494
 20
260.9949399513453
 30
0.0
 11
727.4443210775611
 21
257.4949399513453
 31
0.0
  0
LINE
  5
1F2
330
1F
100
AcDbEntity
  8
1
  6
Continuous
 62
     2
100
AcDbLine
 10
725.3854975481494
 20
257.4949399513453
 30
0.0
 11
725.3854975481494
 21
260.9949399513453
 31
0.0
  0
LINE
  5
1F3
330
1F
100
AcDbEntity
  8
1
  6
Continuous
 62
     7
100
AcDbLine
 10
584.4509156225173
 20
270.000765810816
 30
0.0
 11
586.2509156225173
 21
270.000765810816
 31
0.0
  0
LINE
  5
1F4
330
1F
100
AcDbEntity
  8
1
  6
Continuous
 62
     7
100
AcDbLine
 10
584.4509156225173
 20
292.000765810816
 30
0.0
 11
586.2509156225173
 21
292.000765810816
 31
0.0
  0
LINE
  5
1F5
330
1F
100
AcDbEntity
  8
1
  6
Continuous
 62
     7
100
AcDbLine
 10
616.4509156225173
 20
260.000765810816
 30
0.0
 11
616.9509156225173
 21
260.500765810816
 31
0.0
  0
LINE
  5
1F6
330
1F
100
AcDbEntity
  8
1
  6
Continuous
 62
     7
100
AcDbLine
 10
616.4509156225173
 20
302.000765810816
 30
0.0
 11
616.9509156225173
 21
301.500765810816
 31
0.0
  0
LINE
  5
1F7
330
1F
100
AcDbEntity
  8
1
  6
Continuous
 62
     7
100
AcDbLine
 10
586.7509156225173
 20
302.000765810816
 30
0.0
 11
586.2509156225173
 21
301.500765810816
 31
0.0
  0
LINE
  5
1F8
330
1F
100
AcDbEntity
  8
1
  6
Continuous
 62
     7
100
AcDbLine
 10
586.7509156225173
 20
260.000765810816
 30
0.0
 11
586.2509156225173
 21
260.500765810816
 31
0.0
  0
LINE
  5
1F9
330
1F
100
AcDbEntity
  8
1
  6
Continuous
 62
     7
100
AcDbLine
 10
619.2509156225173
 20
260.000765810816
 30
0.0
 11
619.7509156225173
 21
260.500765810816
 31
0.0
  0
LINE
  5
1FA
330
1F
100
AcDbEntity
  8
1
  6
Continuous
 62
     7
100
AcDbLine
 10
619.2509156225173
 20
302.000765810816
 30
0.0
 11
619.7509156225173
 21
301.500765810816
 31
0.0
  0
LINE
  5
1FB
330
1F
100
AcDbEntity
  8
1
  6
Continuous
 62
     7
100
AcDbLine
 10
693.3654088253695
 20
302.500765810816
 30
0.0
 11
693.3654088253695
 21
302.000765810816
 31
0.0
  0
LINE
  5
1FC
330
1F
100
AcDbEntity
  8
1
  6
Continuous
 62
     3
100
AcDbLine
 10
698.3654088253695
 20
303.000765810816
 30
0.0
 11
698.3654088253695
 21
308.8227914313894
 31
0.0
  0
LINE
  5
1FD
330
1F
100
AcDbEntity
  8
1
  6
Continuous
 62
     3
100
AcDbLine
 10
696.0639767334425
 20
310.2374106111602
 30
0.0
 11
696.0639767334425
 21
303.000765810816
 31
0.0
  0
LINE
  5
1FE
330
1F
100
AcDbEntity
  8
1
  6
Continuous
 62
     3
100
AcDbLine
 10
696.8619670399798
 20
309.6933263112483
 30
0.0
 11
696.8619670399798
 21
303.000765810816
 31
0.0
  0
LINE
  5
1FF
330
1F
100
AcDbEntity
  8
1
  6
Continuous
 62
     3
100
AcDbLine
 10
695.1027611369316
 20
310.4913166177857
 30
0.0
 11
695.1027611369316
 21
303.000765810816
 31
0.0
  0
LINE
  5
200
330
1F
100
AcDbEntity
  8
1
  6
Continuous
 62
     3
100
AcDbLine
 10
694.3654088253695
 20
310.3280913278122
 30
0.0
 11
694.3654088253695
 21
303.000765810816
 31
0.0
  0
LINE
  5
201
330
1F
100
AcDbEntity
  8
1
  6
Continuous
 62
     7
100
AcDbLine
 10
698.8654088253695
 20
303.000765810816
 30
0.0
 11
693.8654088253695
 21
303.000765810816
 31
0.0
  0
LINE
  5
202
330
1F
100
AcDbEntity
  8
1
  6
Continuous
 62
     7
100
AcDbLine
 10
699.3654088253695
 20
302.000765810816
 30
0.0
 11
699.3654088253695
 21
302.500765810816
 31
0.0
  0
LINE
  5
203
330
1F
100
AcDbEntity
  8
1
  6
Continuous
 62
     7
100
AcDbLine
 10
463.287756412607
 20
302.500765810816
 30
0.0
 11
463.287756412607
 21
302.000765810816
 31
0.0
  0
LINE
  5
204
330
1F
100
AcDbEntity
  8
1
  6
Continuous
 62
     3
100
AcDbLine
 10
468.287756412607
 20
303.000765810816
 30
0.0
 11
468.287756412607
 21
308.8227914313894
 31
0.0
  0
LINE
  5
205
330
1F
100
AcDbEntity
  8
1
  6
Continuous
 62
     3
100
AcDbLine
 10
465.9863243206801
 20
310.2374106111602
 30
0.0
 11
465.9863243206801
 21
303.000765810816
 31
0.0
  0
LINE
  5
206
330
1F
100
AcDbEntity
  8
1
  6
Continuous
 62
     3
100
AcDbLine
 10
466.7843146272174
 20
309.6933263112483
 30
0.0
 11
466.7843146272174
 21
303.000765810816
 31
0.0
  0
LINE
  5
207
330
1F
100
AcDbEntity
  8
1
  6
Continuous
 62
     3
100
AcDbLine
 10
465.0251087241691
 20
310.4913166177857
 30
0.0
 11
465.0251087241691
 21
303.000765810816
 31
0.0
  0
LINE
  5
208
330
1F
100
AcDbEntity
  8
1
  6
Continuous
 62
     3
100
AcDbLine
 10
464.287756412607
 20
310.3280913278122
 30
0.0
 11
464.287756412607
 21
303.000765810816
 31
0.0
  0
LINE
  5
209
330
1F
100
AcDbEntity
  8
1
  6
Continuous
 62
     7
100
AcDbLine
 10
468.787756412607
 20
303.000765810816
 30
0.0
 11
463.787756412607
 21
303.000765810816
 31
0.0
  0
LINE
  5
20A
330
1F
100
AcDbEntity
  8
1
  6
Continuous
 62
     7
100
AcDbLine
 10
469.287756412607
 20
302.000765810816
 30
0.0
 11
469.287756412607
 21
302.500765810816
 31
0.0
  0
LINE
  5
20B
330
1F
100
AcDbEntity
  8
1
  6
Continuous
 62
     7
100
AcDbLine
 10
487.287756412607
 20
296.3304755275719
 30
0.0
 11
487.287756412607
 21
265.6710560940601
 31
0.0
  0
LINE
  5
20C
330
1F
100
AcDbEntity
  8
1
  6
Continuous
 62
     7
100
AcDbLine
 10
450.9580466958511
 20
302.000765810816
 30
0.0
 11
481.6174661293629
 21
302.000765810816
 31
0.0
  0
LINE
  5
20D
330
1F
100
AcDbEntity
  8
1
  6
Continuous
 62
     7
100
AcDbLine
 10
450.9580466958511
 20
260.000765810816
 30
0.0
 11
481.6174661293629
 21
260.000765810816
 31
0.0
  0
LINE
  5
20E
330
1F
100
AcDbEntity
  8
1
  6
DASH_CENTER
 62
     3
100
AcDbLine
 10
479.387756412607
 20
296.500765810816
 30
0.0
 11
484.187756412607
 21
296.500765810816
 31
0.0
  0
LINE
  5
20F
330
1F
100
AcDbEntity
  8
1
  6
DASH_CENTER
 62
     3
100
AcDbLine
 10
481.787756412607
 20
294.100765810816
 30
0.0
 11
481.787756412607
 21
298.900765810816
 31
0.0
  0
LINE
  5
210
330
1F
100
AcDbEntity
  8
1
  6
DASH_CENTER
 62
     3
100
AcDbLine
 10
448.387756412607
 20
296.500765810816
 30
0.0
 11
453.187756412607
 21
296.500765810816
 31
0.0
  0
LINE
  5
211
330
1F
100
AcDbEntity
  8
1
  6
DASH_CENTER
 62
     3
100
AcDbLine
 10
450.787756412607
 20
294.100765810816
 30
0.0
 11
450.787756412607
 21
298.900765810816
 31
0.0
  0
LINE
  5
212
330
1F
100
AcDbEntity
  8
1
  6
DASH_CENTER
 62
     3
100
AcDbLine
 10
448.387756412607
 20
265.500765810816
 30
0.0
 11
453.187756412607
 21
265.500765810816
 31
0.0
  0
LINE
  5
213
330
1F
100
AcDbEntity
  8
1
  6
DASH_CENTER
 62
     3
100
AcDbLine
 10
450.787756412607
 20
263.100765810816
 30
0.0
 11
450.787756412607
 21
267.900765810816
 31
0.0
  0
LINE
  5
214
330
1F
100
AcDbEntity
  8
1
  6
DASH_CENTER
 62
     3
100
AcDbLine
 10
479.387756412607
 20
265.500765810816
 30
0.0
 11
484.187756412607
 21
265.500765810816
 31
0.0
  0
LINE
  5
215
330
1F
100
AcDbEntity
  8
1
  6
DASH_CENTER
 62
     3
100
AcDbLine
 10
481.787756412607
 20
263.100765810816
 30
0.0
 11
481.787756412607
 21
267.900765810816
 31
0.0
  0
LINE
  5
216
330
1F
100
AcDbEntity
  8
1
  6
DASH_CENTER
 62
     3
100
AcDbLine
 10
440.287756412607
 20
281.000765810816
 30
0.0
 11
492.287756412607
 21
281.000765810816
 31
0.0
  0
LINE
  5
217
330
1F
100
AcDbEntity
  8
1
  6
Continuous
 62
     7
100
AcDbLine
 10
584.2509156225173
 20
283.500765810816
 30
0.0
 11
562.5509156225173
 21
283.500765810816
 31
0.0
  0
LINE
  5
218
330
1F
100
AcDbEntity
  8
1
  6
Continuous
 62
     7
100
AcDbLine
 10
584.2509156225173
 20
278.500765810816
 30
0.0
 11
562.5509156225173
 21
278.500765810816
 31
0.0
  0
LINE
  5
219
330
1F
100
AcDbEntity
  8
1
  6
Continuous
 62
     7
100
AcDbLine
 10
584.2509156225173
 20
291.800765810816
 30
0.0
 11
584.2509156225173
 21
270.2007658108161
 31
0.0
  0
LINE
  5
21A
330
1F
100
AcDbEntity
  8
1
  6
Continuous
 62
     7
100
AcDbLine
 10
562.2509156225174
 20
283.200765810816
 30
0.0
 11
562.2509156225174
 21
278.800765810816
 31
0.0
  0
LINE
  5
21B
330
1F
100
AcDbEntity
  8
1
  6
Continuous
 62
     7
100
AcDbLine
 10
712.4667117100516
 20
296.500765810816
 30
0.0
 11
712.549136338447
 21
296.7154893089104
 31
0.0
  0
LINE
  5
21C
330
1F
100
AcDbEntity
  8
1
  6
Continuous
 62
     7
100
AcDbLine
 10
712.549136338447
 20
296.7154893089104
 30
0.0
 11
713.0789735815304
 21
297.2641518354984
 31
0.0
  0
LINE
  5
21D
330
1F
100
AcDbEntity
  8
1
  6
Continuous
 62
     7
100
AcDbLine
 10
712.549136338447
 20
296.2860423127216
 30
0.0
 11
712.4667117100516
 21
296.500765810816
 31
0.0
  0
LINE
  5
21E
330
1F
100
AcDbEntity
  8
1
  6
Continuous
 62
     7
100
AcDbLine
 10
713.0789735815304
 20
295.7373797861337
 30
0.0
 11
712.549136338447
 21
296.2860423127216
 31
0.0
  0
LINE
  5
21F
330
1F
100
AcDbEntity
  8
1
  6
Continuous
 62
     7
100
AcDbLine
 10
711.787756412607
 20
295.8218105133714
 30
0.0
 11
712.0024799107014
 21
295.7393858849759
 31
0.0
  0
LINE
  5
220
330
1F
100
AcDbEntity
  8
1
  6
Continuous
 62
     7
100
AcDbLine
 10
712.0024799107014
 20
295.7393858849759
 30
0.0
 11
712.5511424372894
 21
295.2095486418926
 31
0.0
  0
LINE
  5
221
330
1F
100
AcDbEntity
  8
1
  6
Continuous
 62
     7
100
AcDbLine
 10
711.5730329145126
 20
295.7393858849759
 30
0.0
 11
711.787756412607
 21
295.8218105133714
 31
0.0
  0
LINE
  5
222
330
1F
100
AcDbEntity
  8
1
  6
Continuous
 62
     7
100
AcDbLine
 10
711.0243703879246
 20
295.2095486418926
 30
0.0
 11
711.5730329145126
 21
295.7393858849759
 31
0.0
  0
LINE
  5
223
330
1F
100
AcDbEntity
  8
1
  6
Continuous
 62
     7
100
AcDbLine
 10
711.1088011151624
 20
296.500765810816
 30
0.0
 11
711.0263764867669
 21
296.2860423127216
 31
0.0
  0
LINE
  5
224
330
1F
100
AcDbEntity
  8
1
  6
Continuous
 62
     7
100
AcDbLine
 10
711.0263764867669
 20
296.2860423127216
 30
0.0
 11
710.4965392436836
 21
295.7373797861337
 31
0.0
  0
LINE
  5
225
330
1F
100
AcDbEntity
  8
1
  6
Continuous
 62
     7
100
AcDbLine
 10
711.0263764867669
 20
296.7154893089104
 30
0.0
 11
711.1088011151624
 21
296.500765810816
 31
0.0
  0
LINE
  5
226
330
1F
100
AcDbEntity
  8
1
  6
Continuous
 62
     7
100
AcDbLine
 10
710.4965392436836
 20
297.2641518354984
 30
0.0
 11
711.0263764867669
 21
296.7154893089104
 31
0.0
  0
LINE
  5
227
330
1F
100
AcDbEntity
  8
1
  6
Continuous
 62
     7
100
AcDbLine
 10
711.787756412607
 20
297.1797211082607
 30
0.0
 11
711.5730329145126
 21
297.2621457366561
 31
0.0
  0
LINE
  5
228
330
1F
100
AcDbEntity
  8
1
  6
Continuous
 62
     7
100
AcDbLine
 10
711.5730329145126
 20
297.2621457366561
 30
0.0
 11
711.0243703879247
 21
297.7919829797394
 31
0.0
  0
LINE
  5
229
330
1F
100
AcDbEntity
  8
1
  6
Continuous
 62
     7
100
AcDbLine
 10
712.0024799107014
 20
297.2621457366561
 30
0.0
 11
711.787756412607
 21
297.1797211082607
 31
0.0
  0
LINE
  5
22A
330
1F
100
AcDbEntity
  8
1
  6
Continuous
 62
     7
100
AcDbLine
 10
712.5511424372894
 20
297.7919829797394
 30
0.0
 11
712.0024799107014
 21
297.2621457366561
 31
0.0
  0
LINE
  5
22B
330
1F
100
AcDbEntity
  8
1
  6
Continuous
 62
     7
100
AcDbLine
 10
712.4667117100516
 20
265.500765810816
 30
0.0
 11
712.549136338447
 21
265.7154893089104
 31
0.0
  0
LINE
  5
22C
330
1F
100
AcDbEntity
  8
1
  6
Continuous
 62
     7
100
AcDbLine
 10
712.549136338447
 20
265.7154893089104
 30
0.0
 11
713.0789735815304
 21
266.2641518354984
 31
0.0
  0
LINE
  5
22D
330
1F
100
AcDbEntity
  8
1
  6
Continuous
 62
     7
100
AcDbLine
 10
712.549136338447
 20
265.2860423127216
 30
0.0
 11
712.4667117100516
 21
265.500765810816
 31
0.0
  0
LINE
  5
22E
330
1F
100
AcDbEntity
  8
1
  6
Continuous
 62
     7
100
AcDbLine
 10
713.0789735815304
 20
264.7373797861336
 30
0.0
 11
712.549136338447
 21
265.2860423127216
 31
0.0
  0
LINE
  5
22F
330
1F
100
AcDbEntity
  8
1
  6
Continuous
 62
     7
100
AcDbLine
 10
711.787756412607
 20
264.8218105133714
 30
0.0
 11
712.0024799107014
 21
264.7393858849759
 31
0.0
  0
LINE
  5
230
330
1F
100
AcDbEntity
  8
1
  6
Continuous
 62
     7
100
AcDbLine
 10
712.0024799107014
 20
264.7393858849759
 30
0.0
 11
712.5511424372894
 21
264.2095486418926
 31
0.0
  0
LINE
  5
231
330
1F
100
AcDbEntity
  8
1
  6
Continuous
 62
     7
100
AcDbLine
 10
711.5730329145126
 20
264.7393858849759
 30
0.0
 11
711.787756412607
 21
264.8218105133714
 31
0.0
  0
LINE
  5
232
330
1F
100
AcDbEntity
  8
1
  6
Continuous
 62
     7
100
AcDbLine
 10
711.0243703879246
 20
264.2095486418926
 30
0.0
 11
711.5730329145126
 21
264.7393858849759
 31
0.0
  0
LINE
  5
233
330
1F
100
AcDbEntity
  8
1
  6
Continuous
 62
     7
100
AcDbLine
 10
711.1088011151624
 20
265.500765810816
 30
0.0
 11
711.0263764867669
 21
265.2860423127216
 31
0.0
  0
LINE
  5
234
330
1F
100
AcDbEntity
  8
1
  6
Continuous
 62
     7
100
AcDbLine
 10
711.0263764867669
 20
265.2860423127216
 30
0.0
 11
710.4965392436836
 21
264.7373797861337
 31
0.0
  0
LINE
  5
235
330
1F
100
AcDbEntity
  8
1
  6
Continuous
 62
     7
100
AcDbLine
 10
711.0263764867669
 20
265.7154893089104
 30
0.0
 11
711.1088011151624
 21
265.500765810816
 31
0.0
  0
LINE
  5
236
330
1F
100
AcDbEntity
  8
1
  6
Continuous
 62
     7
100
AcDbLine
 10
710.4965392436836
 20
266.2641518354984
 30
0.0
 11
711.0263764867669
 21
265.7154893089104
 31
0.0
  0
LINE
  5
237
330
1F
100
AcDbEntity
  8
1
  6
Continuous
 62
     7
100
AcDbLine
 10
711.787756412607
 20
266.1797211082607
 30
0.0
 11
711.5730329145126
 21
266.2621457366561
 31
0.0
  0
LINE
  5
238
330
1F
100
AcDbEntity
  8
1
  6
Continuous
 62
     7
100
AcDbLine
 10
711.5730329145126
 20
266.2621457366561
 30
0.0
 11
711.0243703879247
 21
266.7919829797394
 31
0.0
  0
LINE
  5
239
330
1F
100
AcDbEntity
  8
1
  6
Continuous
 62
     7
100
AcDbLine
 10
712.0024799107014
 20
266.2621457366561
 30
0.0
 11
711.787756412607
 21
266.1797211082607
 31
0.0
  0
LINE
  5
23A
330
1F
100
AcDbEntity
  8
1
  6
Continuous
 62
     7
100
AcDbLine
 10
712.5511424372894
 20
266.7919829797394
 30
0.0
 11
712.0024799107014
 21
266.2621457366561
 31
0.0
  0
LINE
  5
23B
330
1F
100
AcDbEntity
  8
1
  6
Continuous
 62
     7
100
AcDbLine
 10
681.4667117100516
 20
265.500765810816
 30
0.0
 11
681.549136338447
 21
265.7154893089104
 31
0.0
  0
LINE
  5
23C
330
1F
100
AcDbEntity
  8
1
  6
Continuous
 62
     7
100
AcDbLine
 10
681.549136338447
 20
265.7154893089104
 30
0.0
 11
682.0789735815304
 21
266.2641518354984
 31
0.0
  0
LINE
  5
23D
330
1F
100
AcDbEntity
  8
1
  6
Continuous
 62
     7
100
AcDbLine
 10
681.549136338447
 20
265.2860423127216
 30
0.0
 11
681.4667117100516
 21
265.500765810816
 31
0.0
  0
LINE
  5
23E
330
1F
100
AcDbEntity
  8
1
  6
Continuous
 62
     7
100
AcDbLine
 10
682.0789735815304
 20
264.7373797861336
 30
0.0
 11
681.549136338447
 21
265.2860423127216
 31
0.0
  0
LINE
  5
23F
330
1F
100
AcDbEntity
  8
1
  6
Continuous
 62
     7
100
AcDbLine
 10
680.787756412607
 20
264.8218105133714
 30
0.0
 11
681.0024799107014
 21
264.7393858849759
 31
0.0
  0
LINE
  5
240
330
1F
100
AcDbEntity
  8
1
  6
Continuous
 62
     7
100
AcDbLine
 10
681.0024799107014
 20
264.7393858849759
 30
0.0
 11
681.5511424372894
 21
264.2095486418926
 31
0.0
  0
LINE
  5
241
330
1F
100
AcDbEntity
  8
1
  6
Continuous
 62
     7
100
AcDbLine
 10
680.5730329145126
 20
264.7393858849759
 30
0.0
 11
680.787756412607
 21
264.8218105133714
 31
0.0
  0
LINE
  5
242
330
1F
100
AcDbEntity
  8
1
  6
Continuous
 62
     7
100
AcDbLine
 10
680.0243703879246
 20
264.2095486418926
 30
0.0
 11
680.5730329145126
 21
264.7393858849759
 31
0.0
  0
LINE
  5
243
330
1F
100
AcDbEntity
  8
1
  6
Continuous
 62
     7
100
AcDbLine
 10
680.1088011151624
 20
265.500765810816
 30
0.0
 11
680.0263764867669
 21
265.2860423127217
 31
0.0
  0
LINE
  5
244
330
1F
100
AcDbEntity
  8
1
  6
Continuous
 62
     7
100
AcDbLine
 10
680.0263764867669
 20
265.2860423127217
 30
0.0
 11
679.4965392436836
 21
264.7373797861337
 31
0.0
  0
LINE
  5
245
330
1F
100
AcDbEntity
  8
1
  6
Continuous
 62
     7
100
AcDbLine
 10
680.0263764867669
 20
265.7154893089104
 30
0.0
 11
680.1088011151624
 21
265.500765810816
 31
0.0
  0
LINE
  5
246
330
1F
100
AcDbEntity
  8
1
  6
Continuous
 62
     7
100
AcDbLine
 10
679.4965392436836
 20
266.2641518354984
 30
0.0
 11
680.0263764867669
 21
265.7154893089104
 31
0.0
  0
LINE
  5
247
330
1F
100
AcDbEntity
  8
1
  6
Continuous
 62
     7
100
AcDbLine
 10
680.787756412607
 20
266.1797211082607
 30
0.0
 11
680.5730329145126
 21
266.2621457366561
 31
0.0
  0
LINE
  5
248
330
1F
100
AcDbEntity
  8
1
  6
Continuous
 62
     7
100
AcDbLine
 10
680.5730329145126
 20
266.2621457366561
 30
0.0
 11
680.0243703879247
 21
266.7919829797394
 31
0.0
  0
LINE
  5
249
330
1F
100
AcDbEntity
  8
1
  6
Continuous
 62
     7
100
AcDbLine
 10
681.0024799107014
 20
266.2621457366561
 30
0.0
 11
680.787756412607
 21
266.1797211082607
 31
0.0
  0
LINE
  5
24A
330
1F
100
AcDbEntity
  8
1
  6
Continuous
 62
     7
100
AcDbLine
 10
681.5511424372894
 20
266.7919829797394
 30
0.0
 11
681.0024799107014
 21
266.2621457366561
 31
0.0
  0
LINE
  5
24B
330
1F
100
AcDbEntity
  8
1
  6
Continuous
 62
     7
100
AcDbLine
 10
681.4667117100516
 20
296.500765810816
 30
0.0
 11
681.549136338447
 21
296.7154893089104
 31
0.0
  0
LINE
  5
24C
330
1F
100
AcDbEntity
  8
1
  6
Continuous
 62
     7
100
AcDbLine
 10
681.549136338447
 20
296.7154893089104
 30
0.0
 11
682.0789735815304
 21
297.2641518354984
 31
0.0
  0
LINE
  5
24D
330
1F
100
AcDbEntity
  8
1
  6
Continuous
 62
     7
100
AcDbLine
 10
681.549136338447
 20
296.2860423127216
 30
0.0
 11
681.4667117100516
 21
296.500765810816
 31
0.0
  0
LINE
  5
24E
330
1F
100
AcDbEntity
  8
1
  6
Continuous
 62
     7
100
AcDbLine
 10
682.0789735815304
 20
295.7373797861337
 30
0.0
 11
681.549136338447
 21
296.2860423127216
 31
0.0
  0
LINE
  5
24F
330
1F
100
AcDbEntity
  8
1
  6
Continuous
 62
     7
100
AcDbLine
 10
680.787756412607
 20
295.8218105133714
 30
0.0
 11
681.0024799107014
 21
295.7393858849759
 31
0.0
  0
LINE
  5
250
330
1F
100
AcDbEntity
  8
1
  6
Continuous
 62
     7
100
AcDbLine
 10
681.0024799107014
 20
295.7393858849759
 30
0.0
 11
681.5511424372894
 21
295.2095486418926
 31
0.0
  0
LINE
  5
251
330
1F
100
AcDbEntity
  8
1
  6
Continuous
 62
     7
100
AcDbLine
 10
680.5730329145126
 20
295.7393858849759
 30
0.0
 11
680.787756412607
 21
295.8218105133714
 31
0.0
  0
LINE
  5
252
330
1F
100
AcDbEntity
  8
1
  6
Continuous
 62
     7
100
AcDbLine
 10
680.0243703879246
 20
295.2095486418926
 30
0.0
 11
680.5730329145126
 21
295.7393858849759
 31
0.0
  0
LINE
  5
253
330
1F
100
AcDbEntity
  8
1
  6
Continuous
 62
     7
100
AcDbLine
 10
680.1088011151624
 20
296.500765810816
 30
0.0
 11
680.0263764867669
 21
296.2860423127217
 31
0.0
  0
LINE
  5
254
330
1F
100
AcDbEntity
  8
1
  6
Continuous
 62
     7
100
AcDbLine
 10
680.0263764867669
 20
296.2860423127217
 30
0.0
 11
679.4965392436836
 21
295.7373797861337
 31
0.0
  0
LINE
  5
255
330
1F
100
AcDbEntity
  8
1
  6
Continuous
 62
     7
100
AcDbLine
 10
680.0263764867669
 20
296.7154893089104
 30
0.0
 11
680.1088011151624
 21
296.500765810816
 31
0.0
  0
LINE
  5
256
330
1F
100
AcDbEntity
  8
1
  6
Continuous
 62
     7
100
AcDbLine
 10
679.4965392436836
 20
297.2641518354984
 30
0.0
 11
680.0263764867669
 21
296.7154893089104
 31
0.0
  0
LINE
  5
257
330
1F
100
AcDbEntity
  8
1
  6
Continuous
 62
     7
100
AcDbLine
 10
680.787756412607
 20
297.1797211082607
 30
0.0
 11
680.5730329145126
 21
297.2621457366561
 31
0.0
  0
LINE
  5
258
330
1F
100
AcDbEntity
  8
1
  6
Continuous
 62
     7
100
AcDbLine
 10
680.5730329145126
 20
297.2621457366561
 30
0.0
 11
680.0243703879247
 21
297.7919829797394
 31
0.0
  0
LINE
  5
259
330
1F
100
AcDbEntity
  8
1
  6
Continuous
 62
     7
100
AcDbLine
 10
681.0024799107014
 20
297.2621457366561
 30
0.0
 11
680.787756412607
 21
297.1797211082607
 31
0.0
  0
LINE
  5
25A
330
1F
100
AcDbEntity
  8
1
  6
Continuous
 62
     7
100
AcDbLine
 10
681.5511424372894
 20
297.7919829797394
 30
0.0
 11
681.0024799107014
 21
297.2621457366561
 31
0.0
  0
LINE
  5
25B
330
1F
100
AcDbEntity
  8
1
  6
Continuous
 62
     7
100
AcDbLine
 10
711.787756412607
 20
293.300765810816
 30
0.0
 11
717.287756412607
 21
293.300765810816
 31
0.0
  0
LINE
  5
25C
330
1F
100
AcDbEntity
  8
1
  6
DASH_CENTER
 62
     3
100
AcDbLine
 10
711.787756412607
 20
300.100765810816
 30
0.0
 11
711.787756412607
 21
292.900765810816
 31
0.0
  0
LINE
  5
25D
330
1F
100
AcDbEntity
  8
1
  6
Continuous
 62
     7
100
AcDbLine
 10
711.787756412607
 20
268.7007658108161
 30
0.0
 11
717.287756412607
 21
268.7007658108161
 31
0.0
  0
LINE
  5
25E
330
1F
100
AcDbEntity
  8
1
  6
DASH_CENTER
 62
     3
100
AcDbLine
 10
711.787756412607
 20
261.900765810816
 30
0.0
 11
711.787756412607
 21
269.100765810816
 31
0.0
  0
LINE
  5
25F
330
1F
100
AcDbEntity
  8
1
  6
Continuous
 62
     7
100
AcDbLine
 10
675.287756412607
 20
268.7007658108161
 30
0.0
 11
680.787756412607
 21
268.7007658108161
 31
0.0
  0
LINE
  5
260
330
1F
100
AcDbEntity
  8
1
  6
DASH_CENTER
 62
     3
100
AcDbLine
 10
680.787756412607
 20
261.900765810816
 30
0.0
 11
680.787756412607
 21
269.100765810816
 31
0.0
  0
LINE
  5
261
330
1F
100
AcDbEntity
  8
1
  6
Continuous
 62
     7
100
AcDbLine
 10
675.287756412607
 20
293.300765810816
 30
0.0
 11
680.787756412607
 21
293.300765810816
 31
0.0
  0
LINE
  5
262
330
1F
100
AcDbEntity
  8
1
  6
DASH_CENTER
 62
     3
100
AcDbLine
 10
680.787756412607
 20
292.900765810816
 30
0.0
 11
680.787756412607
 21
300.100765810816
 31
0.0
  0
LINE
  5
263
330
1F
100
AcDbEntity
  8
1
  6
Continuous
 62
     7
100
AcDbLine
 10
683.987756412607
 20
302.000765810816
 30
0.0
 11
683.987756412607
 21
296.500765810816
 31
0.0
  0
LINE
  5
264
330
1F
100
AcDbEntity
  8
1
  6
DASH_CENTER
 62
     3
100
AcDbLine
 10
677.187756412607
 20
296.500765810816
 30
0.0
 11
684.387756412607
 21
296.500765810816
 31
0.0
  0
LINE
  5
265
330
1F
100
AcDbEntity
  8
1
  6
Continuous
 62
     7
100
AcDbLine
 10
683.987756412607
 20
265.500765810816
 30
0.0
 11
683.987756412607
 21
260.000765810816
 31
0.0
  0
LINE
  5
266
330
1F
100
AcDbEntity
  8
1
  6
DASH_CENTER
 62
     3
100
AcDbLine
 10
677.187756412607
 20
265.500765810816
 30
0.0
 11
684.387756412607
 21
265.500765810816
 31
0.0
  0
LINE
  5
267
330
1F
100
AcDbEntity
  8
1
  6
Continuous
 62
     7
100
AcDbLine
 10
708.587756412607
 20
265.500765810816
 30
0.0
 11
708.587756412607
 21
260.000765810816
 31
0.0
  0
LINE
  5
268
330
1F
100
AcDbEntity
  8
1
  6
DASH_CENTER
 62
     3
100
AcDbLine
 10
708.187756412607
 20
265.500765810816
 30
0.0
 11
715.387756412607
 21
265.500765810816
 31
0.0
  0
LINE
  5
269
330
1F
100
AcDbEntity
  8
1
  6
Continuous
 62
     7
100
AcDbLine
 10
708.587756412607
 20
302.000765810816
 30
0.0
 11
708.587756412607
 21
296.500765810816
 31
0.0
  0
LINE
  5
26A
330
1F
100
AcDbEntity
  8
1
  6
DASH_CENTER
 62
     3
100
AcDbLine
 10
708.187756412607
 20
296.500765810816
 30
0.0
 11
715.387756412607
 21
296.500765810816
 31
0.0
  0
LINE
  5
26B
330
1F
100
AcDbEntity
  8
1
  6
Continuous
 62
     7
100
AcDbLine
 10
707.987756412607
 20
302.000765810816
 30
0.0
 11
707.987756412607
 21
296.500765810816
 31
0.0
  0
LINE
  5
26C
330
1F
100
AcDbEntity
  8
1
  6
Continuous
 62
     7
100
AcDbLine
 10
717.287756412607
 20
292.700765810816
 30
0.0
 11
711.787756412607
 21
292.700765810816
 31
0.0
  0
LINE
  5
26D
330
1F
100
AcDbEntity
  8
1
  6
Continuous
 62
     7
100
AcDbLine
 10
717.287756412607
 20
269.300765810816
 30
0.0
 11
711.787756412607
 21
269.300765810816
 31
0.0
  0
LINE
  5
26E
330
1F
100
AcDbEntity
  8
1
  6
Continuous
 62
     7
100
AcDbLine
 10
707.987756412607
 20
265.500765810816
 30
0.0
 11
707.987756412607
 21
260.000765810816
 31
0.0
  0
LINE
  5
26F
330
1F
100
AcDbEntity
  8
1
  6
Continuous
 62
     7
100
AcDbLine
 10
675.287756412607
 20
269.300765810816
 30
0.0
 11
680.787756412607
 21
269.300765810816
 31
0.0
  0
LINE
  5
270
330
1F
100
AcDbEntity
  8
1
  6
Continuous
 62
     7
100
AcDbLine
 10
684.587756412607
 20
265.500765810816
 30
0.0
 11
684.587756412607
 21
260.000765810816
 31
0.0
  0
LINE
  5
271
330
1F
100
AcDbEntity
  8
1
  6
Continuous
 62
     7
100
AcDbLine
 10
680.9580466958511
 20
260.000765810816
 30
0.0
 11
711.6174661293629
 21
260.000765810816
 31
0.0
  0
LINE
  5
272
330
1F
100
AcDbEntity
  8
1
  6
Continuous
 62
     7
100
AcDbLine
 10
684.587756412607
 20
302.000765810816
 30
0.0
 11
684.587756412607
 21
296.500765810816
 31
0.0
  0
LINE
  5
273
330
1F
100
AcDbEntity
  8
1
  6
Continuous
 62
     7
100
AcDbLine
 10
711.6174661293629
 20
302.000765810816
 30
0.0
 11
680.9580466958511
 21
302.000765810816
 31
0.0
  0
LINE
  5
274
330
1F
100
AcDbEntity
  8
1
  6
Continuous
 62
     7
100
AcDbLine
 10
680.787756412607
 20
292.700765810816
 30
0.0
 11
675.287756412607
 21
292.700765810816
 31
0.0
  0
LINE
  5
275
330
1F
100
AcDbEntity
  8
1
  6
Continuous
 62
     7
100
AcDbLine
 10
675.287756412607
 20
296.3304755275719
 30
0.0
 11
675.287756412607
 21
265.6710560940601
 31
0.0
  0
LINE
  5
276
330
1F
100
AcDbEntity
  8
1
  6
DASH_CENTER
 62
     3
100
AcDbLine
 10
696.287756412607
 20
307.000765810816
 30
0.0
 11
696.287756412607
 21
255.000765810816
 31
0.0
  0
LINE
  5
277
330
1F
100
AcDbEntity
  8
1
  6
DASH_CENTER
 62
     3
100
AcDbLine
 10
670.287756412607
 20
281.000765810816
 30
0.0
 11
722.287756412607
 21
281.000765810816
 31
0.0
  0
LINE
  5
278
330
1F
100
AcDbEntity
  8
1
  6
Continuous
 62
     7
100
AcDbLine
 10
598.7509156225173
 20
294.5654257770665
 30
0.0
 11
596.7509156225173
 21
294.5654257770665
 31
0.0
  0
LINE
  5
279
330
1F
100
AcDbEntity
  8
1
  6
Continuous
 62
     7
100
AcDbLine
 10
607.2509156225173
 20
294.5654257770665
 30
0.0
 11
609.2509156225173
 21
294.5654257770665
 31
0.0
  0
LINE
  5
27A
330
1F
100
AcDbEntity
  8
1
  6
Continuous
 62
     7
100
AcDbLine
 10
596.7509156225173
 20
267.4361058445655
 30
0.0
 11
598.7509156225173
 21
267.4361058445655
 31
0.0
  0
LINE
  5
27B
330
1F
100
AcDbEntity
  8
1
  6
Continuous
 62
     7
100
AcDbLine
 10
609.2509156225173
 20
267.4361058445655
 30
0.0
 11
607.2509156225173
 21
267.4361058445655
 31
0.0
  0
LINE
  5
27C
330
1F
100
AcDbEntity
  8
1
  6
Continuous
 62
     7
100
AcDbLine
 10
607.2509156225173
 20
267.4361058445655
 30
0.0
 11
607.2509156225173
 21
265.6710560940601
 31
0.0
  0
LINE
  5
27D
330
1F
100
AcDbEntity
  8
1
  6
Continuous
 62
     7
100
AcDbLine
 10
586.7509156225173
 20
260.000765810816
 30
0.0
 11
619.2509156225173
 21
260.000765810816
 31
0.0
  0
LINE
  5
27E
330
1F
100
AcDbEntity
  8
1
  6
Continuous
 62
     7
100
AcDbLine
 10
598.7509156225173
 20
302.000765810816
 30
0.0
 11
598.7509156225173
 21
294.5654257770665
 31
0.0
  0
LINE
  5
27F
330
1F
100
AcDbEntity
  8
1
  6
Continuous
 62
     7
100
AcDbLine
 10
586.2509156225173
 20
265.6710560940601
 30
0.0
 11
598.7509156225173
 21
265.6710560940601
 31
0.0
  0
LINE
  5
280
330
1F
100
AcDbEntity
  8
1
  6
Continuous
 62
     7
100
AcDbLine
 10
598.7509156225173
 20
267.4361058445655
 30
0.0
 11
598.7509156225173
 21
260.000765810816
 31
0.0
  0
LINE
  5
281
330
1F
100
AcDbEntity
  8
1
  6
Continuous
 62
     7
100
AcDbLine
 10
596.7509156225173
 20
267.9361058445655
 30
0.0
 11
609.2509156225173
 21
267.9361058445655
 31
0.0
  0
LINE
  5
282
330
1F
100
AcDbEntity
  8
1
  6
Continuous
 62
     7
100
AcDbLine
 10
609.2509156225173
 20
267.4361058445655
 30
0.0
 11
607.2509156225173
 21
267.4361058445655
 31
0.0
  0
LINE
  5
283
330
1F
100
AcDbEntity
  8
1
  6
Continuous
 62
     7
100
AcDbLine
 10
607.2509156225173
 20
267.4361058445655
 30
0.0
 11
607.2509156225173
 21
260.000765810816
 31
0.0
  0
LINE
  5
284
330
1F
100
AcDbEntity
  8
1
  6
Continuous
 62
     7
100
AcDbLine
 10
609.2509156225173
 20
294.0654257770665
 30
0.0
 11
596.7509156225173
 21
294.0654257770665
 31
0.0
  0
LINE
  5
285
330
1F
100
AcDbEntity
  8
1
  6
Continuous
 62
     7
100
AcDbLine
 10
609.2509156225173
 20
294.5654257770665
 30
0.0
 11
609.2509156225173
 21
267.4361058445655
 31
0.0
  0
LINE
  5
286
330
1F
100
AcDbEntity
  8
1
  6
Continuous
 62
     7
100
AcDbLine
 10
616.9509156225173
 20
293.300765810816
 30
0.0
 11
619.7509156225173
 21
292.700765810816
 31
0.0
  0
LINE
  5
287
330
1F
100
AcDbEntity
  8
1
  6
Continuous
 62
     7
100
AcDbLine
 10
616.9509156225173
 20
268.7007658108161
 30
0.0
 11
619.7509156225173
 21
269.300765810816
 31
0.0
  0
LINE
  5
288
330
1F
100
AcDbEntity
  8
1
  6
Continuous
 62
     7
100
AcDbLine
 10
619.7509156225173
 20
301.500765810816
 30
0.0
 11
619.7509156225173
 21
260.500765810816
 31
0.0
  0
LINE
  5
289
330
1F
100
AcDbEntity
  8
1
  6
Continuous
 62
     7
100
AcDbLine
 10
607.2509156225173
 20
296.3304755275719
 30
0.0
 11
616.9509156225173
 21
296.3304755275719
 31
0.0
  0
LINE
  5
28A
330
1F
100
AcDbEntity
  8
1
  6
Continuous
 62
     7
100
AcDbLine
 10
607.2509156225173
 20
294.5654257770665
 30
0.0
 11
607.2509156225173
 21
302.000765810816
 31
0.0
  0
LINE
  5
28B
330
1F
100
AcDbEntity
  8
1
  6
Continuous
 62
     7
100
AcDbLine
 10
607.2509156225173
 20
265.6710560940601
 30
0.0
 11
616.9509156225173
 21
265.6710560940601
 31
0.0
  0
LINE
  5
28C
330
1F
100
AcDbEntity
  8
1
  6
Continuous
 62
     7
100
AcDbLine
 10
616.9509156225173
 20
260.500765810816
 30
0.0
 11
616.9509156225173
 21
268.7007658108161
 31
0.0
  0
LINE
  5
28D
330
1F
100
AcDbEntity
  8
1
  6
Continuous
 62
     7
100
AcDbLine
 10
616.9509156225173
 20
301.500765810816
 30
0.0
 11
616.9509156225173
 21
293.300765810816
 31
0.0
  0
LINE
  5
28E
330
1F
100
AcDbEntity
  8
1
  6
DASH_CENTER
 62
     3
100
AcDbLine
 10
620.8509156225173
 20
296.500765810816
 30
0.0
 11
615.4509156225173
 21
296.500765810816
 31
0.0
  0
LINE
  5
28F
330
1F
100
AcDbEntity
  8
1
  6
Continuous
 62
     7
100
AcDbLine
 10
618.0554700065147
 20
299.2041298239684
 30
0.0
 11
616.9509156225173
 21
299.300765810816
 31
0.0
  0
LINE
  5
290
330
1F
100
AcDbEntity
  8
1
  6
Continuous
 62
     7
100
AcDbLine
 10
616.9509156225173
 20
293.700765810816
 30
0.0
 11
618.0554700065147
 21
293.7974017976637
 31
0.0
  0
LINE
  5
291
330
1F
100
AcDbEntity
  8
1
  6
Continuous
 62
     7
100
AcDbLine
 10
616.9509156225173
 20
293.700765810816
 30
0.0
 11
616.9509156225173
 21
299.300765810816
 31
0.0
  0
LINE
  5
292
330
1F
100
AcDbEntity
  8
1
  6
DASH_CENTER
 62
     3
100
AcDbLine
 10
615.4509156225173
 20
265.500765810816
 30
0.0
 11
620.8509156225173
 21
265.500765810816
 31
0.0
  0
LINE
  5
293
330
1F
100
AcDbEntity
  8
1
  6
Continuous
 62
     7
100
AcDbLine
 10
616.9509156225173
 20
262.700765810816
 30
0.0
 11
618.0554700065147
 21
262.7974017976637
 31
0.0
  0
LINE
  5
294
330
1F
100
AcDbEntity
  8
1
  6
Continuous
 62
     7
100
AcDbLine
 10
618.0554700065147
 20
268.2041298239684
 30
0.0
 11
616.9509156225173
 21
268.300765810816
 31
0.0
  0
LINE
  5
295
330
1F
100
AcDbEntity
  8
1
  6
Continuous
 62
     7
100
AcDbLine
 10
616.9509156225173
 20
262.700765810816
 30
0.0
 11
616.9509156225173
 21
268.300765810816
 31
0.0
  0
LINE
  5
296
330
1F
100
AcDbEntity
  8
1
  6
Continuous
 62
     7
100
AcDbLine
 10
595.8736733187166
 20
296.3304755275719
 30
0.0
 11
598.7509156225173
 21
296.3304755275719
 31
0.0
  0
LINE
  5
297
330
1F
100
AcDbEntity
  8
1
  6
Continuous
 62
     7
100
AcDbLine
 10
596.7509156225173
 20
294.5654257770665
 30
0.0
 11
596.7509156225173
 21
267.4361058445655
 31
0.0
  0
LINE
  5
298
330
1F
100
AcDbEntity
  8
1
  6
DASH_CENTER
 62
     3
100
AcDbLine
 10
598.0312855234681
 20
296.500765810816
 30
0.0
 11
585.2057261176703
 21
296.500765810816
 31
0.0
  0
LINE
  5
299
330
1F
100
AcDbEntity
  8
1
  6
Continuous
 62
     3
100
AcDbLine
 10
590.7509156225173
 20
297.500765810816
 30
0.0
 11
595.9605410353555
 21
297.500765810816
 31
0.0
  0
LINE
  5
29A
330
1F
100
AcDbEntity
  8
1
  6
Continuous
 62
     7
100
AcDbLine
 10
596.3682688122976
 20
298.000765810816
 30
0.0
 11
591.2509156225173
 21
298.000765810816
 31
0.0
  0
LINE
  5
29B
330
1F
100
AcDbEntity
  8
1
  6
Continuous
 62
     3
100
AcDbLine
 10
590.7509156225173
 20
295.500765810816
 30
0.0
 11
596.1568090096158
 21
295.500765810816
 31
0.0
  0
LINE
  5
29C
330
1F
100
AcDbEntity
  8
1
  6
Continuous
 62
     7
100
AcDbLine
 10
591.2509156225173
 20
298.000765810816
 30
0.0
 11
591.2509156225173
 21
295.000765810816
 31
0.0
  0
LINE
  5
29D
330
1F
100
AcDbEntity
  8
1
  6
Continuous
 62
     7
100
AcDbLine
 10
590.7509156225173
 20
295.500765810816
 30
0.0
 11
591.2509156225173
 21
295.000765810816
 31
0.0
  0
LINE
  5
29E
330
1F
100
AcDbEntity
  8
1
  6
Continuous
 62
     7
100
AcDbLine
 10
590.7509156225173
 20
297.500765810816
 30
0.0
 11
590.7509156225173
 21
295.500765810816
 31
0.0
  0
LINE
  5
29F
330
1F
100
AcDbEntity
  8
1
  6
Continuous
 62
     7
100
AcDbLine
 10
591.2509156225173
 20
298.000765810816
 30
0.0
 11
590.7509156225173
 21
297.500765810816
 31
0.0
  0
LINE
  5
2A0
330
1F
100
AcDbEntity
  8
1
  6
Continuous
 62
     7
100
AcDbLine
 10
590.7509156225173
 20
297.500765810816
 30
0.0
 11
586.2509156225173
 21
297.500765810816
 31
0.0
  0
LINE
  5
2A1
330
1F
100
AcDbEntity
  8
1
  6
Continuous
 62
     7
100
AcDbLine
 10
590.7509156225173
 20
295.500765810816
 30
0.0
 11
586.2509156225173
 21
295.500765810816
 31
0.0
  0
LINE
  5
2A2
330
1F
100
AcDbEntity
  8
1
  6
Continuous
 62
     7
100
AcDbLine
 10
586.2509156225173
 20
295.500765810816
 30
0.0
 11
586.2509156225173
 21
297.500765810816
 31
0.0
  0
LINE
  5
2A3
330
1F
100
AcDbEntity
  8
1
  6
Continuous
 62
     3
100
AcDbLine
 10
591.2509156225173
 20
295.000765810816
 30
0.0
 11
586.2509156225173
 21
295.000765810816
 31
0.0
  0
LINE
  5
2A4
330
1F
100
AcDbEntity
  8
1
  6
Continuous
 62
     3
100
AcDbLine
 10
591.2509156225173
 20
298.000765810816
 30
0.0
 11
586.2509156225173
 21
298.000765810816
 31
0.0
  0
LINE
  5
2A5
330
1F
100
AcDbEntity
  8
1
  6
Continuous
 62
     7
100
AcDbLine
 10
586.2509156225173
 20
260.500765810816
 30
0.0
 11
586.2509156225173
 21
301.500765810816
 31
0.0
  0
LINE
  5
2A6
330
1F
100
AcDbEntity
  8
1
  6
Continuous
 62
     7
100
AcDbLine
 10
595.7813002474043
 20
295.000765810816
 30
0.0
 11
591.2509156225173
 21
295.000765810816
 31
0.0
  0
LINE
  5
2A7
330
1F
100
AcDbEntity
  8
1
  6
Continuous
 62
     1
100
AcDbLine
 10
717.287756412607
 20
293.000765810816
 30
0.0
 11
717.587756412607
 21
293.000765810816
 31
0.0
  0
LINE
  5
2A8
330
1F
100
AcDbEntity
  8
1
  6
Continuous
 62
     1
100
AcDbLine
 10
717.587756412607
 20
293.000765810816
 30
0.0
 11
717.587756412607
 21
269.000765810816
 31
0.0
  0
LINE
  5
2A9
330
1F
100
AcDbEntity
  8
1
  6
Continuous
 62
     1
100
AcDbLine
 10
717.587756412607
 20
269.000765810816
 30
0.0
 11
717.287756412607
 21
269.000765810816
 31
0.0
  0
LINE
  5
2AA
330
1F
100
AcDbEntity
  8
1
  6
Continuous
 62
     7
100
AcDbLine
 10
717.287756412607
 20
296.3304755275719
 30
0.0
 11
717.287756412607
 21
265.6710560940601
 31
0.0
  0
LINE
  5
2AB
330
1F
100
AcDbEntity
  8
1
  6
Continuous
 62
     1
100
AcDbLine
 10
445.287756412607
 20
293.000765810816
 30
0.0
 11
444.987756412607
 21
293.000765810816
 31
0.0
  0
LINE
  5
2AC
330
1F
100
AcDbEntity
  8
1
  6
Continuous
 62
     1
100
AcDbLine
 10
444.987756412607
 20
293.000765810816
 30
0.0
 11
444.987756412607
 21
269.000765810816
 31
0.0
  0
LINE
  5
2AD
330
1F
100
AcDbEntity
  8
1
  6
Continuous
 62
     1
100
AcDbLine
 10
444.987756412607
 20
269.000765810816
 30
0.0
 11
445.287756412607
 21
269.000765810816
 31
0.0
  0
LINE
  5
2AE
330
1F
100
AcDbEntity
  8
1
  6
Continuous
 62
     7
100
AcDbLine
 10
445.287756412607
 20
296.3304755275719
 30
0.0
 11
445.287756412607
 21
265.6710560940601
 31
0.0
  0
LINE
  5
2AF
330
1F
100
AcDbEntity
  8
1
  6
Continuous
 62
     7
100
AcDbLine
 10
562.2509156225174
 20
283.200765810816
 30
0.0
 11
562.5509156225173
 21
283.500765810816
 31
0.0
  0
LINE
  5
2B0
330
1F
100
AcDbEntity
  8
1
  6
Continuous
 62
     7
100
AcDbLine
 10
562.2509156225174
 20
278.800765810816
 30
0.0
 11
562.5509156225173
 21
278.500765810816
 31
0.0
  0
LINE
  5
2B1
330
1F
100
AcDbEntity
  8
1
  6
Continuous
 62
     7
100
AcDbLine
 10
562.5509156225173
 20
283.500765810816
 30
0.0
 11
562.5509156225173
 21
278.500765810816
 31
0.0
  0
LINE
  5
2B2
330
1F
100
AcDbEntity
  8
1
  6
DASH_CENTER
 62
     3
100
AcDbLine
 10
560.2972000618354
 20
281.000765810816
 30
0.0
 11
623.1047795462794
 21
281.000765810816
 31
0.0
  0
LINE
  5
2B3
330
1F
100
AcDbEntity
  8
1
  6
Continuous
 62
     7
100
AcDbLine
 10
609.2509156225173
 20
302.000765810816
 30
0.0
 11
609.2509156225173
 21
302.500765810816
 31
0.0
  0
LINE
  5
2B4
330
1F
100
AcDbEntity
  8
1
  6
Continuous
 62
     7
100
AcDbLine
 10
619.2509156225173
 20
302.000765810816
 30
0.0
 11
586.7509156225173
 21
302.000765810816
 31
0.0
  0
LINE
  5
2B5
330
1F
100
AcDbEntity
  8
1
  6
Continuous
 62
     7
100
AcDbLine
 10
617.2509156225173
 20
302.500765810816
 30
0.0
 11
617.2509156225173
 21
302.000765810816
 31
0.0
  0
LINE
  5
2B6
330
1F
100
AcDbEntity
  8
1
  6
Continuous
 62
     3
100
AcDbLine
 10
611.2509156225173
 20
352.000765810816
 30
0.0
 11
611.2509156225173
 21
325.3025883682431
 31
0.0
  0
LINE
  5
2B7
330
1F
100
AcDbEntity
  8
1
  6
Continuous
 62
     3
100
AcDbLine
 10
615.2509156225173
 20
352.000765810816
 30
0.0
 11
615.2509156225173
 21
325.3568247580605
 31
0.0
  0
LINE
  5
2B8
330
1F
100
AcDbEntity
  8
1
  6
Continuous
 62
     3
100
AcDbLine
 10
612.7509156225173
 20
352.000765810816
 30
0.0
 11
612.7509156225173
 21
326.0661603317182
 31
0.0
  0
LINE
  5
2B9
330
1F
100
AcDbEntity
  8
1
  6
Continuous
 62
     7
100
AcDbLine
 10
609.7509156225173
 20
303.000765810816
 30
0.0
 11
616.7509156225173
 21
303.000765810816
 31
0.0
  0
LINE
  5
2BA
330
1F
100
AcDbEntity
  8
1
  6
Continuous
 62
     3
100
AcDbLine
 10
611.2509156225173
 20
324.4671502282169
 30
0.0
 11
611.2509156225173
 21
303.000765810816
 31
0.0
  0
LINE
  5
2BB
330
1F
100
AcDbEntity
  8
1
  6
Continuous
 62
     3
100
AcDbLine
 10
614.2509156225173
 20
324.0184083795046
 30
0.0
 11
614.2509156225173
 21
303.000765810816
 31
0.0
  0
LINE
  5
2BC
330
1F
100
AcDbEntity
  8
1
  6
Continuous
 62
     3
100
AcDbLine
 10
612.7509156225173
 20
325.2953559593456
 30
0.0
 11
612.7509156225173
 21
303.000765810816
 31
0.0
  0
LINE
  5
2BD
330
1F
100
AcDbEntity
  8
1
  6
Continuous
 62
     3
100
AcDbLine
 10
615.2509156225173
 20
324.7305644325941
 30
0.0
 11
615.2509156225173
 21
303.000765810816
 31
0.0
  0
LINE
  5
2BE
330
1F
100
AcDbEntity
  8
1
  6
Continuous
 62
     3
100
AcDbLine
 10
614.6778393996963
 20
352.000765810816
 30
0.0
 11
614.6778393996963
 21
355.255284023297
 31
0.0
  0
LINE
  5
2BF
330
1F
100
AcDbEntity
  8
1
  6
Continuous
 62
     3
100
AcDbLine
 10
614.2509156225173
 20
355.255284023297
 30
0.0
 11
614.2509156225173
 21
324.5836737219653
 31
0.0
  0
LINE
  5
2C0
330
1F
100
AcDbEntity
  8
1
  6
Continuous
 62
     3
100
AcDbLine
 10
612.3019330421832
 20
352.000765810816
 30
0.0
 11
612.3019330421832
 21
355.2500613885499
 31
0.0
  0
LINE
  5
2C1
330
1F
100
AcDbEntity
  8
1
  6
Continuous
 62
     3
100
AcDbLine
 10
611.8817071712203
 20
355.2500613885499
 30
0.0
 11
611.8817071712203
 21
352.000765810816
 31
0.0
  0
LINE
  5
2C2
330
1F
100
AcDbEntity
  8
1
  6
Continuous
 62
     3
100
AcDbLine
 10
613.7096897099113
 20
352.000765810816
 30
0.0
 11
613.7096897099113
 21
355.2500613885499
 31
0.0
  0
LINE
  5
2C3
330
1F
100
AcDbEntity
  8
1
  6
Continuous
 62
     3
100
AcDbLine
 10
613.2493129475413
 20
355.2500613885499
 30
0.0
 11
613.2493129475413
 21
352.000765810816
 31
0.0
  0
LINE
  5
2C4
330
1F
100
AcDbEntity
  8
1
  6
Continuous
 62
     3
100
AcDbLine
 10
612.9532831421773
 20
352.000765810816
 30
0.0
 11
612.9532831421773
 21
355.2500613885499
 31
0.0
  0
LINE
  5
2C5
330
1F
100
AcDbEntity
  8
1
  6
Continuous
 62
     3
100
AcDbLine
 10
612.5330572712132
 20
355.2500613885499
 30
0.0
 11
612.5330572712132
 21
352.000765810816
 31
0.0
  0
LINE
  5
2C6
330
1F
100
AcDbEntity
  8
1
  6
Continuous
 62
     7
100
AcDbLine
 10
612.0918201067018
 20
355.2500613885499
 30
0.0
 11
612.0918201067018
 21
352.000765810816
 31
0.0
  0
LINE
  5
2C7
330
1F
100
AcDbEntity
  8
1
  6
Continuous
 62
     3
100
AcDbLine
 10
612.3019330421832
 20
355.2500613885499
 30
0.0
 11
611.8817071712203
 21
355.2500613885499
 31
0.0
  0
LINE
  5
2C8
330
1F
100
AcDbEntity
  8
1
  6
Continuous
 62
     7
100
AcDbLine
 10
612.7431702066953
 20
355.2500613885499
 30
0.0
 11
612.7431702066953
 21
352.000765810816
 31
0.0
  0
LINE
  5
2C9
330
1F
100
AcDbEntity
  8
1
  6
Continuous
 62
     3
100
AcDbLine
 10
612.9532831421773
 20
355.2500613885499
 30
0.0
 11
612.5330572712132
 21
355.2500613885499
 31
0.0
  0
LINE
  5
2CA
330
1F
100
AcDbEntity
  8
1
  6
Continuous
 62
     7
100
AcDbLine
 10
613.4795013287263
 20
355.2500613885499
 30
0.0
 11
613.4795013287263
 21
352.000765810816
 31
0.0
  0
LINE
  5
2CB
330
1F
100
AcDbEntity
  8
1
  6
Continuous
 62
     3
100
AcDbLine
 10
613.7096897099113
 20
355.2500613885499
 30
0.0
 11
613.2493129475413
 21
355.2500613885499
 31
0.0
  0
LINE
  5
2CC
330
1F
100
AcDbEntity
  8
1
  6
Continuous
 62
     7
100
AcDbLine
 10
614.4643775111068
 20
355.255284023297
 30
0.0
 11
614.4643775111068
 21
352.000765810816
 31
0.0
  0
LINE
  5
2CD
330
1F
100
AcDbEntity
  8
1
  6
Continuous
 62
     3
100
AcDbLine
 10
614.6778393996963
 20
355.255284023297
 30
0.0
 11
614.2509156225173
 21
355.255284023297
 31
0.0
  0
LINE
  5
2CE
330
1F
100
AcDbEntity
  8
1
  6
Continuous
 62
     3
100
AcDbLine
 10
611.2509156225173
 20
352.000765810816
 30
0.0
 11
615.2509156225173
 21
352.000765810816
 31
0.0
  0
LINE
  5
2CF
330
1F
100
AcDbEntity
  8
1
  6
Continuous
 62
     7
100
AcDbLine
 10
584.2509156225173
 20
270.2007658108161
 30
0.0
 11
584.4509156225173
 21
270.000765810816
 31
0.0
  0
LINE
  5
2D0
330
1F
100
AcDbEntity
  8
1
  6
Continuous
 62
     7
100
AcDbLine
 10
584.2509156225173
 20
291.800765810816
 30
0.0
 11
584.4509156225173
 21
292.000765810816
 31
0.0
  0
LINE
  5
2D1
330
1F
100
AcDbEntity
  8
1
  6
DASH_CENTER
 62
     3
100
AcDbLine
 10
466.287756412607
 20
308.0267554412982
 30
0.0
 11
466.287756412607
 21
254.8594515626294
 31
0.0
  0
LINE
  5
2D2
330
1F
100
AcDbEntity
  8
1
  6
Continuous
 62
     4
100
AcDbLine
 10
586.2509156225173
 20
301.500765810816
 30
0.0
 11
586.2509156225173
 21
348.3693622235089
 31
0.0
  0
ARC
  5
2D3
330
1F
100
AcDbEntity
  8
1
  6
Continuous
 62
     7
100
AcDbCircle
 10
466.287756412607
 20
281.000765810816
 30
0.0
 40
25.99999999999999
100
AcDbArc
 50
36.12892747193818
 51
53.87107252806173
  0
ARC
  5
2D4
330
1F
100
AcDbEntity
  8
1
  6
Continuous
 62
     7
100
AcDbCircle
 10
466.287756412607
 20
281.000765810816
 30
0.0
 40
26.00000000000002
100
AcDbArc
 50
-53.87107252806173
 51
-36.12892747193828
  0
ARC
  5
2D5
330
1F
100
AcDbEntity
  8
1
  6
Continuous
 62
     7
100
AcDbCircle
 10
466.287756412607
 20
281.000765810816
 30
0.0
 40
25.99999999999999
100
AcDbArc
 50
126.1289274719382
 51
143.8710725280618
  0
ARC
  5
2D6
330
1F
100
AcDbEntity
  8
1
  6
Continuous
 62
     7
100
AcDbCircle
 10
466.287756412607
 20
281.000765810816
 30
0.0
 40
26.00000000000002
100
AcDbArc
 50
-143.8710725280617
 51
-126.1289274719382
  0
ARC
  5
2D7
330
1F
100
AcDbEntity
  8
1
  6
Continuous
 62
     7
100
AcDbCircle
 10
696.287756412607
 20
281.000765810816
 30
0.0
 40
26.00000000000002
100
AcDbArc
 50
126.1289274719383
 51
143.8710725280618
  0
ARC
  5
2D8
330
1F
100
AcDbEntity
  8
1
  6
Continuous
 62
     7
100
AcDbCircle
 10
696.287756412607
 20
281.000765810816
 30
0.0
 40
25.99999999999999
100
AcDbArc
 50
36.12892747193818
 51
53.87107252806173
  0
ARC
  5
2D9
330
1F
100
AcDbEntity
  8
1
  6
Continuous
 62
     7
100
AcDbCircle
 10
696.287756412607
 20
281.000765810816
 30
0.0
 40
26.00000000000002
100
AcDbArc
 50
-53.87107252806173
 51
-36.12892747193828
  0
ARC
  5
2DA
330
1F
100
AcDbEntity
  8
1
  6
Continuous
 62
     7
100
AcDbCircle
 10
696.287756412607
 20
281.000765810816
 30
0.0
 40
26.00000000000002
100
AcDbArc
 50
-143.8710725280617
 51
-126.1289274719383
  0
ARC
  5
2DB
330
1F
100
AcDbEntity
  8
1
  6
Continuous
 62
     7
100
AcDbCircle
 10
711.787756412607
 20
296.500765810816
 30
0.0
 40
1.500000000001009
100
AcDbArc
 50
-59.40781443534703
 51
-30.59218556465033
  0
ARC
  5
2DC
330
1F
100
AcDbEntity
  8
1
  6
Continuous
 62
     7
100
AcDbCircle
 10
711.787756412607
 20
296.500765810816
 30
0.0
 40
1.500000000000902
100
AcDbArc
 50
-149.4078144353497
 51
-120.592185564653
  0
ARC
  5
2DD
330
1F
100
AcDbEntity
  8
1
  6
Continuous
 62
     7
100
AcDbCircle
 10
711.787756412607
 20
296.500765810816
 30
0.0
 40
1.500000000000902
100
AcDbArc
 50
120.5921855646503
 51
149.4078144353459
  0
ARC
  5
2DE
330
1F
100
AcDbEntity
  8
1
  6
Continuous
 62
     7
100
AcDbCircle
 10
711.787756412607
 20
296.500765810816
 30
0.0
 40
1.50000000000096
100
AcDbArc
 50
30.59218556465406
 51
59.40781443534594
  0
ARC
  5
2DF
330
1F
100
AcDbEntity
  8
1
  6
Continuous
 62
     7
100
AcDbCircle
 10
711.787756412607
 20
265.500765810816
 30
0.0
 40
1.500000000001009
100
AcDbArc
 50
-59.40781443534703
 51
-30.59218556465406
  0
ARC
  5
2E0
330
1F
100
AcDbEntity
  8
1
  6
Continuous
 62
     7
100
AcDbCircle
 10
711.787756412607
 20
265.500765810816
 30
0.0
 40
1.500000000000902
100
AcDbArc
 50
-149.4078144353497
 51
-120.592185564653
  0
ARC
  5
2E1
330
1F
100
AcDbEntity
  8
1
  6
Continuous
 62
     7
100
AcDbCircle
 10
711.787756412607
 20
265.500765810816
 30
0.0
 40
1.500000000000902
100
AcDbArc
 50
120.5921855646503
 51
149.4078144353459
  0
ARC
  5
2E2
330
1F
100
AcDbEntity
  8
1
  6
Continuous
 62
     7
100
AcDbCircle
 10
711.787756412607
 20
265.500765810816
 30
0.0
 40
1.50000000000096
100
AcDbArc
 50
30.59218556465406
 51
59.40781443534594
  0
ARC
  5
2E3
330
1F
100
AcDbEntity
  8
1
  6
Continuous
 62
     7
100
AcDbCircle
 10
680.787756412607
 20
265.500765810816
 30
0.0
 40
1.500000000001009
100
AcDbArc
 50
-59.40781443534703
 51
-30.59218556465406
  0
ARC
  5
2E4
330
1F
100
AcDbEntity
  8
1
  6
Continuous
 62
     7
100
AcDbCircle
 10
680.787756412607
 20
265.500765810816
 30
0.0
 40
1.500000000000902
100
AcDbArc
 50
-149.4078144353497
 51
-120.592185564653
  0
ARC
  5
2E5
330
1F
100
AcDbEntity
  8
1
  6
Continuous
 62
     7
100
AcDbCircle
 10
680.787756412607
 20
265.500765810816
 30
0.0
 40
1.500000000000902
100
AcDbArc
 50
120.5921855646503
 51
149.4078144353459
  0
ARC
  5
2E6
330
1F
100
AcDbEntity
  8
1
  6
Continuous
 62
     7
100
AcDbCircle
 10
680.787756412607
 20
265.500765810816
 30
0.0
 40
1.50000000000096
100
AcDbArc
 50
30.59218556465406
 51
59.40781443534594
  0
ARC
  5
2E7
330
1F
100
AcDbEntity
  8
1
  6
Continuous
 62
     7
100
AcDbCircle
 10
680.787756412607
 20
296.500765810816
 30
0.0
 40
1.500000000001009
100
AcDbArc
 50
-59.40781443534703
 51
-30.59218556465033
  0
ARC
  5
2E8
330
1F
100
AcDbEntity
  8
1
  6
Continuous
 62
     7
100
AcDbCircle
 10
680.787756412607
 20
296.500765810816
 30
0.0
 40
1.500000000000902
100
AcDbArc
 50
-149.4078144353497
 51
-120.592185564653
  0
ARC
  5
2E9
330
1F
100
AcDbEntity
  8
1
  6
Continuous
 62
     7
100
AcDbCircle
 10
680.787756412607
 20
296.500765810816
 30
0.0
 40
1.500000000000902
100
AcDbArc
 50
120.5921855646503
 51
149.4078144353459
  0
ARC
  5
2EA
330
1F
100
AcDbEntity
  8
1
  6
Continuous
 62
     7
100
AcDbCircle
 10
680.787756412607
 20
296.500765810816
 30
0.0
 40
1.50000000000096
100
AcDbArc
 50
30.59218556465406
 51
59.40781443534594
  0
ARC
  5
2EB
330
1F
100
AcDbEntity
  8
1
  6
Continuous
 62
     7
100
AcDbCircle
 10
692.3637674014703
 20
275.1025109406883
 30
0.0
 40
0.7739711149937755
100
AcDbArc
 50
-127.3889169372898
 51
-32.20950515067503
  0
ARC
  5
2EC
330
1F
100
AcDbEntity
  8
1
  6
Continuous
 62
     7
100
AcDbCircle
 10
694.0556389296219
 20
274.0366905562948
 30
0.0
 40
1.225629435005749
100
AcDbArc
 50
-47.97132075872683
 51
147.7904948493168
  0
ARC
  5
2ED
330
1F
100
AcDbEntity
  8
1
  6
Continuous
 62
     7
100
AcDbCircle
 10
698.5198738955921
 20
274.0366905562948
 30
0.0
 40
1.225629435005808
100
AcDbArc
 50
32.20950515068041
 51
-132.0286792412732
  0
ARC
  5
2EE
330
1F
100
AcDbEntity
  8
1
  6
Continuous
 62
     7
100
AcDbCircle
 10
700.2117454237437
 20
275.1025109406883
 30
0.0
 40
0.7739711149937529
100
AcDbArc
 50
-147.7904948493205
 51
-52.61108306271024
  0
ARC
  5
2EF
330
1F
100
AcDbEntity
  8
1
  6
Continuous
 62
     7
100
AcDbCircle
 10
696.287756412607
 20
280.2369335804408
 30
0.0
 40
7.236167769624767
100
AcDbArc
 50
-52.61108306270364
 51
-127.3889169372964
  0
ARC
  5
2F0
330
1F
100
AcDbEntity
  8
1
  6
Continuous
 62
     7
100
AcDbCircle
 10
711.787756412607
 20
296.500765810816
 30
0.0
 40
3.200000000000045
100
AcDbArc
 50
180.0
 51
-90.0
  0
ARC
  5
2F1
330
1F
100
AcDbEntity
  8
1
  6
Continuous
 62
     7
100
AcDbCircle
 10
711.787756412607
 20
265.500765810816
 30
0.0
 40
3.200000000000102
100
AcDbArc
 50
90.0
 51
180.0
  0
ARC
  5
2F2
330
1F
100
AcDbEntity
  8
1
  6
Continuous
 62
     7
100
AcDbCircle
 10
680.787756412607
 20
265.500765810816
 30
0.0
 40
3.200000000000045
100
AcDbArc
 50
0.0
 51
90.0
  0
ARC
  5
2F3
330
1F
100
AcDbEntity
  8
1
  6
Continuous
 62
     7
100
AcDbCircle
 10
680.787756412607
 20
296.500765810816
 30
0.0
 40
3.199999999999989
100
AcDbArc
 50
-90.0
 51
0.0
  0
ARC
  5
2F4
330
1F
100
AcDbEntity
  8
1
  6
Continuous
 62
     7
100
AcDbCircle
 10
711.787756412607
 20
296.500765810816
 30
0.0
 40
3.799999999999955
100
AcDbArc
 50
180.0
 51
-90.0
  0
ARC
  5
2F5
330
1F
100
AcDbEntity
  8
1
  6
Continuous
 62
     7
100
AcDbCircle
 10
711.787756412607
 20
265.500765810816
 30
0.0
 40
3.800000000000011
100
AcDbArc
 50
90.0
 51
180.0
  0
ARC
  5
2F6
330
1F
100
AcDbEntity
  8
1
  6
Continuous
 62
     7
100
AcDbCircle
 10
680.787756412607
 20
265.500765810816
 30
0.0
 40
3.799999999999955
100
AcDbArc
 50
0.0
 51
90.0
  0
ARC
  5
2F7
330
1F
100
AcDbEntity
  8
1
  6
Continuous
 62
     7
100
AcDbCircle
 10
680.787756412607
 20
296.500765810816
 30
0.0
 40
3.800000000000011
100
AcDbArc
 50
-90.0
 51
0.0
  0
ARC
  5
2F8
330
1F
100
AcDbEntity
  8
1
  6
Continuous
 62
     7
100
AcDbCircle
 10
614.3509156225174
 20
296.500765810816
 30
0.0
 40
4.999999999999989
100
AcDbArc
 50
-25.26416482102366
 51
25.26416482102425
  0
ARC
  5
2F9
330
1F
100
AcDbEntity
  8
1
  6
Continuous
 62
     7
100
AcDbCircle
 10
614.3509156225173
 20
265.500765810816
 30
0.0
 40
5.000000000000092
100
AcDbArc
 50
-25.2641648210231
 51
25.26416482102251
  0
ARC
  5
2FA
330
1F
100
AcDbEntity
  8
1
  6
Continuous
 62
     2
100
AcDbCircle
 10
466.287756412607
 20
281.000765810816
 30
0.0
 40
26.00000000000005
100
AcDbArc
 50
110.3944157364451
 51
122.5365189493492
  0
ARC
  5
2FB
330
1F
100
AcDbEntity
  8
1
  6
Continuous
 62
     2
100
AcDbCircle
 10
466.287756412607
 20
281.000765810816
 30
0.0
 40
26.00000000000006
100
AcDbArc
 50
-69.01959658593078
 51
-58.1016786682642
  0
CIRCLE
  5
2FC
330
1F
100
AcDbEntity
  8
1
  6
Continuous
 62
     7
100
AcDbCircle
 10
696.287756412607
 20
281.000765810816
 30
0.0
 40
8.0
  0
CIRCLE
  5
2FD
330
1F
100
AcDbEntity
  8
1
  6
Continuous
 62
     7
100
AcDbCircle
 10
481.787756412607
 20
296.500765810816
 30
0.0
 40
1.199999999999989
  0
CIRCLE
  5
2FE
330
1F
100
AcDbEntity
  8
1
  6
Continuous
 62
     3
100
AcDbCircle
 10
481.787756412607
 20
296.500765810816
 30
0.0
 40
1.5
  0
CIRCLE
  5
2FF
330
1F
100
AcDbEntity
  8
1
  6
Continuous
 62
     7
100
AcDbCircle
 10
450.787756412607
 20
296.500765810816
 30
0.0
 40
1.199999999999989
  0
CIRCLE
  5
300
330
1F
100
AcDbEntity
  8
1
  6
Continuous
 62
     3
100
AcDbCircle
 10
450.787756412607
 20
296.500765810816
 30
0.0
 40
1.5
  0
CIRCLE
  5
301
330
1F
100
AcDbEntity
  8
1
  6
Continuous
 62
     7
100
AcDbCircle
 10
450.787756412607
 20
265.500765810816
 30
0.0
 40
1.199999999999989
  0
CIRCLE
  5
302
330
1F
100
AcDbEntity
  8
1
  6
Continuous
 62
     3
100
AcDbCircle
 10
450.787756412607
 20
265.500765810816
 30
0.0
 40
1.5
  0
CIRCLE
  5
303
330
1F
100
AcDbEntity
  8
1
  6
Continuous
 62
     7
100
AcDbCircle
 10
481.787756412607
 20
265.500765810816
 30
0.0
 40
1.199999999999989
  0
CIRCLE
  5
304
330
1F
100
AcDbEntity
  8
1
  6
Continuous
 62
     3
100
AcDbCircle
 10
481.787756412607
 20
265.500765810816
 30
0.0
 40
1.5
  0
CIRCLE
  5
305
330
1F
100
AcDbEntity
  8
1
  6
Continuous
 62
     7
100
AcDbCircle
 10
466.287756412607
 20
281.000765810816
 30
0.0
 40
11.0
  0
CIRCLE
  5
306
330
1F
100
AcDbEntity
  8
1
  6
Continuous
 62
     7
100
AcDbCircle
 10
466.287756412607
 20
281.000765810816
 30
0.0
 40
2.449999999999989
  0
CIRCLE
  5
307
330
1F
100
AcDbEntity
  8
1
  6
Continuous
 62
     7
100
AcDbCircle
 10
466.287756412607
 20
281.000765810816
 30
0.0
 40
6.5
  0
CIRCLE
  5
308
330
1F
100
AcDbEntity
  8
1
  6
Continuous
 62
     7
100
AcDbCircle
 10
466.287756412607
 20
281.000765810816
 30
0.0
 40
2.0
  0
CIRCLE
  5
309
330
1F
100
AcDbEntity
  8
1
  6
Continuous
 62
     7
100
AcDbCircle
 10
711.787756412607
 20
296.500765810816
 30
0.0
 40
2.799999999999955
  0
CIRCLE
  5
30A
330
1F
100
AcDbEntity
  8
1
  6
Continuous
 62
     7
100
AcDbCircle
 10
711.787756412607
 20
265.500765810816
 30
0.0
 40
2.799999999999955
  0
CIRCLE
  5
30B
330
1F
100
AcDbEntity
  8
1
  6
Continuous
 62
     7
100
AcDbCircle
 10
680.787756412607
 20
265.500765810816
 30
0.0
 40
2.799999999999955
  0
CIRCLE
  5
30C
330
1F
100
AcDbEntity
  8
1
  6
Continuous
 62
     7
100
AcDbCircle
 10
680.787756412607
 20
296.500765810816
 30
0.0
 40
2.799999999999955
  0
CIRCLE
  5
30D
330
1F
100
AcDbEntity
  8
1
  6
Continuous
 62
     7
100
AcDbCircle
 10
696.287756412607
 20
281.000765810816
 30
0.0
 40
2.5
  0
CIRCLE
  5
30E
330
1F
100
AcDbEntity
  8
1
  6
Continuous
 62
     7
100
AcDbCircle
 10
696.287756412607
 20
281.000765810816
 30
0.0
 40
2.0
  0
CIRCLE
  5
30F
330
1F
100
AcDbEntity
  8
1
  6
Continuous
 62
     7
100
AcDbCircle
 10
694.0556389296219
 20
274.0366905562948
 30
0.0
 40
0.5832850249458374
  0
CIRCLE
  5
310
330
1F
100
AcDbEntity
  8
1
  6
Continuous
 62
     7
100
AcDbCircle
 10
698.5198738955921
 20
274.0366905562948
 30
0.0
 40
0.5832850249458374
  0
SPLINE
  5
311
330
1F
100
AcDbEntity
  8
1
  6
Continuous
 62
     7
100
AcDbSpline
210
0.0
220
0.0
230
1.0
 70
     8
 71
     3
 72
    11
 73
     7
 74
     5
 42
0.0000000001
 43
0.0000000001
 44
0.00000001
 40
0.0
 40
0.0
 40
0.0
 40
0.0
 40
1.061413362334777
 40
2.15335423073095
 40
3.492978298362334
 40
4.833550222058618
 40
4.833550222058618
 40
4.833550222058618
 40
4.833550222058618
 10
596.3682688122976
 20
298.000765810816
 30
0.0
 10
596.2525418499042
 20
298.3431714149335
 30
0.0
 10
596.0177594805439
 20
299.0378306140889
 30
0.0
 10
594.8701421672273
 20
299.6863477610071
 30
0.0
 10
595.1964186263433
 20
301.2210835866274
 30
0.0
 10
595.9278503841329
 20
301.7408104686421
 30
0.0
 10
596.2936955990967
 20
302.000765810816
 30
0.0
 11
596.3682688122976
 21
298.000765810816
 31
0.0
 11
595.9062394230817
 21
298.9563426885415
 31
0.0
 11
595.1550392620023
 21
299.7488281319839
 31
0.0
 11
595.3211493905081
 21
301.0781136798573
 31
0.0
 11
596.2936955990967
 21
302.000765810816
 31
0.0
  0
SPLINE
  5
312
330
1F
100
AcDbEntity
  8
1
  6
Continuous
 62
     7
100
AcDbSpline
210
0.0
220
0.0
230
1.0
 70
     8
 71
     3
 72
    21
 73
    17
 74
    15
 42
0.0000000001
 43
0.0000000001
 44
0.00000001
 40
0.0
 40
0.0
 40
0.0
 40
0.0
 40
0.3919505886038079
 40
0.6546459664020352
 40
0.7873240542615241
 40
0.9285874441793727
 40
1.226392561073308
 40
1.536775334736687
 40
1.71377176011634
 40
1.886808737220438
 40
2.216780242915923
 40
2.557142480906962
 40
2.834263098157404
 40
3.090146331137463
 40
3.262196977089397
 40
3.480001493501825
 40
3.480001493501825
 40
3.480001493501825
 40
3.480001493501825
 10
595.7813002474043
 20
295.000765810816
 30
0.0
 10
595.8862192617005
 20
295.0827756032556
 30
0.0
 10
596.0614577012004
 20
295.2197504704634
 30
0.0
 10
596.1594730971602
 20
295.4752722414291
 30
0.0
 10
596.1683239714747
 20
295.6542051573203
 30
0.0
 10
596.1522825561507
 20
295.84557908901
 30
0.0
 10
596.0436766289979
 20
296.0769037646045
 30
0.0
 10
595.8949695599982
 20
296.2911252060029
 30
0.0
 10
595.7831431954833
 20
296.4811911682143
 30
0.0
 10
595.6976049302627
 20
296.6929376267868
 30
0.0
 10
595.6910005419182
 20
296.9827542288313
 30
0.0
 10
595.7882627666804
 20
297.2874607744343
 30
0.0
 10
595.9478020053849
 20
297.5353690946279
 30
0.0
 10
596.1201061121385
 20
297.6954396613996
 30
0.0
 10
596.3343583287816
 20
297.7841966939674
 30
0.0
 10
596.3561142186633
 20
297.9231405652838
 30
0.0
 10
596.3682688122976
 20
298.000765810816
 30
0.0
 11
595.7813002474043
 21
295.000765810816
 31
0.0
 11
596.0624544217322
 21
295.2738547966152
 31
0.0
 11
596.1568090096158
 21
295.5190201964209
 31
0.0
 11
596.1653195840136
 21
295.6514250495097
 31
0.0
 11
596.15136355696
 21
295.7919973605811
 31
0.0
 11
596.0390134765229
 21
296.0677968295327
 31
0.0
 11
595.8736733187166
 21
296.3304755275719
 31
0.0
 11
595.7863692345072
 21
296.4844421846037
 31
0.0
 11
595.7243674305495
 21
296.6459896134019
 31
0.0
 11
595.7090281815001
 21
296.9756043916045
 31
0.0
 11
595.8097666558317
 21
297.3007170072311
 31
0.0
 11
595.9605730751417
 21
297.5332105778953
 31
0.0
 11
596.1539676791026
 21
297.7007658108161
 31
0.0
 11
596.2982218080606
 21
297.7945323882893
 31
0.0
 11
596.3682688122976
 21
298.000765810816
 31
0.0
  0
SPLINE
  5
313
330
1F
100
AcDbEntity
  8
1
  6
Continuous
 62
     7
100
AcDbSpline
210
0.0
220
0.0
230
1.0
 70
     8
 71
     3
 72
    14
 73
    10
 74
     8
 42
0.0000000001
 43
0.0000000001
 44
0.00000001
 40
0.0
 40
0.0
 40
0.0
 40
0.0
 40
1.640449387360254
 40
3.265824267776856
 40
4.819414925210911
 40
5.87128089558473
 40
6.98929317054894
 40
8.593906216490018
 40
10.1958850483378
 40
10.1958850483378
 40
10.1958850483378
 40
10.1958850483378
 10
586.2509156225173
 20
292.6891588419991
 30
0.0
 10
586.7445716129331
 20
292.9945228505361
 30
0.0
 10
587.7273472632249
 20
293.6024448000152
 30
0.0
 10
589.314107324634
 20
292.9686139161147
 30
0.0
 10
590.7401444618533
 20
292.6284296807647
 30
0.0
 10
591.8979945350302
 20
293.1929504182366
 30
0.0
 10
592.9305120385992
 20
293.9062471324991
 30
0.0
 10
594.3338620356878
 20
294.3146108322618
 30
0.0
 10
595.2990851536489
 20
294.7721727802908
 30
0.0
 10
595.7813002474043
 20
295.000765810816
 30
0.0
 11
586.2509156225173
 21
292.6891588419991
 31
0.0
 11
587.7552162863203
 21
293.3434933935645
 31
0.0
 11
589.3442364201674
 21
293.0016476445518
 31
0.0
 11
590.8850779978985
 21
292.8030244757086
 31
0.0
 11
591.8583510047688
 21
293.2019751916224
 31
0.0
 11
592.8207937709591
 21
293.7708823622387
 31
0.0
 11
594.3158539511546
 21
294.353615650114
 31
0.0
 11
595.7813002474043
 21
295.000765810816
 31
0.0
  0
ARC
  5
314
330
1F
100
AcDbEntity
  8
1
  6
Continuous
 62
     7
100
AcDbCircle
 10
698.8654088253695
 20
302.500765810816
 30
0.0
 40
0.5
100
AcDbArc
 50
0.0
 51
90.0
  0
ARC
  5
315
330
1F
100
AcDbEntity
  8
1
  6
Continuous
 62
     7
100
AcDbCircle
 10
693.8654088253695
 20
302.500765810816
 30
0.0
 40
0.5
100
AcDbArc
 50
90.0
 51
180.0
  0
ARC
  5
316
330
1F
100
AcDbEntity
  8
1
  6
Continuous
 62
     7
100
AcDbCircle
 10
468.787756412607
 20
302.500765810816
 30
0.0
 40
0.5
100
AcDbArc
 50
0.0
 51
90.0
  0
ARC
  5
317
330
1F
100
AcDbEntity
  8
1
  6
Continuous
 62
     7
100
AcDbCircle
 10
463.787756412607
 20
302.500765810816
 30
0.0
 40
0.5
100
AcDbArc
 50
90.0
 51
180.0
  0
ARC
  5
318
330
1F
100
AcDbEntity
  8
1
  6
Continuous
 62
     7
100
AcDbCircle
 10
617.9683142637672
 20
298.2079351258766
 30
0.0
 40
0.999999999999981
100
AcDbArc
 50
25.26416482102771
 51
85.00000000000703
  0
ARC
  5
319
330
1F
100
AcDbEntity
  8
1
  6
Continuous
 62
     7
100
AcDbCircle
 10
617.9683142637672
 20
294.7935964957554
 30
0.0
 40
0.9999999999999435
100
AcDbArc
 50
-85.00000000000647
 51
-25.26416482102477
  0
ARC
  5
31A
330
1F
100
AcDbEntity
  8
1
  6
Continuous
 62
     7
100
AcDbCircle
 10
617.9683142637672
 20
263.7935964957554
 30
0.0
 40
0.9999999999999435
100
AcDbArc
 50
-85.00000000000647
 51
-25.26416482102477
  0
ARC
  5
31B
330
1F
100
AcDbEntity
  8
1
  6
Continuous
 62
     7
100
AcDbCircle
 10
617.9683142637672
 20
267.2079351258766
 30
0.0
 40
0.9999999999999325
100
AcDbArc
 50
25.26416482102182
 51
85.00000000000703
  0
ARC
  5
31C
330
1F
100
AcDbEntity
  8
1
  6
Continuous
 62
     7
100
AcDbCircle
 10
609.7509156225173
 20
302.500765810816
 30
0.0
 40
0.5
100
AcDbArc
 50
90.0
 51
180.0
  0
ARC
  5
31D
330
1F
100
AcDbEntity
  8
1
  6
Continuous
 62
     7
100
AcDbCircle
 10
616.7509156225173
 20
302.500765810816
 30
0.0
 40
0.5
100
AcDbArc
 50
0.0
 51
90.0
  0
SOLID
  5
31E
330
1F
100
AcDbEntity
  8
1
 62
     2
100
AcDbTrace
 10
719.4877012117088
 20
267.8777762438432
 30
0.0
 11
718.6528925806432
 21
267.4874159289707
 31
0.0
 12
717.587756412607
 22
270.8530966327843
 32
0.0
 13
717.587756412607
 23
270.8530966327843
 33
0.0
  0
LEADER
  5
31F
330
1F
100
AcDbEntity
  8
1
  6
Continuous
 62
     2
100
AcDbLeader
  3
Standard
 71
     0
 76
     3
 10
717.587756412607
 20
270.8530966327843
 30
0.0
 10
724.513819245181
 20
256.0413014485781
 30
0.0
 10
729.5138192451809
 20
256.0413014485781
 30
0.0
  0
SOLID
  5
320
330
1F
100
AcDbEntity
  8
1
 62
     2
100
AcDbTrace
 10
583.6419892736037
 20
298.8789636500269
 30
0.0
 11
584.3464091770251
 21
299.4731683501032
 31
0.0
 12
586.2509156225173
 22
296.500765810816
 32
0.0
 13
586.2509156225173
 23
296.500765810816
 33
0.0
  0
LEADER
  5
321
330
1F
100
AcDbEntity
  8
1
  6
Continuous
 62
     2
100
AcDbLeader
  3
Standard
 71
     0
 76
     3
 10
586.2509156225173
 20
296.500765810816
 30
0.0
 10
569.7213104898703
 20
316.0963409545915
 30
0.0
 10
564.7213104898703
 20
316.0963409545915
 30
0.0
  0
SOLID
  5
322
330
1F
100
AcDbEntity
  8
1
 62
     2
100
AcDbTrace
 10
560.8339494761451
 20
275.4884911741598
 30
0.0
 11
560.0682478006323
 21
276.0013143113582
 31
0.0
 12
562.3987378651261
 22
278.6529435682072
 32
0.0
 13
562.3987378651261
 23
278.6529435682072
 33
0.0
  0
LEADER
  5
323
330
1F
100
AcDbEntity
  8
1
  6
Continuous
 62
     2
100
AcDbLeader
  3
Standard
 71
     0
 76
     3
 10
562.3987378651261
 20
278.6529435682072
 30
0.0
 10
550.5894387045105
 20
261.0203535035022
 30
0.0
 10
545.5894387045105
 20
261.0203535035022
 30
0.0
  0
SOLID
  5
324
330
1F
100
AcDbEntity
  8
1
 62
     4
100
AcDbTrace
 10
569.2186614467944
 20
286.125765810816
 30
0.0
 11
567.3631513523823
 21
283.500765810816
 31
0.0
 12
571.0741715412065
 22
283.500765810816
 32
0.0
 13
571.0741715412065
 23
283.500765810816
 33
0.0
  0
LEADER
  5
325
330
1F
100
AcDbEntity
  8
1
  6
Continuous
 62
     4
100
AcDbLeader
  3
Standard
 71
     0
 76
     2
 10
569.2186614467944
 20
283.500765810816
 30
0.0
 10
569.2186614467944
 20
296.9956773177056
 30
0.0
  0
SOLID
  5
326
330
1F
100
AcDbEntity
  8
1
 62
     4
100
AcDbTrace
 10
529.9716721023655
 20
295.4894538885297
 30
0.0
 11
530.8932395854773
 21
295.4894538885297
 31
0.0
 12
530.4324558439214
 22
291.9894538885297
 32
0.0
 13
530.4324558439214
 23
291.9894538885297
 33
0.0
  0
LEADER
  5
327
330
1F
100
AcDbEntity
  8
1
  6
Continuous
 62
     4
100
AcDbLeader
  3
Standard
 71
     0
 76
     2
 10
530.4324558439214
 20
291.9894538885297
 30
0.0
 10
530.4324558439214
 20
334.9757757646855
 30
0.0
  0
SOLID
  5
328
330
1F
100
AcDbEntity
  8
1
 62
     2
100
AcDbTrace
 10
609.4340658831586
 20
348.1103526273022
 30
0.0
 11
610.2793610556964
 21
348.4774530184941
 31
0.0
 12
611.2509156225173
 22
345.0835756812629
 32
0.0
 13
611.2509156225173
 23
345.0835756812629
 33
0.0
  0
LEADER
  5
329
330
1F
100
AcDbEntity
  8
1
  6
Continuous
 62
     2
100
AcDbLeader
  3
Standard
 71
     0
 76
     3
 10
611.2509156225173
 20
345.0835756812629
 30
0.0
 10
601.3419726230707
 20
367.9001726758565
 30
0.0
 10
596.3419726230707
 20
367.9001726758565
 30
0.0
  0
SOLID
  5
32A
330
1F
100
AcDbEntity
  8
1
 62
     2
100
AcDbTrace
 10
458.0984003609029
 20
301.9626152692197
 30
0.0
 11
457.2471017812712
 21
301.6096600960801
 31
0.0
 12
456.3322707170956
 22
305.0192650263471
 32
0.0
 13
456.3322707170956
 23
305.0192650263471
 33
0.0
  0
LEADER
  5
32B
330
1F
100
AcDbEntity
  8
1
  6
Continuous
 62
     2
100
AcDbLeader
  3
Standard
 71
     0
 76
     2
 10
456.3322707170956
 20
305.0192650263471
 30
0.0
 10
457.0989133102954
 20
303.1701867287525
 30
0.0
  0
DIMENSION
  5
339
330
1F
100
AcDbEntity
  8
1
100
AcDbDimension
  2
*D1
 10
543.6303812689351
 20
283.500765810816
 30
0.0
 11
538.5678812689351
 21
281.000765810816
 31
0.0
 70
    32
  1
<>
 71
     5
 42
-1.0
 53
90.0
  3
ME10_DIM_10
100
AcDbAlignedDimension
 13
562.5509156225173
 23
278.500765810816
 33
0.0
 14
562.5509156225173
 24
283.500765810816
 34
0.0
 50
90.0
100
AcDbRotatedDimension
  0
DIMENSION
  5
345
330
1F
100
AcDbEntity
  8
1
100
AcDbDimension
  2
*D2
 10
424.037756412607
 20
302.000765810816
 30
0.0
 11
420.287756412607
 21
281.000765810816
 31
0.0
 70
    32
  1
42
 71
     5
 42
-1.0
 53
90.0
  3
ME10_DIM_11
100
AcDbAlignedDimension
 13
450.9580466958511
 23
260.000765810816
 33
0.0
 14
450.9580466958511
 24
302.000765810816
 34
0.0
 50
90.0
100
AcDbRotatedDimension
  0
DIMENSION
  5
350
330
1F
100
AcDbEntity
  8
1
100
AcDbDimension
  2
*D3
 10
434.037756412607
 20
296.500765810816
 30
0.0
 11
430.287756412607
 21
281.000765810816
 31
0.0
 70
    33
  1
<>
 71
     5
 42
-1.0
 53
90.0
  3
ME10_DIM_12
100
AcDbAlignedDimension
 13
448.387756412607
 23
265.500765810816
 33
0.0
 14
448.387756412607
 24
296.500765810816
 34
0.0
  0
DIMENSION
  5
35B
330
1F
100
AcDbEntity
  8
1
100
AcDbDimension
  2
*D4
 10
450.787756412607
 20
240.9493562092861
 30
0.0
 11
466.287756412607
 21
244.6993562092861
 31
0.0
 70
    32
  1
<>
 71
     5
 42
-1.0
 53
0.00013888888889
  3
ME10_DIM_13
100
AcDbAlignedDimension
 13
481.787756412607
 23
263.100765810816
 33
0.0
 14
450.787756412607
 24
263.100765810816
 34
0.0
100
AcDbRotatedDimension
  0
DIMENSION
  5
366
330
1F
100
AcDbEntity
  8
1
100
AcDbDimension
  2
*D5
 10
445.287756412607
 20
230.9962357183884
 30
0.0
 11
466.287756412607
 21
234.7462357183884
 31
0.0
 70
    32
  1
<>
 71
     5
 42
-1.0
 53
0.00013888888889
  3
ME10_DIM_14
100
AcDbAlignedDimension
 13
487.287756412607
 23
265.6710560940601
 33
0.0
 14
445.287756412607
 24
265.6710560940601
 34
0.0
100
AcDbRotatedDimension
  0
DIMENSION
  5
371
330
1F
100
AcDbEntity
  8
1
100
AcDbDimension
  2
*D6
 10
586.2509156225173
 20
231.250765810816
 30
0.0
 11
603.0009156225173
 21
235.000765810816
 31
0.0
 70
    32
  1
34
 71
     5
 42
-1.0
 53
0.00013888888889
  3
ME10_DIM_15
100
AcDbAlignedDimension
 13
619.7509156225173
 23
260.500765810816
 33
0.0
 14
586.2509156225173
 24
260.500765810816
 34
0.0
100
AcDbRotatedDimension
  0
DIMENSION
  5
37E
330
1F
100
AcDbEntity
  8
1
100
AcDbDimension
  2
*D7
 10
586.2509156225173
 20
311.5983111085997
 30
0.0
 11
599.1312294537327
 21
315.3483111085997
 31
0.0
 70
    32
  1
4-4.5MIN.
 71
     5
 42
-1.0
 53
0.00013888888889
  3
ME10_DIM_16
100
AcDbAlignedDimension
 13
590.7509156225173
 23
297.500765810816
 33
0.0
 14
586.2509156225173
 24
301.500765810816
 34
0.0
100
AcDbRotatedDimension
  0
DIMENSION
  5
38C
330
1F
100
AcDbEntity
  8
1
100
AcDbDimension
  2
*D8
 10
634.0009156225173
 20
355.255284023297
 30
0.0
 11
630.2509156225173
 21
368.888640879678
 31
0.0
 70
    32
  1
9.6MAX.
 71
     5
 42
-1.0
 53
90.0
  3
ME10_DIM_17
100
AcDbAlignedDimension
 13
615.2509156225173
 23
352.000765810816
 33
0.0
 14
614.6778393996963
 24
355.255284023297
 34
0.0
 50
90.0
100
AcDbRotatedDimension
  0
DIMENSION
  5
399
330
1F
100
AcDbEntity
  8
1
100
AcDbDimension
  2
*D10
 10
584.2509156225173
 20
241.250765810816
 30
0.0
 11
573.3866549173598
 21
245.000765810816
 31
0.0
 70
    32
  1
<>
 71
     5
 42
-1.0
 53
0.00013888888889
  3
ME10_DIM_18
100
AcDbAlignedDimension
 13
586.2509156225173
 23
260.500765810816
 33
0.0
 14
584.2509156225173
 24
270.2007658108161
 34
0.0
100
AcDbRotatedDimension
  0
DIMENSION
  5
3A4
330
1F
100
AcDbEntity
  8
1
100
AcDbDimension
  2
*D11
 10
562.2509156225174
 20
231.250765810816
 30
0.0
 11
574.2509156225174
 21
235.000765810816
 31
0.0
 70
    32
  1
<>
 71
     5
 42
-1.0
 53
0.00013888888889
  3
ME10_DIM_19
100
AcDbAlignedDimension
 13
586.2509156225173
 23
260.500765810816
 33
0.0
 14
562.2509156225174
 24
278.800765810816
 34
0.0
100
AcDbRotatedDimension
  0
DIMENSION
  5
3AF
330
1F
100
AcDbEntity
  8
1
100
AcDbDimension
  2
*D12
 10
530.4355927967542
 20
292.000765810816
 30
0.0
 11
525.3730927967542
 21
281.000765810816
 31
0.0
 70
    32
  1
<>
 71
     5
 42
-1.0
 53
90.0
  3
ME10_DIM_20
100
AcDbAlignedDimension
 13
584.4509156225173
 23
270.000765810816
 33
0.0
 14
584.4509156225173
 24
292.000765810816
 34
0.0
 50
90.0
100
AcDbRotatedDimension
  0
DIMENSION
  5
3BA
330
1F
100
AcDbEntity
  8
1
100
AcDbDimension
  2
*D13
 10
634.0009156225173
 20
302.000765810816
 30
0.0
 11
630.2509156225173
 21
327.000765810816
 31
0.0
 70
    32
  1
300MIN.
 71
     5
 42
-1.0
 53
90.0
  3
ME10_DIM_21
100
AcDbAlignedDimension
 13
615.2509156225173
 23
352.000765810816
 33
0.0
 14
619.2509156225173
 24
302.000765810816
 34
0.0
 50
90.0
100
AcDbRotatedDimension
  0
INSERT
  5
3C2
330
1F
100
AcDbEntity
  8
1
100
AcDbBlockReference
  2
*D14
 10
0.0
 20
0.0
 30
0.0
  0
ENDSEC
  0
SECTION
  2
OBJECTS
  0
DICTIONARY
  5
C
330
0
100
AcDbDictionary
281
     1
  3
ACAD_GROUP
350
D
  3
ACAD_LAYOUT
350
1A
  3
ACAD_MLINESTYLE
350
17
  3
ACAD_PLOTSETTINGS
350
19
  3
ACAD_PLOTSTYLENAME
350
E
  0
DICTIONARY
  5
D
102
{ACAD_REACTORS
330
C
102
}
330
C
100
AcDbDictionary
281
     1
  0
DICTIONARY
  5
1A
102
{ACAD_REACTORS
330
C
102
}
330
C
100
AcDbDictionary
281
     1
  3
Layout1
350
1E
  3
Layout2
350
26
  3
Model
350
22
  0
DICTIONARY
  5
17
102
{ACAD_REACTORS
330
C
102
}
330
C
100
AcDbDictionary
281
     1
  3
Standard
350
18
  0
DICTIONARY
  5
19
102
{ACAD_REACTORS
330
C
102
}
330
C
100
AcDbDictionary
281
     1
  0
ACDBDICTIONARYWDFLT
  5
E
102
{ACAD_REACTORS
330
C
102
}
330
C
100
AcDbDictionary
281
     1
  3
Normal
350
F
100
AcDbDictionaryWithDefault
340
F
  0
LAYOUT
  5
1E
102
{ACAD_REACTORS
330
1A
102
}
330
1A
100
AcDbPlotSettings
  1

  2

  4

  6

 40
0.0
 41
0.0
 42
0.0
 43
0.0
 44
0.0
 45
0.0
 46
0.0
 47
0.0
 48
0.0
 49
0.0
140
0.0
141
0.0
142
1.0
143
1.0
 70
   688
 72
     0
 73
     0
 74
     5
  7

 75
    16
147
1.0
148
0.0
149
0.0
100
AcDbLayout
  1
Layout1
 70
     1
 71
     1
 10
0.0
 20
0.0
 11
0.0
 21
0.0
 12
0.0
 22
0.0
 32
0.0
 14
0.0
 24
0.0
 34
0.0
 15
0.0
 25
0.0
 35
0.0
146
0.0
 13
0.0
 23
0.0
 33
0.0
 16
1.0
 26
0.0
 36
0.0
 17
0.0
 27
1.0
 37
0.0
 76
     0
330
1B
  0
LAYOUT
  5
26
102
{ACAD_REACTORS
330
1A
102
}
330
1A
100
AcDbPlotSettings
  1

  2

  4

  6

 40
0.0
 41
0.0
 42
0.0
 43
0.0
 44
0.0
 45
0.0
 46
0.0
 47
0.0
 48
0.0
 49
0.0
140
0.0
141
0.0
142
1.0
143
1.0
 70
   688
 72
     0
 73
     0
 74
     5
  7

 75
    16
147
1.0
148
0.0
149
0.0
100
AcDbLayout
  1
Layout2
 70
     1
 71
     2
 10
0.0
 20
0.0
 11
0.0
 21
0.0
 12
0.0
 22
0.0
 32
0.0
 14
0.0
 24
0.0
 34
0.0
 15
0.0
 25
0.0
 35
0.0
146
0.0
 13
0.0
 23
0.0
 33
0.0
 16
1.0
 26
0.0
 36
0.0
 17
0.0
 27
1.0
 37
0.0
 76
     0
330
23
  0
LAYOUT
  5
22
102
{ACAD_REACTORS
330
1A
102
}
330
1A
100
AcDbPlotSettings
  1

  2

  4

  6

 40
0.0
 41
0.0
 42
0.0
 43
0.0
 44
0.0
 45
0.0
 46
0.0
 47
0.0
 48
0.0
 49
0.0
140
0.0
141
0.0
142
1.0
143
1.0
 70
  1712
 72
     0
 73
     0
 74
     0
  7

 75
     0
147
1.0
148
0.0
149
0.0
100
AcDbLayout
  1
Model
 70
     1
 71
     0
 10
0.0
 20
0.0
 11
0.0
 21
0.0
 12
0.0
 22
0.0
 32
0.0
 14
418.537756412607
 24
229.4962357183884
 34
0.0
 15
756.3707916657963
 25
379.1128251810713
 35
0.0
146
0.0
 13
0.0
 23
0.0
 33
0.0
 16
1.0
 26
0.0
 36
0.0
 17
0.0
 27
1.0
 37
0.0
 76
     0
330
1F
  0
MLINESTYLE
  5
18
102
{ACAD_REACTORS
330
17
102
}
330
17
100
AcDbMlineStyle
  2
Standard
 70
     0
  3

 62
   256
 51
90.0
 52
90.0
 71
     2
 49
0.5
 62
   256
  6
BYLAYER
 49
-0.5
 62
   256
  6
BYLAYER
  0
ACDBPLACEHOLDER
  5
F
102
{ACAD_REACTORS
330
E
102
}
330
E
  0
ENDSEC
  0
EOF
