  0
SECTION
  2
HEADER
  9
$ACADVER
  1
AC1015
  9
$ACADMAINTVER
 70
     6
  9
$DWGCODEPAGE
  3
DOS932
  9
$INSBASE
 10
0.0
 20
0.0
 30
0.0
  9
$EXTMIN
 10
-103.5465792622296
 20
46.72155206033452
 30
0.0
  9
$EXTMAX
 10
210.7928514014755
 20
194.5836114305898
 30
0.0
  9
$LIMMIN
 10
0.0
 20
0.0
  9
$LIMMAX
 10
12.0
 20
9.0
  9
$ORTHOMODE
 70
     0
  9
$REGENMODE
 70
     1
  9
$FILLMODE
 70
     1
  9
$QTEXTMODE
 70
     0
  9
$MIRRTEXT
 70
     1
  9
$LTSCALE
 40
1.0
  9
$ATTMODE
 70
     1
  9
$TEXTSIZE
 40
0.2
  9
$TRACEWID
 40
0.05
  9
$TEXTSTYLE
  7
Standard
  9
$CLAYER
  8
0
  9
$CELTYPE
  6
ByLayer
  9
$CECOLOR
 62
   256
  9
$CELTSCALE
 40
1.0
  9
$DISPSILH
 70
     0
  9
$DIMSCALE
 40
1.0
  9
$DIMASZ
 40
0.18
  9
$DIMEXO
 40
0.0625
  9
$DIMDLI
 40
0.38
  9
$DIMRND
 40
0.0
  9
$DIMDLE
 40
0.0
  9
$DIMEXE
 40
0.18
  9
$DIMTP
 40
0.0
  9
$DIMTM
 40
0.0
  9
$DIMTXT
 40
0.18
  9
$DIMCEN
 40
0.09
  9
$DIMTSZ
 40
0.0
  9
$DIMTOL
 70
     0
  9
$DIMLIM
 70
     0
  9
$DIMTIH
 70
     1
  9
$DIMTOH
 70
     1
  9
$DIMSE1
 70
     0
  9
$DIMSE2
 70
     0
  9
$DIMTAD
 70
     0
  9
$DIMZIN
 70
     0
  9
$DIMBLK
  1

  9
$DIMASO
 70
     1
  9
$DIMSHO
 70
     1
  9
$DIMPOST
  1

  9
$DIMAPOST
  1

  9
$DIMALT
 70
     0
  9
$DIMALTD
 70
     2
  9
$DIMALTF
 40
25.4
  9
$DIMLFAC
 40
1.0
  9
$DIMTOFL
 70
     0
  9
$DIMTVP
 40
0.0
  9
$DIMTIX
 70
     0
  9
$DIMSOXD
 70
     0
  9
$DIMSAH
 70
     0
  9
$DIMBLK1
  1

  9
$DIMBLK2
  1

  9
$DIMSTYLE
  2
Standard
  9
$DIMCLRD
 70
     0
  9
$DIMCLRE
 70
     0
  9
$DIMCLRT
 70
     0
  9
$DIMTFAC
 40
1.0
  9
$DIMGAP
 40
0.09
  9
$DIMJUST
 70
     0
  9
$DIMSD1
 70
     0
  9
$DIMSD2
 70
     0
  9
$DIMTOLJ
 70
     1
  9
$DIMTZIN
 70
     0
  9
$DIMALTZ
 70
     0
  9
$DIMALTTZ
 70
     0
  9
$DIMUPT
 70
     0
  9
$DIMDEC
 70
     4
  9
$DIMTDEC
 70
     4
  9
$DIMALTU
 70
     2
  9
$DIMALTTD
 70
     2
  9
$DIMTXSTY
  7
Standard
  9
$DIMAUNIT
 70
     0
  9
$DIMADEC
 70
     0
  9
$DIMALTRND
 40
0.0
  9
$DIMAZIN
 70
     0
  9
$DIMDSEP
 70
    46
  9
$DIMATFIT
 70
     3
  9
$DIMFRAC
 70
     0
  9
$DIMLDRBLK
  1

  9
$DIMLUNIT
 70
     2
  9
$DIMLWD
 70
    -2
  9
$DIMLWE
 70
    -2
  9
$DIMTMOVE
 70
     0
  9
$LUNITS
 70
     2
  9
$LUPREC
 70
     4
  9
$SKETCHINC
 40
0.1
  9
$FILLETRAD
 40
0.5
  9
$AUNITS
 70
     0
  9
$AUPREC
 70
     0
  9
$MENU
  1
.
  9
$ELEVATION
 40
0.0
  9
$PELEVATION
 40
0.0
  9
$THICKNESS
 40
0.0
  9
$LIMCHECK
 70
     0
  9
$CHAMFERA
 40
0.5
  9
$CHAMFERB
 40
0.5
  9
$CHAMFERC
 40
1.0
  9
$CHAMFERD
 40
0.0
  9
$SKPOLY
 70
     0
  9
$TDCREATE
 40
2454823.545560255
  9
$TDUCREATE
 40
2454823.170560255
  9
$TDUPDATE
 40
2454823.545560266
  9
$TDUUPDATE
 40
2454823.170560266
  9
$TDINDWG
 40
0.0000000116
  9
$TDUSRTIMER
 40
0.0000000116
  9
$USRTIMER
 70
     1
  9
$ANGBASE
 50
0.0
  9
$ANGDIR
 70
     0
  9
$PDMODE
 70
     0
  9
$PDSIZE
 40
0.0
  9
$PLINEWID
 40
0.0
  9
$SPLFRAME
 70
     0
  9
$SPLINETYPE
 70
     6
  9
$SPLINESEGS
 70
     8
  9
$HANDSEED
  5
367
  9
$SURFTAB1
 70
     6
  9
$SURFTAB2
 70
     6
  9
$SURFTYPE
 70
     6
  9
$SURFU
 70
     6
  9
$SURFV
 70
     6
  9
$UCSBASE
  2

  9
$UCSNAME
  2

  9
$UCSORG
 10
0.0
 20
0.0
 30
0.0
  9
$UCSXDIR
 10
1.0
 20
0.0
 30
0.0
  9
$UCSYDIR
 10
0.0
 20
1.0
 30
0.0
  9
$UCSORTHOREF
  2

  9
$UCSORTHOVIEW
 70
     0
  9
$UCSORGTOP
 10
0.0
 20
0.0
 30
0.0
  9
$UCSORGBOTTOM
 10
0.0
 20
0.0
 30
0.0
  9
$UCSORGLEFT
 10
0.0
 20
0.0
 30
0.0
  9
$UCSORGRIGHT
 10
0.0
 20
0.0
 30
0.0
  9
$UCSORGFRONT
 10
0.0
 20
0.0
 30
0.0
  9
$UCSORGBACK
 10
0.0
 20
0.0
 30
0.0
  9
$PUCSBASE
  2

  9
$PUCSNAME
  2

  9
$PUCSORG
 10
0.0
 20
0.0
 30
0.0
  9
$PUCSXDIR
 10
1.0
 20
0.0
 30
0.0
  9
$PUCSYDIR
 10
0.0
 20
1.0
 30
0.0
  9
$PUCSORTHOREF
  2

  9
$PUCSORTHOVIEW
 70
     0
  9
$PUCSORGTOP
 10
0.0
 20
0.0
 30
0.0
  9
$PUCSORGBOTTOM
 10
0.0
 20
0.0
 30
0.0
  9
$PUCSORGLEFT
 10
0.0
 20
0.0
 30
0.0
  9
$PUCSORGRIGHT
 10
0.0
 20
0.0
 30
0.0
  9
$PUCSORGFRONT
 10
0.0
 20
0.0
 30
0.0
  9
$PUCSORGBACK
 10
0.0
 20
0.0
 30
0.0
  9
$USERI1
 70
     0
  9
$USERI2
 70
     0
  9
$USERI3
 70
     0
  9
$USERI4
 70
     0
  9
$USERI5
 70
     0
  9
$USERR1
 40
14.5
  9
$USERR2
 40
0.0
  9
$USERR3
 40
0.0
  9
$USERR4
 40
0.0
  9
$USERR5
 40
0.0
  9
$WORLDVIEW
 70
     1
  9
$SHADEDGE
 70
     3
  9
$SHADEDIF
 70
    70
  9
$TILEMODE
 70
     1
  9
$MAXACTVP
 70
    64
  9
$PINSBASE
 10
0.0
 20
0.0
 30
0.0
  9
$PLIMCHECK
 70
     0
  9
$PEXTMIN
 10
1.00000000000000E+20
 20
1.00000000000000E+20
 30
1.00000000000000E+20
  9
$PEXTMAX
 10
-1.00000000000000E+20
 20
-1.00000000000000E+20
 30
-1.00000000000000E+20
  9
$PLIMMIN
 10
0.0
 20
0.0
  9
$PLIMMAX
 10
12.0
 20
9.0
  9
$UNITMODE
 70
     0
  9
$VISRETAIN
 70
     1
  9
$PLINEGEN
 70
     0
  9
$PSLTSCALE
 70
     1
  9
$TREEDEPTH
 70
  3020
  9
$CMLSTYLE
  2
Standard
  9
$CMLJUST
 70
     0
  9
$CMLSCALE
 40
1.0
  9
$PROXYGRAPHICS
 70
     1
  9
$MEASUREMENT
 70
     1
  9
$CELWEIGHT
370
    -1
  9
$ENDCAPS
280
     0
  9
$JOINSTYLE
280
     0
  9
$LWDISPLAY
290
     0
  9
$INSUNITS
 70
     1
  9
$HYPERLINKBASE
  1

  9
$STYLESHEET
  1

  9
$XEDIT
290
     1
  9
$CEPSNTYPE
380
     0
  9
$PSTYLEMODE
290
     1
  9
$FINGERPRINTGUID
  2
{C55494CE-08F5-4756-A713-1A9449B52D6E}
  9
$VERSIONGUID
  2
{FAEB1C32-E019-11D5-929B-00C0DF256EC4}
  9
$EXTNAMES
290
     1
  9
$PSVPSCALE
 40
0.0
  9
$OLESTARTUP
290
     0
  0
ENDSEC
  0
SECTION
  2
CLASSES
  0
CLASS
  1
ACDBDICTIONARYWDFLT
  2
AcDbDictionaryWithDefault
  3
ObjectDBX Classes
 90
        0
280
     0
281
     0
  0
CLASS
  1

  2
exOdDbCircle
  3

 90
        0
280
     0
281
     1
  0
CLASS
  1
ACDBPLACEHOLDER
  2
AcDbPlaceHolder
  3
ObjectDBX Classes
 90
        0
280
     0
281
     0
  0
CLASS
  1
LAYOUT
  2
AcDbLayout
  3
ObjectDBX Classes
 90
        0
280
     0
281
     0
  0
ENDSEC
  0
SECTION
  2
TABLES
  0
TABLE
  2
VPORT
  5
8
330
0
100
AcDbSymbolTable
 70
     1
  0
VPORT
  5
29
330
8
100
AcDbSymbolTableRecord
100
AcDbViewportTableRecord
  2
*Active
 70
     0
 10
0.0
 20
0.0
 11
1.0
 21
1.0
 12
53.62313606962295
 22
120.6525817454622
 13
0.0
 23
0.0
 14
0.5
 24
0.5
 15
0.5
 25
0.5
 16
0.0
 26
0.0
 36
1.0
 17
0.0
 27
0.0
 37
0.0
 40
215.7471746950891
 41
1.60267857142857
 42
50.0
 43
0.0
 44
0.0
 50
0.0
 51
0.0
 71
     0
 72
   100
 73
     1
 74
     3
 75
     0
 76
     0
 77
     0
 78
     0
281
     0
 65
     1
110
0.0
120
0.0
130
0.0
111
1.0
121
0.0
131
0.0
112
0.0
122
1.0
132
0.0
 79
     0
146
0.0
  0
ENDTAB
  0
TABLE
  2
LTYPE
  5
5
330
0
100
AcDbSymbolTable
 70
     8
  0
LTYPE
  5
14
330
5
100
AcDbSymbolTableRecord
100
AcDbLinetypeTableRecord
  2
ByBlock
 70
     0
  3

 72
    65
 73
     0
 40
0.0
  0
LTYPE
  5
15
330
5
100
AcDbSymbolTableRecord
100
AcDbLinetypeTableRecord
  2
ByLayer
 70
     0
  3

 72
    65
 73
     0
 40
0.0
  0
LTYPE
  5
16
330
5
100
AcDbSymbolTableRecord
100
AcDbLinetypeTableRecord
  2
Continuous
 70
     0
  3
Solid line
 72
    65
 73
     0
 40
0.0
  0
LTYPE
  5
2A
330
5
100
AcDbSymbolTableRecord
100
AcDbLinetypeTableRecord
  2
DASHED
 70
     0
  3
Dashed
 72
    65
 73
     2
 40
15.0
 49
7.0
 74
     0
 49
-8.0
 74
     0
  0
LTYPE
  5
2B
330
5
100
AcDbSymbolTableRecord
100
AcDbLinetypeTableRecord
  2
DOTTED
 70
     0
  3
Dotted
 72
    65
 73
     2
 40
1.0
 49
0.0
 74
     0
 49
-1.0
 74
     0
  0
LTYPE
  5
2C
330
5
100
AcDbSymbolTableRecord
100
AcDbLinetypeTableRecord
  2
DOT_CENTER
 70
     0
  3
Dot_Center
 72
    65
 73
     4
 40
14.0
 49
12.0
 74
     0
 49
-1.0
 74
     0
 49
0.0
 74
     0
 49
-1.0
 74
     0
  0
LTYPE
  5
2D
330
5
100
AcDbSymbolTableRecord
100
AcDbLinetypeTableRecord
  2
LONG_DASHED
 70
     0
  3
Long_Dashed
 72
    65
 73
     2
 40
15.0
 49
10.0
 74
     0
 49
-5.0
 74
     0
  0
LTYPE
  5
2E
330
5
100
AcDbSymbolTableRecord
100
AcDbLinetypeTableRecord
  2
DASH_CENTER
 70
     0
  3
Dash_Center
 72
    65
 73
     4
 40
14.0
 49
11.0
 74
     0
 49
-1.0
 74
     0
 49
1.0
 74
     0
 49
-1.0
 74
     0
  0
LTYPE
  5
2F
330
5
100
AcDbSymbolTableRecord
100
AcDbLinetypeTableRecord
  2
PHANTOM
 70
     0
  3
Phantom
 72
    65
 73
     6
 40
13.0
 49
10.0
 74
     0
 49
-1.0
 74
     0
 49
0.0
 74
     0
 49
-1.0
 74
     0
 49
0.0
 74
     0
 49
-1.0
 74
     0
  0
LTYPE
  5
30
330
5
100
AcDbSymbolTableRecord
100
AcDbLinetypeTableRecord
  2
CENTER_DASH_DASH
 70
     0
  3
Center_Dash_Dash
 72
    65
 73
     6
 40
14.0
 49
9.0
 74
     0
 49
-1.0
 74
     0
 49
1.0
 74
     0
 49
-1.0
 74
     0
 49
1.0
 74
     0
 49
-1.0
 74
     0
  0
ENDTAB
  0
TABLE
  2
LAYER
  5
2
330
0
100
AcDbSymbolTable
 70
     2
  0
LAYER
  5
10
330
2
100
AcDbSymbolTableRecord
100
AcDbLayerTableRecord
  2
0
 70
     0
 62
     7
  6
Continuous
370
    -3
390
F
  0
LAYER
  5
31
330
2
100
AcDbSymbolTableRecord
100
AcDbLayerTableRecord
  2
1
 70
     0
 62
     7
  6
Continuous
370
    -3
390
F
  0
ENDTAB
  0
TABLE
  2
STYLE
  5
3
330
0
100
AcDbSymbolTable
 70
     4
  0
STYLE
  5
11
330
3
100
AcDbSymbolTableRecord
100
AcDbTextStyleTableRecord
  2
Standard
 70
     0
 40
0.0
 41
1.0
 50
0.0
 71
     0
 42
0.2
  3
txt
  4

  0
STYLE
  5
2DC
330
3
100
AcDbSymbolTableRecord
100
AcDbTextStyleTableRecord
  2
CONVERTER_11
 70
     0
 40
0.0
 41
0.95
 50
0.0
 71
     0
 42
0.2
  3
txt.shx
  4

  0
STYLE
  5
2E8
330
3
100
AcDbSymbolTableRecord
100
AcDbTextStyleTableRecord
  2
CONVERTER_12
 70
     0
 40
0.0
 41
0.89
 50
0.0
 71
     0
 42
0.2
  3
msmincho.ttc
  4

1001
ACAD
1000
MS Mincho
1071
    32785
  0
STYLE
  5
34B
330
3
100
AcDbSymbolTableRecord
100
AcDbTextStyleTableRecord
  2
CONVERTER_13
 70
     0
 40
0.0
 41
0.76
 50
0.0
 71
     0
 42
0.2
  3
txt.shx
  4

  0
ENDTAB
  0
TABLE
  2
VIEW
  5
6
330
0
100
AcDbSymbolTable
 70
     0
  0
ENDTAB
  0
TABLE
  2
UCS
  5
7
330
0
100
AcDbSymbolTable
 70
     0
  0
ENDTAB
  0
TABLE
  2
APPID
  5
9
330
0
100
AcDbSymbolTable
 70
     1
  0
APPID
  5
12
330
9
100
AcDbSymbolTableRecord
100
AcDbRegAppTableRecord
  2
ACAD
 70
     0
  0
ENDTAB
  0
TABLE
  2
DIMSTYLE
  5
A
330
0
100
AcDbSymbolTable
 70
    13
100
AcDbDimStyleTable
  0
DIMSTYLE
105
27
330
A
100
AcDbSymbolTableRecord
100
AcDbDimStyleTableRecord
  2
Standard
 70
     0
340
11
  0
DIMSTYLE
105
2E0
102
{ACAD_REACTORS
330
2E1
102
}
330
A
100
AcDbSymbolTableRecord
100
AcDbDimStyleTableRecord
  2
ME10_DIM_10
 70
     0
 41
3.5
 42
1.0
 44
1.5
 73
     0
 74
     0
 77
     1
 78
     8
140
3.5
147
2.0
172
     1
173
     1
176
     2
177
     2
178
     3
340
2DC
  0
DIMSTYLE
105
2EC
102
{ACAD_REACTORS
330
2ED
102
}
330
A
100
AcDbSymbolTableRecord
100
AcDbDimStyleTableRecord
  2
ME10_DIM_11
 70
     0
  3
φ<>
 41
3.5
 42
1.0
 44
1.5
 48
0.025
 71
     1
 73
     0
 74
     0
 77
     1
 78
     8
140
3.5
146
0.7
147
2.0
172
     1
173
     1
176
     2
177
     2
178
     2
272
     0
340
2E8
  0
DIMSTYLE
105
2F7
102
{ACAD_REACTORS
330
2F8
102
}
330
A
100
AcDbSymbolTableRecord
100
AcDbDimStyleTableRecord
  2
ME10_DIM_12
 70
     0
 41
3.5
 42
1.0
 44
1.5
 47
0.25
 48
0.25
 71
     1
 73
     0
 74
     0
 77
     1
 78
     8
140
3.5
146
0.7
147
2.0
172
     1
173
     1
176
     2
177
     2
178
     2
272
     2
340
2DC
  0
DIMSTYLE
105
302
102
{ACAD_REACTORS
330
303
102
}
330
A
100
AcDbSymbolTableRecord
100
AcDbDimStyleTableRecord
  2
ME10_DIM_13
 70
     0
 41
3.5
 42
1.0
 44
1.5
 47
0.25
 48
0.25
 71
     1
 73
     0
 74
     0
 77
     1
 78
     8
140
3.5
146
0.7
147
2.0
172
     1
173
     1
176
     2
177
     2
178
     2
272
     2
340
2DC
  0
DIMSTYLE
105
30F
102
{ACAD_REACTORS
330
310
102
}
330
A
100
AcDbSymbolTableRecord
100
AcDbDimStyleTableRecord
  2
ME10_DIM_14
 70
     0
 41
3.5
 42
1.0
 44
1.5
 48
1.0
 71
     1
 73
     0
 74
     0
 77
     1
 78
     8
140
3.5
146
0.7
147
2.0
172
     1
173
     1
176
     2
177
     2
178
     2
272
     0
340
2DC
  0
DIMSTYLE
105
31C
102
{ACAD_REACTORS
330
31D
102
}
330
A
100
AcDbSymbolTableRecord
100
AcDbDimStyleTableRecord
  2
ME10_DIM_15
 70
     0
  3
φ<>
 41
3.5
 42
1.0
 44
1.5
 48
0.012
 71
     1
 73
     0
 74
     0
 77
     1
 78
     8
140
3.5
146
0.7
147
2.0
172
     1
173
     1
176
     2
177
     2
178
     2
272
     0
340
2E8
  0
DIMSTYLE
105
329
102
{ACAD_REACTORS
330
32A
102
}
330
A
100
AcDbSymbolTableRecord
100
AcDbDimStyleTableRecord
  2
ME10_DIM_16
 70
     0
 41
3.5
 42
1.0
 44
1.5
 47
0.3
 48
0.3
 71
     1
 73
     0
 74
     0
 77
     1
 78
     8
140
3.5
146
0.7
147
2.0
172
     1
173
     1
176
     2
177
     2
178
     2
272
     1
340
2DC
  0
DIMSTYLE
105
335
102
{ACAD_REACTORS
330
336
102
}
330
A
100
AcDbSymbolTableRecord
100
AcDbDimStyleTableRecord
  2
ME10_DIM_17
 70
     0
 41
3.5
 42
1.0
 44
1.5
 47
0.5
 48
0.5
 71
     1
 73
     0
 74
     0
 77
     1
 78
     8
140
3.5
146
0.7
147
2.0
172
     1
173
     1
176
     2
177
     2
178
     2
272
     1
340
2DC
  0
DIMSTYLE
105
343
102
{ACAD_REACTORS
330
344
102
}
330
A
100
AcDbSymbolTableRecord
100
AcDbDimStyleTableRecord
  2
ME10_DIM_18
 70
     0
 41
3.5
 42
1.0
 44
1.5
 73
     0
 74
     0
 77
     1
 78
     8
140
3.5
147
2.0
172
     1
173
     1
176
     2
177
     2
178
     2
340
2DC
343
340
  0
DIMSTYLE
105
34F
102
{ACAD_REACTORS
330
350
102
}
330
A
100
AcDbSymbolTableRecord
100
AcDbDimStyleTableRecord
  2
ME10_DIM_19
 70
     0
 41
3.5
 42
1.0
 44
1.5
 73
     0
 74
     0
 77
     1
 78
     8
140
3.5
147
2.0
172
     1
173
     1
176
     2
177
     2
178
     3
340
34B
  0
DIMSTYLE
105
35A
102
{ACAD_REACTORS
330
35B
102
}
330
A
100
AcDbSymbolTableRecord
100
AcDbDimStyleTableRecord
  2
ME10_DIM_20
 70
     0
 41
3.5
 42
1.0
 44
1.5
 47
0.5
 48
0.5
 71
     1
 73
     0
 74
     0
 77
     1
 78
     8
140
3.5
146
0.7
147
2.0
172
     1
173
     1
176
     2
177
     2
178
     2
272
     1
340
2DC
  0
DIMSTYLE
105
365
102
{ACAD_REACTORS
330
366
102
}
330
A
100
AcDbSymbolTableRecord
100
AcDbDimStyleTableRecord
  2
ME10_DIM_21
 70
     0
 41
3.5
 42
1.0
 44
1.5
 47
0.5
 48
0.5
 71
     1
 73
     0
 74
     0
 77
     1
 78
     8
140
3.5
146
0.7
147
2.0
172
     1
173
     1
176
     2
177
     2
178
     2
272
     1
340
2DC
  0
ENDTAB
  0
TABLE
  2
BLOCK_RECORD
  5
1
330
0
100
AcDbSymbolTable
 70
    14
  0
BLOCK_RECORD
  5
1F
330
1
100
AcDbSymbolTableRecord
100
AcDbBlockTableRecord
  2
*Model_Space
340
22
  0
BLOCK_RECORD
  5
1B
330
1
100
AcDbSymbolTableRecord
100
AcDbBlockTableRecord
  2
*Paper_Space
340
1E
  0
BLOCK_RECORD
  5
23
330
1
100
AcDbSymbolTableRecord
100
AcDbBlockTableRecord
  2
*Paper_Space0
340
26
  0
BLOCK_RECORD
  5
2D6
330
1
100
AcDbSymbolTableRecord
100
AcDbBlockTableRecord
  2
*D1
340
0
  0
BLOCK_RECORD
  5
2E2
330
1
100
AcDbSymbolTableRecord
100
AcDbBlockTableRecord
  2
*D2
340
0
  0
BLOCK_RECORD
  5
2EE
330
1
100
AcDbSymbolTableRecord
100
AcDbBlockTableRecord
  2
*D3
340
0
  0
BLOCK_RECORD
  5
2F9
330
1
100
AcDbSymbolTableRecord
100
AcDbBlockTableRecord
  2
*D4
340
0
  0
BLOCK_RECORD
  5
304
330
1
100
AcDbSymbolTableRecord
100
AcDbBlockTableRecord
  2
*D5
340
0
  0
BLOCK_RECORD
  5
311
330
1
100
AcDbSymbolTableRecord
100
AcDbBlockTableRecord
  2
*D6
340
0
  0
BLOCK_RECORD
  5
31E
330
1
100
AcDbSymbolTableRecord
100
AcDbBlockTableRecord
  2
*D7
340
0
  0
BLOCK_RECORD
  5
32B
330
1
100
AcDbSymbolTableRecord
100
AcDbBlockTableRecord
  2
*D8
340
0
  0
BLOCK_RECORD
  5
337
330
1
100
AcDbSymbolTableRecord
100
AcDbBlockTableRecord
  2
*D9
340
0
  0
BLOCK_RECORD
  5
340
330
1
100
AcDbSymbolTableRecord
100
AcDbBlockTableRecord
  2
_None
340
0
  0
BLOCK_RECORD
  5
345
330
1
100
AcDbSymbolTableRecord
100
AcDbBlockTableRecord
  2
*D11
340
0
  0
BLOCK_RECORD
  5
351
330
1
100
AcDbSymbolTableRecord
100
AcDbBlockTableRecord
  2
*D12
340
0
  0
BLOCK_RECORD
  5
35C
330
1
100
AcDbSymbolTableRecord
100
AcDbBlockTableRecord
  2
*D13
340
0
  0
ENDTAB
  0
ENDSEC
  0
SECTION
  2
BLOCKS
  0
BLOCK
  5
20
330
1F
100
AcDbEntity
  8
0
100
AcDbBlockBegin
  2
*Model_Space
 70
     0
 71
     0
 10
0.0
 20
0.0
 30
0.0
  3
*Model_Space
  1

  0
ENDBLK
  5
21
330
1F
100
AcDbEntity
  8
0
100
AcDbBlockEnd
  0
BLOCK
  5
1C
330
1B
100
AcDbEntity
 67
     1
  8
0
100
AcDbBlockBegin
  2
*Paper_Space
 70
     0
 71
     0
 10
0.0
 20
0.0
 30
0.0
  3
*Paper_Space
  1

  0
ENDBLK
  5
1D
330
1B
100
AcDbEntity
 67
     1
  8
0
100
AcDbBlockEnd
  0
BLOCK
  5
24
330
23
100
AcDbEntity
  8
0
100
AcDbBlockBegin
  2
*Paper_Space0
 70
     0
 71
     0
 10
0.0
 20
0.0
 30
0.0
  3
*Paper_Space0
  1

  0
ENDBLK
  5
25
330
23
100
AcDbEntity
  8
0
100
AcDbBlockEnd
  0
BLOCK
  5
2DE
330
2D6
100
AcDbEntity
  8
0
100
AcDbBlockBegin
  2
*D1
 70
     1
 71
     0
 10
0.0
 20
0.0
 30
0.0
  3
*D1
  1

  0
LINE
  5
2D7
330
2D6
100
AcDbEntity
  8
1
  6
Continuous
 62
     2
100
AcDbLine
 10
90.76657994768068
 20
115.9715520603345
 30
0.0
 11
90.76657994768068
 21
165.9715520603345
 31
0.0
  0
LINE
  5
2D8
330
2D6
100
AcDbEntity
  8
1
  6
Continuous
 62
     2
100
AcDbLine
 10
73.01657994768068
 20
165.9715520603345
 30
0.0
 11
92.26657994768068
 21
165.9715520603345
 31
0.0
  0
LINE
  5
2D9
330
2D6
100
AcDbEntity
  8
1
  6
Continuous
 62
     2
100
AcDbLine
 10
75.01657994768068
 20
115.9715520603345
 30
0.0
 11
92.26657994768068
 21
115.9715520603345
 31
0.0
  0
SOLID
  5
2DA
330
2D6
100
AcDbEntity
  8
1
 62
     2
100
AcDbTrace
 10
90.3057962061248
 20
119.4715520603345
 30
0.0
 11
91.22736368923657
 21
119.4715520603345
 31
0.0
 12
90.76657994768068
 22
115.9715520603345
 32
0.0
 13
90.76657994768068
 23
115.9715520603345
 33
0.0
  0
SOLID
  5
2DB
330
2D6
100
AcDbEntity
  8
1
 62
     2
100
AcDbTrace
 10
91.22736368923657
 20
162.4715520603345
 30
0.0
 11
90.3057962061248
 21
162.4715520603345
 31
0.0
 12
90.76657994768068
 22
165.9715520603345
 32
0.0
 13
90.76657994768068
 23
165.9715520603345
 33
0.0
  0
MTEXT
  5
2DD
330
2D6
100
AcDbEntity
  8
1
 62
     3
100
AcDbMText
 10
88.76657994768068
 20
131.7068461779816
 30
0.0
 40
3.5
 41
0.0
 71
     7
 72
     1
  1
300MIN.
  7
CONVERTER_11
 11
0.0
 21
1.0
 31
0.0
 73
     1
 44
0.60024009603842
  0
ENDBLK
  5
2DF
330
2D6
100
AcDbEntity
  8
0
100
AcDbBlockEnd
  0
BLOCK
  5
2EA
330
2E2
100
AcDbEntity
  8
0
100
AcDbBlockBegin
  2
*D2
 70
     1
 71
     0
 10
0.0
 20
0.0
 30
0.0
  3
*D2
  1

  0
LINE
  5
2E3
330
2E2
100
AcDbEntity
  8
1
  6
Continuous
 62
     2
100
AcDbLine
 10
12.27907994768069
 20
107.4715520603345
 30
0.0
 11
12.27907994768069
 21
85.47155206033452
 31
0.0
  0
LINE
  5
2E4
330
2E2
100
AcDbEntity
  8
1
  6
Continuous
 62
     2
100
AcDbLine
 10
51.41657994768067
 20
85.47155206033452
 30
0.0
 11
10.77907994768069
 21
85.47155206033452
 31
0.0
  0
LINE
  5
2E5
330
2E2
100
AcDbEntity
  8
1
  6
Continuous
 62
     2
100
AcDbLine
 10
51.41657994768067
 20
107.4715520603345
 30
0.0
 11
10.77907994768069
 21
107.4715520603345
 31
0.0
  0
SOLID
  5
2E6
330
2E2
100
AcDbEntity
  8
1
 62
     2
100
AcDbTrace
 10
12.73986368923658
 20
103.9715520603345
 30
0.0
 11
11.81829620612481
 21
103.9715520603345
 31
0.0
 12
12.27907994768069
 22
107.4715520603345
 32
0.0
 13
12.27907994768069
 23
107.4715520603345
 33
0.0
  0
SOLID
  5
2E7
330
2E2
100
AcDbEntity
  8
1
 62
     2
100
AcDbTrace
 10
11.81829620612481
 20
88.97155206033452
 30
0.0
 11
12.73986368923658
 21
88.97155206033452
 31
0.0
 12
12.27907994768069
 22
85.47155206033452
 32
0.0
 13
12.27907994768069
 23
85.47155206033452
 33
0.0
  0
MTEXT
  5
2E9
330
2E2
100
AcDbEntity
  8
1
 62
     2
100
AcDbMText
 10
8.96657994768069
 20
83.34151938059595
 30
0.0
 40
3.5
 41
0.0
 71
     7
 72
     1
  1
\C2;φ\C2;\C2;22\C2;\H2.45;\S 0^ -0.025;
  7
CONVERTER_12
 11
0.0
 21
1.0
 31
0.0
 73
     1
 44
0.60024009603842
  0
ENDBLK
  5
2EB
330
2E2
100
AcDbEntity
  8
0
100
AcDbBlockEnd
  0
BLOCK
  5
2F5
330
2EE
100
AcDbEntity
  8
0
100
AcDbBlockBegin
  2
*D3
 70
     1
 71
     0
 10
0.0
 20
0.0
 30
0.0
  3
*D3
  1

  0
LINE
  5
2EF
330
2EE
100
AcDbEntity
  8
1
  6
Continuous
 62
     2
100
AcDbLine
 10
-39.2965792622296
 20
111.9715520603345
 30
0.0
 11
-39.2965792622296
 21
80.97155206033452
 31
0.0
  0
LINE
  5
2F0
330
2EE
100
AcDbEntity
  8
1
  6
Continuous
 62
     2
100
AcDbLine
 10
-58.39657926222959
 20
80.97155206033452
 30
0.0
 11
-37.7965792622296
 21
80.97155206033452
 31
0.0
  0
LINE
  5
2F1
330
2EE
100
AcDbEntity
  8
1
  6
Continuous
 62
     2
100
AcDbLine
 10
-58.39657926222959
 20
111.9715520603345
 30
0.0
 11
-37.7965792622296
 21
111.9715520603345
 31
0.0
  0
SOLID
  5
2F2
330
2EE
100
AcDbEntity
  8
1
 62
     2
100
AcDbTrace
 10
-38.83579552067371
 20
108.4715520603345
 30
0.0
 11
-39.75736300378549
 21
108.4715520603345
 31
0.0
 12
-39.2965792622296
 22
111.9715520603345
 32
0.0
 13
-39.2965792622296
 23
111.9715520603345
 33
0.0
  0
SOLID
  5
2F3
330
2EE
100
AcDbEntity
  8
1
 62
     2
100
AcDbTrace
 10
-39.75736300378549
 20
84.47155206033452
 30
0.0
 11
-38.83579552067371
 21
84.47155206033452
 31
0.0
 12
-39.2965792622296
 22
80.97155206033452
 32
0.0
 13
-39.2965792622296
 23
80.97155206033452
 33
0.0
  0
MTEXT
  5
2F4
330
2EE
100
AcDbEntity
  8
1
 62
     2
100
AcDbMText
 10
-41.2965792622296
 20
88.79214029562864
 30
0.0
 40
3.5
 41
0.0
 71
     7
 72
     1
  1
\C2;31\C2;\H2.45;{\Fgdt;`}0.25
  7
CONVERTER_11
 11
0.0
 21
1.0
 31
0.0
 73
     1
 44
0.60024009603842
  0
ENDBLK
  5
2F6
330
2EE
100
AcDbEntity
  8
0
100
AcDbBlockEnd
  0
BLOCK
  5
300
330
2F9
100
AcDbEntity
  8
0
100
AcDbBlockBegin
  2
*D4
 70
     1
 71
     0
 10
0.0
 20
0.0
 30
0.0
  3
*D4
  1

  0
LINE
  5
2FA
330
2F9
100
AcDbEntity
  8
1
  6
Continuous
 62
     2
100
AcDbLine
 10
-93.04657926222959
 20
127.2215520603345
 30
0.0
 11
-62.0465792622296
 21
127.2215520603345
 31
0.0
  0
LINE
  5
2FB
330
2F9
100
AcDbEntity
  8
1
  6
Continuous
 62
     2
100
AcDbLine
 10
-62.0465792622296
 20
115.6215520603345
 30
0.0
 11
-62.0465792622296
 21
128.7215520603345
 31
0.0
  0
LINE
  5
2FC
330
2F9
100
AcDbEntity
  8
1
  6
Continuous
 62
     2
100
AcDbLine
 10
-93.04657926222959
 20
115.6215520603345
 30
0.0
 11
-93.04657926222959
 21
128.7215520603345
 31
0.0
  0
SOLID
  5
2FD
330
2F9
100
AcDbEntity
  8
1
 62
     2
100
AcDbTrace
 10
-89.54657926222959
 20
127.6823358018904
 30
0.0
 11
-89.54657926222959
 21
126.7607683187786
 31
0.0
 12
-93.04657926222959
 22
127.2215520603345
 32
0.0
 13
-93.04657926222959
 23
127.2215520603345
 33
0.0
  0
SOLID
  5
2FE
330
2F9
100
AcDbEntity
  8
1
 62
     2
100
AcDbTrace
 10
-65.5465792622296
 20
126.7607683187786
 30
0.0
 11
-65.5465792622296
 21
127.6823358018904
 31
0.0
 12
-62.0465792622296
 22
127.2215520603345
 32
0.0
 13
-62.0465792622296
 23
127.2215520603345
 33
0.0
  0
MTEXT
  5
2FF
330
2F9
100
AcDbEntity
  8
1
 62
     2
100
AcDbMText
 10
-85.22599102693546
 20
129.2215520603345
 30
0.0
 40
3.5
 41
0.0
 71
     7
 72
     1
  1
\C2;31\C2;\H2.45;{\Fgdt;`}0.25
  7
CONVERTER_11
 11
0.9999999999970621
 21
2.424068405545307E-6
 31
0.0
 73
     1
 44
0.60024009603842
  0
ENDBLK
  5
301
330
2F9
100
AcDbEntity
  8
0
100
AcDbBlockEnd
  0
BLOCK
  5
30D
330
304
100
AcDbEntity
  8
0
100
AcDbBlockBegin
  2
*D5
 70
     1
 71
     0
 10
0.0
 20
0.0
 30
0.0
  3
*D5
  1

  0
LINE
  5
305
330
304
100
AcDbEntity
  8
1
  6
Continuous
 62
     2
100
AcDbLine
 10
36.02242200564142
 20
125.9090520603345
 30
0.0
 11
49.21657994768068
 21
125.9090520603345
 31
0.0
  0
LINE
  5
306
330
304
100
AcDbEntity
  8
1
  6
Continuous
 62
     2
100
AcDbLine
 10
49.21657994768068
 20
125.9090520603345
 30
0.0
 11
54.21657994768069
 21
125.9090520603345
 31
0.0
  0
LINE
  5
307
330
304
100
AcDbEntity
  8
1
  6
Continuous
 62
     2
100
AcDbLine
 10
54.21657994768069
 20
125.9090520603345
 30
0.0
 11
61.21657994768069
 21
125.9090520603345
 31
0.0
  0
LINE
  5
308
330
304
100
AcDbEntity
  8
1
  6
Continuous
 62
     2
100
AcDbLine
 10
54.21657994768069
 20
116.5715520603345
 30
0.0
 11
54.21657994768069
 21
127.4090520603345
 31
0.0
  0
LINE
  5
309
330
304
100
AcDbEntity
  8
1
  6
Continuous
 62
     2
100
AcDbLine
 10
49.21657994768068
 20
114.4715520603345
 30
0.0
 11
49.21657994768068
 21
127.4090520603345
 31
0.0
  0
SOLID
  5
30A
330
304
100
AcDbEntity
  8
1
 62
     2
100
AcDbTrace
 10
45.71657994768068
 20
125.4482683187786
 30
0.0
 11
45.71657994768068
 21
126.3698358018904
 31
0.0
 12
49.21657994768068
 22
125.9090520603345
 32
0.0
 13
49.21657994768068
 23
125.9090520603345
 33
0.0
  0
SOLID
  5
30B
330
304
100
AcDbEntity
  8
1
 62
     2
100
AcDbTrace
 10
57.71657994768069
 20
126.3698358018904
 30
0.0
 11
57.71657994768069
 21
125.4482683187786
 31
0.0
 12
54.21657994768069
 22
125.9090520603345
 32
0.0
 13
54.21657994768069
 23
125.9090520603345
 33
0.0
  0
MTEXT
  5
30C
330
304
100
AcDbEntity
  8
1
 62
     2
100
AcDbMText
 10
36.02242200564142
 20
129.2215520603345
 30
0.0
 40
3.5
 41
0.0
 71
     7
 72
     1
  1
\C2;5\C2;\H2.45;\S 0^ -1;
  7
CONVERTER_11
 11
0.9999999999970621
 21
2.424068405545307E-6
 31
0.0
 73
     1
 44
0.60024009603842
  0
ENDBLK
  5
30E
330
304
100
AcDbEntity
  8
0
100
AcDbBlockEnd
  0
BLOCK
  5
31A
330
311
100
AcDbEntity
  8
0
100
AcDbBlockBegin
  2
*D6
 70
     1
 71
     0
 10
0.0
 20
0.0
 30
0.0
  3
*D6
  1

  0
LINE
  5
312
330
311
100
AcDbEntity
  8
1
  6
Continuous
 62
     2
100
AcDbLine
 10
22.27907994768069
 20
86.97155206033452
 30
0.0
 11
22.27907994768069
 21
93.97155206033452
 31
0.0
  0
LINE
  5
313
330
311
100
AcDbEntity
  8
1
  6
Continuous
 62
     2
100
AcDbLine
 10
22.27907994768069
 20
93.97155206033452
 30
0.0
 11
22.27907994768069
 21
98.97155206033452
 31
0.0
  0
LINE
  5
314
330
311
100
AcDbEntity
  8
1
  6
Continuous
 62
     2
100
AcDbLine
 10
22.27907994768069
 20
98.97155206033452
 30
0.0
 11
22.27907994768069
 21
105.9715520603345
 31
0.0
  0
LINE
  5
315
330
311
100
AcDbEntity
  8
1
  6
Continuous
 62
     2
100
AcDbLine
 10
41.71657994768069
 20
98.97155206033452
 30
0.0
 11
20.77907994768069
 21
98.97155206033452
 31
0.0
  0
LINE
  5
316
330
311
100
AcDbEntity
  8
1
  6
Continuous
 62
     2
100
AcDbLine
 10
41.71657994768069
 20
93.97155206033452
 30
0.0
 11
20.77907994768069
 21
93.97155206033452
 31
0.0
  0
SOLID
  5
317
330
311
100
AcDbEntity
  8
1
 62
     2
100
AcDbTrace
 10
22.73986368923658
 20
90.47155206033452
 30
0.0
 11
21.81829620612481
 21
90.47155206033452
 31
0.0
 12
22.27907994768069
 22
93.97155206033452
 32
0.0
 13
22.27907994768069
 23
93.97155206033452
 33
0.0
  0
SOLID
  5
318
330
311
100
AcDbEntity
  8
1
 62
     2
100
AcDbTrace
 10
21.81829620612481
 20
102.4715520603345
 30
0.0
 11
22.73986368923658
 21
102.4715520603345
 31
0.0
 12
22.27907994768069
 22
98.97155206033452
 32
0.0
 13
22.27907994768069
 23
98.97155206033452
 33
0.0
  0
MTEXT
  5
319
330
311
100
AcDbEntity
  8
1
 62
     2
100
AcDbMText
 10
17.8955175126423
 20
85.63196055706655
 30
0.0
 40
3.5
 41
0.0
 71
     7
 72
     1
  1
\C2;φ\C2;\C2;5\C2;\H2.45;\S 0^ -0.012;
  7
CONVERTER_12
 11
0.0
 21
1.0
 31
0.0
 73
     1
 44
0.60024009603842
  0
ENDBLK
  5
31B
330
311
100
AcDbEntity
  8
0
100
AcDbBlockEnd
  0
BLOCK
  5
327
330
31E
100
AcDbEntity
  8
0
100
AcDbBlockBegin
  2
*D7
 70
     1
 71
     0
 10
0.0
 20
0.0
 30
0.0
  3
*D7
  1

  0
LINE
  5
31F
330
31E
100
AcDbEntity
  8
1
  6
Continuous
 62
     2
100
AcDbLine
 10
69.2200199816286
 20
58.22155206033452
 30
0.0
 11
54.21657994768069
 21
58.22155206033452
 31
0.0
  0
LINE
  5
320
330
31E
100
AcDbEntity
  8
1
  6
Continuous
 62
     2
100
AcDbLine
 10
54.21657994768069
 20
58.22155206033452
 30
0.0
 11
52.21657994768069
 21
58.22155206033452
 31
0.0
  0
LINE
  5
321
330
31E
100
AcDbEntity
  8
1
  6
Continuous
 62
     2
100
AcDbLine
 10
52.21657994768069
 20
58.22155206033452
 30
0.0
 11
45.21657994768069
 21
58.22155206033452
 31
0.0
  0
LINE
  5
322
330
31E
100
AcDbEntity
  8
1
  6
Continuous
 62
     2
100
AcDbLine
 10
52.21657994768069
 20
84.67155206033452
 30
0.0
 11
52.21657994768069
 21
56.72155206033452
 31
0.0
  0
LINE
  5
323
330
31E
100
AcDbEntity
  8
1
  6
Continuous
 62
     2
100
AcDbLine
 10
54.21657994768069
 20
76.37155206033452
 30
0.0
 11
54.21657994768069
 21
56.72155206033452
 31
0.0
  0
SOLID
  5
324
330
31E
100
AcDbEntity
  8
1
 62
     2
100
AcDbTrace
 10
57.71657994768069
 20
58.6823358018904
 30
0.0
 11
57.71657994768069
 21
57.76076831877863
 31
0.0
 12
54.21657994768069
 22
58.22155206033452
 32
0.0
 13
54.21657994768069
 23
58.22155206033452
 33
0.0
  0
SOLID
  5
325
330
31E
100
AcDbEntity
  8
1
 62
     2
100
AcDbTrace
 10
48.71657994768069
 20
57.76076831877863
 30
0.0
 11
48.71657994768069
 21
58.6823358018904
 31
0.0
 12
52.21657994768069
 22
58.22155206033452
 32
0.0
 13
52.21657994768069
 23
58.22155206033452
 33
0.0
  0
MTEXT
  5
326
330
31E
100
AcDbEntity
  8
1
 62
     2
100
AcDbMText
 10
57.567078805158
 20
60.22155206033452
 30
0.0
 40
3.5
 41
0.0
 71
     7
 72
     1
  1
\C2;2\C2;\H2.45;{\Fgdt;`}0.3
  7
CONVERTER_11
 11
0.9999999999970621
 21
2.424068405545307E-6
 31
0.0
 73
     1
 44
0.60024009603842
  0
ENDBLK
  5
328
330
31E
100
AcDbEntity
  8
0
100
AcDbBlockEnd
  0
BLOCK
  5
333
330
32B
100
AcDbEntity
  8
0
100
AcDbBlockBegin
  2
*D8
 70
     1
 71
     0
 10
0.0
 20
0.0
 30
0.0
  3
*D8
  1

  0
LINE
  5
32C
330
32B
100
AcDbEntity
  8
1
  6
Continuous
 62
     2
100
AcDbLine
 10
26.9478116412495
 20
48.22155206033452
 30
0.0
 11
42.21657994768069
 21
48.22155206033452
 31
0.0
  0
LINE
  5
32D
330
32B
100
AcDbEntity
  8
1
  6
Continuous
 62
     2
100
AcDbLine
 10
42.21657994768069
 20
48.22155206033452
 30
0.0
 11
54.21657994768069
 21
48.22155206033452
 31
0.0
  0
LINE
  5
32E
330
32B
100
AcDbEntity
  8
1
  6
Continuous
 62
     2
100
AcDbLine
 10
54.21657994768069
 20
76.37155206033452
 30
0.0
 11
54.21657994768069
 21
46.72155206033452
 31
0.0
  0
LINE
  5
32F
330
32B
100
AcDbEntity
  8
1
  6
Continuous
 62
     2
100
AcDbLine
 10
42.21657994768069
 20
93.47155206033452
 30
0.0
 11
42.21657994768069
 21
46.72155206033452
 31
0.0
  0
SOLID
  5
330
330
32B
100
AcDbEntity
  8
1
 62
     2
100
AcDbTrace
 10
45.71657994768069
 20
48.6823358018904
 30
0.0
 11
45.71657994768069
 21
47.76076831877863
 31
0.0
 12
42.21657994768069
 22
48.22155206033452
 32
0.0
 13
42.21657994768069
 23
48.22155206033452
 33
0.0
  0
SOLID
  5
331
330
32B
100
AcDbEntity
  8
1
 62
     2
100
AcDbTrace
 10
50.71657994768069
 20
47.76076831877863
 30
0.0
 11
50.71657994768069
 21
48.6823358018904
 31
0.0
 12
54.21657994768069
 22
48.22155206033452
 32
0.0
 13
54.21657994768069
 23
48.22155206033452
 33
0.0
  0
MTEXT
  5
332
330
32B
100
AcDbEntity
  8
1
 62
     2
100
AcDbMText
 10
26.9478116412495
 20
50.22155206033452
 30
0.0
 40
3.5
 41
0.0
 71
     7
 72
     1
  1
\C2;12\C2;\H2.45;{\Fgdt;`}0.5
  7
CONVERTER_11
 11
0.9999999999970621
 21
2.424068405545307E-6
 31
0.0
 73
     1
 44
0.60024009603842
  0
ENDBLK
  5
334
330
32B
100
AcDbEntity
  8
0
100
AcDbBlockEnd
  0
BLOCK
  5
33E
330
337
100
AcDbEntity
  8
0
100
AcDbBlockBegin
  2
*D9
 70
     1
 71
     0
 10
0.0
 20
0.0
 30
0.0
  3
*D9
  1

  0
LINE
  5
338
330
337
100
AcDbEntity
  8
1
  6
Continuous
 62
     2
100
AcDbLine
 10
90.76657994768068
 20
191.8802455272611
 30
0.0
 11
90.76657994768068
 21
169.2260702728155
 31
0.0
  0
LINE
  5
339
330
337
100
AcDbEntity
  8
1
  6
Continuous
 62
     2
100
AcDbLine
 10
90.76657994768068
 20
169.2260702728155
 30
0.0
 11
90.76657994768068
 21
165.9715520603345
 31
0.0
  0
LINE
  5
33A
330
337
100
AcDbEntity
  8
1
  6
Continuous
 62
     2
100
AcDbLine
 10
73.01657994768068
 20
165.9715520603345
 30
0.0
 11
92.26657994768068
 21
165.9715520603345
 31
0.0
  0
LINE
  5
33B
330
337
100
AcDbEntity
  8
1
  6
Continuous
 62
     2
100
AcDbLine
 10
72.4435037248597
 20
169.2260702728155
 30
0.0
 11
92.26657994768068
 21
169.2260702728155
 31
0.0
  0
SOLID
  5
33C
330
337
100
AcDbEntity
  8
1
 62
     2
100
AcDbTrace
 10
90.3057962061248
 20
172.7260702728155
 30
0.0
 11
91.22736368923657
 21
172.7260702728155
 31
0.0
 12
90.76657994768068
 22
169.2260702728155
 32
0.0
 13
90.76657994768068
 23
169.2260702728155
 33
0.0
  0
MTEXT
  5
33D
330
337
100
AcDbEntity
  8
1
 62
     2
100
AcDbMText
 10
88.76657994768068
 20
173.6596572919669
 30
0.0
 40
3.5
 41
0.0
 71
     7
 72
     1
  1
9.6MAX.
  7
CONVERTER_11
 11
0.0
 21
1.0
 31
0.0
 73
     1
 44
0.60024009603842
  0
ENDBLK
  5
33F
330
337
100
AcDbEntity
  8
0
100
AcDbBlockEnd
  0
BLOCK
  5
341
330
340
100
AcDbEntity
  8
0
100
AcDbBlockBegin
  2
_None
 70
     0
 71
     0
 10
0.0
 20
0.0
 30
0.0
  3
_None
  1

  0
ENDBLK
  5
342
330
340
100
AcDbEntity
  8
0
100
AcDbBlockEnd
  0
BLOCK
  5
34D
330
345
100
AcDbEntity
  8
0
100
AcDbBlockBegin
  2
*D11
 70
     1
 71
     0
 10
0.0
 20
0.0
 30
0.0
  3
*D11
  1

  0
LINE
  5
346
330
345
100
AcDbEntity
  8
1
  6
Continuous
 62
     2
100
AcDbLine
 10
54.21657994768069
 20
48.22155206033452
 30
0.0
 11
74.51657994768068
 21
48.22155206033452
 31
0.0
  0
LINE
  5
347
330
345
100
AcDbEntity
  8
1
  6
Continuous
 62
     2
100
AcDbLine
 10
74.51657994768068
 20
76.47155206033452
 30
0.0
 11
74.51657994768068
 21
46.72155206033452
 31
0.0
  0
LINE
  5
348
330
345
100
AcDbEntity
  8
1
  6
Continuous
 62
     2
100
AcDbLine
 10
54.21657994768069
 20
76.37155206033452
 30
0.0
 11
54.21657994768069
 21
46.72155206033452
 31
0.0
  0
SOLID
  5
349
330
345
100
AcDbEntity
  8
1
 62
     2
100
AcDbTrace
 10
57.71657994768069
 20
48.6823358018904
 30
0.0
 11
57.71657994768069
 21
47.76076831877863
 31
0.0
 12
54.21657994768069
 22
48.22155206033452
 32
0.0
 13
54.21657994768069
 23
48.22155206033452
 33
0.0
  0
SOLID
  5
34A
330
345
100
AcDbEntity
  8
1
 62
     2
100
AcDbTrace
 10
71.01657994768068
 20
47.76076831877863
 30
0.0
 11
71.01657994768068
 21
48.6823358018904
 31
0.0
 12
74.51657994768068
 22
48.22155206033452
 32
0.0
 13
74.51657994768068
 23
48.22155206033452
 33
0.0
  0
MTEXT
  5
34C
330
345
100
AcDbEntity
  8
1
 62
     3
100
AcDbMText
 10
56.7901093594454
 20
50.22155206033452
 30
0.0
 40
3.5
 41
0.0
 71
     7
 72
     1
  1
22 MAX
  7
CONVERTER_13
 11
0.9999999999970621
 21
2.424068405545307E-6
 31
0.0
 73
     1
 44
0.60024009603842
  0
ENDBLK
  5
34E
330
345
100
AcDbEntity
  8
0
100
AcDbBlockEnd
  0
BLOCK
  5
358
330
351
100
AcDbEntity
  8
0
100
AcDbBlockBegin
  2
*D12
 70
     1
 71
     0
 10
0.0
 20
0.0
 30
0.0
  3
*D12
  1

  0
LINE
  5
352
330
351
100
AcDbEntity
  8
1
  6
Continuous
 62
     2
100
AcDbLine
 10
-29.2965792622296
 20
115.9715520603345
 30
0.0
 11
-29.2965792622296
 21
76.97155206033452
 31
0.0
  0
LINE
  5
353
330
351
100
AcDbEntity
  8
1
  6
Continuous
 62
     2
100
AcDbLine
 10
-59.34919574030977
 20
76.97155206033452
 30
0.0
 11
-27.7965792622296
 21
76.97155206033452
 31
0.0
  0
LINE
  5
354
330
351
100
AcDbEntity
  8
1
  6
Continuous
 62
     2
100
AcDbLine
 10
-59.34919574030977
 20
115.9715520603345
 30
0.0
 11
-27.7965792622296
 21
115.9715520603345
 31
0.0
  0
SOLID
  5
355
330
351
100
AcDbEntity
  8
1
 62
     2
100
AcDbTrace
 10
-28.83579552067372
 20
112.4715520603345
 30
0.0
 11
-29.75736300378549
 21
112.4715520603345
 31
0.0
 12
-29.2965792622296
 22
115.9715520603345
 32
0.0
 13
-29.2965792622296
 23
115.9715520603345
 33
0.0
  0
SOLID
  5
356
330
351
100
AcDbEntity
  8
1
 62
     2
100
AcDbTrace
 10
-29.75736300378549
 20
80.47155206033452
 30
0.0
 11
-28.83579552067371
 21
80.47155206033452
 31
0.0
 12
-29.2965792622296
 22
76.97155206033452
 32
0.0
 13
-29.2965792622296
 23
76.97155206033452
 33
0.0
  0
MTEXT
  5
357
330
351
100
AcDbEntity
  8
1
 62
     2
100
AcDbMText
 10
-31.2965792622296
 20
89.73611088386393
 30
0.0
 40
3.5
 41
0.0
 71
     7
 72
     1
  1
\C2;39\C2;\H2.45;{\Fgdt;`}0.5
  7
CONVERTER_11
 11
0.0
 21
1.0
 31
0.0
 73
     1
 44
0.60024009603842
  0
ENDBLK
  5
359
330
351
100
AcDbEntity
  8
0
100
AcDbBlockEnd
  0
BLOCK
  5
363
330
35C
100
AcDbEntity
  8
0
100
AcDbBlockBegin
  2
*D13
 70
     1
 71
     0
 10
0.0
 20
0.0
 30
0.0
  3
*D13
  1

  0
LINE
  5
35D
330
35C
100
AcDbEntity
  8
1
  6
Continuous
 62
     2
100
AcDbLine
 10
-97.0465792622296
 20
137.2215520603345
 30
0.0
 11
-58.0465792622296
 21
137.2215520603345
 31
0.0
  0
LINE
  5
35E
330
35C
100
AcDbEntity
  8
1
  6
Continuous
 62
     2
100
AcDbLine
 10
-58.0465792622296
 20
114.6689355822544
 30
0.0
 11
-58.0465792622296
 21
138.7215520603345
 31
0.0
  0
LINE
  5
35F
330
35C
100
AcDbEntity
  8
1
  6
Continuous
 62
     2
100
AcDbLine
 10
-97.0465792622296
 20
114.6689355822544
 30
0.0
 11
-97.0465792622296
 21
138.7215520603345
 31
0.0
  0
SOLID
  5
360
330
35C
100
AcDbEntity
  8
1
 62
     2
100
AcDbTrace
 10
-93.5465792622296
 20
137.6823358018904
 30
0.0
 11
-93.5465792622296
 21
136.7607683187786
 31
0.0
 12
-97.0465792622296
 22
137.2215520603345
 32
0.0
 13
-97.0465792622296
 23
137.2215520603345
 33
0.0
  0
SOLID
  5
361
330
35C
100
AcDbEntity
  8
1
 62
     2
100
AcDbTrace
 10
-61.5465792622296
 20
136.7607683187786
 30
0.0
 11
-61.5465792622296
 21
137.6823358018904
 31
0.0
 12
-58.0465792622296
 22
137.2215520603345
 32
0.0
 13
-58.0465792622296
 23
137.2215520603345
 33
0.0
  0
MTEXT
  5
362
330
35C
100
AcDbEntity
  8
1
 62
     2
100
AcDbMText
 10
-84.79363808575901
 20
139.2215520603345
 30
0.0
 40
3.5
 41
0.0
 71
     7
 72
     1
  1
\C2;39\C2;\H2.45;{\Fgdt;`}0.5
  7
CONVERTER_11
 11
0.9999999999970621
 21
2.424068405545307E-6
 31
0.0
 73
     1
 44
0.60024009603842
  0
ENDBLK
  5
364
330
35C
100
AcDbEntity
  8
0
100
AcDbBlockEnd
  0
ENDSEC
  0
SECTION
  2
ENTITIES
  0
LINE
  5
32
330
1F
100
AcDbEntity
  8
1
  6
Continuous
 62
     3
100
AcDbLine
 10
-73.95603429587975
 20
54.7687637414904
 30
0.0
 11
-74.16191664882092
 21
55.00209707482374
 31
0.0
  0
LINE
  5
33
330
1F
100
AcDbEntity
  8
1
  6
Continuous
 62
     3
100
AcDbLine
 10
-73.54426958999738
 20
54.53543040815707
 30
0.0
 11
-73.95603429587975
 21
54.7687637414904
 31
0.0
  0
LINE
  5
34
330
1F
100
AcDbEntity
  8
1
  6
Continuous
 62
     3
100
AcDbLine
 10
-73.02956370764446
 20
54.4187637414904
 30
0.0
 11
-73.54426958999738
 21
54.53543040815707
 31
0.0
  0
LINE
  5
35
330
1F
100
AcDbEntity
  8
1
  6
Continuous
 62
     3
100
AcDbLine
 10
-72.41191664882092
 20
54.53543040815707
 30
0.0
 11
-73.02956370764446
 21
54.4187637414904
 31
0.0
  0
LINE
  5
36
330
1F
100
AcDbEntity
  8
1
  6
Continuous
 62
     3
100
AcDbLine
 10
-72.10309311940915
 20
54.7687637414904
 30
0.0
 11
-72.41191664882092
 21
54.53543040815707
 31
0.0
  0
LINE
  5
37
330
1F
100
AcDbEntity
  8
1
  6
Continuous
 62
     3
100
AcDbLine
 10
-71.89721076646798
 20
55.35209707482373
 30
0.0
 11
-72.10309311940915
 21
54.7687637414904
 31
0.0
  0
LINE
  5
38
330
1F
100
AcDbEntity
  8
1
  6
Continuous
 62
     3
100
AcDbLine
 10
-72.10309311940915
 20
55.93543040815707
 30
0.0
 11
-71.89721076646798
 21
55.35209707482373
 31
0.0
  0
LINE
  5
39
330
1F
100
AcDbEntity
  8
1
  6
Continuous
 62
     3
100
AcDbLine
 10
-72.6177990017621
 20
56.28543040815707
 30
0.0
 11
-72.10309311940915
 21
55.93543040815707
 31
0.0
  0
LINE
  5
3A
330
1F
100
AcDbEntity
  8
1
  6
Continuous
 62
     3
100
AcDbLine
 10
-73.13250488411504
 20
56.28543040815707
 30
0.0
 11
-72.6177990017621
 21
56.28543040815707
 31
0.0
  0
LINE
  5
3B
330
1F
100
AcDbEntity
  8
1
  6
Continuous
 62
     3
100
AcDbLine
 10
-72.6177990017621
 20
56.28543040815707
 30
0.0
 11
-73.13250488411504
 21
56.28543040815707
 31
0.0
  0
LINE
  5
3C
330
1F
100
AcDbEntity
  8
1
  6
Continuous
 62
     3
100
AcDbLine
 10
-72.20603429587975
 20
56.5187637414904
 30
0.0
 11
-72.6177990017621
 21
56.28543040815707
 31
0.0
  0
LINE
  5
3D
330
1F
100
AcDbEntity
  8
1
  6
Continuous
 62
     3
100
AcDbLine
 10
-72.00015194293857
 20
56.98543040815707
 30
0.0
 11
-72.20603429587975
 21
56.5187637414904
 31
0.0
  0
LINE
  5
3E
330
1F
100
AcDbEntity
  8
1
  6
Continuous
 62
     3
100
AcDbLine
 10
-72.10309311940915
 20
57.33543040815707
 30
0.0
 11
-72.00015194293857
 21
56.98543040815707
 31
0.0
  0
LINE
  5
3F
330
1F
100
AcDbEntity
  8
1
  6
Continuous
 62
     3
100
AcDbLine
 10
-72.41191664882092
 20
57.80209707482374
 30
0.0
 11
-72.10309311940915
 21
57.33543040815707
 31
0.0
  0
LINE
  5
40
330
1F
100
AcDbEntity
  8
1
  6
Continuous
 62
     3
100
AcDbLine
 10
-73.02956370764446
 20
57.9187637414904
 30
0.0
 11
-72.41191664882092
 21
57.80209707482374
 31
0.0
  0
LINE
  5
41
330
1F
100
AcDbEntity
  8
1
  6
Continuous
 62
     3
100
AcDbLine
 10
-73.64721076646798
 20
57.80209707482374
 30
0.0
 11
-73.02956370764446
 21
57.9187637414904
 31
0.0
  0
LINE
  5
42
330
1F
100
AcDbEntity
  8
1
  6
Continuous
 62
     3
100
AcDbLine
 10
-74.05897547235033
 20
57.33543040815707
 30
0.0
 11
-73.64721076646798
 21
57.80209707482374
 31
0.0
  0
LINE
  5
43
330
1F
100
AcDbEntity
  8
1
  6
Continuous
 62
     3
100
AcDbLine
 10
-75.19132841352682
 20
57.9187637414904
 30
0.0
 11
-75.19132841352682
 21
54.4187637414904
 31
0.0
  0
LINE
  5
44
330
1F
100
AcDbEntity
  8
1
  6
Continuous
 62
     3
100
AcDbLine
 10
-76.52956370764446
 20
54.53543040815707
 30
0.0
 11
-75.19132841352682
 21
57.9187637414904
 31
0.0
  0
LINE
  5
45
330
1F
100
AcDbEntity
  8
1
  6
Continuous
 62
     3
100
AcDbLine
 10
-77.86779900176211
 20
57.9187637414904
 30
0.0
 11
-76.52956370764446
 21
54.53543040815707
 31
0.0
  0
LINE
  5
46
330
1F
100
AcDbEntity
  8
1
  6
Continuous
 62
     3
100
AcDbLine
 10
-77.86779900176211
 20
54.4187637414904
 30
0.0
 11
-77.86779900176211
 21
57.9187637414904
 31
0.0
  0
LINE
  5
47
330
1F
100
AcDbEntity
  8
1
  6
Continuous
 62
     3
100
AcDbLine
 10
-80.75015194293857
 20
56.1687637414904
 30
0.0
 11
-78.89721076646798
 21
56.1687637414904
 31
0.0
  0
LINE
  5
48
330
1F
100
AcDbEntity
  8
1
  6
Continuous
 62
     3
100
AcDbLine
 10
-84.0442695899974
 20
54.4187637414904
 30
0.0
 11
-81.77956370764446
 21
54.4187637414904
 31
0.0
  0
LINE
  5
49
330
1F
100
AcDbEntity
  8
1
  6
Continuous
 62
     3
100
AcDbLine
 10
-83.83838723705622
 20
55.00209707482374
 30
0.0
 11
-84.0442695899974
 21
54.4187637414904
 31
0.0
  0
LINE
  5
4A
330
1F
100
AcDbEntity
  8
1
  6
Continuous
 62
     3
100
AcDbLine
 10
-83.63250488411505
 20
55.35209707482373
 30
0.0
 11
-83.83838723705622
 21
55.00209707482374
 31
0.0
  0
LINE
  5
4B
330
1F
100
AcDbEntity
  8
1
  6
Continuous
 62
     3
100
AcDbLine
 10
-83.22074017823269
 20
55.70209707482373
 30
0.0
 11
-83.63250488411505
 21
55.35209707482373
 31
0.0
  0
LINE
  5
4C
330
1F
100
AcDbEntity
  8
1
  6
Continuous
 62
     3
100
AcDbLine
 10
-82.80897547235034
 20
55.93543040815707
 30
0.0
 11
-83.22074017823269
 21
55.70209707482373
 31
0.0
  0
LINE
  5
4D
330
1F
100
AcDbEntity
  8
1
  6
Continuous
 62
     3
100
AcDbLine
 10
-82.2942695899974
 20
56.28543040815707
 30
0.0
 11
-82.80897547235034
 21
55.93543040815707
 31
0.0
  0
LINE
  5
4E
330
1F
100
AcDbEntity
  8
1
  6
Continuous
 62
     3
100
AcDbLine
 10
-81.98544606058563
 20
56.75209707482374
 30
0.0
 11
-82.2942695899974
 21
56.28543040815707
 31
0.0
  0
LINE
  5
4F
330
1F
100
AcDbEntity
  8
1
  6
Continuous
 62
     3
100
AcDbLine
 10
-81.88250488411505
 20
57.2187637414904
 30
0.0
 11
-81.98544606058563
 21
56.75209707482374
 31
0.0
  0
LINE
  5
50
330
1F
100
AcDbEntity
  8
1
  6
Continuous
 62
     3
100
AcDbLine
 10
-82.2942695899974
 20
57.68543040815707
 30
0.0
 11
-81.88250488411505
 21
57.2187637414904
 31
0.0
  0
LINE
  5
51
330
1F
100
AcDbEntity
  8
1
  6
Continuous
 62
     3
100
AcDbLine
 10
-82.91191664882093
 20
57.9187637414904
 30
0.0
 11
-82.2942695899974
 21
57.68543040815707
 31
0.0
  0
LINE
  5
52
330
1F
100
AcDbEntity
  8
1
  6
Continuous
 62
     3
100
AcDbLine
 10
-83.52956370764446
 20
57.68543040815707
 30
0.0
 11
-82.91191664882093
 21
57.9187637414904
 31
0.0
  0
LINE
  5
53
330
1F
100
AcDbEntity
  8
1
  6
Continuous
 62
     3
100
AcDbLine
 10
-83.9413284135268
 20
57.2187637414904
 30
0.0
 11
-83.52956370764446
 21
57.68543040815707
 31
0.0
  0
LINE
  5
54
330
1F
100
AcDbEntity
  8
1
  6
Continuous
 62
     4
100
AcDbLine
 10
21.45555053591598
 20
114.3306471466021
 30
0.0
 11
23.1026093594454
 21
114.3306471466021
 31
0.0
  0
LINE
  5
55
330
1F
100
AcDbEntity
  8
1
  6
Continuous
 62
     4
100
AcDbLine
 10
22.27907994768069
 20
116.8973138132688
 30
0.0
 11
23.41143288885716
 21
113.3973138132688
 31
0.0
  0
LINE
  5
56
330
1F
100
AcDbEntity
  8
1
  6
Continuous
 62
     4
100
AcDbLine
 10
21.14672700650422
 20
113.3973138132688
 30
0.0
 11
22.27907994768069
 21
116.8973138132688
 31
0.0
  0
LINE
  5
57
330
1F
100
AcDbEntity
  8
1
  6
Continuous
 62
     4
100
AcDbLine
 10
18.77907994768069
 20
118.6473138132688
 30
0.0
 11
18.77907994768069
 21
111.6473138132688
 31
0.0
  0
LINE
  5
58
330
1F
100
AcDbEntity
  8
1
  6
Continuous
 62
     4
100
AcDbLine
 10
25.77907994768069
 20
118.6473138132688
 30
0.0
 11
18.77907994768069
 21
118.6473138132688
 31
0.0
  0
LINE
  5
59
330
1F
100
AcDbEntity
  8
1
  6
Continuous
 62
     4
100
AcDbLine
 10
25.77907994768069
 20
111.6473138132688
 30
0.0
 11
25.77907994768069
 21
118.6473138132688
 31
0.0
  0
LINE
  5
5A
330
1F
100
AcDbEntity
  8
1
  6
Continuous
 62
     4
100
AcDbLine
 10
18.77907994768069
 20
111.6473138132688
 30
0.0
 11
25.77907994768069
 21
111.6473138132688
 31
0.0
  0
LINE
  5
5B
330
1F
100
AcDbEntity
  8
1
  6
Continuous
 62
     2
100
AcDbLine
 10
208.7340278720638
 20
75.23092372470724
 30
0.0
 11
210.5869690485343
 21
75.23092372470724
 31
0.0
  0
LINE
  5
5C
330
1F
100
AcDbEntity
  8
1
  6
Continuous
 62
     2
100
AcDbLine
 10
208.7340278720638
 20
73.36425705804058
 30
0.0
 11
210.7928514014755
 21
73.36425705804058
 31
0.0
  0
LINE
  5
5D
330
1F
100
AcDbEntity
  8
1
  6
Continuous
 62
     2
100
AcDbLine
 10
208.7340278720638
 20
76.86425705804058
 30
0.0
 11
208.7340278720638
 21
73.36425705804058
 31
0.0
  0
LINE
  5
5E
330
1F
100
AcDbEntity
  8
1
  6
Continuous
 62
     2
100
AcDbLine
 10
210.7928514014755
 20
76.86425705804058
 30
0.0
 11
208.7340278720638
 21
76.86425705804058
 31
0.0
  0
LINE
  5
5F
330
1F
100
AcDbEntity
  8
1
  6
Continuous
 62
     2
100
AcDbLine
 10
206.5722631661814
 20
76.86425705804058
 30
0.0
 11
206.5722631661814
 21
73.36425705804058
 31
0.0
  0
LINE
  5
60
330
1F
100
AcDbEntity
  8
1
  6
Continuous
 62
     2
100
AcDbLine
 10
205.439910225005
 20
76.86425705804058
 30
0.0
 11
207.7046161073579
 21
76.86425705804058
 31
0.0
  0
LINE
  5
61
330
1F
100
AcDbEntity
  8
1
  6
Continuous
 62
     2
100
AcDbLine
 10
202.4546161073579
 20
74.29759039137392
 30
0.0
 11
204.1016749308873
 21
74.29759039137392
 31
0.0
  0
LINE
  5
62
330
1F
100
AcDbEntity
  8
1
  6
Continuous
 62
     2
100
AcDbLine
 10
203.2781455191226
 20
76.86425705804058
 30
0.0
 11
204.410498460299
 21
73.36425705804058
 31
0.0
  0
LINE
  5
63
330
1F
100
AcDbEntity
  8
1
  6
Continuous
 62
     2
100
AcDbLine
 10
202.1457925779461
 20
73.36425705804058
 30
0.0
 11
203.2781455191226
 21
76.86425705804058
 31
0.0
  0
LINE
  5
64
330
1F
100
AcDbEntity
  8
1
  6
Continuous
 62
     2
100
AcDbLine
 10
199.0575572838285
 20
73.36425705804058
 30
0.0
 11
201.1163808132402
 21
73.36425705804058
 31
0.0
  0
LINE
  5
65
330
1F
100
AcDbEntity
  8
1
  6
Continuous
 62
     2
100
AcDbLine
 10
199.0575572838285
 20
76.86425705804058
 30
0.0
 11
199.0575572838285
 21
73.36425705804058
 31
0.0
  0
LINE
  5
66
330
1F
100
AcDbEntity
  8
1
  6
Continuous
 62
     2
100
AcDbLine
 10
197.3075572838285
 20
75.11425705804058
 30
0.0
 11
195.9693219897108
 21
75.11425705804058
 31
0.0
  0
LINE
  5
67
330
1F
100
AcDbEntity
  8
1
  6
Continuous
 62
     2
100
AcDbLine
 10
197.7193219897108
 20
75.34759039137391
 30
0.0
 11
197.3075572838285
 21
75.11425705804058
 31
0.0
  0
LINE
  5
68
330
1F
100
AcDbEntity
  8
1
  6
Continuous
 62
     2
100
AcDbLine
 10
197.925204342652
 20
75.58092372470725
 30
0.0
 11
197.7193219897108
 21
75.34759039137391
 31
0.0
  0
LINE
  5
69
330
1F
100
AcDbEntity
  8
1
  6
Continuous
 62
     2
100
AcDbLine
 10
198.0281455191226
 20
76.04759039137392
 30
0.0
 11
197.925204342652
 21
75.58092372470725
 31
0.0
  0
LINE
  5
6A
330
1F
100
AcDbEntity
  8
1
  6
Continuous
 62
     2
100
AcDbLine
 10
197.925204342652
 20
76.28092372470725
 30
0.0
 11
198.0281455191226
 21
76.04759039137392
 31
0.0
  0
LINE
  5
6B
330
1F
100
AcDbEntity
  8
1
  6
Continuous
 62
     2
100
AcDbLine
 10
197.7193219897108
 20
76.63092372470724
 30
0.0
 11
197.925204342652
 21
76.28092372470725
 31
0.0
  0
LINE
  5
6C
330
1F
100
AcDbEntity
  8
1
  6
Continuous
 62
     2
100
AcDbLine
 10
197.3075572838285
 20
76.86425705804058
 30
0.0
 11
197.7193219897108
 21
76.63092372470724
 31
0.0
  0
LINE
  5
6D
330
1F
100
AcDbEntity
  8
1
  6
Continuous
 62
     2
100
AcDbLine
 10
195.9693219897108
 20
76.86425705804058
 30
0.0
 11
197.3075572838285
 21
76.86425705804058
 31
0.0
  0
LINE
  5
6E
330
1F
100
AcDbEntity
  8
1
  6
Continuous
 62
     2
100
AcDbLine
 10
195.9693219897108
 20
73.36425705804058
 30
0.0
 11
195.9693219897108
 21
76.86425705804058
 31
0.0
  0
LINE
  5
6F
330
1F
100
AcDbEntity
  8
1
  6
Continuous
 62
     2
100
AcDbLine
 10
189.8957925779461
 20
75.23092372470724
 30
0.0
 11
191.7487337544167
 21
75.23092372470724
 31
0.0
  0
LINE
  5
70
330
1F
100
AcDbEntity
  8
1
  6
Continuous
 62
     2
100
AcDbLine
 10
189.8957925779461
 20
73.36425705804058
 30
0.0
 11
191.9546161073579
 21
73.36425705804058
 31
0.0
  0
LINE
  5
71
330
1F
100
AcDbEntity
  8
1
  6
Continuous
 62
     2
100
AcDbLine
 10
189.8957925779461
 20
76.86425705804058
 30
0.0
 11
189.8957925779461
 21
73.36425705804058
 31
0.0
  0
LINE
  5
72
330
1F
100
AcDbEntity
  8
1
  6
Continuous
 62
     2
100
AcDbLine
 10
191.9546161073579
 20
76.86425705804058
 30
0.0
 11
189.8957925779461
 21
76.86425705804058
 31
0.0
  0
LINE
  5
73
330
1F
100
AcDbEntity
  8
1
  6
Continuous
 62
     2
100
AcDbLine
 10
188.8663808132402
 20
76.86425705804058
 30
0.0
 11
188.8663808132402
 21
73.36425705804058
 31
0.0
  0
LINE
  5
74
330
1F
100
AcDbEntity
  8
1
  6
Continuous
 62
     2
100
AcDbLine
 10
187.5281455191226
 20
73.48092372470724
 30
0.0
 11
188.8663808132402
 21
76.86425705804058
 31
0.0
  0
LINE
  5
75
330
1F
100
AcDbEntity
  8
1
  6
Continuous
 62
     2
100
AcDbLine
 10
186.1899102250049
 20
76.86425705804058
 30
0.0
 11
187.5281455191226
 21
73.48092372470724
 31
0.0
  0
LINE
  5
76
330
1F
100
AcDbEntity
  8
1
  6
Continuous
 62
     2
100
AcDbLine
 10
186.1899102250049
 20
73.36425705804058
 30
0.0
 11
186.1899102250049
 21
76.86425705804058
 31
0.0
  0
LINE
  5
77
330
1F
100
AcDbEntity
  8
1
  6
Continuous
 62
     2
100
AcDbLine
 10
183.2046161073579
 20
74.29759039137392
 30
0.0
 11
184.8516749308873
 21
74.29759039137392
 31
0.0
  0
LINE
  5
78
330
1F
100
AcDbEntity
  8
1
  6
Continuous
 62
     2
100
AcDbLine
 10
184.0281455191226
 20
76.86425705804058
 30
0.0
 11
185.160498460299
 21
73.36425705804058
 31
0.0
  0
LINE
  5
79
330
1F
100
AcDbEntity
  8
1
  6
Continuous
 62
     2
100
AcDbLine
 10
182.8957925779461
 20
73.36425705804058
 30
0.0
 11
184.0281455191226
 21
76.86425705804058
 31
0.0
  0
LINE
  5
7A
330
1F
100
AcDbEntity
  8
1
  6
Continuous
 62
     2
100
AcDbLine
 10
181.8663808132402
 20
73.36425705804058
 30
0.0
 11
181.8663808132402
 21
76.86425705804058
 31
0.0
  0
LINE
  5
7B
330
1F
100
AcDbEntity
  8
1
  6
Continuous
 62
     2
100
AcDbLine
 10
179.8075572838285
 20
76.86425705804058
 30
0.0
 11
181.8663808132402
 21
73.36425705804058
 31
0.0
  0
LINE
  5
7C
330
1F
100
AcDbEntity
  8
1
  6
Continuous
 62
     2
100
AcDbLine
 10
179.8075572838285
 20
73.36425705804058
 30
0.0
 11
179.8075572838285
 21
76.86425705804058
 31
0.0
  0
LINE
  5
7D
330
1F
100
AcDbEntity
  8
1
  6
Continuous
 62
     4
100
AcDbLine
 10
47.12548243167467
 20
170.9078676730766
 30
0.0
 11
47.12548243167467
 21
163.9078676730766
 31
0.0
  0
LINE
  5
7E
330
1F
100
AcDbEntity
  8
1
  6
Continuous
 62
     4
100
AcDbLine
 10
54.12548243167467
 20
163.9078676730766
 30
0.0
 11
54.12548243167467
 21
170.9078676730766
 31
0.0
  0
LINE
  5
7F
330
1F
100
AcDbEntity
  8
1
  6
Continuous
 62
     4
100
AcDbLine
 10
26.12548243167467
 20
170.9078676730766
 30
0.0
 11
26.12548243167467
 21
163.9078676730766
 31
0.0
  0
LINE
  5
80
330
1F
100
AcDbEntity
  8
1
  6
Continuous
 62
     4
100
AcDbLine
 10
54.12548243167467
 20
170.9078676730766
 30
0.0
 11
26.12548243167467
 21
170.9078676730766
 31
0.0
  0
LINE
  5
81
330
1F
100
AcDbEntity
  8
1
  6
Continuous
 62
     4
100
AcDbLine
 10
33.12548243167467
 20
163.9078676730766
 30
0.0
 11
33.12548243167467
 21
170.9078676730766
 31
0.0
  0
LINE
  5
82
330
1F
100
AcDbEntity
  8
1
  6
Continuous
 62
     4
100
AcDbLine
 10
26.12548243167467
 20
163.9078676730766
 30
0.0
 11
54.12548243167467
 21
163.9078676730766
 31
0.0
  0
LINE
  5
83
330
1F
100
AcDbEntity
  8
1
  6
Continuous
 62
     4
100
AcDbLine
 10
29.62548243167467
 20
164.7828676730766
 30
0.0
 11
29.62548243167467
 21
170.0328676730766
 31
0.0
  0
LINE
  5
84
330
1F
100
AcDbEntity
  8
1
  6
Continuous
 62
     4
100
AcDbLine
 10
27.00048243167467
 20
164.7828676730766
 30
0.0
 11
32.25048243167467
 21
164.7828676730766
 31
0.0
  0
LINE
  5
85
330
1F
100
AcDbEntity
  8
1
  6
Continuous
 62
     4
100
AcDbLine
 10
43.4196000787335
 20
165.8912010064099
 30
0.0
 11
43.11077654932173
 21
166.1245343397433
 31
0.0
  0
LINE
  5
86
330
1F
100
AcDbEntity
  8
1
  6
Continuous
 62
     4
100
AcDbLine
 10
43.83136478461584
 20
165.6578676730766
 30
0.0
 11
43.4196000787335
 21
165.8912010064099
 31
0.0
  0
LINE
  5
87
330
1F
100
AcDbEntity
  8
1
  6
Continuous
 62
     4
100
AcDbLine
 10
44.55195301990996
 20
165.6578676730766
 30
0.0
 11
43.83136478461584
 21
165.6578676730766
 31
0.0
  0
LINE
  5
88
330
1F
100
AcDbEntity
  8
1
  6
Continuous
 62
     4
100
AcDbLine
 10
44.86077654932173
 20
165.8912010064099
 30
0.0
 11
44.55195301990996
 21
165.6578676730766
 31
0.0
  0
LINE
  5
89
330
1F
100
AcDbEntity
  8
1
  6
Continuous
 62
     4
100
AcDbLine
 10
45.0666589022629
 20
166.1245343397433
 30
0.0
 11
44.86077654932173
 21
165.8912010064099
 31
0.0
  0
LINE
  5
8A
330
1F
100
AcDbEntity
  8
1
  6
Continuous
 62
     4
100
AcDbLine
 10
45.1696000787335
 20
166.7078676730766
 30
0.0
 11
45.0666589022629
 21
166.1245343397433
 31
0.0
  0
LINE
  5
8B
330
1F
100
AcDbEntity
  8
1
  6
Continuous
 62
     4
100
AcDbLine
 10
45.0666589022629
 20
167.2912010064099
 30
0.0
 11
45.1696000787335
 21
166.7078676730766
 31
0.0
  0
LINE
  5
8C
330
1F
100
AcDbEntity
  8
1
  6
Continuous
 62
     4
100
AcDbLine
 10
44.86077654932173
 20
167.5245343397433
 30
0.0
 11
45.0666589022629
 21
167.2912010064099
 31
0.0
  0
LINE
  5
8D
330
1F
100
AcDbEntity
  8
1
  6
Continuous
 62
     4
100
AcDbLine
 10
44.55195301990996
 20
167.7578676730766
 30
0.0
 11
44.86077654932173
 21
167.5245343397433
 31
0.0
  0
LINE
  5
8E
330
1F
100
AcDbEntity
  8
1
  6
Continuous
 62
     4
100
AcDbLine
 10
44.14018831402761
 20
167.8745343397433
 30
0.0
 11
44.55195301990996
 21
167.7578676730766
 31
0.0
  0
LINE
  5
8F
330
1F
100
AcDbEntity
  8
1
  6
Continuous
 62
     4
100
AcDbLine
 10
43.72842360814526
 20
167.7578676730766
 30
0.0
 11
44.14018831402761
 21
167.8745343397433
 31
0.0
  0
LINE
  5
90
330
1F
100
AcDbEntity
  8
1
  6
Continuous
 62
     4
100
AcDbLine
 10
43.21371772579231
 20
167.4078676730766
 30
0.0
 11
43.72842360814526
 21
167.7578676730766
 31
0.0
  0
LINE
  5
91
330
1F
100
AcDbEntity
  8
1
  6
Continuous
 62
     4
100
AcDbLine
 10
43.3166589022629
 20
169.1578676730766
 30
0.0
 11
43.21371772579231
 21
167.4078676730766
 31
0.0
  0
LINE
  5
92
330
1F
100
AcDbEntity
  8
1
  6
Continuous
 62
     4
100
AcDbLine
 10
45.0666589022629
 20
169.1578676730766
 30
0.0
 11
43.3166589022629
 21
169.1578676730766
 31
0.0
  0
LINE
  5
93
330
1F
100
AcDbEntity
  8
1
  6
Continuous
 62
     4
100
AcDbLine
 10
41.5666589022629
 20
168.9245343397433
 30
0.0
 11
40.94901184343937
 21
169.1578676730766
 31
0.0
  0
LINE
  5
94
330
1F
100
AcDbEntity
  8
1
  6
Continuous
 62
     4
100
AcDbLine
 10
41.97842360814526
 20
168.3412010064099
 30
0.0
 11
41.5666589022629
 21
168.9245343397433
 31
0.0
  0
LINE
  5
95
330
1F
100
AcDbEntity
  8
1
  6
Continuous
 62
     4
100
AcDbLine
 10
42.08136478461584
 20
167.4078676730766
 30
0.0
 11
41.97842360814526
 21
168.3412010064099
 31
0.0
  0
LINE
  5
96
330
1F
100
AcDbEntity
  8
1
  6
Continuous
 62
     4
100
AcDbLine
 10
41.97842360814526
 20
166.4745343397433
 30
0.0
 11
42.08136478461584
 21
167.4078676730766
 31
0.0
  0
LINE
  5
97
330
1F
100
AcDbEntity
  8
1
  6
Continuous
 62
     4
100
AcDbLine
 10
41.5666589022629
 20
165.8912010064099
 30
0.0
 11
41.97842360814526
 21
166.4745343397433
 31
0.0
  0
LINE
  5
98
330
1F
100
AcDbEntity
  8
1
  6
Continuous
 62
     4
100
AcDbLine
 10
40.94901184343937
 20
165.6578676730766
 30
0.0
 11
41.5666589022629
 21
165.8912010064099
 31
0.0
  0
LINE
  5
99
330
1F
100
AcDbEntity
  8
1
  6
Continuous
 62
     4
100
AcDbLine
 10
40.33136478461584
 20
165.8912010064099
 30
0.0
 11
40.94901184343937
 21
165.6578676730766
 31
0.0
  0
LINE
  5
9A
330
1F
100
AcDbEntity
  8
1
  6
Continuous
 62
     4
100
AcDbLine
 10
40.02254125520408
 20
166.4745343397433
 30
0.0
 11
40.33136478461584
 21
165.8912010064099
 31
0.0
  0
LINE
  5
9B
330
1F
100
AcDbEntity
  8
1
  6
Continuous
 62
     4
100
AcDbLine
 10
39.8166589022629
 20
167.4078676730766
 30
0.0
 11
40.02254125520408
 21
166.4745343397433
 31
0.0
  0
LINE
  5
9C
330
1F
100
AcDbEntity
  8
1
  6
Continuous
 62
     4
100
AcDbLine
 10
40.02254125520408
 20
168.3412010064099
 30
0.0
 11
39.8166589022629
 21
167.4078676730766
 31
0.0
  0
LINE
  5
9D
330
1F
100
AcDbEntity
  8
1
  6
Continuous
 62
     4
100
AcDbLine
 10
40.33136478461584
 20
168.9245343397433
 30
0.0
 11
40.02254125520408
 21
168.3412010064099
 31
0.0
  0
LINE
  5
9E
330
1F
100
AcDbEntity
  8
1
  6
Continuous
 62
     4
100
AcDbLine
 10
40.94901184343937
 20
169.1578676730766
 30
0.0
 11
40.33136478461584
 21
168.9245343397433
 31
0.0
  0
LINE
  5
9F
330
1F
100
AcDbEntity
  8
1
  6
Continuous
 62
     4
100
AcDbLine
 10
38.47842360814526
 20
166.0078676730766
 30
0.0
 11
38.58136478461584
 21
166.1245343397433
 31
0.0
  0
LINE
  5
A0
330
1F
100
AcDbEntity
  8
1
  6
Continuous
 62
     4
100
AcDbLine
 10
38.58136478461584
 20
165.8912010064099
 30
0.0
 11
38.47842360814526
 21
166.0078676730766
 31
0.0
  0
LINE
  5
A1
330
1F
100
AcDbEntity
  8
1
  6
Continuous
 62
     4
100
AcDbLine
 10
38.68430596108644
 20
166.0078676730766
 30
0.0
 11
38.58136478461584
 21
165.8912010064099
 31
0.0
  0
LINE
  5
A2
330
1F
100
AcDbEntity
  8
1
  6
Continuous
 62
     4
100
AcDbLine
 10
38.58136478461584
 20
166.1245343397433
 30
0.0
 11
38.68430596108644
 21
166.0078676730766
 31
0.0
  0
LINE
  5
A3
330
1F
100
AcDbEntity
  8
1
  6
Continuous
 62
     4
100
AcDbLine
 10
38.47842360814526
 20
166.1245343397433
 30
0.0
 11
38.68430596108644
 21
166.1245343397433
 31
0.0
  0
LINE
  5
A4
330
1F
100
AcDbEntity
  8
1
  6
Continuous
 62
     4
100
AcDbLine
 10
38.47842360814526
 20
165.8912010064099
 30
0.0
 11
38.47842360814526
 21
166.1245343397433
 31
0.0
  0
LINE
  5
A5
330
1F
100
AcDbEntity
  8
1
  6
Continuous
 62
     4
100
AcDbLine
 10
38.68430596108644
 20
165.8912010064099
 30
0.0
 11
38.47842360814526
 21
165.8912010064099
 31
0.0
  0
LINE
  5
A6
330
1F
100
AcDbEntity
  8
1
  6
Continuous
 62
     4
100
AcDbLine
 10
38.68430596108644
 20
166.1245343397433
 30
0.0
 11
38.68430596108644
 21
165.8912010064099
 31
0.0
  0
LINE
  5
A7
330
1F
100
AcDbEntity
  8
1
  6
Continuous
 62
     4
100
AcDbLine
 10
38.37548243167467
 20
166.0078676730766
 30
0.0
 11
38.58136478461584
 21
166.2412010064099
 31
0.0
  0
LINE
  5
A8
330
1F
100
AcDbEntity
  8
1
  6
Continuous
 62
     4
100
AcDbLine
 10
38.58136478461584
 20
165.7745343397433
 30
0.0
 11
38.37548243167467
 21
166.0078676730766
 31
0.0
  0
LINE
  5
A9
330
1F
100
AcDbEntity
  8
1
  6
Continuous
 62
     4
100
AcDbLine
 10
38.78724713755702
 20
166.0078676730766
 30
0.0
 11
38.58136478461584
 21
165.7745343397433
 31
0.0
  0
LINE
  5
AA
330
1F
100
AcDbEntity
  8
1
  6
Continuous
 62
     4
100
AcDbLine
 10
38.58136478461584
 20
166.2412010064099
 30
0.0
 11
38.78724713755702
 21
166.0078676730766
 31
0.0
  0
LINE
  5
AB
330
1F
100
AcDbEntity
  8
1
  6
Continuous
 62
     4
100
AcDbLine
 10
36.83136478461584
 20
168.9245343397433
 30
0.0
 11
36.21371772579231
 21
169.1578676730766
 31
0.0
  0
LINE
  5
AC
330
1F
100
AcDbEntity
  8
1
  6
Continuous
 62
     4
100
AcDbLine
 10
37.2431294904982
 20
168.3412010064099
 30
0.0
 11
36.83136478461584
 21
168.9245343397433
 31
0.0
  0
LINE
  5
AD
330
1F
100
AcDbEntity
  8
1
  6
Continuous
 62
     4
100
AcDbLine
 10
37.34607066696879
 20
167.4078676730766
 30
0.0
 11
37.2431294904982
 21
168.3412010064099
 31
0.0
  0
LINE
  5
AE
330
1F
100
AcDbEntity
  8
1
  6
Continuous
 62
     4
100
AcDbLine
 10
37.2431294904982
 20
166.4745343397433
 30
0.0
 11
37.34607066696879
 21
167.4078676730766
 31
0.0
  0
LINE
  5
AF
330
1F
100
AcDbEntity
  8
1
  6
Continuous
 62
     4
100
AcDbLine
 10
36.83136478461584
 20
165.8912010064099
 30
0.0
 11
37.2431294904982
 21
166.4745343397433
 31
0.0
  0
LINE
  5
B0
330
1F
100
AcDbEntity
  8
1
  6
Continuous
 62
     4
100
AcDbLine
 10
36.21371772579231
 20
165.6578676730766
 30
0.0
 11
36.83136478461584
 21
165.8912010064099
 31
0.0
  0
LINE
  5
B1
330
1F
100
AcDbEntity
  8
1
  6
Continuous
 62
     4
100
AcDbLine
 10
35.59607066696879
 20
165.8912010064099
 30
0.0
 11
36.21371772579231
 21
165.6578676730766
 31
0.0
  0
LINE
  5
B2
330
1F
100
AcDbEntity
  8
1
  6
Continuous
 62
     4
100
AcDbLine
 10
35.28724713755702
 20
166.4745343397433
 30
0.0
 11
35.59607066696879
 21
165.8912010064099
 31
0.0
  0
LINE
  5
B3
330
1F
100
AcDbEntity
  8
1
  6
Continuous
 62
     4
100
AcDbLine
 10
35.08136478461584
 20
167.4078676730766
 30
0.0
 11
35.28724713755702
 21
166.4745343397433
 31
0.0
  0
LINE
  5
B4
330
1F
100
AcDbEntity
  8
1
  6
Continuous
 62
     4
100
AcDbLine
 10
35.28724713755702
 20
168.3412010064099
 30
0.0
 11
35.08136478461584
 21
167.4078676730766
 31
0.0
  0
LINE
  5
B5
330
1F
100
AcDbEntity
  8
1
  6
Continuous
 62
     4
100
AcDbLine
 10
35.59607066696879
 20
168.9245343397433
 30
0.0
 11
35.28724713755702
 21
168.3412010064099
 31
0.0
  0
LINE
  5
B6
330
1F
100
AcDbEntity
  8
1
  6
Continuous
 62
     4
100
AcDbLine
 10
36.21371772579231
 20
169.1578676730766
 30
0.0
 11
35.59607066696879
 21
168.9245343397433
 31
0.0
  0
LINE
  5
B7
330
1F
100
AcDbEntity
  8
1
  6
Continuous
 62
     4
100
AcDbLine
 10
49.80195301990997
 20
166.5912010064099
 30
0.0
 11
51.44901184343937
 21
166.5912010064099
 31
0.0
  0
LINE
  5
B8
330
1F
100
AcDbEntity
  8
1
  6
Continuous
 62
     4
100
AcDbLine
 10
50.62548243167467
 20
169.1578676730766
 30
0.0
 11
51.75783537285114
 21
165.6578676730766
 31
0.0
  0
LINE
  5
B9
330
1F
100
AcDbEntity
  8
1
  6
Continuous
 62
     4
100
AcDbLine
 10
49.4931294904982
 20
165.6578676730766
 30
0.0
 11
50.62548243167467
 21
169.1578676730766
 31
0.0
  0
LINE
  5
BA
330
1F
100
AcDbEntity
  8
1
  6
Continuous
 62
     4
100
AcDbLine
 10
33.27907994768069
 20
157.5894226647952
 30
0.0
 11
33.27907994768069
 21
150.5894226647952
 31
0.0
  0
LINE
  5
BB
330
1F
100
AcDbEntity
  8
1
  6
Continuous
 62
     4
100
AcDbLine
 10
40.27907994768069
 20
150.5894226647952
 30
0.0
 11
40.27907994768069
 21
157.5894226647952
 31
0.0
  0
LINE
  5
BC
330
1F
100
AcDbEntity
  8
1
  6
Continuous
 62
     4
100
AcDbLine
 10
12.27907994768069
 20
157.5894226647952
 30
0.0
 11
12.27907994768069
 21
150.5894226647952
 31
0.0
  0
LINE
  5
BD
330
1F
100
AcDbEntity
  8
1
  6
Continuous
 62
     4
100
AcDbLine
 10
40.27907994768069
 20
157.5894226647952
 30
0.0
 11
12.27907994768069
 21
157.5894226647952
 31
0.0
  0
LINE
  5
BE
330
1F
100
AcDbEntity
  8
1
  6
Continuous
 62
     4
100
AcDbLine
 10
19.27907994768069
 20
150.5894226647952
 30
0.0
 11
19.27907994768069
 21
157.5894226647952
 31
0.0
  0
LINE
  5
BF
330
1F
100
AcDbEntity
  8
1
  6
Continuous
 62
     4
100
AcDbLine
 10
12.27907994768069
 20
150.5894226647952
 30
0.0
 11
40.27907994768069
 21
150.5894226647952
 31
0.0
  0
LINE
  5
C0
330
1F
100
AcDbEntity
  8
1
  6
Continuous
 62
     4
100
AcDbLine
 10
13.32907994768069
 20
155.1394226647952
 30
0.0
 11
13.15407994768069
 21
154.4394226647952
 31
0.0
  0
LINE
  5
C1
330
1F
100
AcDbEntity
  8
1
  6
Continuous
 62
     4
100
AcDbLine
 10
13.67907994768069
 20
155.6644226647952
 30
0.0
 11
13.32907994768069
 21
155.1394226647952
 31
0.0
  0
LINE
  5
C2
330
1F
100
AcDbEntity
  8
1
  6
Continuous
 62
     4
100
AcDbLine
 10
14.20407994768069
 20
156.1894226647952
 30
0.0
 11
13.67907994768069
 21
155.6644226647952
 31
0.0
  0
LINE
  5
C3
330
1F
100
AcDbEntity
  8
1
  6
Continuous
 62
     4
100
AcDbLine
 10
14.72907994768069
 20
156.5394226647952
 30
0.0
 11
14.20407994768069
 21
156.1894226647952
 31
0.0
  0
LINE
  5
C4
330
1F
100
AcDbEntity
  8
1
  6
Continuous
 62
     4
100
AcDbLine
 10
15.42907994768069
 20
156.7144226647952
 30
0.0
 11
14.72907994768069
 21
156.5394226647952
 31
0.0
  0
LINE
  5
C5
330
1F
100
AcDbEntity
  8
1
  6
Continuous
 62
     4
100
AcDbLine
 10
16.12907994768069
 20
156.7144226647952
 30
0.0
 11
15.42907994768069
 21
156.7144226647952
 31
0.0
  0
LINE
  5
C6
330
1F
100
AcDbEntity
  8
1
  6
Continuous
 62
     4
100
AcDbLine
 10
16.82907994768069
 20
156.5394226647952
 30
0.0
 11
16.12907994768069
 21
156.7144226647952
 31
0.0
  0
LINE
  5
C7
330
1F
100
AcDbEntity
  8
1
  6
Continuous
 62
     4
100
AcDbLine
 10
17.35407994768069
 20
156.1894226647952
 30
0.0
 11
16.82907994768069
 21
156.5394226647952
 31
0.0
  0
LINE
  5
C8
330
1F
100
AcDbEntity
  8
1
  6
Continuous
 62
     4
100
AcDbLine
 10
17.87907994768069
 20
155.6644226647952
 30
0.0
 11
17.35407994768069
 21
156.1894226647952
 31
0.0
  0
LINE
  5
C9
330
1F
100
AcDbEntity
  8
1
  6
Continuous
 62
     4
100
AcDbLine
 10
18.22907994768069
 20
155.1394226647952
 30
0.0
 11
17.87907994768069
 21
155.6644226647952
 31
0.0
  0
LINE
  5
CA
330
1F
100
AcDbEntity
  8
1
  6
Continuous
 62
     4
100
AcDbLine
 10
18.40407994768069
 20
154.4394226647952
 30
0.0
 11
18.22907994768069
 21
155.1394226647952
 31
0.0
  0
LINE
  5
CB
330
1F
100
AcDbEntity
  8
1
  6
Continuous
 62
     4
100
AcDbLine
 10
18.40407994768069
 20
153.7394226647952
 30
0.0
 11
18.40407994768069
 21
154.4394226647952
 31
0.0
  0
LINE
  5
CC
330
1F
100
AcDbEntity
  8
1
  6
Continuous
 62
     4
100
AcDbLine
 10
18.22907994768069
 20
153.0394226647952
 30
0.0
 11
18.40407994768069
 21
153.7394226647952
 31
0.0
  0
LINE
  5
CD
330
1F
100
AcDbEntity
  8
1
  6
Continuous
 62
     4
100
AcDbLine
 10
17.87907994768069
 20
152.5144226647952
 30
0.0
 11
18.22907994768069
 21
153.0394226647952
 31
0.0
  0
LINE
  5
CE
330
1F
100
AcDbEntity
  8
1
  6
Continuous
 62
     4
100
AcDbLine
 10
17.35407994768069
 20
151.9894226647952
 30
0.0
 11
17.87907994768069
 21
152.5144226647952
 31
0.0
  0
LINE
  5
CF
330
1F
100
AcDbEntity
  8
1
  6
Continuous
 62
     4
100
AcDbLine
 10
16.82907994768069
 20
151.6394226647952
 30
0.0
 11
17.35407994768069
 21
151.9894226647952
 31
0.0
  0
LINE
  5
D0
330
1F
100
AcDbEntity
  8
1
  6
Continuous
 62
     4
100
AcDbLine
 10
16.12907994768069
 20
151.4644226647952
 30
0.0
 11
16.82907994768069
 21
151.6394226647952
 31
0.0
  0
LINE
  5
D1
330
1F
100
AcDbEntity
  8
1
  6
Continuous
 62
     4
100
AcDbLine
 10
15.42907994768069
 20
151.4644226647952
 30
0.0
 11
16.12907994768069
 21
151.4644226647952
 31
0.0
  0
LINE
  5
D2
330
1F
100
AcDbEntity
  8
1
  6
Continuous
 62
     4
100
AcDbLine
 10
14.72907994768069
 20
151.6394226647952
 30
0.0
 11
15.42907994768069
 21
151.4644226647952
 31
0.0
  0
LINE
  5
D3
330
1F
100
AcDbEntity
  8
1
  6
Continuous
 62
     4
100
AcDbLine
 10
14.20407994768069
 20
151.9894226647952
 30
0.0
 11
14.72907994768069
 21
151.6394226647952
 31
0.0
  0
LINE
  5
D4
330
1F
100
AcDbEntity
  8
1
  6
Continuous
 62
     4
100
AcDbLine
 10
13.67907994768069
 20
152.5144226647952
 30
0.0
 11
14.20407994768069
 21
151.9894226647952
 31
0.0
  0
LINE
  5
D5
330
1F
100
AcDbEntity
  8
1
  6
Continuous
 62
     4
100
AcDbLine
 10
13.32907994768069
 20
153.0394226647952
 30
0.0
 11
13.67907994768069
 21
152.5144226647952
 31
0.0
  0
LINE
  5
D6
330
1F
100
AcDbEntity
  8
1
  6
Continuous
 62
     4
100
AcDbLine
 10
13.15407994768069
 20
153.7394226647952
 30
0.0
 11
13.32907994768069
 21
153.0394226647952
 31
0.0
  0
LINE
  5
D7
330
1F
100
AcDbEntity
  8
1
  6
Continuous
 62
     4
100
AcDbLine
 10
13.15407994768069
 20
154.4394226647952
 30
0.0
 11
13.15407994768069
 21
153.7394226647952
 31
0.0
  0
LINE
  5
D8
330
1F
100
AcDbEntity
  8
1
  6
Continuous
 62
     4
100
AcDbLine
 10
14.37907994768069
 20
155.1394226647952
 30
0.0
 11
14.02907994768069
 21
154.4394226647952
 31
0.0
  0
LINE
  5
D9
330
1F
100
AcDbEntity
  8
1
  6
Continuous
 62
     4
100
AcDbLine
 10
14.72907994768069
 20
155.4894226647952
 30
0.0
 11
14.37907994768069
 21
155.1394226647952
 31
0.0
  0
LINE
  5
DA
330
1F
100
AcDbEntity
  8
1
  6
Continuous
 62
     4
100
AcDbLine
 10
15.42907994768069
 20
155.8394226647952
 30
0.0
 11
14.72907994768069
 21
155.4894226647952
 31
0.0
  0
LINE
  5
DB
330
1F
100
AcDbEntity
  8
1
  6
Continuous
 62
     4
100
AcDbLine
 10
16.12907994768069
 20
155.8394226647952
 30
0.0
 11
15.42907994768069
 21
155.8394226647952
 31
0.0
  0
LINE
  5
DC
330
1F
100
AcDbEntity
  8
1
  6
Continuous
 62
     4
100
AcDbLine
 10
16.82907994768069
 20
155.4894226647952
 30
0.0
 11
16.12907994768069
 21
155.8394226647952
 31
0.0
  0
LINE
  5
DD
330
1F
100
AcDbEntity
  8
1
  6
Continuous
 62
     4
100
AcDbLine
 10
17.17907994768069
 20
155.1394226647952
 30
0.0
 11
16.82907994768069
 21
155.4894226647952
 31
0.0
  0
LINE
  5
DE
330
1F
100
AcDbEntity
  8
1
  6
Continuous
 62
     4
100
AcDbLine
 10
17.52907994768069
 20
154.4394226647952
 30
0.0
 11
17.17907994768069
 21
155.1394226647952
 31
0.0
  0
LINE
  5
DF
330
1F
100
AcDbEntity
  8
1
  6
Continuous
 62
     4
100
AcDbLine
 10
17.52907994768069
 20
153.7394226647952
 30
0.0
 11
17.52907994768069
 21
154.4394226647952
 31
0.0
  0
LINE
  5
E0
330
1F
100
AcDbEntity
  8
1
  6
Continuous
 62
     4
100
AcDbLine
 10
17.17907994768069
 20
153.0394226647952
 30
0.0
 11
17.52907994768069
 21
153.7394226647952
 31
0.0
  0
LINE
  5
E1
330
1F
100
AcDbEntity
  8
1
  6
Continuous
 62
     4
100
AcDbLine
 10
16.82907994768069
 20
152.6894226647952
 30
0.0
 11
17.17907994768069
 21
153.0394226647952
 31
0.0
  0
LINE
  5
E2
330
1F
100
AcDbEntity
  8
1
  6
Continuous
 62
     4
100
AcDbLine
 10
16.12907994768069
 20
152.3394226647952
 30
0.0
 11
16.82907994768069
 21
152.6894226647952
 31
0.0
  0
LINE
  5
E3
330
1F
100
AcDbEntity
  8
1
  6
Continuous
 62
     4
100
AcDbLine
 10
15.42907994768069
 20
152.3394226647952
 30
0.0
 11
16.12907994768069
 21
152.3394226647952
 31
0.0
  0
LINE
  5
E4
330
1F
100
AcDbEntity
  8
1
  6
Continuous
 62
     4
100
AcDbLine
 10
14.72907994768069
 20
152.6894226647952
 30
0.0
 11
15.42907994768069
 21
152.3394226647952
 31
0.0
  0
LINE
  5
E5
330
1F
100
AcDbEntity
  8
1
  6
Continuous
 62
     4
100
AcDbLine
 10
14.37907994768069
 20
153.0394226647952
 30
0.0
 11
14.72907994768069
 21
152.6894226647952
 31
0.0
  0
LINE
  5
E6
330
1F
100
AcDbEntity
  8
1
  6
Continuous
 62
     4
100
AcDbLine
 10
14.02907994768069
 20
153.7394226647952
 30
0.0
 11
14.37907994768069
 21
153.0394226647952
 31
0.0
  0
LINE
  5
E7
330
1F
100
AcDbEntity
  8
1
  6
Continuous
 62
     4
100
AcDbLine
 10
14.02907994768069
 20
154.4394226647952
 30
0.0
 11
14.02907994768069
 21
153.7394226647952
 31
0.0
  0
LINE
  5
E8
330
1F
100
AcDbEntity
  8
1
  6
Continuous
 62
     4
100
AcDbLine
 10
30.95003583003363
 20
155.7227559981285
 30
0.0
 11
30.56400641826892
 21
155.8394226647952
 31
0.0
  0
LINE
  5
E9
330
1F
100
AcDbEntity
  8
1
  6
Continuous
 62
     4
100
AcDbLine
 10
31.18165347709246
 20
155.6060893314619
 30
0.0
 11
30.95003583003363
 21
155.7227559981285
 31
0.0
  0
LINE
  5
EA
330
1F
100
AcDbEntity
  8
1
  6
Continuous
 62
     4
100
AcDbLine
 10
31.2588593594454
 20
155.3727559981285
 30
0.0
 11
31.18165347709246
 21
155.6060893314619
 31
0.0
  0
LINE
  5
EB
330
1F
100
AcDbEntity
  8
1
  6
Continuous
 62
     4
100
AcDbLine
 10
31.33606524179834
 20
155.0227559981285
 30
0.0
 11
31.2588593594454
 21
155.3727559981285
 31
0.0
  0
LINE
  5
EC
330
1F
100
AcDbEntity
  8
1
  6
Continuous
 62
     4
100
AcDbLine
 10
31.2588593594454
 20
154.6727559981285
 30
0.0
 11
31.33606524179834
 21
155.0227559981285
 31
0.0
  0
LINE
  5
ED
330
1F
100
AcDbEntity
  8
1
  6
Continuous
 62
     4
100
AcDbLine
 10
31.02724171238657
 20
154.3227559981285
 30
0.0
 11
31.2588593594454
 21
154.6727559981285
 31
0.0
  0
LINE
  5
EE
330
1F
100
AcDbEntity
  8
1
  6
Continuous
 62
     4
100
AcDbLine
 10
30.71841818297481
 20
154.2060893314619
 30
0.0
 11
31.02724171238657
 21
154.3227559981285
 31
0.0
  0
LINE
  5
EF
330
1F
100
AcDbEntity
  8
1
  6
Continuous
 62
     4
100
AcDbLine
 10
30.48680053591599
 20
154.2060893314619
 30
0.0
 11
30.71841818297481
 21
154.2060893314619
 31
0.0
  0
LINE
  5
F0
330
1F
100
AcDbEntity
  8
1
  6
Continuous
 62
     4
100
AcDbLine
 10
30.17797700650422
 20
154.0894226647952
 30
0.0
 11
30.48680053591599
 21
154.2060893314619
 31
0.0
  0
LINE
  5
F1
330
1F
100
AcDbEntity
  8
1
  6
Continuous
 62
     4
100
AcDbLine
 10
30.02356524179834
 20
153.9727559981285
 30
0.0
 11
30.17797700650422
 21
154.0894226647952
 31
0.0
  0
LINE
  5
F2
330
1F
100
AcDbEntity
  8
1
  6
Continuous
 62
     4
100
AcDbLine
 10
29.79194759473952
 20
153.7394226647952
 30
0.0
 11
30.02356524179834
 21
153.9727559981285
 31
0.0
  0
LINE
  5
F3
330
1F
100
AcDbEntity
  8
1
  6
Continuous
 62
     4
100
AcDbLine
 10
29.71474171238657
 20
153.2727559981285
 30
0.0
 11
29.79194759473952
 21
153.7394226647952
 31
0.0
  0
LINE
  5
F4
330
1F
100
AcDbEntity
  8
1
  6
Continuous
 62
     4
100
AcDbLine
 10
29.86915347709246
 20
152.6894226647952
 30
0.0
 11
29.71474171238657
 21
153.2727559981285
 31
0.0
  0
LINE
  5
F5
330
1F
100
AcDbEntity
  8
1
  6
Continuous
 62
     4
100
AcDbLine
 10
30.10077112415128
 20
152.4560893314619
 30
0.0
 11
29.86915347709246
 21
152.6894226647952
 31
0.0
  0
LINE
  5
F6
330
1F
100
AcDbEntity
  8
1
  6
Continuous
 62
     4
100
AcDbLine
 10
30.56400641826892
 20
152.3394226647952
 30
0.0
 11
30.10077112415128
 21
152.4560893314619
 31
0.0
  0
LINE
  5
F7
330
1F
100
AcDbEntity
  8
1
  6
Continuous
 62
     4
100
AcDbLine
 10
31.02724171238657
 20
152.4560893314619
 30
0.0
 11
30.56400641826892
 21
152.3394226647952
 31
0.0
  0
LINE
  5
F8
330
1F
100
AcDbEntity
  8
1
  6
Continuous
 62
     4
100
AcDbLine
 10
31.33606524179834
 20
152.6894226647952
 30
0.0
 11
31.02724171238657
 21
152.4560893314619
 31
0.0
  0
LINE
  5
F9
330
1F
100
AcDbEntity
  8
1
  6
Continuous
 62
     4
100
AcDbLine
 10
31.49047700650422
 20
153.2727559981285
 30
0.0
 11
31.33606524179834
 21
152.6894226647952
 31
0.0
  0
LINE
  5
FA
330
1F
100
AcDbEntity
  8
1
  6
Continuous
 62
     4
100
AcDbLine
 10
31.33606524179834
 20
153.7394226647952
 30
0.0
 11
31.49047700650422
 21
153.2727559981285
 31
0.0
  0
LINE
  5
FB
330
1F
100
AcDbEntity
  8
1
  6
Continuous
 62
     4
100
AcDbLine
 10
31.02724171238657
 20
154.0894226647952
 30
0.0
 11
31.33606524179834
 21
153.7394226647952
 31
0.0
  0
LINE
  5
FC
330
1F
100
AcDbEntity
  8
1
  6
Continuous
 62
     4
100
AcDbLine
 10
30.71841818297481
 20
154.2060893314619
 30
0.0
 11
31.02724171238657
 21
154.0894226647952
 31
0.0
  0
LINE
  5
FD
330
1F
100
AcDbEntity
  8
1
  6
Continuous
 62
     4
100
AcDbLine
 10
30.48680053591599
 20
154.2060893314619
 30
0.0
 11
30.71841818297481
 21
154.2060893314619
 31
0.0
  0
LINE
  5
FE
330
1F
100
AcDbEntity
  8
1
  6
Continuous
 62
     4
100
AcDbLine
 10
30.17797700650422
 20
154.3227559981285
 30
0.0
 11
30.48680053591599
 21
154.2060893314619
 31
0.0
  0
LINE
  5
FF
330
1F
100
AcDbEntity
  8
1
  6
Continuous
 62
     4
100
AcDbLine
 10
29.9463593594454
 20
154.6727559981285
 30
0.0
 11
30.17797700650422
 21
154.3227559981285
 31
0.0
  0
LINE
  5
100
330
1F
100
AcDbEntity
  8
1
  6
Continuous
 62
     4
100
AcDbLine
 10
29.86915347709246
 20
155.0227559981285
 30
0.0
 11
29.9463593594454
 21
154.6727559981285
 31
0.0
  0
LINE
  5
101
330
1F
100
AcDbEntity
  8
1
  6
Continuous
 62
     4
100
AcDbLine
 10
29.9463593594454
 20
155.3727559981285
 30
0.0
 11
29.86915347709246
 21
155.0227559981285
 31
0.0
  0
LINE
  5
102
330
1F
100
AcDbEntity
  8
1
  6
Continuous
 62
     4
100
AcDbLine
 10
30.17797700650422
 20
155.7227559981285
 30
0.0
 11
29.9463593594454
 21
155.3727559981285
 31
0.0
  0
LINE
  5
103
330
1F
100
AcDbEntity
  8
1
  6
Continuous
 62
     4
100
AcDbLine
 10
30.56400641826892
 20
155.8394226647952
 30
0.0
 11
30.17797700650422
 21
155.7227559981285
 31
0.0
  0
LINE
  5
104
330
1F
100
AcDbEntity
  8
1
  6
Continuous
 62
     4
100
AcDbLine
 10
28.55665347709245
 20
155.6060893314619
 30
0.0
 11
28.09341818297481
 21
155.8394226647952
 31
0.0
  0
LINE
  5
105
330
1F
100
AcDbEntity
  8
1
  6
Continuous
 62
     4
100
AcDbLine
 10
28.86547700650422
 20
155.0227559981285
 30
0.0
 11
28.55665347709245
 21
155.6060893314619
 31
0.0
  0
LINE
  5
106
330
1F
100
AcDbEntity
  8
1
  6
Continuous
 62
     4
100
AcDbLine
 10
28.94268288885716
 20
154.0894226647952
 30
0.0
 11
28.86547700650422
 21
155.0227559981285
 31
0.0
  0
LINE
  5
107
330
1F
100
AcDbEntity
  8
1
  6
Continuous
 62
     4
100
AcDbLine
 10
28.86547700650422
 20
153.1560893314619
 30
0.0
 11
28.94268288885716
 21
154.0894226647952
 31
0.0
  0
LINE
  5
108
330
1F
100
AcDbEntity
  8
1
  6
Continuous
 62
     4
100
AcDbLine
 10
28.55665347709245
 20
152.5727559981285
 30
0.0
 11
28.86547700650422
 21
153.1560893314619
 31
0.0
  0
LINE
  5
109
330
1F
100
AcDbEntity
  8
1
  6
Continuous
 62
     4
100
AcDbLine
 10
28.09341818297481
 20
152.3394226647952
 30
0.0
 11
28.55665347709245
 21
152.5727559981285
 31
0.0
  0
LINE
  5
10A
330
1F
100
AcDbEntity
  8
1
  6
Continuous
 62
     4
100
AcDbLine
 10
27.63018288885716
 20
152.5727559981285
 30
0.0
 11
28.09341818297481
 21
152.3394226647952
 31
0.0
  0
LINE
  5
10B
330
1F
100
AcDbEntity
  8
1
  6
Continuous
 62
     4
100
AcDbLine
 10
27.39856524179834
 20
153.1560893314619
 30
0.0
 11
27.63018288885716
 21
152.5727559981285
 31
0.0
  0
LINE
  5
10C
330
1F
100
AcDbEntity
  8
1
  6
Continuous
 62
     4
100
AcDbLine
 10
27.24415347709245
 20
154.0894226647952
 30
0.0
 11
27.39856524179834
 21
153.1560893314619
 31
0.0
  0
LINE
  5
10D
330
1F
100
AcDbEntity
  8
1
  6
Continuous
 62
     4
100
AcDbLine
 10
27.39856524179834
 20
155.0227559981285
 30
0.0
 11
27.24415347709245
 21
154.0894226647952
 31
0.0
  0
LINE
  5
10E
330
1F
100
AcDbEntity
  8
1
  6
Continuous
 62
     4
100
AcDbLine
 10
27.63018288885716
 20
155.6060893314619
 30
0.0
 11
27.39856524179834
 21
155.0227559981285
 31
0.0
  0
LINE
  5
10F
330
1F
100
AcDbEntity
  8
1
  6
Continuous
 62
     4
100
AcDbLine
 10
28.09341818297481
 20
155.8394226647952
 30
0.0
 11
27.63018288885716
 21
155.6060893314619
 31
0.0
  0
LINE
  5
110
330
1F
100
AcDbEntity
  8
1
  6
Continuous
 62
     4
100
AcDbLine
 10
26.24047700650422
 20
152.6894226647952
 30
0.0
 11
26.31768288885716
 21
152.8060893314619
 31
0.0
  0
LINE
  5
111
330
1F
100
AcDbEntity
  8
1
  6
Continuous
 62
     4
100
AcDbLine
 10
26.31768288885716
 20
152.5727559981285
 30
0.0
 11
26.24047700650422
 21
152.6894226647952
 31
0.0
  0
LINE
  5
112
330
1F
100
AcDbEntity
  8
1
  6
Continuous
 62
     4
100
AcDbLine
 10
26.3948887712101
 20
152.6894226647952
 30
0.0
 11
26.31768288885716
 21
152.5727559981285
 31
0.0
  0
LINE
  5
113
330
1F
100
AcDbEntity
  8
1
  6
Continuous
 62
     4
100
AcDbLine
 10
26.31768288885716
 20
152.8060893314619
 30
0.0
 11
26.3948887712101
 21
152.6894226647952
 31
0.0
  0
LINE
  5
114
330
1F
100
AcDbEntity
  8
1
  6
Continuous
 62
     4
100
AcDbLine
 10
26.24047700650422
 20
152.8060893314619
 30
0.0
 11
26.3948887712101
 21
152.8060893314619
 31
0.0
  0
LINE
  5
115
330
1F
100
AcDbEntity
  8
1
  6
Continuous
 62
     4
100
AcDbLine
 10
26.24047700650422
 20
152.5727559981285
 30
0.0
 11
26.24047700650422
 21
152.8060893314619
 31
0.0
  0
LINE
  5
116
330
1F
100
AcDbEntity
  8
1
  6
Continuous
 62
     4
100
AcDbLine
 10
26.3948887712101
 20
152.5727559981285
 30
0.0
 11
26.24047700650422
 21
152.5727559981285
 31
0.0
  0
LINE
  5
117
330
1F
100
AcDbEntity
  8
1
  6
Continuous
 62
     4
100
AcDbLine
 10
26.3948887712101
 20
152.8060893314619
 30
0.0
 11
26.3948887712101
 21
152.5727559981285
 31
0.0
  0
LINE
  5
118
330
1F
100
AcDbEntity
  8
1
  6
Continuous
 62
     4
100
AcDbLine
 10
26.16327112415128
 20
152.6894226647952
 30
0.0
 11
26.31768288885716
 21
152.9227559981285
 31
0.0
  0
LINE
  5
119
330
1F
100
AcDbEntity
  8
1
  6
Continuous
 62
     4
100
AcDbLine
 10
26.31768288885716
 20
152.4560893314619
 30
0.0
 11
26.16327112415128
 21
152.6894226647952
 31
0.0
  0
LINE
  5
11A
330
1F
100
AcDbEntity
  8
1
  6
Continuous
 62
     4
100
AcDbLine
 10
26.47209465356304
 20
152.6894226647952
 30
0.0
 11
26.31768288885716
 21
152.4560893314619
 31
0.0
  0
LINE
  5
11B
330
1F
100
AcDbEntity
  8
1
  6
Continuous
 62
     4
100
AcDbLine
 10
26.31768288885716
 20
152.9227559981285
 30
0.0
 11
26.47209465356304
 21
152.6894226647952
 31
0.0
  0
LINE
  5
11C
330
1F
100
AcDbEntity
  8
1
  6
Continuous
 62
     4
100
AcDbLine
 10
25.00518288885716
 20
155.6060893314619
 30
0.0
 11
24.54194759473951
 21
155.8394226647952
 31
0.0
  0
LINE
  5
11D
330
1F
100
AcDbEntity
  8
1
  6
Continuous
 62
     4
100
AcDbLine
 10
25.31400641826892
 20
155.0227559981285
 30
0.0
 11
25.00518288885716
 21
155.6060893314619
 31
0.0
  0
LINE
  5
11E
330
1F
100
AcDbEntity
  8
1
  6
Continuous
 62
     4
100
AcDbLine
 10
25.39121230062187
 20
154.0894226647952
 30
0.0
 11
25.31400641826892
 21
155.0227559981285
 31
0.0
  0
LINE
  5
11F
330
1F
100
AcDbEntity
  8
1
  6
Continuous
 62
     4
100
AcDbLine
 10
25.31400641826892
 20
153.1560893314619
 30
0.0
 11
25.39121230062187
 21
154.0894226647952
 31
0.0
  0
LINE
  5
120
330
1F
100
AcDbEntity
  8
1
  6
Continuous
 62
     4
100
AcDbLine
 10
25.00518288885716
 20
152.5727559981285
 30
0.0
 11
25.31400641826892
 21
153.1560893314619
 31
0.0
  0
LINE
  5
121
330
1F
100
AcDbEntity
  8
1
  6
Continuous
 62
     4
100
AcDbLine
 10
24.54194759473951
 20
152.3394226647952
 30
0.0
 11
25.00518288885716
 21
152.5727559981285
 31
0.0
  0
LINE
  5
122
330
1F
100
AcDbEntity
  8
1
  6
Continuous
 62
     4
100
AcDbLine
 10
24.07871230062187
 20
152.5727559981285
 30
0.0
 11
24.54194759473951
 21
152.3394226647952
 31
0.0
  0
LINE
  5
123
330
1F
100
AcDbEntity
  8
1
  6
Continuous
 62
     4
100
AcDbLine
 10
23.84709465356304
 20
153.1560893314619
 30
0.0
 11
24.07871230062187
 21
152.5727559981285
 31
0.0
  0
LINE
  5
124
330
1F
100
AcDbEntity
  8
1
  6
Continuous
 62
     4
100
AcDbLine
 10
23.69268288885716
 20
154.0894226647952
 30
0.0
 11
23.84709465356304
 21
153.1560893314619
 31
0.0
  0
LINE
  5
125
330
1F
100
AcDbEntity
  8
1
  6
Continuous
 62
     4
100
AcDbLine
 10
23.84709465356304
 20
155.0227559981285
 30
0.0
 11
23.69268288885716
 21
154.0894226647952
 31
0.0
  0
LINE
  5
126
330
1F
100
AcDbEntity
  8
1
  6
Continuous
 62
     4
100
AcDbLine
 10
24.07871230062187
 20
155.6060893314619
 30
0.0
 11
23.84709465356304
 21
155.0227559981285
 31
0.0
  0
LINE
  5
127
330
1F
100
AcDbEntity
  8
1
  6
Continuous
 62
     4
100
AcDbLine
 10
24.54194759473951
 20
155.8394226647952
 30
0.0
 11
24.07871230062187
 21
155.6060893314619
 31
0.0
  0
LINE
  5
128
330
1F
100
AcDbEntity
  8
1
  6
Continuous
 62
     4
100
AcDbLine
 10
22.59893288885716
 20
154.7456726647952
 30
0.0
 11
22.38018288885716
 21
154.8550476647952
 31
0.0
  0
LINE
  5
129
330
1F
100
AcDbEntity
  8
1
  6
Continuous
 62
     4
100
AcDbLine
 10
22.74476622219049
 20
154.3081726647952
 30
0.0
 11
22.59893288885716
 21
154.7456726647952
 31
0.0
  0
LINE
  5
12A
330
1F
100
AcDbEntity
  8
1
  6
Continuous
 62
     4
100
AcDbLine
 10
22.74476622219049
 20
153.8706726647952
 30
0.0
 11
22.74476622219049
 21
154.3081726647952
 31
0.0
  0
LINE
  5
12B
330
1F
100
AcDbEntity
  8
1
  6
Continuous
 62
     4
100
AcDbLine
 10
22.52601622219049
 20
153.3237976647952
 30
0.0
 11
22.74476622219049
 21
153.8706726647952
 31
0.0
  0
LINE
  5
12C
330
1F
100
AcDbEntity
  8
1
  6
Continuous
 62
     4
100
AcDbLine
 10
22.23434955552383
 20
153.1050476647952
 30
0.0
 11
22.52601622219049
 21
153.3237976647952
 31
0.0
  0
LINE
  5
12D
330
1F
100
AcDbEntity
  8
1
  6
Continuous
 62
     4
100
AcDbLine
 10
21.94268288885716
 20
153.1050476647952
 30
0.0
 11
22.23434955552383
 21
153.1050476647952
 31
0.0
  0
LINE
  5
12E
330
1F
100
AcDbEntity
  8
1
  6
Continuous
 62
     4
100
AcDbLine
 10
21.72393288885716
 20
153.2144226647952
 30
0.0
 11
21.94268288885716
 21
153.1050476647952
 31
0.0
  0
LINE
  5
12F
330
1F
100
AcDbEntity
  8
1
  6
Continuous
 62
     4
100
AcDbLine
 10
21.57809955552383
 20
153.6519226647952
 30
0.0
 11
21.72393288885716
 21
153.2144226647952
 31
0.0
  0
LINE
  5
130
330
1F
100
AcDbEntity
  8
1
  6
Continuous
 62
     4
100
AcDbLine
 10
21.57809955552383
 20
154.0894226647952
 30
0.0
 11
21.57809955552383
 21
153.6519226647952
 31
0.0
  0
LINE
  5
131
330
1F
100
AcDbEntity
  8
1
  6
Continuous
 62
     4
100
AcDbLine
 10
21.79684955552383
 20
154.6362976647952
 30
0.0
 11
21.57809955552383
 21
154.0894226647952
 31
0.0
  0
LINE
  5
132
330
1F
100
AcDbEntity
  8
1
  6
Continuous
 62
     4
100
AcDbLine
 10
22.08851622219049
 20
154.8550476647952
 30
0.0
 11
21.79684955552383
 21
154.6362976647952
 31
0.0
  0
LINE
  5
133
330
1F
100
AcDbEntity
  8
1
  6
Continuous
 62
     4
100
AcDbLine
 10
22.38018288885716
 20
154.8550476647952
 30
0.0
 11
22.08851622219049
 21
154.8550476647952
 31
0.0
  0
LINE
  5
134
330
1F
100
AcDbEntity
  8
1
  6
Continuous
 62
     4
100
AcDbLine
 10
21.79684955552383
 20
152.3394226647952
 30
0.0
 11
22.52601622219049
 21
155.7300476647952
 31
0.0
  0
LINE
  5
135
330
1F
100
AcDbEntity
  8
1
  6
Continuous
 62
     4
100
AcDbLine
 10
35.95555053591599
 20
153.2727559981285
 30
0.0
 11
37.6026093594454
 21
153.2727559981285
 31
0.0
  0
LINE
  5
136
330
1F
100
AcDbEntity
  8
1
  6
Continuous
 62
     4
100
AcDbLine
 10
36.77907994768069
 20
155.8394226647952
 30
0.0
 11
37.91143288885716
 21
152.3394226647952
 31
0.0
  0
LINE
  5
137
330
1F
100
AcDbEntity
  8
1
  6
Continuous
 62
     4
100
AcDbLine
 10
35.64672700650422
 20
152.3394226647952
 30
0.0
 11
36.77907994768069
 21
155.8394226647952
 31
0.0
  0
LINE
  5
138
330
1F
100
AcDbEntity
  8
1
  6
Continuous
 62
     2
100
AcDbLine
 10
55.32413272759377
 20
192.8336114305898
 30
0.0
 11
55.1182503746526
 21
192.1336114305898
 31
0.0
  0
LINE
  5
139
330
1F
100
AcDbEntity
  8
1
  6
Continuous
 62
     2
100
AcDbLine
 10
55.63295625700554
 20
193.1836114305898
 30
0.0
 11
55.32413272759377
 21
192.8336114305898
 31
0.0
  0
LINE
  5
13A
330
1F
100
AcDbEntity
  8
1
  6
Continuous
 62
     2
100
AcDbLine
 10
56.04472096288789
 20
193.3002780972565
 30
0.0
 11
55.63295625700554
 21
193.1836114305898
 31
0.0
  0
LINE
  5
13B
330
1F
100
AcDbEntity
  8
1
  6
Continuous
 62
     2
100
AcDbLine
 10
56.45648566877024
 20
193.1836114305898
 30
0.0
 11
56.04472096288789
 21
193.3002780972565
 31
0.0
  0
LINE
  5
13C
330
1F
100
AcDbEntity
  8
1
  6
Continuous
 62
     2
100
AcDbLine
 10
56.8682503746526
 20
192.8336114305898
 30
0.0
 11
56.45648566877024
 21
193.1836114305898
 31
0.0
  0
LINE
  5
13D
330
1F
100
AcDbEntity
  8
1
  6
Continuous
 62
     2
100
AcDbLine
 10
56.97119155112318
 20
192.6002780972565
 30
0.0
 11
56.8682503746526
 21
192.8336114305898
 31
0.0
  0
LINE
  5
13E
330
1F
100
AcDbEntity
  8
1
  6
Continuous
 62
     2
100
AcDbLine
 10
57.07413272759377
 20
192.1336114305898
 30
0.0
 11
56.97119155112318
 21
192.6002780972565
 31
0.0
  0
LINE
  5
13F
330
1F
100
AcDbEntity
  8
1
  6
Continuous
 62
     2
100
AcDbLine
 10
56.8682503746526
 20
191.5502780972565
 30
0.0
 11
57.07413272759377
 21
192.1336114305898
 31
0.0
  0
LINE
  5
140
330
1F
100
AcDbEntity
  8
1
  6
Continuous
 62
     2
100
AcDbLine
 10
56.55942684524083
 20
191.2002780972565
 30
0.0
 11
56.8682503746526
 21
191.5502780972565
 31
0.0
  0
LINE
  5
141
330
1F
100
AcDbEntity
  8
1
  6
Continuous
 62
     2
100
AcDbLine
 10
56.04472096288789
 20
191.0836114305898
 30
0.0
 11
56.55942684524083
 21
191.2002780972565
 31
0.0
  0
LINE
  5
142
330
1F
100
AcDbEntity
  8
1
  6
Continuous
 62
     2
100
AcDbLine
 10
55.42707390406437
 20
191.3169447639231
 30
0.0
 11
56.04472096288789
 21
191.0836114305898
 31
0.0
  0
LINE
  5
143
330
1F
100
AcDbEntity
  8
1
  6
Continuous
 62
     2
100
AcDbLine
 10
55.22119155112318
 20
191.6669447639231
 30
0.0
 11
55.42707390406437
 21
191.3169447639231
 31
0.0
  0
LINE
  5
144
330
1F
100
AcDbEntity
  8
1
  6
Continuous
 62
     2
100
AcDbLine
 10
55.1182503746526
 20
192.1336114305898
 30
0.0
 11
55.22119155112318
 21
191.6669447639231
 31
0.0
  0
LINE
  5
145
330
1F
100
AcDbEntity
  8
1
  6
Continuous
 62
     2
100
AcDbLine
 10
55.1182503746526
 20
193.5336114305898
 30
0.0
 11
55.1182503746526
 21
192.1336114305898
 31
0.0
  0
LINE
  5
146
330
1F
100
AcDbEntity
  8
1
  6
Continuous
 62
     2
100
AcDbLine
 10
55.22119155112318
 20
194.0002780972565
 30
0.0
 11
55.1182503746526
 21
193.5336114305898
 31
0.0
  0
LINE
  5
147
330
1F
100
AcDbEntity
  8
1
  6
Continuous
 62
     2
100
AcDbLine
 10
55.53001508053495
 20
194.3502780972565
 30
0.0
 11
55.22119155112318
 21
194.0002780972565
 31
0.0
  0
LINE
  5
148
330
1F
100
AcDbEntity
  8
1
  6
Continuous
 62
     2
100
AcDbLine
 10
55.73589743347613
 20
194.4669447639231
 30
0.0
 11
55.53001508053495
 21
194.3502780972565
 31
0.0
  0
LINE
  5
149
330
1F
100
AcDbEntity
  8
1
  6
Continuous
 62
     2
100
AcDbLine
 10
56.04472096288789
 20
194.5836114305898
 30
0.0
 11
55.73589743347613
 21
194.4669447639231
 31
0.0
  0
LINE
  5
14A
330
1F
100
AcDbEntity
  8
1
  6
Continuous
 62
     2
100
AcDbLine
 10
56.45648566877024
 20
194.4669447639231
 30
0.0
 11
56.04472096288789
 21
194.5836114305898
 31
0.0
  0
LINE
  5
14B
330
1F
100
AcDbEntity
  8
1
  6
Continuous
 62
     2
100
AcDbLine
 10
56.76530919818201
 20
194.3502780972565
 30
0.0
 11
56.45648566877024
 21
194.4669447639231
 31
0.0
  0
LINE
  5
14C
330
1F
100
AcDbEntity
  8
1
  6
Continuous
 62
     2
100
AcDbLine
 10
57.07413272759377
 20
194.0002780972565
 30
0.0
 11
56.76530919818201
 21
194.3502780972565
 31
0.0
  0
LINE
  5
14D
330
1F
100
AcDbEntity
  8
1
  6
Continuous
 62
     2
100
AcDbLine
 10
51.82413272759377
 20
191.0836114305898
 30
0.0
 11
54.08883860994671
 21
191.0836114305898
 31
0.0
  0
LINE
  5
14E
330
1F
100
AcDbEntity
  8
1
  6
Continuous
 62
     2
100
AcDbLine
 10
52.03001508053495
 20
191.6669447639231
 30
0.0
 11
51.82413272759377
 21
191.0836114305898
 31
0.0
  0
LINE
  5
14F
330
1F
100
AcDbEntity
  8
1
  6
Continuous
 62
     2
100
AcDbLine
 10
52.23589743347613
 20
192.0169447639231
 30
0.0
 11
52.03001508053495
 21
191.6669447639231
 31
0.0
  0
LINE
  5
150
330
1F
100
AcDbEntity
  8
1
  6
Continuous
 62
     2
100
AcDbLine
 10
52.64766213935847
 20
192.3669447639231
 30
0.0
 11
52.23589743347613
 21
192.0169447639231
 31
0.0
  0
LINE
  5
151
330
1F
100
AcDbEntity
  8
1
  6
Continuous
 62
     2
100
AcDbLine
 10
53.05942684524083
 20
192.6002780972565
 30
0.0
 11
52.64766213935847
 21
192.3669447639231
 31
0.0
  0
LINE
  5
152
330
1F
100
AcDbEntity
  8
1
  6
Continuous
 62
     2
100
AcDbLine
 10
53.57413272759377
 20
192.9502780972565
 30
0.0
 11
53.05942684524083
 21
192.6002780972565
 31
0.0
  0
LINE
  5
153
330
1F
100
AcDbEntity
  8
1
  6
Continuous
 62
     2
100
AcDbLine
 10
53.88295625700554
 20
193.4169447639231
 30
0.0
 11
53.57413272759377
 21
192.9502780972565
 31
0.0
  0
LINE
  5
154
330
1F
100
AcDbEntity
  8
1
  6
Continuous
 62
     2
100
AcDbLine
 10
53.98589743347613
 20
193.8836114305898
 30
0.0
 11
53.88295625700554
 21
193.4169447639231
 31
0.0
  0
LINE
  5
155
330
1F
100
AcDbEntity
  8
1
  6
Continuous
 62
     2
100
AcDbLine
 10
53.57413272759377
 20
194.3502780972565
 30
0.0
 11
53.98589743347613
 21
193.8836114305898
 31
0.0
  0
LINE
  5
156
330
1F
100
AcDbEntity
  8
1
  6
Continuous
 62
     2
100
AcDbLine
 10
52.95648566877024
 20
194.5836114305898
 30
0.0
 11
53.57413272759377
 21
194.3502780972565
 31
0.0
  0
LINE
  5
157
330
1F
100
AcDbEntity
  8
1
  6
Continuous
 62
     2
100
AcDbLine
 10
52.33883860994671
 20
194.3502780972565
 30
0.0
 11
52.95648566877024
 21
194.5836114305898
 31
0.0
  0
LINE
  5
158
330
1F
100
AcDbEntity
  8
1
  6
Continuous
 62
     2
100
AcDbLine
 10
51.92707390406436
 20
193.8836114305898
 30
0.0
 11
52.33883860994671
 21
194.3502780972565
 31
0.0
  0
LINE
  5
159
330
1F
100
AcDbEntity
  8
1
  6
Continuous
 62
     2
100
AcDbLine
 10
50.79472096288789
 20
192.7169447639231
 30
0.0
 11
49.8682503746526
 21
192.7169447639231
 31
0.0
  0
LINE
  5
15A
330
1F
100
AcDbEntity
  8
1
  6
Continuous
 62
     2
100
AcDbLine
 10
50.79472096288789
 20
192.0169447639231
 30
0.0
 11
50.79472096288789
 21
192.7169447639231
 31
0.0
  0
LINE
  5
15B
330
1F
100
AcDbEntity
  8
1
  6
Continuous
 62
     2
100
AcDbLine
 10
50.69177978641731
 20
191.6669447639231
 30
0.0
 11
50.79472096288789
 21
192.0169447639231
 31
0.0
  0
LINE
  5
15C
330
1F
100
AcDbEntity
  8
1
  6
Continuous
 62
     2
100
AcDbLine
 10
50.48589743347613
 20
191.4336114305898
 30
0.0
 11
50.69177978641731
 21
191.6669447639231
 31
0.0
  0
LINE
  5
15D
330
1F
100
AcDbEntity
  8
1
  6
Continuous
 62
     2
100
AcDbLine
 10
50.17707390406437
 20
191.2002780972565
 30
0.0
 11
50.48589743347613
 21
191.4336114305898
 31
0.0
  0
LINE
  5
15E
330
1F
100
AcDbEntity
  8
1
  6
Continuous
 62
     2
100
AcDbLine
 10
49.66236802171142
 20
191.0836114305898
 30
0.0
 11
50.17707390406437
 21
191.2002780972565
 31
0.0
  0
LINE
  5
15F
330
1F
100
AcDbEntity
  8
1
  6
Continuous
 62
     2
100
AcDbLine
 10
49.14766213935848
 20
191.2002780972565
 30
0.0
 11
49.66236802171142
 21
191.0836114305898
 31
0.0
  0
LINE
  5
160
330
1F
100
AcDbEntity
  8
1
  6
Continuous
 62
     2
100
AcDbLine
 10
48.83883860994672
 20
191.6669447639231
 30
0.0
 11
49.14766213935848
 21
191.2002780972565
 31
0.0
  0
LINE
  5
161
330
1F
100
AcDbEntity
  8
1
  6
Continuous
 62
     2
100
AcDbLine
 10
48.73589743347613
 20
191.9002780972565
 30
0.0
 11
48.83883860994672
 21
191.6669447639231
 31
0.0
  0
LINE
  5
162
330
1F
100
AcDbEntity
  8
1
  6
Continuous
 62
     2
100
AcDbLine
 10
48.53001508053495
 20
192.8336114305898
 30
0.0
 11
48.73589743347613
 21
191.9002780972565
 31
0.0
  0
LINE
  5
163
330
1F
100
AcDbEntity
  8
1
  6
Continuous
 62
     2
100
AcDbLine
 10
48.63295625700554
 20
193.3002780972565
 30
0.0
 11
48.53001508053495
 21
192.8336114305898
 31
0.0
  0
LINE
  5
164
330
1F
100
AcDbEntity
  8
1
  6
Continuous
 62
     2
100
AcDbLine
 10
48.83883860994672
 20
194.0002780972565
 30
0.0
 11
48.63295625700554
 21
193.3002780972565
 31
0.0
  0
LINE
  5
165
330
1F
100
AcDbEntity
  8
1
  6
Continuous
 62
     2
100
AcDbLine
 10
48.94177978641731
 20
194.2336114305898
 30
0.0
 11
48.83883860994672
 21
194.0002780972565
 31
0.0
  0
LINE
  5
166
330
1F
100
AcDbEntity
  8
1
  6
Continuous
 62
     2
100
AcDbLine
 10
49.25060331582907
 20
194.4669447639231
 30
0.0
 11
48.94177978641731
 21
194.2336114305898
 31
0.0
  0
LINE
  5
167
330
1F
100
AcDbEntity
  8
1
  6
Continuous
 62
     2
100
AcDbLine
 10
49.66236802171142
 20
194.5836114305898
 30
0.0
 11
49.25060331582907
 21
194.4669447639231
 31
0.0
  0
LINE
  5
168
330
1F
100
AcDbEntity
  8
1
  6
Continuous
 62
     2
100
AcDbLine
 10
50.17707390406437
 20
194.4669447639231
 30
0.0
 11
49.66236802171142
 21
194.5836114305898
 31
0.0
  0
LINE
  5
169
330
1F
100
AcDbEntity
  8
1
  6
Continuous
 62
     2
100
AcDbLine
 10
50.38295625700554
 20
194.3502780972565
 30
0.0
 11
50.17707390406437
 21
194.4669447639231
 31
0.0
  0
LINE
  5
16A
330
1F
100
AcDbEntity
  8
1
  6
Continuous
 62
     2
100
AcDbLine
 10
50.58883860994672
 20
194.1169447639231
 30
0.0
 11
50.38295625700554
 21
194.3502780972565
 31
0.0
  0
LINE
  5
16B
330
1F
100
AcDbEntity
  8
1
  6
Continuous
 62
     2
100
AcDbLine
 10
50.79472096288789
 20
193.7669447639231
 30
0.0
 11
50.58883860994672
 21
194.1169447639231
 31
0.0
  0
LINE
  5
16C
330
1F
100
AcDbEntity
  8
1
  6
Continuous
 62
     2
100
AcDbLine
 10
46.78001508053495
 20
191.0836114305898
 30
0.0
 11
47.50060331582907
 21
194.5836114305898
 31
0.0
  0
LINE
  5
16D
330
1F
100
AcDbEntity
  8
1
  6
Continuous
 62
     2
100
AcDbLine
 10
45.95648566877025
 20
194.4669447639231
 30
0.0
 11
46.78001508053495
 21
191.0836114305898
 31
0.0
  0
LINE
  5
16E
330
1F
100
AcDbEntity
  8
1
  6
Continuous
 62
     2
100
AcDbLine
 10
45.23589743347613
 20
191.0836114305898
 30
0.0
 11
45.95648566877025
 21
194.4669447639231
 31
0.0
  0
LINE
  5
16F
330
1F
100
AcDbEntity
  8
1
  6
Continuous
 62
     2
100
AcDbLine
 10
44.41236802171142
 20
194.5836114305898
 30
0.0
 11
45.23589743347613
 21
191.0836114305898
 31
0.0
  0
LINE
  5
170
330
1F
100
AcDbEntity
  8
1
  6
Continuous
 62
     2
100
AcDbLine
 10
41.42707390406437
 20
192.0169447639231
 30
0.0
 11
43.07413272759377
 21
192.0169447639231
 31
0.0
  0
LINE
  5
171
330
1F
100
AcDbEntity
  8
1
  6
Continuous
 62
     2
100
AcDbLine
 10
42.25060331582907
 20
194.5836114305898
 30
0.0
 11
43.38295625700554
 21
191.0836114305898
 31
0.0
  0
LINE
  5
172
330
1F
100
AcDbEntity
  8
1
  6
Continuous
 62
     2
100
AcDbLine
 10
41.1182503746526
 20
191.0836114305898
 30
0.0
 11
42.25060331582907
 21
194.5836114305898
 31
0.0
  0
LINE
  5
173
330
1F
100
AcDbEntity
  8
1
  6
Continuous
 62
     2
100
AcDbLine
 10
57.38295625700554
 20
185.4730676762442
 30
0.0
 11
57.38295625700554
 21
184.6564010095775
 31
0.0
  0
LINE
  5
174
330
1F
100
AcDbEntity
  8
1
  6
Continuous
 62
     2
100
AcDbLine
 10
57.58883860994671
 20
186.5230676762442
 30
0.0
 11
57.38295625700554
 21
185.4730676762442
 31
0.0
  0
LINE
  5
175
330
1F
100
AcDbEntity
  8
1
  6
Continuous
 62
     2
100
AcDbLine
 10
58.41236802171142
 20
188.1564010095775
 30
0.0
 11
57.58883860994671
 21
186.5230676762442
 31
0.0
  0
LINE
  5
176
330
1F
100
AcDbEntity
  8
1
  6
Continuous
 62
     2
100
AcDbLine
 10
56.35354449229966
 20
188.1564010095775
 30
0.0
 11
58.41236802171142
 21
188.1564010095775
 31
0.0
  0
LINE
  5
177
330
1F
100
AcDbEntity
  8
1
  6
Continuous
 62
     2
100
AcDbLine
 10
54.80942684524084
 20
187.9230676762442
 30
0.0
 11
54.19177978641731
 21
188.1564010095775
 31
0.0
  0
LINE
  5
178
330
1F
100
AcDbEntity
  8
1
  6
Continuous
 62
     2
100
AcDbLine
 10
55.22119155112319
 20
187.3397343429108
 30
0.0
 11
54.80942684524084
 21
187.9230676762442
 31
0.0
  0
LINE
  5
179
330
1F
100
AcDbEntity
  8
1
  6
Continuous
 62
     2
100
AcDbLine
 10
55.32413272759378
 20
186.4064010095775
 30
0.0
 11
55.22119155112319
 21
187.3397343429108
 31
0.0
  0
LINE
  5
17A
330
1F
100
AcDbEntity
  8
1
  6
Continuous
 62
     2
100
AcDbLine
 10
55.22119155112319
 20
185.4730676762442
 30
0.0
 11
55.32413272759378
 21
186.4064010095775
 31
0.0
  0
LINE
  5
17B
330
1F
100
AcDbEntity
  8
1
  6
Continuous
 62
     2
100
AcDbLine
 10
54.80942684524084
 20
184.8897343429108
 30
0.0
 11
55.22119155112319
 21
185.4730676762442
 31
0.0
  0
LINE
  5
17C
330
1F
100
AcDbEntity
  8
1
  6
Continuous
 62
     2
100
AcDbLine
 10
54.19177978641731
 20
184.6564010095775
 30
0.0
 11
54.80942684524084
 21
184.8897343429108
 31
0.0
  0
LINE
  5
17D
330
1F
100
AcDbEntity
  8
1
  6
Continuous
 62
     2
100
AcDbLine
 10
53.57413272759378
 20
184.8897343429108
 30
0.0
 11
54.19177978641731
 21
184.6564010095775
 31
0.0
  0
LINE
  5
17E
330
1F
100
AcDbEntity
  8
1
  6
Continuous
 62
     2
100
AcDbLine
 10
53.26530919818201
 20
185.4730676762442
 30
0.0
 11
53.57413272759378
 21
184.8897343429108
 31
0.0
  0
LINE
  5
17F
330
1F
100
AcDbEntity
  8
1
  6
Continuous
 62
     2
100
AcDbLine
 10
53.05942684524084
 20
186.4064010095775
 30
0.0
 11
53.26530919818201
 21
185.4730676762442
 31
0.0
  0
LINE
  5
180
330
1F
100
AcDbEntity
  8
1
  6
Continuous
 62
     2
100
AcDbLine
 10
53.26530919818201
 20
187.3397343429108
 30
0.0
 11
53.05942684524084
 21
186.4064010095775
 31
0.0
  0
LINE
  5
181
330
1F
100
AcDbEntity
  8
1
  6
Continuous
 62
     2
100
AcDbLine
 10
53.57413272759378
 20
187.9230676762442
 30
0.0
 11
53.26530919818201
 21
187.3397343429108
 31
0.0
  0
LINE
  5
182
330
1F
100
AcDbEntity
  8
1
  6
Continuous
 62
     2
100
AcDbLine
 10
54.19177978641731
 20
188.1564010095775
 30
0.0
 11
53.57413272759378
 21
187.9230676762442
 31
0.0
  0
LINE
  5
183
330
1F
100
AcDbEntity
  8
1
  6
Continuous
 62
     2
100
AcDbLine
 10
51.51530919818201
 20
187.9230676762442
 30
0.0
 11
50.89766213935848
 21
188.1564010095775
 31
0.0
  0
LINE
  5
184
330
1F
100
AcDbEntity
  8
1
  6
Continuous
 62
     2
100
AcDbLine
 10
51.92707390406437
 20
187.3397343429108
 30
0.0
 11
51.51530919818201
 21
187.9230676762442
 31
0.0
  0
LINE
  5
185
330
1F
100
AcDbEntity
  8
1
  6
Continuous
 62
     2
100
AcDbLine
 10
52.03001508053495
 20
186.4064010095775
 30
0.0
 11
51.92707390406437
 21
187.3397343429108
 31
0.0
  0
LINE
  5
186
330
1F
100
AcDbEntity
  8
1
  6
Continuous
 62
     2
100
AcDbLine
 10
51.92707390406437
 20
185.4730676762442
 30
0.0
 11
52.03001508053495
 21
186.4064010095775
 31
0.0
  0
LINE
  5
187
330
1F
100
AcDbEntity
  8
1
  6
Continuous
 62
     2
100
AcDbLine
 10
51.51530919818201
 20
184.8897343429108
 30
0.0
 11
51.92707390406437
 21
185.4730676762442
 31
0.0
  0
LINE
  5
188
330
1F
100
AcDbEntity
  8
1
  6
Continuous
 62
     2
100
AcDbLine
 10
50.89766213935848
 20
184.6564010095775
 30
0.0
 11
51.51530919818201
 21
184.8897343429108
 31
0.0
  0
LINE
  5
189
330
1F
100
AcDbEntity
  8
1
  6
Continuous
 62
     2
100
AcDbLine
 10
50.28001508053495
 20
184.8897343429108
 30
0.0
 11
50.89766213935848
 21
184.6564010095775
 31
0.0
  0
LINE
  5
18A
330
1F
100
AcDbEntity
  8
1
  6
Continuous
 62
     2
100
AcDbLine
 10
49.97119155112318
 20
185.4730676762442
 30
0.0
 11
50.28001508053495
 21
184.8897343429108
 31
0.0
  0
LINE
  5
18B
330
1F
100
AcDbEntity
  8
1
  6
Continuous
 62
     2
100
AcDbLine
 10
49.76530919818201
 20
186.4064010095775
 30
0.0
 11
49.97119155112318
 21
185.4730676762442
 31
0.0
  0
LINE
  5
18C
330
1F
100
AcDbEntity
  8
1
  6
Continuous
 62
     2
100
AcDbLine
 10
49.97119155112318
 20
187.3397343429108
 30
0.0
 11
49.76530919818201
 21
186.4064010095775
 31
0.0
  0
LINE
  5
18D
330
1F
100
AcDbEntity
  8
1
  6
Continuous
 62
     2
100
AcDbLine
 10
50.28001508053495
 20
187.9230676762442
 30
0.0
 11
49.97119155112318
 21
187.3397343429108
 31
0.0
  0
LINE
  5
18E
330
1F
100
AcDbEntity
  8
1
  6
Continuous
 62
     2
100
AcDbLine
 10
50.89766213935848
 20
188.1564010095775
 30
0.0
 11
50.28001508053495
 21
187.9230676762442
 31
0.0
  0
LINE
  5
18F
330
1F
100
AcDbEntity
  8
1
  6
Continuous
 62
     2
100
AcDbLine
 10
48.22119155112318
 20
188.1564010095775
 30
0.0
 11
48.22119155112318
 21
184.6564010095775
 31
0.0
  0
LINE
  5
190
330
1F
100
AcDbEntity
  8
1
  6
Continuous
 62
     2
100
AcDbLine
 10
47.70648566877024
 20
187.8064010095775
 30
0.0
 11
48.22119155112318
 21
188.1564010095775
 31
0.0
  0
LINE
  5
191
330
1F
100
AcDbEntity
  8
1
  6
Continuous
 62
     2
100
AcDbLine
 10
44.10354449229966
 20
184.6564010095775
 30
0.0
 11
46.16236802171142
 21
184.6564010095775
 31
0.0
  0
LINE
  5
192
330
1F
100
AcDbEntity
  8
1
  6
Continuous
 62
     2
100
AcDbLine
 10
44.10354449229966
 20
188.1564010095775
 30
0.0
 11
44.10354449229966
 21
184.6564010095775
 31
0.0
  0
LINE
  5
193
330
1F
100
AcDbEntity
  8
1
  6
Continuous
 62
     2
100
AcDbLine
 10
43.07413272759377
 20
185.3564010095775
 30
0.0
 11
43.07413272759377
 21
188.1564010095775
 31
0.0
  0
LINE
  5
194
330
1F
100
AcDbEntity
  8
1
  6
Continuous
 62
     2
100
AcDbLine
 10
42.8682503746526
 20
185.0064010095775
 30
0.0
 11
43.07413272759377
 21
185.3564010095775
 31
0.0
  0
LINE
  5
195
330
1F
100
AcDbEntity
  8
1
  6
Continuous
 62
     2
100
AcDbLine
 10
42.55942684524083
 20
184.7730676762442
 30
0.0
 11
42.8682503746526
 21
185.0064010095775
 31
0.0
  0
LINE
  5
196
330
1F
100
AcDbEntity
  8
1
  6
Continuous
 62
     2
100
AcDbLine
 10
42.04472096288789
 20
184.6564010095775
 30
0.0
 11
42.55942684524083
 21
184.7730676762442
 31
0.0
  0
LINE
  5
197
330
1F
100
AcDbEntity
  8
1
  6
Continuous
 62
     2
100
AcDbLine
 10
41.63295625700554
 20
184.7730676762442
 30
0.0
 11
42.04472096288789
 21
184.6564010095775
 31
0.0
  0
LINE
  5
198
330
1F
100
AcDbEntity
  8
1
  6
Continuous
 62
     2
100
AcDbLine
 10
41.22119155112318
 20
185.0064010095775
 30
0.0
 11
41.63295625700554
 21
184.7730676762442
 31
0.0
  0
LINE
  5
199
330
1F
100
AcDbEntity
  8
1
  6
Continuous
 62
     2
100
AcDbLine
 10
41.1182503746526
 20
185.3564010095775
 30
0.0
 11
41.22119155112318
 21
185.0064010095775
 31
0.0
  0
LINE
  5
19A
330
1F
100
AcDbEntity
  8
1
  6
Continuous
 62
     2
100
AcDbLine
 10
41.1182503746526
 20
188.1564010095775
 30
0.0
 11
41.1182503746526
 21
185.3564010095775
 31
0.0
  0
LINE
  5
19B
330
1F
100
AcDbEntity
  8
1
  6
Continuous
 62
     7
100
AcDbLine
 10
54.61657994768068
 20
115.9715520603345
 30
0.0
 11
74.01657994768068
 21
115.9715520603345
 31
0.0
  0
LINE
  5
19C
330
1F
100
AcDbEntity
  8
1
  6
DASH_CENTER
 62
     3
100
AcDbLine
 10
126.4534207377704
 20
96.47155206033452
 30
0.0
 11
178.4534207377704
 21
96.47155206033452
 31
0.0
  0
LINE
  5
19D
330
1F
100
AcDbEntity
  8
1
  6
DASH_CENTER
 62
     3
100
AcDbLine
 10
38.9465020309354
 20
96.47155206033452
 30
0.0
 11
79.8704438714427
 21
96.47155206033452
 31
0.0
  0
LINE
  5
19E
330
1F
100
AcDbEntity
  8
1
  6
Continuous
 62
     7
100
AcDbLine
 10
67.71657994768067
 20
83.71851320679063
 30
0.0
 11
66.21657994768067
 21
81.14869331922489
 31
0.0
  0
LINE
  5
19F
330
1F
100
AcDbEntity
  8
1
  6
Continuous
 62
     7
100
AcDbLine
 10
66.21657994768067
 20
111.7944108014441
 30
0.0
 11
67.71657994768067
 21
109.2245909138784
 31
0.0
  0
LINE
  5
1A0
330
1F
100
AcDbEntity
  8
1
  6
Continuous
 62
     7
100
AcDbLine
 10
60.01657994768068
 20
83.71851320679063
 30
0.0
 11
61.51657994768068
 21
81.14869331922488
 31
0.0
  0
LINE
  5
1A1
330
1F
100
AcDbEntity
  8
1
  6
Continuous
 62
     7
100
AcDbLine
 10
61.51657994768068
 20
111.7944108014442
 30
0.0
 11
60.01657994768068
 21
109.2245909138784
 31
0.0
  0
LINE
  5
1A2
330
1F
100
AcDbEntity
  8
1
  6
Continuous
 62
     7
100
AcDbLine
 10
150.0310731505329
 20
116.9715520603345
 30
0.0
 11
155.0310731505329
 21
116.9715520603345
 31
0.0
  0
LINE
  5
1A3
330
1F
100
AcDbEntity
  8
1
  6
Continuous
 62
     7
100
AcDbLine
 10
149.5310731505329
 20
116.4715520603345
 30
0.0
 11
149.5310731505329
 21
115.9715520603345
 31
0.0
  0
LINE
  5
1A4
330
1F
100
AcDbEntity
  8
1
  6
Continuous
 62
     3
100
AcDbLine
 10
154.5310731505329
 20
116.9715520603345
 30
0.0
 11
154.5310731505329
 21
122.7935776809079
 31
0.0
  0
LINE
  5
1A5
330
1F
100
AcDbEntity
  8
1
  6
Continuous
 62
     3
100
AcDbLine
 10
152.2296410586059
 20
124.2081968606787
 30
0.0
 11
152.2296410586059
 21
116.9715520603345
 31
0.0
  0
LINE
  5
1A6
330
1F
100
AcDbEntity
  8
1
  6
Continuous
 62
     3
100
AcDbLine
 10
153.0276313651433
 20
123.6641125607669
 30
0.0
 11
153.0276313651433
 21
116.9715520603345
 31
0.0
  0
LINE
  5
1A7
330
1F
100
AcDbEntity
  8
1
  6
Continuous
 62
     3
100
AcDbLine
 10
151.268425462095
 20
124.4621028673043
 30
0.0
 11
151.268425462095
 21
116.9715520603345
 31
0.0
  0
LINE
  5
1A8
330
1F
100
AcDbEntity
  8
1
  6
Continuous
 62
     3
100
AcDbLine
 10
150.5310731505329
 20
124.2988775773307
 30
0.0
 11
150.5310731505329
 21
116.9715520603345
 31
0.0
  0
LINE
  5
1A9
330
1F
100
AcDbEntity
  8
1
  6
Continuous
 62
     7
100
AcDbLine
 10
155.5310731505329
 20
115.9715520603345
 30
0.0
 11
155.5310731505329
 21
116.4715520603345
 31
0.0
  0
LINE
  5
1AA
330
1F
100
AcDbEntity
  8
1
  6
Continuous
 62
     7
100
AcDbLine
 10
-80.0465792622296
 20
116.9715520603345
 30
0.0
 11
-75.0465792622296
 21
116.9715520603345
 31
0.0
  0
LINE
  5
1AB
330
1F
100
AcDbEntity
  8
1
  6
Continuous
 62
     7
100
AcDbLine
 10
-80.5465792622296
 20
116.4715520603345
 30
0.0
 11
-80.5465792622296
 21
115.9715520603345
 31
0.0
  0
LINE
  5
1AC
330
1F
100
AcDbEntity
  8
1
  6
Continuous
 62
     3
100
AcDbLine
 10
-75.5465792622296
 20
116.9715520603345
 30
0.0
 11
-75.5465792622296
 21
122.7935776809079
 31
0.0
  0
LINE
  5
1AD
330
1F
100
AcDbEntity
  8
1
  6
Continuous
 62
     3
100
AcDbLine
 10
-77.84801135415654
 20
124.2081968606787
 30
0.0
 11
-77.84801135415654
 21
116.9715520603345
 31
0.0
  0
LINE
  5
1AE
330
1F
100
AcDbEntity
  8
1
  6
Continuous
 62
     3
100
AcDbLine
 10
-77.05002104761913
 20
123.6641125607669
 30
0.0
 11
-77.05002104761913
 21
116.9715520603345
 31
0.0
  0
LINE
  5
1AF
330
1F
100
AcDbEntity
  8
1
  6
Continuous
 62
     3
100
AcDbLine
 10
-78.80922695066751
 20
124.4621028673043
 30
0.0
 11
-78.80922695066751
 21
116.9715520603345
 31
0.0
  0
LINE
  5
1B0
330
1F
100
AcDbEntity
  8
1
  6
Continuous
 62
     3
100
AcDbLine
 10
-79.5465792622296
 20
124.2988775773307
 30
0.0
 11
-79.5465792622296
 21
116.9715520603345
 31
0.0
  0
LINE
  5
1B1
330
1F
100
AcDbEntity
  8
1
  6
Continuous
 62
     7
100
AcDbLine
 10
-74.5465792622296
 20
115.9715520603345
 30
0.0
 11
-74.5465792622296
 21
116.4715520603345
 31
0.0
  0
LINE
  5
1B2
330
1F
100
AcDbEntity
  8
1
  6
DASH_CENTER
 62
     3
100
AcDbLine
 10
-103.5465792622296
 20
96.47155206033452
 30
0.0
 11
-51.5465792622296
 21
96.47155206033452
 31
0.0
  0
LINE
  5
1B3
330
1F
100
AcDbEntity
  8
1
  6
Continuous
 62
     1
100
AcDbLine
 10
171.9534207377704
 20
108.4715520603345
 30
0.0
 11
172.2534207377704
 21
108.4715520603345
 31
0.0
  0
LINE
  5
1B4
330
1F
100
AcDbEntity
  8
1
  6
Continuous
 62
     1
100
AcDbLine
 10
172.2534207377704
 20
108.4715520603345
 30
0.0
 11
172.2534207377704
 21
84.47155206033452
 31
0.0
  0
LINE
  5
1B5
330
1F
100
AcDbEntity
  8
1
  6
Continuous
 62
     1
100
AcDbLine
 10
172.2534207377704
 20
84.47155206033452
 30
0.0
 11
171.9534207377704
 21
84.47155206033452
 31
0.0
  0
LINE
  5
1B6
330
1F
100
AcDbEntity
  8
1
  6
Continuous
 62
     1
100
AcDbLine
 10
-97.0465792622296
 20
108.4715520603345
 30
0.0
 11
-97.3465792622296
 21
108.4715520603345
 31
0.0
  0
LINE
  5
1B7
330
1F
100
AcDbEntity
  8
1
  6
Continuous
 62
     1
100
AcDbLine
 10
-97.3465792622296
 20
108.4715520603345
 30
0.0
 11
-97.3465792622296
 21
84.47155206033452
 31
0.0
  0
LINE
  5
1B8
330
1F
100
AcDbEntity
  8
1
  6
Continuous
 62
     1
100
AcDbLine
 10
-97.3465792622296
 20
84.47155206033452
 30
0.0
 11
-97.0465792622296
 21
84.47155206033452
 31
0.0
  0
LINE
  5
1B9
330
1F
100
AcDbEntity
  8
1
  6
Continuous
 62
     7
100
AcDbLine
 10
66.0165799476807
 20
115.9715520603345
 30
0.0
 11
66.0165799476807
 21
116.4715520603345
 31
0.0
  0
LINE
  5
1BA
330
1F
100
AcDbEntity
  8
1
  6
Continuous
 62
     7
100
AcDbLine
 10
66.5165799476807
 20
116.9715520603345
 30
0.0
 11
73.51657994768068
 21
116.9715520603345
 31
0.0
  0
LINE
  5
1BB
330
1F
100
AcDbEntity
  8
1
  6
Continuous
 62
     7
100
AcDbLine
 10
74.01657994768068
 20
116.4715520603345
 30
0.0
 11
74.01657994768068
 21
115.9715520603345
 31
0.0
  0
LINE
  5
1BC
330
1F
100
AcDbEntity
  8
1
  6
Continuous
 62
     3
100
AcDbLine
 10
68.0165799476807
 20
165.9715520603345
 30
0.0
 11
68.0165799476807
 21
139.2733746177616
 31
0.0
  0
LINE
  5
1BD
330
1F
100
AcDbEntity
  8
1
  6
Continuous
 62
     3
100
AcDbLine
 10
72.01657994768068
 20
165.9715520603345
 30
0.0
 11
72.01657994768068
 21
139.327611007579
 31
0.0
  0
LINE
  5
1BE
330
1F
100
AcDbEntity
  8
1
  6
Continuous
 62
     3
100
AcDbLine
 10
69.5165799476807
 20
165.9715520603345
 30
0.0
 11
69.5165799476807
 21
140.0369465812367
 31
0.0
  0
LINE
  5
1BF
330
1F
100
AcDbEntity
  8
1
  6
Continuous
 62
     3
100
AcDbLine
 10
68.0165799476807
 20
165.9715520603345
 30
0.0
 11
72.01657994768068
 21
165.9715520603345
 31
0.0
  0
LINE
  5
1C0
330
1F
100
AcDbEntity
  8
1
  6
Continuous
 62
     3
100
AcDbLine
 10
68.0165799476807
 20
138.4379364777354
 30
0.0
 11
68.0165799476807
 21
116.9715520603345
 31
0.0
  0
LINE
  5
1C1
330
1F
100
AcDbEntity
  8
1
  6
Continuous
 62
     3
100
AcDbLine
 10
71.0165799476807
 20
137.9891946290231
 30
0.0
 11
71.0165799476807
 21
116.9715520603345
 31
0.0
  0
LINE
  5
1C2
330
1F
100
AcDbEntity
  8
1
  6
Continuous
 62
     3
100
AcDbLine
 10
69.5165799476807
 20
139.2661422088641
 30
0.0
 11
69.5165799476807
 21
116.9715520603345
 31
0.0
  0
LINE
  5
1C3
330
1F
100
AcDbEntity
  8
1
  6
Continuous
 62
     3
100
AcDbLine
 10
72.01657994768068
 20
138.7013506821126
 30
0.0
 11
72.01657994768068
 21
116.9715520603345
 31
0.0
  0
LINE
  5
1C4
330
1F
100
AcDbEntity
  8
1
  6
Continuous
 62
     3
100
AcDbLine
 10
71.0165799476807
 20
138.5544599714838
 30
0.0
 11
71.0165799476807
 21
169.2260702728155
 31
0.0
  0
LINE
  5
1C5
330
1F
100
AcDbEntity
  8
1
  6
Continuous
 62
     3
100
AcDbLine
 10
68.6473714963837
 20
165.9715520603345
 30
0.0
 11
68.8925636317257
 21
165.9715520603345
 31
0.0
  0
LINE
  5
1C6
330
1F
100
AcDbEntity
  8
1
  6
Continuous
 62
     3
100
AcDbLine
 10
68.73950722613769
 20
165.9715520603345
 30
0.0
 11
69.06759736734669
 21
165.9715520603345
 31
0.0
  0
LINE
  5
1C7
330
1F
100
AcDbEntity
  8
1
  6
Continuous
 62
     3
100
AcDbLine
 10
69.8619208671167
 20
165.9715520603345
 30
0.0
 11
70.4753540350747
 21
165.9715520603345
 31
0.0
  0
LINE
  5
1C8
330
1F
100
AcDbEntity
  8
1
  6
Continuous
 62
     3
100
AcDbLine
 10
71.4435037248597
 20
165.9715520603345
 30
0.0
 11
71.4435037248597
 21
169.2260702728155
 31
0.0
  0
LINE
  5
1C9
330
1F
100
AcDbEntity
  8
1
  6
Continuous
 62
     3
100
AcDbLine
 10
71.4435037248597
 20
169.2260702728155
 30
0.0
 11
71.0165799476807
 21
169.2260702728155
 31
0.0
  0
LINE
  5
1CA
330
1F
100
AcDbEntity
  8
1
  6
Continuous
 62
     3
100
AcDbLine
 10
71.0165799476807
 20
165.9715520603345
 30
0.0
 11
71.4435037248597
 21
165.9715520603345
 31
0.0
  0
LINE
  5
1CB
330
1F
100
AcDbEntity
  8
1
  6
Continuous
 62
     3
100
AcDbLine
 10
69.06759736734669
 20
165.9715520603345
 30
0.0
 11
69.06759736734669
 21
169.2208476380684
 31
0.0
  0
LINE
  5
1CC
330
1F
100
AcDbEntity
  8
1
  6
Continuous
 62
     3
100
AcDbLine
 10
69.06759736734669
 20
169.2208476380684
 30
0.0
 11
68.6473714963837
 21
169.2208476380684
 31
0.0
  0
LINE
  5
1CD
330
1F
100
AcDbEntity
  8
1
  6
Continuous
 62
     3
100
AcDbLine
 10
68.6473714963837
 20
169.2208476380684
 30
0.0
 11
68.6473714963837
 21
165.9715520603345
 31
0.0
  0
LINE
  5
1CE
330
1F
100
AcDbEntity
  8
1
  6
Continuous
 62
     3
100
AcDbLine
 10
70.4753540350747
 20
165.9715520603345
 30
0.0
 11
70.4753540350747
 21
169.2208476380684
 31
0.0
  0
LINE
  5
1CF
330
1F
100
AcDbEntity
  8
1
  6
Continuous
 62
     3
100
AcDbLine
 10
70.4753540350747
 20
169.2208476380684
 30
0.0
 11
70.0149772727047
 21
169.2208476380684
 31
0.0
  0
LINE
  5
1D0
330
1F
100
AcDbEntity
  8
1
  6
Continuous
 62
     3
100
AcDbLine
 10
70.0149772727047
 20
169.2208476380684
 30
0.0
 11
70.0149772727047
 21
165.9715520603345
 31
0.0
  0
LINE
  5
1D1
330
1F
100
AcDbEntity
  8
1
  6
Continuous
 62
     3
100
AcDbLine
 10
69.7189474673407
 20
165.9715520603345
 30
0.0
 11
69.7189474673407
 21
169.2208476380684
 31
0.0
  0
LINE
  5
1D2
330
1F
100
AcDbEntity
  8
1
  6
Continuous
 62
     3
100
AcDbLine
 10
69.7189474673407
 20
169.2208476380684
 30
0.0
 11
69.2987215963767
 21
169.2208476380684
 31
0.0
  0
LINE
  5
1D3
330
1F
100
AcDbEntity
  8
1
  6
Continuous
 62
     3
100
AcDbLine
 10
69.2987215963767
 20
169.2208476380684
 30
0.0
 11
69.2987215963767
 21
165.9715520603345
 31
0.0
  0
LINE
  5
1D4
330
1F
100
AcDbEntity
  8
1
  6
Continuous
 62
     3
100
AcDbLine
 10
69.2987215963767
 20
165.9715520603345
 30
0.0
 11
69.7189474673407
 21
165.9715520603345
 31
0.0
  0
LINE
  5
1D5
330
1F
100
AcDbEntity
  8
1
  6
Continuous
 62
     7
100
AcDbLine
 10
68.85748443186519
 20
169.2208476380684
 30
0.0
 11
68.85748443186519
 21
165.9715520603345
 31
0.0
  0
LINE
  5
1D6
330
1F
100
AcDbEntity
  8
1
  6
Continuous
 62
     7
100
AcDbLine
 10
69.5088345318587
 20
169.2208476380684
 30
0.0
 11
69.5088345318587
 21
165.9715520603345
 31
0.0
  0
LINE
  5
1D7
330
1F
100
AcDbEntity
  8
1
  6
Continuous
 62
     7
100
AcDbLine
 10
70.2451656538897
 20
169.2208476380684
 30
0.0
 11
70.2451656538897
 21
165.9715520603345
 31
0.0
  0
LINE
  5
1D8
330
1F
100
AcDbEntity
  8
1
  6
Continuous
 62
     7
100
AcDbLine
 10
71.23004183627019
 20
169.2260702728155
 30
0.0
 11
71.23004183627019
 21
165.9715520603345
 31
0.0
  0
LINE
  5
1D9
330
1F
100
AcDbEntity
  8
1
  6
Continuous
 62
     4
100
AcDbLine
 10
54.21657994768069
 20
116.9715520603345
 30
0.0
 11
54.21657994768069
 21
163.8401484730274
 31
0.0
  0
LINE
  5
1DA
330
1F
100
AcDbEntity
  8
1
  6
Continuous
 62
     7
100
AcDbLine
 10
72.01657994768068
 20
109.1715520603345
 30
0.0
 11
73.12113433167806
 21
109.2681880471822
 31
0.0
  0
LINE
  5
1DB
330
1F
100
AcDbEntity
  8
1
  6
Continuous
 62
     7
100
AcDbLine
 10
49.21657994768068
 20
110.4715520603345
 30
0.0
 11
49.21657994768068
 21
113.4715520603345
 31
0.0
  0
LINE
  5
1DC
330
1F
100
AcDbEntity
  8
1
  6
Continuous
 62
     7
100
AcDbLine
 10
49.21657994768068
 20
110.4715520603345
 30
0.0
 11
54.21657994768069
 21
110.4715520603345
 31
0.0
  0
LINE
  5
1DD
330
1F
100
AcDbEntity
  8
1
  6
Continuous
 62
     3
100
AcDbLine
 10
49.21657994768068
 20
110.7215520603345
 30
0.0
 11
54.21657994768069
 21
110.7215520603345
 31
0.0
  0
LINE
  5
1DE
330
1F
100
AcDbEntity
  8
1
  6
Continuous
 62
     7
100
AcDbLine
 10
73.12113433167806
 20
114.6749160734869
 30
0.0
 11
72.01657994768068
 21
114.7715520603345
 31
0.0
  0
LINE
  5
1DF
330
1F
100
AcDbEntity
  8
1
  6
Continuous
 62
     7
100
AcDbLine
 10
72.01657994768068
 20
114.7715520603345
 30
0.0
 11
72.01657994768068
 21
109.1715520603345
 31
0.0
  0
LINE
  5
1E0
330
1F
100
AcDbEntity
  8
1
  6
Continuous
 62
     3
100
AcDbLine
 10
54.21657994768069
 20
113.2215520603345
 30
0.0
 11
49.21657994768068
 21
113.2215520603345
 31
0.0
  0
LINE
  5
1E1
330
1F
100
AcDbEntity
  8
1
  6
Continuous
 62
     7
100
AcDbLine
 10
54.21657994768069
 20
113.4715520603345
 30
0.0
 11
49.21657994768068
 21
113.4715520603345
 31
0.0
  0
LINE
  5
1E2
330
1F
100
AcDbEntity
  8
1
  6
Continuous
 62
     7
100
AcDbLine
 10
72.01657994768068
 20
78.17155206033452
 30
0.0
 11
73.12113433167808
 21
78.26818804718215
 31
0.0
  0
LINE
  5
1E3
330
1F
100
AcDbEntity
  8
1
  6
Continuous
 62
     7
100
AcDbLine
 10
49.21657994768068
 20
79.47155206033452
 30
0.0
 11
49.21657994768068
 21
82.47155206033452
 31
0.0
  0
LINE
  5
1E4
330
1F
100
AcDbEntity
  8
1
  6
Continuous
 62
     7
100
AcDbLine
 10
49.21657994768068
 20
79.47155206033452
 30
0.0
 11
54.21657994768069
 21
79.47155206033452
 31
0.0
  0
LINE
  5
1E5
330
1F
100
AcDbEntity
  8
1
  6
Continuous
 62
     3
100
AcDbLine
 10
49.21657994768068
 20
79.72155206033452
 30
0.0
 11
54.21657994768069
 21
79.72155206033452
 31
0.0
  0
LINE
  5
1E6
330
1F
100
AcDbEntity
  8
1
  6
Continuous
 62
     7
100
AcDbLine
 10
73.12113433167808
 20
83.67491607348687
 30
0.0
 11
72.01657994768068
 21
83.77155206033451
 31
0.0
  0
LINE
  5
1E7
330
1F
100
AcDbEntity
  8
1
  6
Continuous
 62
     7
100
AcDbLine
 10
72.01657994768068
 20
83.77155206033451
 30
0.0
 11
72.01657994768068
 21
78.17155206033452
 31
0.0
  0
LINE
  5
1E8
330
1F
100
AcDbEntity
  8
1
  6
Continuous
 62
     3
100
AcDbLine
 10
54.21657994768069
 20
82.22155206033452
 30
0.0
 11
49.21657994768068
 21
82.22155206033452
 31
0.0
  0
LINE
  5
1E9
330
1F
100
AcDbEntity
  8
1
  6
Continuous
 62
     7
100
AcDbLine
 10
54.21657994768069
 20
82.47155206033452
 30
0.0
 11
49.21657994768068
 21
82.47155206033452
 31
0.0
  0
LINE
  5
1EA
330
1F
100
AcDbEntity
  8
1
  6
Continuous
 62
     7
100
AcDbLine
 10
138.4062445886156
 20
81.34478504174882
 30
0.0
 11
137.6436300879738
 21
81.35809652737272
 31
0.0
  0
LINE
  5
1EB
330
1F
100
AcDbEntity
  8
1
  6
Continuous
 62
     7
100
AcDbLine
 10
137.6436300879738
 20
81.35809652737272
 30
0.0
 11
137.433514632716
 21
81.45164595528016
 31
0.0
  0
LINE
  5
1EC
330
1F
100
AcDbEntity
  8
1
  6
Continuous
 62
     7
100
AcDbLine
 10
137.3399652048085
 20
81.66176141053795
 30
0.0
 11
137.3266537191846
 21
82.42437591117975
 31
0.0
  0
LINE
  5
1ED
330
1F
100
AcDbEntity
  8
1
  6
Continuous
 62
     7
100
AcDbLine
 10
137.433514632716
 20
81.45164595528016
 30
0.0
 11
137.3399652048085
 21
81.66176141053795
 31
0.0
  0
LINE
  5
1EE
330
1F
100
AcDbEntity
  8
1
  6
Continuous
 62
     7
100
AcDbLine
 10
136.580187756356
 20
82.42437591117975
 30
0.0
 11
136.5668762707321
 21
81.66176141053795
 31
0.0
  0
LINE
  5
1EF
330
1F
100
AcDbEntity
  8
1
  6
Continuous
 62
     7
100
AcDbLine
 10
136.5668762707321
 20
81.66176141053795
 30
0.0
 11
136.4733268428247
 21
81.45164595528016
 31
0.0
  0
LINE
  5
1F0
330
1F
100
AcDbEntity
  8
1
  6
Continuous
 62
     7
100
AcDbLine
 10
136.2632113875669
 20
81.35809652737272
 30
0.0
 11
135.5005968869251
 21
81.34478504174882
 31
0.0
  0
LINE
  5
1F1
330
1F
100
AcDbEntity
  8
1
  6
Continuous
 62
     7
100
AcDbLine
 10
136.4733268428247
 20
81.45164595528016
 30
0.0
 11
136.2632113875669
 21
81.35809652737272
 31
0.0
  0
LINE
  5
1F2
330
1F
100
AcDbEntity
  8
1
  6
Continuous
 62
     7
100
AcDbLine
 10
135.5005968869251
 20
80.59831907892021
 30
0.0
 11
136.2632113875669
 21
80.58500759329631
 31
0.0
  0
LINE
  5
1F3
330
1F
100
AcDbEntity
  8
1
  6
Continuous
 62
     7
100
AcDbLine
 10
136.2632113875669
 20
80.58500759329631
 30
0.0
 11
136.4733268428247
 21
80.49145816538888
 31
0.0
  0
LINE
  5
1F4
330
1F
100
AcDbEntity
  8
1
  6
Continuous
 62
     7
100
AcDbLine
 10
136.5668762707321
 20
80.28134271013107
 30
0.0
 11
136.580187756356
 21
79.51872820948927
 31
0.0
  0
LINE
  5
1F5
330
1F
100
AcDbEntity
  8
1
  6
Continuous
 62
     7
100
AcDbLine
 10
136.4733268428247
 20
80.49145816538888
 30
0.0
 11
136.5668762707321
 21
80.28134271013107
 31
0.0
  0
LINE
  5
1F6
330
1F
100
AcDbEntity
  8
1
  6
Continuous
 62
     7
100
AcDbLine
 10
137.3266537191846
 20
79.51872820948928
 30
0.0
 11
137.3399652048085
 21
80.28134271013109
 31
0.0
  0
LINE
  5
1F7
330
1F
100
AcDbEntity
  8
1
  6
Continuous
 62
     7
100
AcDbLine
 10
137.3399652048085
 20
80.28134271013109
 30
0.0
 11
137.433514632716
 21
80.49145816538888
 31
0.0
  0
LINE
  5
1F8
330
1F
100
AcDbEntity
  8
1
  6
Continuous
 62
     7
100
AcDbLine
 10
137.6436300879738
 20
80.58500759329631
 30
0.0
 11
138.4062445886156
 21
80.59831907892021
 31
0.0
  0
LINE
  5
1F9
330
1F
100
AcDbEntity
  8
1
  6
Continuous
 62
     7
100
AcDbLine
 10
137.433514632716
 20
80.49145816538888
 30
0.0
 11
137.6436300879738
 21
80.58500759329631
 31
0.0
  0
LINE
  5
1FA
330
1F
100
AcDbEntity
  8
1
  6
DASH_CENTER
 62
     3
100
AcDbLine
 10
141.2534207377703
 20
80.97155206033452
 30
0.0
 11
132.6534207377703
 21
80.97155206033452
 31
0.0
  0
LINE
  5
1FB
330
1F
100
AcDbEntity
  8
1
  6
DASH_CENTER
 62
     3
100
AcDbLine
 10
136.9534207377703
 20
85.27155206033451
 30
0.0
 11
136.9534207377703
 21
76.67155206033452
 31
0.0
  0
LINE
  5
1FC
330
1F
100
AcDbEntity
  8
1
  6
Continuous
 62
     7
100
AcDbLine
 10
169.4062445886147
 20
81.34478504174884
 30
0.0
 11
168.6436300879738
 21
81.35809652737272
 31
0.0
  0
LINE
  5
1FD
330
1F
100
AcDbEntity
  8
1
  6
Continuous
 62
     7
100
AcDbLine
 10
168.6436300879738
 20
81.35809652737272
 30
0.0
 11
168.433514632716
 21
81.45164595528016
 31
0.0
  0
LINE
  5
1FE
330
1F
100
AcDbEntity
  8
1
  6
Continuous
 62
     7
100
AcDbLine
 10
168.3399652048086
 20
81.66176141053793
 30
0.0
 11
168.3266537191847
 21
82.4243759111788
 31
0.0
  0
LINE
  5
1FF
330
1F
100
AcDbEntity
  8
1
  6
Continuous
 62
     7
100
AcDbLine
 10
168.433514632716
 20
81.45164595528016
 30
0.0
 11
168.3399652048086
 21
81.66176141053793
 31
0.0
  0
LINE
  5
200
330
1F
100
AcDbEntity
  8
1
  6
Continuous
 62
     7
100
AcDbLine
 10
167.5801877563561
 20
82.42437591117881
 30
0.0
 11
167.5668762707322
 21
81.66176141053795
 31
0.0
  0
LINE
  5
201
330
1F
100
AcDbEntity
  8
1
  6
Continuous
 62
     7
100
AcDbLine
 10
167.5668762707322
 20
81.66176141053795
 30
0.0
 11
167.4733268428247
 21
81.45164595528016
 31
0.0
  0
LINE
  5
202
330
1F
100
AcDbEntity
  8
1
  6
Continuous
 62
     7
100
AcDbLine
 10
167.263211387567
 20
81.35809652737274
 30
0.0
 11
166.5005968869261
 21
81.34478504174885
 31
0.0
  0
LINE
  5
203
330
1F
100
AcDbEntity
  8
1
  6
Continuous
 62
     7
100
AcDbLine
 10
167.4733268428247
 20
81.45164595528016
 30
0.0
 11
167.263211387567
 21
81.35809652737274
 31
0.0
  0
LINE
  5
204
330
1F
100
AcDbEntity
  8
1
  6
Continuous
 62
     7
100
AcDbLine
 10
166.5005968869261
 20
80.5983190789202
 30
0.0
 11
167.263211387567
 21
80.58500759329631
 31
0.0
  0
LINE
  5
205
330
1F
100
AcDbEntity
  8
1
  6
Continuous
 62
     7
100
AcDbLine
 10
167.263211387567
 20
80.58500759329631
 30
0.0
 11
167.4733268428247
 21
80.49145816538888
 31
0.0
  0
LINE
  5
206
330
1F
100
AcDbEntity
  8
1
  6
Continuous
 62
     7
100
AcDbLine
 10
167.5668762707322
 20
80.2813427101311
 30
0.0
 11
167.5801877563561
 21
79.51872820949023
 31
0.0
  0
LINE
  5
207
330
1F
100
AcDbEntity
  8
1
  6
Continuous
 62
     7
100
AcDbLine
 10
167.4733268428247
 20
80.49145816538888
 30
0.0
 11
167.5668762707322
 21
80.2813427101311
 31
0.0
  0
LINE
  5
208
330
1F
100
AcDbEntity
  8
1
  6
Continuous
 62
     7
100
AcDbLine
 10
168.3266537191847
 20
79.51872820949022
 30
0.0
 11
168.3399652048086
 21
80.28134271013109
 31
0.0
  0
LINE
  5
209
330
1F
100
AcDbEntity
  8
1
  6
Continuous
 62
     7
100
AcDbLine
 10
168.3399652048086
 20
80.28134271013109
 30
0.0
 11
168.433514632716
 21
80.49145816538888
 31
0.0
  0
LINE
  5
20A
330
1F
100
AcDbEntity
  8
1
  6
Continuous
 62
     7
100
AcDbLine
 10
168.6436300879738
 20
80.5850075932963
 30
0.0
 11
169.4062445886147
 21
80.59831907892018
 31
0.0
  0
LINE
  5
20B
330
1F
100
AcDbEntity
  8
1
  6
Continuous
 62
     7
100
AcDbLine
 10
168.433514632716
 20
80.49145816538888
 30
0.0
 11
168.6436300879738
 21
80.5850075932963
 31
0.0
  0
LINE
  5
20C
330
1F
100
AcDbEntity
  8
1
  6
DASH_CENTER
 62
     3
100
AcDbLine
 10
172.2534207377704
 20
80.97155206033452
 30
0.0
 11
163.6534207377704
 21
80.97155206033452
 31
0.0
  0
LINE
  5
20D
330
1F
100
AcDbEntity
  8
1
  6
DASH_CENTER
 62
     3
100
AcDbLine
 10
167.9534207377704
 20
85.27155206033451
 30
0.0
 11
167.9534207377704
 21
76.67155206033452
 31
0.0
  0
LINE
  5
20E
330
1F
100
AcDbEntity
  8
1
  6
Continuous
 62
     7
100
AcDbLine
 10
169.4062445886147
 20
112.3447850417488
 30
0.0
 11
168.6436300879738
 21
112.3580965273727
 31
0.0
  0
LINE
  5
20F
330
1F
100
AcDbEntity
  8
1
  6
Continuous
 62
     7
100
AcDbLine
 10
168.6436300879738
 20
112.3580965273727
 30
0.0
 11
168.433514632716
 21
112.4516459552802
 31
0.0
  0
LINE
  5
210
330
1F
100
AcDbEntity
  8
1
  6
Continuous
 62
     7
100
AcDbLine
 10
168.3399652048086
 20
112.6617614105379
 30
0.0
 11
168.3266537191847
 21
113.4243759111788
 31
0.0
  0
LINE
  5
211
330
1F
100
AcDbEntity
  8
1
  6
Continuous
 62
     7
100
AcDbLine
 10
168.433514632716
 20
112.4516459552802
 30
0.0
 11
168.3399652048086
 21
112.6617614105379
 31
0.0
  0
LINE
  5
212
330
1F
100
AcDbEntity
  8
1
  6
Continuous
 62
     7
100
AcDbLine
 10
167.5801877563561
 20
113.4243759111788
 30
0.0
 11
167.5668762707322
 21
112.6617614105379
 31
0.0
  0
LINE
  5
213
330
1F
100
AcDbEntity
  8
1
  6
Continuous
 62
     7
100
AcDbLine
 10
167.5668762707322
 20
112.6617614105379
 30
0.0
 11
167.4733268428247
 21
112.4516459552802
 31
0.0
  0
LINE
  5
214
330
1F
100
AcDbEntity
  8
1
  6
Continuous
 62
     7
100
AcDbLine
 10
167.263211387567
 20
112.3580965273727
 30
0.0
 11
166.5005968869261
 21
112.3447850417488
 31
0.0
  0
LINE
  5
215
330
1F
100
AcDbEntity
  8
1
  6
Continuous
 62
     7
100
AcDbLine
 10
167.4733268428247
 20
112.4516459552802
 30
0.0
 11
167.263211387567
 21
112.3580965273727
 31
0.0
  0
LINE
  5
216
330
1F
100
AcDbEntity
  8
1
  6
Continuous
 62
     7
100
AcDbLine
 10
166.5005968869261
 20
111.5983190789202
 30
0.0
 11
167.263211387567
 21
111.5850075932963
 31
0.0
  0
LINE
  5
217
330
1F
100
AcDbEntity
  8
1
  6
Continuous
 62
     7
100
AcDbLine
 10
167.263211387567
 20
111.5850075932963
 30
0.0
 11
167.4733268428247
 21
111.4914581653889
 31
0.0
  0
LINE
  5
218
330
1F
100
AcDbEntity
  8
1
  6
Continuous
 62
     7
100
AcDbLine
 10
167.5668762707322
 20
111.2813427101311
 30
0.0
 11
167.5801877563561
 21
110.5187282094902
 31
0.0
  0
LINE
  5
219
330
1F
100
AcDbEntity
  8
1
  6
Continuous
 62
     7
100
AcDbLine
 10
167.4733268428247
 20
111.4914581653889
 30
0.0
 11
167.5668762707322
 21
111.2813427101311
 31
0.0
  0
LINE
  5
21A
330
1F
100
AcDbEntity
  8
1
  6
Continuous
 62
     7
100
AcDbLine
 10
168.3266537191847
 20
110.5187282094902
 30
0.0
 11
168.3399652048086
 21
111.2813427101311
 31
0.0
  0
LINE
  5
21B
330
1F
100
AcDbEntity
  8
1
  6
Continuous
 62
     7
100
AcDbLine
 10
168.3399652048086
 20
111.2813427101311
 30
0.0
 11
168.433514632716
 21
111.4914581653889
 31
0.0
  0
LINE
  5
21C
330
1F
100
AcDbEntity
  8
1
  6
Continuous
 62
     7
100
AcDbLine
 10
168.6436300879738
 20
111.5850075932963
 30
0.0
 11
169.4062445886147
 21
111.5983190789202
 31
0.0
  0
LINE
  5
21D
330
1F
100
AcDbEntity
  8
1
  6
Continuous
 62
     7
100
AcDbLine
 10
168.433514632716
 20
111.4914581653889
 30
0.0
 11
168.6436300879738
 21
111.5850075932963
 31
0.0
  0
LINE
  5
21E
330
1F
100
AcDbEntity
  8
1
  6
DASH_CENTER
 62
     3
100
AcDbLine
 10
172.2534207377704
 20
111.9715520603345
 30
0.0
 11
163.6534207377704
 21
111.9715520603345
 31
0.0
  0
LINE
  5
21F
330
1F
100
AcDbEntity
  8
1
  6
DASH_CENTER
 62
     3
100
AcDbLine
 10
167.9534207377704
 20
116.2715520603345
 30
0.0
 11
167.9534207377704
 21
107.6715520603345
 31
0.0
  0
LINE
  5
220
330
1F
100
AcDbEntity
  8
1
  6
Continuous
 62
     7
100
AcDbLine
 10
138.4062445886156
 20
112.3447850417488
 30
0.0
 11
137.6436300879738
 21
112.3580965273727
 31
0.0
  0
LINE
  5
221
330
1F
100
AcDbEntity
  8
1
  6
Continuous
 62
     7
100
AcDbLine
 10
137.6436300879738
 20
112.3580965273727
 30
0.0
 11
137.433514632716
 21
112.4516459552802
 31
0.0
  0
LINE
  5
222
330
1F
100
AcDbEntity
  8
1
  6
Continuous
 62
     7
100
AcDbLine
 10
137.3399652048085
 20
112.6617614105379
 30
0.0
 11
137.3266537191846
 21
113.4243759111798
 31
0.0
  0
LINE
  5
223
330
1F
100
AcDbEntity
  8
1
  6
Continuous
 62
     7
100
AcDbLine
 10
137.433514632716
 20
112.4516459552802
 30
0.0
 11
137.3399652048085
 21
112.6617614105379
 31
0.0
  0
LINE
  5
224
330
1F
100
AcDbEntity
  8
1
  6
Continuous
 62
     7
100
AcDbLine
 10
136.580187756356
 20
113.4243759111798
 30
0.0
 11
136.5668762707321
 21
112.6617614105379
 31
0.0
  0
LINE
  5
225
330
1F
100
AcDbEntity
  8
1
  6
Continuous
 62
     7
100
AcDbLine
 10
136.5668762707321
 20
112.6617614105379
 30
0.0
 11
136.4733268428247
 21
112.4516459552802
 31
0.0
  0
LINE
  5
226
330
1F
100
AcDbEntity
  8
1
  6
Continuous
 62
     7
100
AcDbLine
 10
136.2632113875669
 20
112.3580965273727
 30
0.0
 11
135.5005968869251
 21
112.3447850417488
 31
0.0
  0
LINE
  5
227
330
1F
100
AcDbEntity
  8
1
  6
Continuous
 62
     7
100
AcDbLine
 10
136.4733268428247
 20
112.4516459552802
 30
0.0
 11
136.2632113875669
 21
112.3580965273727
 31
0.0
  0
LINE
  5
228
330
1F
100
AcDbEntity
  8
1
  6
Continuous
 62
     7
100
AcDbLine
 10
135.5005968869251
 20
111.5983190789202
 30
0.0
 11
136.2632113875669
 21
111.5850075932963
 31
0.0
  0
LINE
  5
229
330
1F
100
AcDbEntity
  8
1
  6
Continuous
 62
     7
100
AcDbLine
 10
136.2632113875669
 20
111.5850075932963
 30
0.0
 11
136.4733268428247
 21
111.4914581653889
 31
0.0
  0
LINE
  5
22A
330
1F
100
AcDbEntity
  8
1
  6
Continuous
 62
     7
100
AcDbLine
 10
136.5668762707321
 20
111.2813427101311
 30
0.0
 11
136.580187756356
 21
110.5187282094893
 31
0.0
  0
LINE
  5
22B
330
1F
100
AcDbEntity
  8
1
  6
Continuous
 62
     7
100
AcDbLine
 10
136.4733268428247
 20
111.4914581653889
 30
0.0
 11
136.5668762707321
 21
111.2813427101311
 31
0.0
  0
LINE
  5
22C
330
1F
100
AcDbEntity
  8
1
  6
Continuous
 62
     7
100
AcDbLine
 10
137.3266537191846
 20
110.5187282094893
 30
0.0
 11
137.3399652048085
 21
111.2813427101311
 31
0.0
  0
LINE
  5
22D
330
1F
100
AcDbEntity
  8
1
  6
Continuous
 62
     7
100
AcDbLine
 10
137.3399652048085
 20
111.2813427101311
 30
0.0
 11
137.433514632716
 21
111.4914581653889
 31
0.0
  0
LINE
  5
22E
330
1F
100
AcDbEntity
  8
1
  6
Continuous
 62
     7
100
AcDbLine
 10
137.6436300879737
 20
111.5850075932963
 30
0.0
 11
138.4062445886156
 21
111.5983190789202
 31
0.0
  0
LINE
  5
22F
330
1F
100
AcDbEntity
  8
1
  6
Continuous
 62
     7
100
AcDbLine
 10
137.433514632716
 20
111.4914581653889
 30
0.0
 11
137.6436300879737
 21
111.5850075932963
 31
0.0
  0
LINE
  5
230
330
1F
100
AcDbEntity
  8
1
  6
DASH_CENTER
 62
     3
100
AcDbLine
 10
141.2534207377703
 20
111.9715520603345
 30
0.0
 11
132.6534207377703
 21
111.9715520603345
 31
0.0
  0
LINE
  5
231
330
1F
100
AcDbEntity
  8
1
  6
DASH_CENTER
 62
     3
100
AcDbLine
 10
136.9534207377703
 20
116.2715520603345
 30
0.0
 11
136.9534207377703
 21
107.6715520603345
 31
0.0
  0
LINE
  5
232
330
1F
100
AcDbEntity
  8
1
  6
Continuous
 62
     2
100
AcDbLine
 10
42.71657994768069
 20
98.97155206033452
 30
0.0
 11
42.71657994768069
 21
93.97155206033452
 31
0.0
  0
LINE
  5
233
330
1F
100
AcDbEntity
  8
1
  6
Continuous
 62
     7
100
AcDbLine
 10
42.71657994768069
 20
93.97155206033452
 30
0.0
 11
42.21657994768069
 21
94.47155206033452
 31
0.0
  0
LINE
  5
234
330
1F
100
AcDbEntity
  8
1
  6
Continuous
 62
     7
100
AcDbLine
 10
42.71657994768069
 20
98.97155206033452
 30
0.0
 11
42.21657994768069
 21
98.47155206033452
 31
0.0
  0
LINE
  5
235
330
1F
100
AcDbEntity
  8
1
  6
Continuous
 62
     7
100
AcDbLine
 10
52.21657994768069
 20
85.67155206033452
 30
0.0
 11
52.21657994768069
 21
107.2715520603345
 31
0.0
  0
LINE
  5
236
330
1F
100
AcDbEntity
  8
1
  6
Continuous
 62
     7
100
AcDbLine
 10
42.71657994768069
 20
93.97155206033452
 30
0.0
 11
52.21657994768069
 21
93.97155206033452
 31
0.0
  0
LINE
  5
237
330
1F
100
AcDbEntity
  8
1
  6
Continuous
 62
     7
100
AcDbLine
 10
42.71657994768069
 20
98.97155206033452
 30
0.0
 11
52.21657994768069
 21
98.97155206033452
 31
0.0
  0
LINE
  5
238
330
1F
100
AcDbEntity
  8
1
  6
Continuous
 62
     7
100
AcDbLine
 10
42.21657994768069
 20
98.47155206033452
 30
0.0
 11
42.21657994768069
 21
94.47155206033452
 31
0.0
  0
LINE
  5
239
330
1F
100
AcDbEntity
  8
1
  6
Continuous
 62
     7
100
AcDbLine
 10
164.2534207377705
 20
115.4715520603345
 30
0.0
 11
140.6534207377703
 21
115.4715520603345
 31
0.0
  0
LINE
  5
23A
330
1F
100
AcDbEntity
  8
1
  6
Continuous
 62
     7
100
AcDbLine
 10
169.6508042596902
 20
115.9715520603345
 30
0.0
 11
135.2560372158505
 21
115.9715520603345
 31
0.0
  0
LINE
  5
23B
330
1F
100
AcDbEntity
  8
1
  6
Continuous
 62
     7
100
AcDbLine
 10
140.6534207377704
 20
77.47155206033452
 30
0.0
 11
164.2534207377703
 21
77.47155206033452
 31
0.0
  0
LINE
  5
23C
330
1F
100
AcDbEntity
  8
1
  6
Continuous
 62
     7
100
AcDbLine
 10
135.2560372158505
 20
76.97155206033452
 30
0.0
 11
169.6508042596902
 21
76.97155206033452
 31
0.0
  0
LINE
  5
23D
330
1F
100
AcDbEntity
  8
1
  6
Continuous
 62
     7
100
AcDbLine
 10
132.9534207377704
 20
79.27416853841467
 30
0.0
 11
132.9534207377703
 21
113.6689355822543
 31
0.0
  0
LINE
  5
23E
330
1F
100
AcDbEntity
  8
1
  6
Continuous
 62
     7
100
AcDbLine
 10
136.9534207377704
 20
84.17155206033452
 30
0.0
 11
133.4534207377704
 21
84.17155206033452
 31
0.0
  0
LINE
  5
23F
330
1F
100
AcDbEntity
  8
1
  6
Continuous
 62
     7
100
AcDbLine
 10
140.1534207377704
 20
77.47155206033452
 30
0.0
 11
140.1534207377704
 21
80.97155206033452
 31
0.0
  0
LINE
  5
240
330
1F
100
AcDbEntity
  8
1
  6
Continuous
 62
     7
100
AcDbLine
 10
140.1534207377704
 20
77.47155206033452
 30
0.0
 11
135.4460693860754
 21
77.47155206033452
 31
0.0
  0
LINE
  5
241
330
1F
100
AcDbEntity
  8
1
  6
Continuous
 62
     7
100
AcDbLine
 10
133.4534207377704
 20
79.46420070863957
 30
0.0
 11
133.4534207377704
 21
84.17155206033452
 31
0.0
  0
LINE
  5
242
330
1F
100
AcDbEntity
  8
1
  6
Continuous
 62
     7
100
AcDbLine
 10
140.6534207377704
 20
80.97155206033452
 30
0.0
 11
140.6534207377704
 21
77.47155206033452
 31
0.0
  0
LINE
  5
243
330
1F
100
AcDbEntity
  8
1
  6
Continuous
 62
     7
100
AcDbLine
 10
136.9534207377704
 20
84.67155206033452
 30
0.0
 11
133.4534207377704
 21
84.6715520603345
 31
0.0
  0
LINE
  5
244
330
1F
100
AcDbEntity
  8
1
  6
Continuous
 62
     7
100
AcDbLine
 10
133.4534207377703
 20
108.2715520603345
 30
0.0
 11
133.4534207377704
 21
84.6715520603345
 31
0.0
  0
LINE
  5
245
330
1F
100
AcDbEntity
  8
1
  6
Continuous
 62
     7
100
AcDbLine
 10
133.4534207377703
 20
108.2715520603345
 30
0.0
 11
136.9534207377703
 21
108.2715520603345
 31
0.0
  0
LINE
  5
246
330
1F
100
AcDbEntity
  8
1
  6
Continuous
 62
     7
100
AcDbLine
 10
133.4534207377703
 20
108.7715520603345
 30
0.0
 11
136.9534207377703
 21
108.7715520603345
 31
0.0
  0
LINE
  5
247
330
1F
100
AcDbEntity
  8
1
  6
Continuous
 62
     7
100
AcDbLine
 10
133.4534207377703
 20
108.7715520603345
 30
0.0
 11
133.4534207377703
 21
113.4789034120295
 31
0.0
  0
LINE
  5
248
330
1F
100
AcDbEntity
  8
1
  6
Continuous
 62
     7
100
AcDbLine
 10
135.4460693860754
 20
115.4715520603345
 30
0.0
 11
140.1534207377703
 21
115.4715520603345
 31
0.0
  0
LINE
  5
249
330
1F
100
AcDbEntity
  8
1
  6
Continuous
 62
     7
100
AcDbLine
 10
140.1534207377703
 20
111.9715520603345
 30
0.0
 11
140.1534207377703
 21
115.4715520603345
 31
0.0
  0
LINE
  5
24A
330
1F
100
AcDbEntity
  8
1
  6
Continuous
 62
     7
100
AcDbLine
 10
140.6534207377703
 20
115.4715520603345
 30
0.0
 11
140.6534207377703
 21
111.9715520603345
 31
0.0
  0
LINE
  5
24B
330
1F
100
AcDbEntity
  8
1
  6
Continuous
 62
     7
100
AcDbLine
 10
171.9534207377704
 20
113.6689355822543
 30
0.0
 11
171.9534207377704
 21
79.27416853841467
 31
0.0
  0
LINE
  5
24C
330
1F
100
AcDbEntity
  8
1
  6
Continuous
 62
     7
100
AcDbLine
 10
171.4534207377704
 20
84.17155206033452
 30
0.0
 11
167.9534207377704
 21
84.17155206033452
 31
0.0
  0
LINE
  5
24D
330
1F
100
AcDbEntity
  8
1
  6
Continuous
 62
     7
100
AcDbLine
 10
164.7534207377703
 20
80.97155206033452
 30
0.0
 11
164.7534207377703
 21
77.47155206033452
 31
0.0
  0
LINE
  5
24E
330
1F
100
AcDbEntity
  8
1
  6
Continuous
 62
     7
100
AcDbLine
 10
169.4607720894653
 20
77.47155206033452
 30
0.0
 11
164.7534207377703
 21
77.47155206033452
 31
0.0
  0
LINE
  5
24F
330
1F
100
AcDbEntity
  8
1
  6
Continuous
 62
     7
100
AcDbLine
 10
171.4534207377704
 20
84.17155206033452
 30
0.0
 11
171.4534207377704
 21
79.46420070863957
 31
0.0
  0
LINE
  5
250
330
1F
100
AcDbEntity
  8
1
  6
Continuous
 62
     7
100
AcDbLine
 10
164.2534207377703
 20
77.47155206033452
 30
0.0
 11
164.2534207377703
 21
80.97155206033452
 31
0.0
  0
LINE
  5
251
330
1F
100
AcDbEntity
  8
1
  6
Continuous
 62
     7
100
AcDbLine
 10
171.4534207377704
 20
84.6715520603345
 30
0.0
 11
167.9534207377704
 21
84.67155206033452
 31
0.0
  0
LINE
  5
252
330
1F
100
AcDbEntity
  8
1
  6
Continuous
 62
     7
100
AcDbLine
 10
171.4534207377704
 20
84.6715520603345
 30
0.0
 11
171.4534207377704
 21
108.2715520603345
 31
0.0
  0
LINE
  5
253
330
1F
100
AcDbEntity
  8
1
  6
Continuous
 62
     7
100
AcDbLine
 10
167.9534207377704
 20
108.2715520603345
 30
0.0
 11
171.4534207377704
 21
108.2715520603345
 31
0.0
  0
LINE
  5
254
330
1F
100
AcDbEntity
  8
1
  6
Continuous
 62
     7
100
AcDbLine
 10
167.9534207377704
 20
108.7715520603345
 30
0.0
 11
171.4534207377704
 21
108.7715520603345
 31
0.0
  0
LINE
  5
255
330
1F
100
AcDbEntity
  8
1
  6
Continuous
 62
     7
100
AcDbLine
 10
171.4534207377704
 20
113.4789034120295
 30
0.0
 11
171.4534207377704
 21
108.7715520603345
 31
0.0
  0
LINE
  5
256
330
1F
100
AcDbEntity
  8
1
  6
Continuous
 62
     7
100
AcDbLine
 10
164.7534207377705
 20
115.4715520603345
 30
0.0
 11
169.4607720894654
 21
115.4715520603345
 31
0.0
  0
LINE
  5
257
330
1F
100
AcDbEntity
  8
1
  6
Continuous
 62
     7
100
AcDbLine
 10
164.7534207377705
 20
115.4715520603345
 30
0.0
 11
164.7534207377705
 21
111.9715520603345
 31
0.0
  0
LINE
  5
258
330
1F
100
AcDbEntity
  8
1
  6
Continuous
 62
     7
100
AcDbLine
 10
164.2534207377705
 20
111.9715520603345
 30
0.0
 11
164.2534207377705
 21
115.4715520603345
 31
0.0
  0
LINE
  5
259
330
1F
100
AcDbEntity
  8
1
  6
Continuous
 62
     7
100
AcDbLine
 10
66.21657994768067
 20
115.9715520603345
 30
0.0
 11
66.21657994768067
 21
111.7944108014441
 31
0.0
  0
LINE
  5
25A
330
1F
100
AcDbEntity
  8
1
  6
Continuous
 62
     7
100
AcDbLine
 10
74.51657994768068
 20
115.4715520603345
 30
0.0
 11
74.01657994768068
 21
115.9715520603345
 31
0.0
  0
LINE
  5
25B
330
1F
100
AcDbEntity
  8
1
  6
Continuous
 62
     7
100
AcDbLine
 10
72.16481613866019
 20
108.9017052737503
 30
0.0
 11
74.51657994768068
 21
108.2715520603345
 31
0.0
  0
LINE
  5
25C
330
1F
100
AcDbEntity
  8
1
  6
Continuous
 62
     7
100
AcDbLine
 10
72.01657994768068
 20
115.4715520603345
 30
0.0
 11
72.01657994768068
 21
109.0948904390081
 31
0.0
  0
LINE
  5
25D
330
1F
100
AcDbEntity
  8
1
  6
Continuous
 62
     7
100
AcDbLine
 10
72.01657994768068
 20
115.4715520603345
 30
0.0
 11
71.51657994768068
 21
115.9715520603345
 31
0.0
  0
LINE
  5
25E
330
1F
100
AcDbEntity
  8
1
  6
Continuous
 62
     7
100
AcDbLine
 10
67.71657994768067
 20
109.2245909138784
 30
0.0
 11
68.01657994768068
 21
109.2245909138784
 31
0.0
  0
LINE
  5
25F
330
1F
100
AcDbEntity
  8
1
  6
Continuous
 62
     7
100
AcDbLine
 10
66.21657994768067
 20
81.14869331922489
 30
0.0
 11
66.21657994768067
 21
76.97155206033452
 31
0.0
  0
LINE
  5
260
330
1F
100
AcDbEntity
  8
1
  6
Continuous
 62
     7
100
AcDbLine
 10
74.01657994768068
 20
76.97155206033452
 30
0.0
 11
74.51657994768068
 21
77.47155206033452
 31
0.0
  0
LINE
  5
261
330
1F
100
AcDbEntity
  8
1
  6
Continuous
 62
     7
100
AcDbLine
 10
74.51657994768068
 20
77.47155206033452
 30
0.0
 11
74.51657994768068
 21
115.4715520603345
 31
0.0
  0
LINE
  5
262
330
1F
100
AcDbEntity
  8
1
  6
Continuous
 62
     7
100
AcDbLine
 10
74.51657994768068
 20
84.6715520603345
 30
0.0
 11
72.16481613866019
 21
84.04139884691872
 31
0.0
  0
LINE
  5
263
330
1F
100
AcDbEntity
  8
1
  6
Continuous
 62
     7
100
AcDbLine
 10
72.01657994768068
 20
83.84821368166091
 30
0.0
 11
72.01657994768068
 21
77.47155206033452
 31
0.0
  0
LINE
  5
264
330
1F
100
AcDbEntity
  8
1
  6
Continuous
 62
     7
100
AcDbLine
 10
71.51657994768068
 20
76.97155206033452
 30
0.0
 11
72.01657994768068
 21
77.47155206033452
 31
0.0
  0
LINE
  5
265
330
1F
100
AcDbEntity
  8
1
  6
Continuous
 62
     7
100
AcDbLine
 10
68.01657994768068
 20
83.71851320679063
 30
0.0
 11
67.71657994768067
 21
83.71851320679063
 31
0.0
  0
LINE
  5
266
330
1F
100
AcDbEntity
  8
1
  6
Continuous
 62
     7
100
AcDbLine
 10
68.01657994768068
 20
109.2245909138784
 30
0.0
 11
68.01657994768068
 21
83.71851320679063
 31
0.0
  0
LINE
  5
267
330
1F
100
AcDbEntity
  8
1
  6
Continuous
 62
     7
100
AcDbLine
 10
59.51657994768068
 20
109.2245909138784
 30
0.0
 11
59.51657994768068
 21
83.71851320679063
 31
0.0
  0
LINE
  5
268
330
1F
100
AcDbEntity
  8
1
  6
Continuous
 62
     7
100
AcDbLine
 10
59.51657994768068
 20
83.71851320679063
 30
0.0
 11
60.01657994768068
 21
83.71851320679063
 31
0.0
  0
LINE
  5
269
330
1F
100
AcDbEntity
  8
1
  6
Continuous
 62
     7
100
AcDbLine
 10
54.61657994768068
 20
76.97155206033452
 30
0.0
 11
74.01657994768068
 21
76.97155206033452
 31
0.0
  0
LINE
  5
26A
330
1F
100
AcDbEntity
  8
1
  6
Continuous
 62
     7
100
AcDbLine
 10
54.61657994768068
 20
76.97155206033452
 30
0.0
 11
54.21657994768069
 21
77.37155206033452
 31
0.0
  0
LINE
  5
26B
330
1F
100
AcDbEntity
  8
1
  6
Continuous
 62
     7
100
AcDbLine
 10
54.21657994768069
 20
115.5715520603345
 30
0.0
 11
54.21657994768069
 21
77.37155206033452
 31
0.0
  0
LINE
  5
26C
330
1F
100
AcDbEntity
  8
1
  6
Continuous
 62
     7
100
AcDbLine
 10
61.51657994768068
 20
81.14869331922488
 30
0.0
 11
61.51657994768068
 21
76.97155206033452
 31
0.0
  0
LINE
  5
26D
330
1F
100
AcDbEntity
  8
1
  6
Continuous
 62
     7
100
AcDbLine
 10
52.41657994768069
 20
85.47155206033452
 30
0.0
 11
52.21657994768069
 21
85.67155206033452
 31
0.0
  0
LINE
  5
26E
330
1F
100
AcDbEntity
  8
1
  6
Continuous
 62
     7
100
AcDbLine
 10
54.21657994768069
 20
85.47155206033452
 30
0.0
 11
52.41657994768069
 21
85.47155206033452
 31
0.0
  0
LINE
  5
26F
330
1F
100
AcDbEntity
  8
1
  6
Continuous
 62
     7
100
AcDbLine
 10
60.01657994768068
 20
109.2245909138784
 30
0.0
 11
59.51657994768068
 21
109.2245909138784
 31
0.0
  0
LINE
  5
270
330
1F
100
AcDbEntity
  8
1
  6
Continuous
 62
     7
100
AcDbLine
 10
54.21657994768069
 20
115.5715520603345
 30
0.0
 11
54.61657994768068
 21
115.9715520603345
 31
0.0
  0
LINE
  5
271
330
1F
100
AcDbEntity
  8
1
  6
Continuous
 62
     7
100
AcDbLine
 10
61.51657994768068
 20
115.9715520603345
 30
0.0
 11
61.51657994768068
 21
111.7944108014442
 31
0.0
  0
LINE
  5
272
330
1F
100
AcDbEntity
  8
1
  6
Continuous
 62
     7
100
AcDbLine
 10
52.21657994768069
 20
107.2715520603345
 30
0.0
 11
52.41657994768069
 21
107.4715520603345
 31
0.0
  0
LINE
  5
273
330
1F
100
AcDbEntity
  8
1
  6
Continuous
 62
     7
100
AcDbLine
 10
52.41657994768069
 20
107.4715520603345
 30
0.0
 11
54.21657994768069
 21
107.4715520603345
 31
0.0
  0
LINE
  5
274
330
1F
100
AcDbEntity
  8
1
  6
Continuous
 62
     7
100
AcDbLine
 10
-97.0465792622296
 20
113.6689355822544
 30
0.0
 11
-97.0465792622296
 21
79.27416853841467
 31
0.0
  0
LINE
  5
275
330
1F
100
AcDbEntity
  8
1
  6
Continuous
 62
     7
100
AcDbLine
 10
-94.74396278414937
 20
76.97155206033452
 30
0.0
 11
-60.34919574030977
 21
76.97155206033452
 31
0.0
  0
LINE
  5
276
330
1F
100
AcDbEntity
  8
1
  6
Continuous
 62
     7
100
AcDbLine
 10
-58.0465792622296
 20
79.27416853841467
 30
0.0
 11
-58.0465792622296
 21
113.6689355822544
 31
0.0
  0
LINE
  5
277
330
1F
100
AcDbEntity
  8
1
  6
DASH_CENTER
 62
     3
100
AcDbLine
 10
-64.69657926222962
 20
80.97155206033452
 30
0.0
 11
-59.39657926222959
 21
80.97155206033452
 31
0.0
  0
LINE
  5
278
330
1F
100
AcDbEntity
  8
1
  6
DASH_CENTER
 62
     3
100
AcDbLine
 10
-62.0465792622296
 20
78.32155206033451
 30
0.0
 11
-62.0465792622296
 21
83.62155206033452
 31
0.0
  0
LINE
  5
279
330
1F
100
AcDbEntity
  8
1
  6
DASH_CENTER
 62
     3
100
AcDbLine
 10
-95.69657926222959
 20
80.97155206033452
 30
0.0
 11
-90.39657926222961
 21
80.97155206033452
 31
0.0
  0
LINE
  5
27A
330
1F
100
AcDbEntity
  8
1
  6
DASH_CENTER
 62
     3
100
AcDbLine
 10
-93.04657926222959
 20
83.62155206033452
 30
0.0
 11
-93.04657926222959
 21
78.32155206033451
 31
0.0
  0
LINE
  5
27B
330
1F
100
AcDbEntity
  8
1
  6
DASH_CENTER
 62
     3
100
AcDbLine
 10
-59.39657926222959
 20
111.9715520603345
 30
0.0
 11
-64.69657926222962
 21
111.9715520603345
 31
0.0
  0
LINE
  5
27C
330
1F
100
AcDbEntity
  8
1
  6
DASH_CENTER
 62
     3
100
AcDbLine
 10
-62.0465792622296
 20
109.3215520603345
 30
0.0
 11
-62.0465792622296
 21
114.6215520603345
 31
0.0
  0
LINE
  5
27D
330
1F
100
AcDbEntity
  8
1
  6
DASH_CENTER
 62
     3
100
AcDbLine
 10
-90.39657926222961
 20
111.9715520603345
 30
0.0
 11
-95.69657926222959
 21
111.9715520603345
 31
0.0
  0
LINE
  5
27E
330
1F
100
AcDbEntity
  8
1
  6
DASH_CENTER
 62
     3
100
AcDbLine
 10
-93.04657926222959
 20
114.6215520603345
 30
0.0
 11
-93.04657926222959
 21
109.3215520603345
 31
0.0
  0
LINE
  5
27F
330
1F
100
AcDbEntity
  8
1
  6
DASH_CENTER
 62
     3
100
AcDbLine
 10
-77.5465792622296
 20
123.4975416908167
 30
0.0
 11
-77.5465792622296
 21
70.33023781214791
 31
0.0
  0
LINE
  5
280
330
1F
100
AcDbEntity
  8
1
  6
Continuous
 62
     7
100
AcDbLine
 10
-94.74396278414937
 20
115.9715520603345
 30
0.0
 11
-60.34919574030977
 21
115.9715520603345
 31
0.0
  0
LINE
  5
281
330
1F
100
AcDbEntity
  8
1
  6
DASH_CENTER
 62
     3
100
AcDbLine
 10
152.4534207377704
 20
122.4715520603345
 30
0.0
 11
152.4534207377704
 21
70.47155206033452
 31
0.0
  0
ARC
  5
282
330
1F
100
AcDbEntity
  8
1
  6
Continuous
 62
     7
100
AcDbCircle
 10
69.41657994768067
 20
111.9715520603345
 30
0.0
 40
5.000000000000007
100
AcDbArc
 50
-25.26416482102446
 51
25.26416482102439
  0
ARC
  5
283
330
1F
100
AcDbEntity
  8
1
  6
Continuous
 62
     7
100
AcDbCircle
 10
69.41657994768067
 20
80.97155206033452
 30
0.0
 40
5.000000000000014
100
AcDbArc
 50
-25.26416482102425
 51
25.2641648210241
  0
ARC
  5
284
330
1F
100
AcDbEntity
  8
1
  6
Continuous
 62
     7
100
AcDbCircle
 10
136.9534207377704
 20
80.97155206033452
 30
0.0
 40
1.500000000000049
100
AcDbArc
 50
-14.40781443535743
 51
14.40781443535743
  0
ARC
  5
285
330
1F
100
AcDbEntity
  8
1
  6
Continuous
 62
     7
100
AcDbCircle
 10
136.9534207377704
 20
80.97155206033452
 30
0.0
 40
1.500000000000041
100
AcDbArc
 50
75.59218556464586
 51
104.4078144353605
  0
ARC
  5
286
330
1F
100
AcDbEntity
  8
1
  6
Continuous
 62
     7
100
AcDbCircle
 10
136.9534207377704
 20
80.97155206033452
 30
0.0
 40
1.500000000000104
100
AcDbArc
 50
165.5921855646431
 51
-165.5921855646431
  0
ARC
  5
287
330
1F
100
AcDbEntity
  8
1
  6
Continuous
 62
     7
100
AcDbCircle
 10
136.9534207377704
 20
80.97155206033452
 30
0.0
 40
1.500000000000097
100
AcDbArc
 50
-104.4078144353603
 51
-75.59218556464586
  0
ARC
  5
288
330
1F
100
AcDbEntity
  8
1
  6
Continuous
 62
     7
100
AcDbCircle
 10
167.9534207377704
 20
80.97155206033452
 30
0.0
 40
1.499999999999175
100
AcDbArc
 50
-14.40781443536712
 51
14.4078144353666
  0
ARC
  5
289
330
1F
100
AcDbEntity
  8
1
  6
Continuous
 62
     7
100
AcDbCircle
 10
167.9534207377704
 20
80.97155206033452
 30
0.0
 40
1.49999999999914
100
AcDbArc
 50
75.59218556463367
 51
104.4078144353652
  0
ARC
  5
28A
330
1F
100
AcDbEntity
  8
1
  6
Continuous
 62
     7
100
AcDbCircle
 10
167.9534207377704
 20
80.97155206033452
 30
0.0
 40
1.499999999999147
100
AcDbArc
 50
165.5921855646326
 51
-165.5921855646331
  0
ARC
  5
28B
330
1F
100
AcDbEntity
  8
1
  6
Continuous
 62
     7
100
AcDbCircle
 10
167.9534207377704
 20
80.97155206033452
 30
0.0
 40
1.499999999999133
100
AcDbArc
 50
-104.4078144353653
 51
-75.59218556463381
  0
ARC
  5
28C
330
1F
100
AcDbEntity
  8
1
  6
Continuous
 62
     7
100
AcDbCircle
 10
167.9534207377704
 20
111.9715520603345
 30
0.0
 40
1.499999999999168
100
AcDbArc
 50
-14.40781443536607
 51
14.40781443536607
  0
ARC
  5
28D
330
1F
100
AcDbEntity
  8
1
  6
Continuous
 62
     7
100
AcDbCircle
 10
167.9534207377704
 20
111.9715520603345
 30
0.0
 40
1.499999999999154
100
AcDbArc
 50
75.59218556463381
 51
104.4078144353652
  0
ARC
  5
28E
330
1F
100
AcDbEntity
  8
1
  6
Continuous
 62
     7
100
AcDbCircle
 10
167.9534207377704
 20
111.9715520603345
 30
0.0
 40
1.49999999999914
100
AcDbArc
 50
165.5921855646337
 51
-165.5921855646337
  0
ARC
  5
28F
330
1F
100
AcDbEntity
  8
1
  6
Continuous
 62
     7
100
AcDbCircle
 10
167.9534207377704
 20
111.9715520603345
 30
0.0
 40
1.499999999999147
100
AcDbArc
 50
-104.4078144353652
 51
-75.59218556463381
  0
ARC
  5
290
330
1F
100
AcDbEntity
  8
1
  6
Continuous
 62
     7
100
AcDbCircle
 10
136.9534207377703
 20
111.9715520603345
 30
0.0
 40
1.500000000000131
100
AcDbArc
 50
-14.40781443535662
 51
14.40781443535662
  0
ARC
  5
291
330
1F
100
AcDbEntity
  8
1
  6
Continuous
 62
     7
100
AcDbCircle
 10
136.9534207377703
 20
111.9715520603345
 30
0.0
 40
1.500000000000117
100
AcDbArc
 50
75.59218556464326
 51
104.4078144353568
  0
ARC
  5
292
330
1F
100
AcDbEntity
  8
1
  6
Continuous
 62
     7
100
AcDbCircle
 10
136.9534207377703
 20
111.9715520603345
 30
0.0
 40
1.500000000000021
100
AcDbArc
 50
165.5921855646423
 51
-165.5921855646423
  0
ARC
  5
293
330
1F
100
AcDbEntity
  8
1
  6
Continuous
 62
     7
100
AcDbCircle
 10
136.9534207377703
 20
111.9715520603345
 30
0.0
 40
1.500000000000035
100
AcDbArc
 50
-104.4078144353576
 51
-75.59218556464243
  0
ARC
  5
294
330
1F
100
AcDbEntity
  8
1
  6
Continuous
 62
     7
100
AcDbCircle
 10
136.9534207377704
 20
80.97155206033452
 30
0.0
 40
3.200000000000017
100
AcDbArc
 50
0.0
 51
90.0
  0
ARC
  5
295
330
1F
100
AcDbEntity
  8
1
  6
Continuous
 62
     7
100
AcDbCircle
 10
152.4534207377704
 20
96.47155206033452
 30
0.0
 40
25.5
100
AcDbArc
 50
-138.1675204451088
 51
-131.8324795548913
  0
ARC
  5
296
330
1F
100
AcDbEntity
  8
1
  6
Continuous
 62
     7
100
AcDbCircle
 10
136.9534207377704
 20
80.97155206033452
 30
0.0
 40
3.700000000000017
100
AcDbArc
 50
0.0
 51
90.0
  0
ARC
  5
297
330
1F
100
AcDbEntity
  8
1
  6
Continuous
 62
     7
100
AcDbCircle
 10
152.4534207377704
 20
96.47155206033452
 30
0.0
 40
26.0
100
AcDbArc
 50
-138.5903778907291
 51
-131.4096221092709
  0
ARC
  5
298
330
1F
100
AcDbEntity
  8
1
  6
Continuous
 62
     7
100
AcDbCircle
 10
136.9534207377703
 20
111.9715520603345
 30
0.0
 40
3.700000000000003
100
AcDbArc
 50
-90.0
 51
0.0
  0
ARC
  5
299
330
1F
100
AcDbEntity
  8
1
  6
Continuous
 62
     7
100
AcDbCircle
 10
152.4534207377704
 20
96.47155206033452
 30
0.0
 40
25.50000000000001
100
AcDbArc
 50
131.8324795548913
 51
138.1675204451089
  0
ARC
  5
29A
330
1F
100
AcDbEntity
  8
1
  6
Continuous
 62
     7
100
AcDbCircle
 10
152.4534207377704
 20
96.47155206033452
 30
0.0
 40
26.00000000000001
100
AcDbArc
 50
131.4096221092709
 51
138.5903778907293
  0
ARC
  5
29B
330
1F
100
AcDbEntity
  8
1
  6
Continuous
 62
     7
100
AcDbCircle
 10
136.9534207377703
 20
111.9715520603345
 30
0.0
 40
3.200000000000003
100
AcDbArc
 50
-90.0
 51
0.0
  0
ARC
  5
29C
330
1F
100
AcDbEntity
  8
1
  6
Continuous
 62
     7
100
AcDbCircle
 10
167.9534207377704
 20
80.97155206033452
 30
0.0
 40
3.200000000000003
100
AcDbArc
 50
90.0
 51
180.0
  0
ARC
  5
29D
330
1F
100
AcDbEntity
  8
1
  6
Continuous
 62
     7
100
AcDbCircle
 10
152.4534207377704
 20
96.47155206033452
 30
0.0
 40
25.49999999999998
100
AcDbArc
 50
-48.16752044510882
 51
-41.83247955489123
  0
ARC
  5
29E
330
1F
100
AcDbEntity
  8
1
  6
Continuous
 62
     7
100
AcDbCircle
 10
167.9534207377704
 20
80.97155206033452
 30
0.0
 40
3.700000000000003
100
AcDbArc
 50
90.0
 51
180.0
  0
ARC
  5
29F
330
1F
100
AcDbEntity
  8
1
  6
Continuous
 62
     7
100
AcDbCircle
 10
152.4534207377704
 20
96.47155206033452
 30
0.0
 40
25.99999999999999
100
AcDbArc
 50
-48.59037789072917
 51
-41.40962210927087
  0
ARC
  5
2A0
330
1F
100
AcDbEntity
  8
1
  6
Continuous
 62
     7
100
AcDbCircle
 10
167.9534207377704
 20
111.9715520603345
 30
0.0
 40
3.699999999999875
100
AcDbArc
 50
180.0
 51
-90.0
  0
ARC
  5
2A1
330
1F
100
AcDbEntity
  8
1
  6
Continuous
 62
     7
100
AcDbCircle
 10
152.4534207377704
 20
96.47155206033452
 30
0.0
 40
25.50000000000002
100
AcDbArc
 50
41.83247955489127
 51
48.16752044510866
  0
ARC
  5
2A2
330
1F
100
AcDbEntity
  8
1
  6
Continuous
 62
     7
100
AcDbCircle
 10
152.4534207377704
 20
96.47155206033452
 30
0.0
 40
25.99999999999997
100
AcDbArc
 50
41.40962210927078
 51
48.59037789072916
  0
ARC
  5
2A3
330
1F
100
AcDbEntity
  8
1
  6
Continuous
 62
     7
100
AcDbCircle
 10
167.9534207377704
 20
111.9715520603345
 30
0.0
 40
3.199999999999875
100
AcDbArc
 50
180.0
 51
-90.0
  0
ARC
  5
2A4
330
1F
100
AcDbEntity
  8
1
  6
Continuous
 62
     7
100
AcDbCircle
 10
-77.5465792622296
 20
96.47155206033452
 30
0.0
 40
25.99999999999995
100
AcDbArc
 50
131.4096221092708
 51
138.5903778907291
  0
ARC
  5
2A5
330
1F
100
AcDbEntity
  8
1
  6
Continuous
 62
     7
100
AcDbCircle
 10
-77.5465792622296
 20
96.47155206033452
 30
0.0
 40
26.0
100
AcDbArc
 50
-138.5903778907291
 51
-131.4096221092707
  0
ARC
  5
2A6
330
1F
100
AcDbEntity
  8
1
  6
Continuous
 62
     7
100
AcDbCircle
 10
-77.5465792622296
 20
96.47155206033452
 30
0.0
 40
26.0
100
AcDbArc
 50
-48.59037789072916
 51
-41.40962210927087
  0
ARC
  5
2A7
330
1F
100
AcDbEntity
  8
1
  6
Continuous
 62
     7
100
AcDbCircle
 10
-77.5465792622296
 20
96.47155206033452
 30
0.0
 40
26.00000000000003
100
AcDbArc
 50
41.40962210927095
 51
48.59037789072914
  0
ARC
  5
2A8
330
1F
100
AcDbEntity
  8
1
  6
Continuous
 62
     7
100
AcDbCircle
 10
152.4534207377704
 20
95.70771982995922
 30
0.0
 40
7.236167769624739
100
AcDbArc
 50
-52.61108306270319
 51
-127.3889169372966
  0
ARC
  5
2A9
330
1F
100
AcDbEntity
  8
1
  6
Continuous
 62
     7
100
AcDbCircle
 10
148.5294317266337
 20
90.5732971902068
 30
0.0
 40
0.7739711149937583
100
AcDbArc
 50
-127.3889169372881
 51
-32.20950515067859
  0
ARC
  5
2AA
330
1F
100
AcDbEntity
  8
1
  6
Continuous
 62
     7
100
AcDbCircle
 10
150.2213032547853
 20
89.50747680581327
 30
0.0
 40
1.22562943500565
100
AcDbArc
 50
-47.97132075872801
 51
147.7904948493211
  0
ARC
  5
2AB
330
1F
100
AcDbEntity
  8
1
  6
Continuous
 62
     7
100
AcDbCircle
 10
154.6855382207555
 20
89.50747680581327
 30
0.0
 40
1.225629435005754
100
AcDbArc
 50
32.20950515067887
 51
-132.028679241272
  0
ARC
  5
2AC
330
1F
100
AcDbEntity
  8
1
  6
Continuous
 62
     7
100
AcDbCircle
 10
156.377409748907
 20
90.5732971902068
 30
0.0
 40
0.7739711149938073
100
AcDbArc
 50
-147.7904948493181
 51
-52.6110830627069
  0
CIRCLE
  5
2AD
330
1F
100
AcDbEntity
  8
1
  6
Continuous
 62
     2
100
AcDbCircle
 10
152.4534207377704
 20
96.47155206033452
 30
0.0
 40
2.5
  0
CIRCLE
  5
2AE
330
1F
100
AcDbEntity
  8
1
  6
Continuous
 62
     2
100
AcDbCircle
 10
152.4534207377704
 20
96.47155206033452
 30
0.0
 40
2.0
  0
CIRCLE
  5
2AF
330
1F
100
AcDbEntity
  8
1
  6
Continuous
 62
     7
100
AcDbCircle
 10
136.9534207377704
 20
80.97155206033452
 30
0.0
 40
2.799999999999926
  0
CIRCLE
  5
2B0
330
1F
100
AcDbEntity
  8
1
  6
Continuous
 62
     7
100
AcDbCircle
 10
167.9534207377704
 20
80.97155206033452
 30
0.0
 40
2.800000000000011
  0
CIRCLE
  5
2B1
330
1F
100
AcDbEntity
  8
1
  6
Continuous
 62
     7
100
AcDbCircle
 10
167.9534207377704
 20
111.9715520603345
 30
0.0
 40
2.800000000000011
  0
CIRCLE
  5
2B2
330
1F
100
AcDbEntity
  8
1
  6
Continuous
 62
     7
100
AcDbCircle
 10
136.9534207377703
 20
111.9715520603345
 30
0.0
 40
2.800000000000011
  0
CIRCLE
  5
2B3
330
1F
100
AcDbEntity
  8
1
  6
Continuous
 62
     2
100
AcDbCircle
 10
-77.5465792622296
 20
96.47155206033452
 30
0.0
 40
2.0
  0
CIRCLE
  5
2B4
330
1F
100
AcDbEntity
  8
1
  6
Continuous
 62
     7
100
AcDbCircle
 10
-77.5465792622296
 20
96.47155206033452
 30
0.0
 40
2.5
  0
CIRCLE
  5
2B5
330
1F
100
AcDbEntity
  8
1
  6
Continuous
 62
     7
100
AcDbCircle
 10
-62.0465792622296
 20
111.9715520603345
 30
0.0
 40
1.200000000000003
  0
CIRCLE
  5
2B6
330
1F
100
AcDbEntity
  8
1
  6
Continuous
 62
     3
100
AcDbCircle
 10
-62.0465792622296
 20
111.9715520603345
 30
0.0
 40
1.5
  0
CIRCLE
  5
2B7
330
1F
100
AcDbEntity
  8
1
  6
Continuous
 62
     7
100
AcDbCircle
 10
-93.04657926222959
 20
80.97155206033452
 30
0.0
 40
1.199999999999989
  0
CIRCLE
  5
2B8
330
1F
100
AcDbEntity
  8
1
  6
Continuous
 62
     3
100
AcDbCircle
 10
-93.04657926222959
 20
80.97155206033452
 30
0.0
 40
1.5
  0
CIRCLE
  5
2B9
330
1F
100
AcDbEntity
  8
1
  6
Continuous
 62
     7
100
AcDbCircle
 10
-77.5465792622296
 20
96.47155206033452
 30
0.0
 40
6.5
  0
CIRCLE
  5
2BA
330
1F
100
AcDbEntity
  8
1
  6
Continuous
 62
     7
100
AcDbCircle
 10
-77.5465792622296
 20
96.47155206033452
 30
0.0
 40
11.0
  0
CIRCLE
  5
2BB
330
1F
100
AcDbEntity
  8
1
  6
Continuous
 62
     7
100
AcDbCircle
 10
-77.5465792622296
 20
96.47155206033452
 30
0.0
 40
13.2
  0
CIRCLE
  5
2BC
330
1F
100
AcDbEntity
  8
1
  6
Continuous
 62
     7
100
AcDbCircle
 10
-77.5465792622296
 20
96.47155206033452
 30
0.0
 40
11.3
  0
CIRCLE
  5
2BD
330
1F
100
AcDbEntity
  8
1
  6
Continuous
 62
     7
100
AcDbCircle
 10
152.4534207377704
 20
96.47155206033452
 30
0.0
 40
8.0
  0
CIRCLE
  5
2BE
330
1F
100
AcDbEntity
  8
1
  6
Continuous
 62
     7
100
AcDbCircle
 10
150.2213032547853
 20
89.50747680581327
 30
0.0
 40
0.5832850249457806
  0
CIRCLE
  5
2BF
330
1F
100
AcDbEntity
  8
1
  6
Continuous
 62
     7
100
AcDbCircle
 10
154.6855382207555
 20
89.50747680581327
 30
0.0
 40
0.5832850249457806
  0
ARC
  5
2C0
330
1F
100
AcDbEntity
  8
1
  6
Continuous
 62
     7
100
AcDbCircle
 10
155.0310731505329
 20
116.4715520603345
 30
0.0
 40
0.5
100
AcDbArc
 50
0.0
 51
90.0
  0
ARC
  5
2C1
330
1F
100
AcDbEntity
  8
1
  6
Continuous
 62
     7
100
AcDbCircle
 10
150.0310731505329
 20
116.4715520603345
 30
0.0
 40
0.5
100
AcDbArc
 50
90.0
 51
180.0
  0
ARC
  5
2C2
330
1F
100
AcDbEntity
  8
1
  6
Continuous
 62
     7
100
AcDbCircle
 10
-75.0465792622296
 20
116.4715520603345
 30
0.0
 40
0.5
100
AcDbArc
 50
0.0
 51
90.0
  0
ARC
  5
2C3
330
1F
100
AcDbEntity
  8
1
  6
Continuous
 62
     7
100
AcDbCircle
 10
-80.0465792622296
 20
116.4715520603345
 30
0.0
 40
0.5
100
AcDbArc
 50
90.0
 51
180.0
  0
ARC
  5
2C4
330
1F
100
AcDbEntity
  8
1
  6
Continuous
 62
     7
100
AcDbCircle
 10
66.5165799476807
 20
116.4715520603345
 30
0.0
 40
0.5
100
AcDbArc
 50
90.0
 51
180.0
  0
ARC
  5
2C5
330
1F
100
AcDbEntity
  8
1
  6
Continuous
 62
     7
100
AcDbCircle
 10
73.51657994768068
 20
116.4715520603345
 30
0.0
 40
0.5
100
AcDbArc
 50
0.0
 51
90.0
  0
ARC
  5
2C6
330
1F
100
AcDbEntity
  8
1
  6
Continuous
 62
     7
100
AcDbCircle
 10
73.03397858893041
 20
110.2643827452739
 30
0.0
 40
0.9999999999999535
100
AcDbArc
 50
-84.99999999999999
 51
-25.26416482102667
  0
ARC
  5
2C7
330
1F
100
AcDbEntity
  8
1
  6
Continuous
 62
     7
100
AcDbCircle
 10
73.03397858893041
 20
113.6787213753951
 30
0.0
 40
1.000000000000032
100
AcDbArc
 50
25.26416482102632
 51
85.00000000000047
  0
ARC
  5
2C8
330
1F
100
AcDbEntity
  8
1
  6
Continuous
 62
     7
100
AcDbCircle
 10
73.03397858893041
 20
79.26438274527389
 30
0.0
 40
0.9999999999999971
100
AcDbArc
 50
-84.99999999999939
 51
-25.26416482102412
  0
ARC
  5
2C9
330
1F
100
AcDbEntity
  8
1
  6
Continuous
 62
     7
100
AcDbCircle
 10
73.03397858893042
 20
82.67872137539513
 30
0.0
 40
1.000000000000001
100
AcDbArc
 50
25.26416482102446
 51
85.00000000000018
  0
ARC
  5
2CA
330
1F
100
AcDbEntity
  8
1
  6
Continuous
 62
     7
100
AcDbCircle
 10
72.21657994768067
 20
109.0948904390081
 30
0.0
 40
0.1999999999999886
100
AcDbArc
 50
180.0
 51
-104.9999999999957
  0
ARC
  5
2CB
330
1F
100
AcDbEntity
  8
1
  6
Continuous
 62
     7
100
AcDbCircle
 10
72.21657994768067
 20
83.84821368166091
 30
0.0
 40
0.1999999999999975
100
AcDbArc
 50
104.9999999999947
 51
180.0
  0
SOLID
  5
2CC
330
1F
100
AcDbEntity
  8
1
 62
     2
100
AcDbTrace
 10
-91.20952941973978
 20
76.29848352534701
 30
0.0
 11
-92.09452649681162
 21
76.041448898296
 31
0.0
 12
-92.62821387104343
 22
79.53107630578062
 32
0.0
 13
-92.62821387104343
 23
79.53107630578062
 33
0.0
  0
LEADER
  5
2CD
330
1F
100
AcDbEntity
  8
1
  6
Continuous
 62
     2
100
AcDbLeader
  3
Standard
 71
     0
 76
     3
 10
-92.62821387104343
 20
79.53107630578062
 30
0.0
 10
-85.0442695899974
 20
53.4187637414904
 30
0.0
 10
-80.0442695899974
 20
53.4187637414904
 30
0.0
  0
SOLID
  5
2CE
330
1F
100
AcDbEntity
  8
1
 62
     4
100
AcDbTrace
 10
22.27907994768069
 20
101.5965520603345
 30
0.0
 11
20.42356985326862
 21
98.97155206033452
 31
0.0
 12
24.13459004209276
 22
98.97155206033452
 32
0.0
 13
24.13459004209276
 23
98.97155206033452
 33
0.0
  0
LEADER
  5
2CF
330
1F
100
AcDbEntity
  8
1
  6
Continuous
 62
     4
100
AcDbLeader
  3
Standard
 71
     0
 76
     2
 10
22.27907994768069
 20
98.97155206033452
 30
0.0
 10
22.27907994768069
 20
111.6473138132688
 30
0.0
  0
SOLID
  5
2D0
330
1F
100
AcDbEntity
  8
1
 62
     2
100
AcDbTrace
 10
174.1533655368723
 20
83.34856249336181
 30
0.0
 11
173.3185569058067
 21
82.95820217848922
 31
0.0
 12
172.2534207377704
 22
86.32388288230281
 32
0.0
 13
172.2534207377704
 23
86.32388288230281
 33
0.0
  0
LEADER
  5
2D1
330
1F
100
AcDbEntity
  8
1
  6
Continuous
 62
     2
100
AcDbLeader
  3
Standard
 71
     0
 76
     3
 10
172.2534207377704
 20
86.32388288230281
 30
0.0
 10
179.1794835703444
 20
71.51208769809654
 30
0.0
 10
184.1794835703444
 20
71.51208769809654
 30
0.0
  0
SOLID
  5
2D2
330
1F
100
AcDbEntity
  8
1
 62
     4
100
AcDbTrace
 10
11.8182962061248
 20
110.9715520603345
 30
0.0
 11
12.73986368923658
 21
110.9715520603345
 31
0.0
 12
12.27907994768069
 22
107.4715520603345
 32
0.0
 13
12.27907994768069
 23
107.4715520603345
 33
0.0
  0
LEADER
  5
2D3
330
1F
100
AcDbEntity
  8
1
  6
Continuous
 62
     4
100
AcDbLeader
  3
Standard
 71
     0
 76
     2
 10
12.27907994768069
 20
107.4715520603345
 30
0.0
 10
12.27907994768069
 20
150.4578739364903
 30
0.0
  0
SOLID
  5
2D4
330
1F
100
AcDbEntity
  8
1
 62
     2
100
AcDbTrace
 10
66.13385518025305
 20
163.5406085894814
 30
0.0
 11
66.97090497967358
 21
163.9261397285856
 31
0.0
 12
68.0165799476807
 22
160.5543619307814
 32
0.0
 13
68.0165799476807
 23
160.5543619307814
 33
0.0
  0
LEADER
  5
2D5
330
1F
100
AcDbEntity
  8
1
  6
Continuous
 62
     2
100
AcDbLeader
  3
Standard
 71
     0
 76
     3
 10
68.0165799476807
 20
160.5543619307814
 30
0.0
 10
57.50763694823409
 20
183.370958925375
 30
0.0
 10
52.50763694823409
 20
183.370958925375
 30
0.0
  0
DIMENSION
  5
2E1
330
1F
100
AcDbEntity
  8
1
100
AcDbDimension
  2
*D1
 10
90.76657994768068
 20
115.9715520603345
 30
0.0
 11
87.01657994768068
 21
140.9715520603345
 31
0.0
 70
    32
  1
300MIN.
 71
     5
 42
-1.0
 53
90.0
  3
ME10_DIM_10
100
AcDbAlignedDimension
 13
72.01657994768068
 23
165.9715520603345
 33
0.0
 14
74.01657994768068
 24
115.9715520603345
 34
0.0
 50
90.0
100
AcDbRotatedDimension
  0
DIMENSION
  5
2ED
330
1F
100
AcDbEntity
  8
1
100
AcDbDimension
  2
*D2
 10
12.27907994768069
 20
107.4715520603345
 30
0.0
 11
7.21657994768069
 21
96.47155206033452
 31
0.0
 70
    33
  1
<>
 71
     5
 42
-1.0
 53
90.0
  3
ME10_DIM_11
100
AcDbAlignedDimension
 13
52.41657994768069
 23
85.47155206033452
 33
0.0
 14
52.41657994768069
 24
107.4715520603345
 34
0.0
  0
DIMENSION
  5
2F8
330
1F
100
AcDbEntity
  8
1
100
AcDbDimension
  2
*D3
 10
-39.2965792622296
 20
111.9715520603345
 30
0.0
 11
-43.0465792622296
 21
96.47155206033452
 31
0.0
 70
    32
  1
<>
 71
     5
 42
-1.0
 53
90.0
  3
ME10_DIM_12
100
AcDbAlignedDimension
 13
-59.39657926222959
 23
80.97155206033452
 33
0.0
 14
-59.39657926222959
 24
111.9715520603345
 34
0.0
 50
90.0
100
AcDbRotatedDimension
  0
DIMENSION
  5
303
330
1F
100
AcDbEntity
  8
1
100
AcDbDimension
  2
*D4
 10
-93.04657926222959
 20
127.2215520603345
 30
0.0
 11
-77.54657926222959
 21
130.9715520603345
 31
0.0
 70
    32
  1
<>
 71
     5
 42
-1.0
 53
0.00013888888889
  3
ME10_DIM_13
100
AcDbAlignedDimension
 13
-62.0465792622296
 23
114.6215520603345
 33
0.0
 14
-93.04657926222959
 24
114.6215520603345
 34
0.0
100
AcDbRotatedDimension
  0
DIMENSION
  5
310
330
1F
100
AcDbEntity
  8
1
100
AcDbDimension
  2
*D5
 10
49.21657994768068
 20
125.9090520603345
 30
0.0
 11
39.7643337703473
 21
130.9715520603345
 31
0.0
 70
    32
  1
<>
 71
     5
 42
-1.0
 53
0.00013888888889
  3
ME10_DIM_14
100
AcDbAlignedDimension
 13
54.21657994768069
 23
115.5715520603345
 33
0.0
 14
49.21657994768068
 24
113.4715520603345
 34
0.0
100
AcDbRotatedDimension
  0
DIMENSION
  5
31D
330
1F
100
AcDbEntity
  8
1
100
AcDbDimension
  2
*D6
 10
22.27907994768069
 20
93.97155206033452
 30
0.0
 11
16.1455175126423
 21
96.47155206033452
 31
0.0
 70
    33
  1
<>
 71
     5
 42
-1.0
 53
90.0
  3
ME10_DIM_15
100
AcDbAlignedDimension
 13
42.71657994768069
 23
98.97155206033452
 33
0.0
 14
42.71657994768069
 24
93.97155206033452
 34
0.0
  0
DIMENSION
  5
32A
330
1F
100
AcDbEntity
  8
1
100
AcDbDimension
  2
*D7
 10
54.21657994768069
 20
58.22155206033452
 30
0.0
 11
63.3935493933933
 21
61.97155206033452
 31
0.0
 70
    32
  1
<>
 71
     5
 42
-1.0
 53
0.00013888888889
  3
ME10_DIM_16
100
AcDbAlignedDimension
 13
52.21657994768069
 23
85.67155206033452
 33
0.0
 14
54.21657994768069
 24
77.37155206033452
 34
0.0
100
AcDbRotatedDimension
  0
DIMENSION
  5
336
330
1F
100
AcDbEntity
  8
1
100
AcDbDimension
  2
*D8
 10
42.21657994768069
 20
48.22155206033452
 30
0.0
 11
33.4742822294848
 21
51.97155206033452
 31
0.0
 70
    32
  1
<>
 71
     5
 42
-1.0
 53
0.00013888888889
  3
ME10_DIM_17
100
AcDbAlignedDimension
 13
54.21657994768069
 23
77.37155206033452
 33
0.0
 14
42.21657994768069
 24
94.47155206033452
 34
0.0
100
AcDbRotatedDimension
  0
DIMENSION
  5
344
330
1F
100
AcDbEntity
  8
1
100
AcDbDimension
  2
*D9
 10
90.76657994768068
 20
169.2260702728155
 30
0.0
 11
87.01657994768068
 21
182.769951409614
 31
0.0
 70
    32
  1
9.6MAX.
 71
     5
 42
-1.0
 53
90.0
  3
ME10_DIM_18
100
AcDbAlignedDimension
 13
72.01657994768068
 23
165.9715520603345
 33
0.0
 14
71.4435037248597
 24
169.2260702728155
 34
0.0
 50
90.0
100
AcDbRotatedDimension
  0
DIMENSION
  5
350
330
1F
100
AcDbEntity
  8
1
100
AcDbDimension
  2
*D11
 10
54.21657994768069
 20
48.22155206033452
 30
0.0
 11
64.36657994768069
 21
51.97155206033452
 31
0.0
 70
    32
  1
22 MAX
 71
     5
 42
-1.0
 53
0.00013888888889
  3
ME10_DIM_19
100
AcDbAlignedDimension
 13
74.51657994768068
 23
77.47155206033452
 33
0.0
 14
54.21657994768069
 24
77.37155206033452
 34
0.0
100
AcDbRotatedDimension
  0
DIMENSION
  5
35B
330
1F
100
AcDbEntity
  8
1
100
AcDbDimension
  2
*D12
 10
-29.2965792622296
 20
115.9715520603345
 30
0.0
 11
-33.0465792622296
 21
96.47155206033452
 31
0.0
 70
    33
  1
<>
 71
     5
 42
-1.0
 53
90.0
  3
ME10_DIM_20
100
AcDbAlignedDimension
 13
-60.34919574030977
 23
76.97155206033452
 33
0.0
 14
-60.34919574030977
 24
115.9715520603345
 34
0.0
  0
DIMENSION
  5
366
330
1F
100
AcDbEntity
  8
1
100
AcDbDimension
  2
*D13
 10
-97.0465792622296
 20
137.2215520603345
 30
0.0
 11
-77.5465792622296
 21
140.9715520603345
 31
0.0
 70
    33
  1
<>
 71
     5
 42
-1.0
 53
0.00013888888889
  3
ME10_DIM_21
100
AcDbAlignedDimension
 13
-58.0465792622296
 23
113.6689355822544
 33
0.0
 14
-97.0465792622296
 24
113.6689355822544
 34
0.0
  0
ENDSEC
  0
SECTION
  2
OBJECTS
  0
DICTIONARY
  5
C
330
0
100
AcDbDictionary
281
     1
  3
ACAD_GROUP
350
D
  3
ACAD_LAYOUT
350
1A
  3
ACAD_MLINESTYLE
350
17
  3
ACAD_PLOTSETTINGS
350
19
  3
ACAD_PLOTSTYLENAME
350
E
  0
DICTIONARY
  5
D
102
{ACAD_REACTORS
330
C
102
}
330
C
100
AcDbDictionary
281
     1
  0
DICTIONARY
  5
1A
102
{ACAD_REACTORS
330
C
102
}
330
C
100
AcDbDictionary
281
     1
  3
Layout1
350
1E
  3
Layout2
350
26
  3
Model
350
22
  0
DICTIONARY
  5
17
102
{ACAD_REACTORS
330
C
102
}
330
C
100
AcDbDictionary
281
     1
  3
Standard
350
18
  0
DICTIONARY
  5
19
102
{ACAD_REACTORS
330
C
102
}
330
C
100
AcDbDictionary
281
     1
  0
ACDBDICTIONARYWDFLT
  5
E
102
{ACAD_REACTORS
330
C
102
}
330
C
100
AcDbDictionary
281
     1
  3
Normal
350
F
100
AcDbDictionaryWithDefault
340
F
  0
LAYOUT
  5
1E
102
{ACAD_REACTORS
330
1A
102
}
330
1A
100
AcDbPlotSettings
  1

  2

  4

  6

 40
0.0
 41
0.0
 42
0.0
 43
0.0
 44
0.0
 45
0.0
 46
0.0
 47
0.0
 48
0.0
 49
0.0
140
0.0
141
0.0
142
1.0
143
1.0
 70
   688
 72
     0
 73
     0
 74
     5
  7

 75
    16
147
1.0
148
0.0
149
0.0
100
AcDbLayout
  1
Layout1
 70
     1
 71
     1
 10
0.0
 20
0.0
 11
0.0
 21
0.0
 12
0.0
 22
0.0
 32
0.0
 14
0.0
 24
0.0
 34
0.0
 15
0.0
 25
0.0
 35
0.0
146
0.0
 13
0.0
 23
0.0
 33
0.0
 16
1.0
 26
0.0
 36
0.0
 17
0.0
 27
1.0
 37
0.0
 76
     0
330
1B
  0
LAYOUT
  5
26
102
{ACAD_REACTORS
330
1A
102
}
330
1A
100
AcDbPlotSettings
  1

  2

  4

  6

 40
0.0
 41
0.0
 42
0.0
 43
0.0
 44
0.0
 45
0.0
 46
0.0
 47
0.0
 48
0.0
 49
0.0
140
0.0
141
0.0
142
1.0
143
1.0
 70
   688
 72
     0
 73
     0
 74
     5
  7

 75
    16
147
1.0
148
0.0
149
0.0
100
AcDbLayout
  1
Layout2
 70
     1
 71
     2
 10
0.0
 20
0.0
 11
0.0
 21
0.0
 12
0.0
 22
0.0
 32
0.0
 14
0.0
 24
0.0
 34
0.0
 15
0.0
 25
0.0
 35
0.0
146
0.0
 13
0.0
 23
0.0
 33
0.0
 16
1.0
 26
0.0
 36
0.0
 17
0.0
 27
1.0
 37
0.0
 76
     0
330
23
  0
LAYOUT
  5
22
102
{ACAD_REACTORS
330
1A
102
}
330
1A
100
AcDbPlotSettings
  1

  2

  4

  6

 40
0.0
 41
0.0
 42
0.0
 43
0.0
 44
0.0
 45
0.0
 46
0.0
 47
0.0
 48
0.0
 49
0.0
140
0.0
141
0.0
142
1.0
143
1.0
 70
  1712
 72
     0
 73
     0
 74
     0
  7

 75
     0
147
1.0
148
0.0
149
0.0
100
AcDbLayout
  1
Model
 70
     1
 71
     0
 10
0.0
 20
0.0
 11
0.0
 21
0.0
 12
0.0
 22
0.0
 32
0.0
 14
-103.5465792622296
 24
46.72155206033452
 34
0.0
 15
210.7928514014755
 25
194.5836114305898
 35
0.0
146
0.0
 13
0.0
 23
0.0
 33
0.0
 16
1.0
 26
0.0
 36
0.0
 17
0.0
 27
1.0
 37
0.0
 76
     0
330
1F
  0
MLINESTYLE
  5
18
102
{ACAD_REACTORS
330
17
102
}
330
17
100
AcDbMlineStyle
  2
Standard
 70
     0
  3

 62
   256
 51
90.0
 52
90.0
 71
     2
 49
0.5
 62
   256
  6
BYLAYER
 49
-0.5
 62
   256
  6
BYLAYER
  0
ACDBPLACEHOLDER
  5
F
102
{ACAD_REACTORS
330
E
102
}
330
E
  0
ENDSEC
  0
EOF
